<?xml version="1.0" standalone="no"?>
<!DOCTYPE svg PUBLIC "-//W3C//DTD SVG 1.1//EN" "http://www.w3.org/Graphics/SVG/1.1/DTD/svg11.dtd" >
<svg>
<metadata>
Created by FontForge 20120731 at Fri May  5 11:17:42 2017
 By www-data
Digitized data copyright 2012-2016, The Mozilla Foundation and Telefonica S.A.
</metadata>
<defs>
<font id="FiraSansExtraCondensed-ThinItalic" horiz-adv-x="460" >
  <font-face 
    font-family="Fira Sans Extra Condensed Thin"
    font-weight="250"
    font-style="italic"
    font-stretch="condensed"
    units-per-em="1000"
    panose-1="2 11 3 3 5 0 0 2 0 4"
    ascent="800"
    descent="-200"
    x-height="519"
    cap-height="681"
    bbox="-616 -350 1417 1050"
    underline-thickness="50"
    underline-position="-50"
    slope="-8"
    unicode-range="U+000D-FEFF"
  />
<missing-glyph horiz-adv-x="666" 
d="M654 1050l-198 -1400h-420l198 1400h420zM610 1012h-341l-188 -1324h341zM424 426.5q23 -24.5 23 -65.5q0 -8 -2 -26q-7 -53 -33 -81.5t-77 -35.5l-7 -46q-1 -11 -9.5 -17t-17.5 -6q-11 0 -17.5 7t-5.5 18l11 83q53 3 75 20t28 58q1 7 1 20q0 23 -11.5 35.5t-40.5 12.5
t-53 -12l-13 -2q-12 0 -18 7t-4 17q2 19 32.5 28.5t64.5 9.5q51 0 74 -24.5zM316.5 111.5q8.5 -8.5 8.5 -22.5q0 -17 -11 -29t-27 -12t-24.5 11t-6.5 27q1 15 12 24.5t26 9.5q14 0 22.5 -8.5z" />
    <glyph glyph-name="fi" unicode="fi" horiz-adv-x="458" 
d="M326 0h-22l70 499h-214l-70 -502q-8 -58 -22.5 -92.5t-37.5 -56t-62 -43.5l-7 16q34 20 54 39t32.5 51t20.5 86l70 502h-74l2 20h75l14 98q8 58 41.5 89t86.5 31q55 0 105 -40l-12 -15q-45 35 -95 35q-91 0 -105 -103l-13 -95h236z" />
    <glyph glyph-name="fl" unicode="fl" horiz-adv-x="480" 
d="M404 18l6 -18q-24 -10 -42 -10q-25 0 -39 14.5t-14 43.5q0 11 1 17l89 624q-32 14 -60 21t-61 7q-94 0 -108 -103l-13 -95h119l-7 -20h-115l-70 -502q-8 -58 -22.5 -92.5t-37.5 -56t-62 -43.5l-7 16q34 20 54 39t32.5 51t20.5 86l70 502h-74l2 20h75l14 98q8 58 42 89
t88 31q63 0 123 -31l21 3l-91 -645q-1 -6 -1 -16q0 -37 34 -37q14 0 33 7z" />
    <glyph glyph-name=".notdef" horiz-adv-x="666" 
d="M654 1050l-198 -1400h-420l198 1400h420zM610 1012h-341l-188 -1324h341zM424 426.5q23 -24.5 23 -65.5q0 -8 -2 -26q-7 -53 -33 -81.5t-77 -35.5l-7 -46q-1 -11 -9.5 -17t-17.5 -6q-11 0 -17.5 7t-5.5 18l11 83q53 3 75 20t28 58q1 7 1 20q0 23 -11.5 35.5t-40.5 12.5
t-53 -12l-13 -2q-12 0 -18 7t-4 17q2 19 32.5 28.5t64.5 9.5q51 0 74 -24.5zM316.5 111.5q8.5 -8.5 8.5 -22.5q0 -17 -11 -29t-27 -12t-24.5 11t-6.5 27q1 15 12 24.5t26 9.5q14 0 22.5 -8.5z" />
    <glyph glyph-name="nonmarkingreturn" unicode="&#xd;" horiz-adv-x="240" 
 />
    <glyph glyph-name="space" unicode=" " horiz-adv-x="240" 
 />
    <glyph glyph-name="A" unicode="A" horiz-adv-x="470" 
d="M382 0l-28 203h-254l-85 -203h-24l288 681h29l98 -681h-24zM109 224h243l-60 438z" />
    <glyph glyph-name="Aacute" unicode="&#xc1;" horiz-adv-x="470" 
d="M382 0l-28 203h-254l-85 -203h-24l288 681h29l98 -681h-24zM109 224h243l-60 438zM383 859l10 -23l-158 -72l-8 15z" />
    <glyph glyph-name="Abreve" unicode="&#x102;" horiz-adv-x="470" 
d="M382 0l-28 203h-254l-85 -203h-24l288 681h29l98 -681h-24zM109 224h243l-60 438zM244.5 793.5q-21.5 22.5 -23.5 54.5l16 2q4 -27 20.5 -42.5t46.5 -15.5q29 0 50 16t33 43l16 -5q-11 -32 -37.5 -53.5t-62.5 -21.5q-37 0 -58.5 22.5z" />
    <glyph glyph-name="uni1EAE" unicode="&#x1eae;" horiz-adv-x="470" 
d="M414 942l-103 -113l-12 10l98 119zM244.5 759.5q-21.5 22.5 -23.5 54.5l16 2q4 -27 20.5 -42.5t46.5 -15.5q29 0 50 16t33 43l16 -5q-11 -32 -37.5 -53.5t-62.5 -21.5q-37 0 -58.5 22.5zM279 681h29l98 -681h-24l-28 203h-254l-85 -203h-24zM109 224h243l-60 438z" />
    <glyph glyph-name="uni1EB6" unicode="&#x1eb6;" horiz-adv-x="470" 
d="M382 0l-28 203h-254l-85 -203h-24l288 681h29l98 -681h-24zM109 224h243l-60 438zM244.5 793.5q-21.5 22.5 -23.5 54.5l16 2q4 -27 20.5 -42.5t46.5 -15.5q29 0 50 16t33 43l16 -5q-11 -32 -37.5 -53.5t-62.5 -21.5q-37 0 -58.5 22.5zM197 -104q5 -5 5 -12q0 -9 -5.5 -15
t-15.5 -6q-8 0 -12.5 4.5t-4.5 12.5q0 9 6 15t15 6q7 0 12 -5z" />
    <glyph glyph-name="uni1EB0" unicode="&#x1eb0;" horiz-adv-x="470" 
d="M321 837l-13 -8l-72 116l21 13zM244.5 759.5q-21.5 22.5 -23.5 54.5l16 2q4 -27 20.5 -42.5t46.5 -15.5q29 0 50 16t33 43l16 -5q-11 -32 -37.5 -53.5t-62.5 -21.5q-37 0 -58.5 22.5zM382 0l-28 203h-254l-85 -203h-24l288 681h29l98 -681h-24zM109 224h243l-60 438z" />
    <glyph glyph-name="uni1EB2" unicode="&#x1eb2;" horiz-adv-x="470" 
d="M382 0l-28 203h-254l-85 -203h-24l288 681h29l98 -681h-24zM109 224h243l-60 438zM244.5 759.5q-21.5 22.5 -23.5 54.5l16 2q4 -27 20.5 -42.5t46.5 -15.5q29 0 50 16t33 43l16 -5q-11 -32 -37.5 -53.5t-62.5 -21.5q-37 0 -58.5 22.5zM301 861q64 4 64 57q0 41 -37 41
q-13 0 -23.5 -3.5t-23.5 -10.5l-7 17q26 17 55 17q27 0 43 -16.5t16 -44.5q0 -31 -18 -49t-50 -23l-5 -42h-21z" />
    <glyph glyph-name="uni1EB4" unicode="&#x1eb4;" horiz-adv-x="470" 
d="M434 908q-31 -52 -66 -52q-14 0 -25.5 6t-27.5 18q-12 10 -21 14.5t-19 4.5q-15 0 -25 -7.5t-28 -27.5l-13 9q18 23 33.5 34.5t32.5 11.5q12 0 22.5 -5.5t25.5 -16.5q13 -10 23 -15.5t21 -5.5q14 0 26 9.5t28 31.5zM364.5 758.5q-26.5 -21.5 -62.5 -21.5
q-37 0 -58.5 22.5t-23.5 54.5l16 2q4 -27 20.5 -42.5t46.5 -15.5q29 0 50 16t33 43l16 -5q-11 -32 -37.5 -53.5zM279 681h29l98 -681h-24l-28 203h-254l-85 -203h-24zM109 224h243l-60 438z" />
    <glyph glyph-name="uni01CD" unicode="&#x1cd;" horiz-adv-x="470" 
d="M382 0l-28 203h-254l-85 -203h-24l288 681h29l98 -681h-24zM109 224h243l-60 438zM413 862l10 -12l-112 -90h-13l-85 90l12 12l81 -78z" />
    <glyph glyph-name="Acircumflex" unicode="&#xc2;" horiz-adv-x="470" 
d="M382 0l-28 203h-254l-85 -203h-24l288 681h29l98 -681h-24zM109 224h243l-60 438zM207 766l-10 13l112 90h12l86 -90l-12 -13l-81 79z" />
    <glyph glyph-name="uni1EA4" unicode="&#x1ea4;" horiz-adv-x="470" 
d="M482 937l-103 -113l-12 10l98 119zM311 816l-107 -79l-10 13l112 90h12l86 -90l-12 -13zM279 681h29l98 -681h-24l-28 203h-254l-85 -203h-24zM109 224h243l-60 438z" />
    <glyph glyph-name="uni1EAC" unicode="&#x1eac;" horiz-adv-x="470" 
d="M382 0l-28 203h-254l-85 -203h-24l288 681h29l98 -681h-24zM109 224h243l-60 438zM207 766l-10 13l112 90h12l86 -90l-12 -13l-81 79zM197 -104q5 -5 5 -12q0 -9 -5.5 -15t-15.5 -6q-8 0 -12.5 4.5t-4.5 12.5q0 9 6 15t15 6q7 0 12 -5z" />
    <glyph glyph-name="uni1EA6" unicode="&#x1ea6;" horiz-adv-x="470" 
d="M246 832l-13 -8l-72 116l21 13zM203 737l-10 13l112 90h12l86 -90l-12 -13l-81 79zM382 0l-28 203h-254l-85 -203h-24l288 681h29l98 -681h-24zM109 224h243l-60 438z" />
    <glyph glyph-name="uni1EA8" unicode="&#x1ea8;" horiz-adv-x="470" 
d="M382 0l-28 203h-254l-85 -203h-24l288 681h29l98 -681h-24zM109 224h243l-60 438zM202 737l-10 13l112 90h12l86 -90l-12 -13l-81 79zM387 861q64 4 64 57q0 41 -37 41q-13 0 -23.5 -3.5t-23.5 -10.5l-7 17q26 17 55 17q27 0 43 -16.5t16 -44.5q0 -31 -18 -49t-50 -23
l-5 -42h-21z" />
    <glyph glyph-name="uni1EAA" unicode="&#x1eaa;" horiz-adv-x="470" 
d="M246 914.5q-10 -7.5 -28 -27.5l-13 9q18 23 33.5 34.5t32.5 11.5q12 0 22.5 -5.5t25.5 -16.5q13 -10 23 -15.5t21 -5.5q14 0 26 9.5t28 31.5l13 -9q-31 -52 -66 -52q-14 0 -25.5 6t-27.5 18q-12 10 -21 14.5t-19 4.5q-15 0 -25 -7.5zM308 816l-107 -79l-10 13l112 90h12
l86 -90l-12 -13zM279 681h29l98 -681h-24l-28 203h-254l-85 -203h-24zM109 224h243l-60 438z" />
    <glyph glyph-name="uni0200" unicode="&#x200;" horiz-adv-x="470" 
d="M382 0l-28 203h-254l-85 -203h-24l288 681h29l98 -681h-24zM109 224h243l-60 438zM226 917l41 -132l-18 -7l-48 129zM318 916l37 -127l-18 -7l-44 124z" />
    <glyph glyph-name="Adieresis" unicode="&#xc4;" horiz-adv-x="470" 
d="M382 0l-28 203h-254l-85 -203h-24l288 681h29l98 -681h-24zM109 224h243l-60 438zM229.5 804q-4.5 5 -4.5 12q0 9 5.5 15t14.5 6q7 0 12 -4.5t5 -12.5q0 -9 -6 -15t-15 -6q-7 0 -11.5 5zM368 804q-5 5 -5 12q0 9 5.5 15t15.5 6q7 0 11.5 -4.5t4.5 -12.5q0 -9 -5.5 -15
t-14.5 -6q-7 0 -12 5z" />
    <glyph glyph-name="uni01DE" unicode="&#x1de;" horiz-adv-x="470" 
d="M382 0l-28 203h-254l-85 -203h-24l288 681h29l98 -681h-24zM109 224h243l-60 438zM218.5 747q-4.5 5 -4.5 12q0 9 5.5 15t14.5 6q7 0 12 -4.5t5 -12.5q0 -9 -6 -15t-15 -6q-7 0 -11.5 5zM357 747q-5 5 -5 12q0 9 5.5 15t15.5 6q7 0 11.5 -4.5t4.5 -12.5q0 -9 -5.5 -15
t-14.5 -6q-7 0 -12 5zM396 850h-173l3 21h173z" />
    <glyph glyph-name="uni0226" unicode="&#x226;" horiz-adv-x="470" 
d="M382 0l-28 203h-254l-85 -203h-24l288 681h29l98 -681h-24zM109 224h243l-60 438zM297 816q-5 5 -5 12q0 9 5.5 15t15.5 6q8 0 12.5 -4.5t4.5 -12.5q0 -9 -6 -15t-15 -6q-7 0 -12 5z" />
    <glyph glyph-name="uni1EA0" unicode="&#x1ea0;" horiz-adv-x="470" 
d="M382 0l-28 203h-254l-85 -203h-24l288 681h29l98 -681h-24zM109 224h243l-60 438zM197 -104q5 -5 5 -12q0 -9 -5.5 -15t-15.5 -6q-8 0 -12.5 4.5t-4.5 12.5q0 9 6 15t15 6q7 0 12 -5z" />
    <glyph glyph-name="uni01E0" unicode="&#x1e0;" horiz-adv-x="470" 
d="M382 0l-28 203h-254l-85 -203h-24l288 681h29l98 -681h-24zM109 224h243l-60 438zM289 752q-5 5 -5 12q0 9 5.5 15t15.5 6q8 0 12.5 -4.5t4.5 -12.5q0 -9 -6 -15t-15 -6q-7 0 -12 5zM398 849h-173l3 21h173z" />
    <glyph glyph-name="Agrave" unicode="&#xc0;" horiz-adv-x="470" 
d="M382 0l-28 203h-254l-85 -203h-24l288 681h29l98 -681h-24zM109 224h243l-60 438zM256 858l131 -80l-9 -14l-137 72z" />
    <glyph glyph-name="uni1EA2" unicode="&#x1ea2;" horiz-adv-x="470" 
d="M382 0l-28 203h-254l-85 -203h-24l288 681h29l98 -681h-24zM109 224h243l-60 438zM304 839q64 4 64 57q0 41 -37 41q-13 0 -23.5 -3.5t-23.5 -10.5l-7 17q26 17 55 17q27 0 43 -16.5t16 -44.5q0 -31 -18 -49t-50 -23l-5 -42h-21z" />
    <glyph glyph-name="uni0202" unicode="&#x202;" horiz-adv-x="470" 
d="M382 0l-28 203h-254l-85 -203h-24l288 681h29l98 -681h-24zM109 224h243l-60 438zM217 802q12 38 38 61.5t62 23.5q37 0 59 -24.5t23 -62.5l-16 -2q-8 68 -67 68q-58 0 -85 -69z" />
    <glyph glyph-name="uni2C6D" unicode="&#x2c6d;" horiz-adv-x="545" 
d="M416 63q0 -20 6 -33.5t22 -22.5l-6 -17q-43 17 -43 75q0 7 2 27q-65 -102 -163 -102q-77 0 -121.5 65t-44.5 189q0 114 33.5 217t95.5 166.5t143 63.5q86 0 128 -93l13 83h20l-82 -584q-3 -18 -3 -34zM401 128l62 440q-22 52 -51.5 77t-72.5 25q-75 0 -131.5 -62
t-86.5 -160.5t-30 -204.5q0 -115 38.5 -173t104.5 -58q100 0 167 116z" />
    <glyph glyph-name="Amacron" unicode="&#x100;" horiz-adv-x="470" 
d="M382 0l-28 203h-254l-85 -203h-24l288 681h29l98 -681h-24zM109 224h243l-60 438zM398 811h-173l3 21h173z" />
    <glyph glyph-name="Aogonek" unicode="&#x104;" horiz-adv-x="470" 
d="M298 -168.5q13 -12.5 36 -12.5q18 0 46 6l-5 -21q-24 -7 -43 -7q-31 0 -50.5 19t-19.5 51q0 45 28.5 77t90.5 61l-27 198h-254l-85 -203h-24l288 681h29l98 -681q-63 -29 -92 -59t-29 -73q0 -24 13 -36.5zM109 224h243l-60 438z" />
    <glyph glyph-name="Aring" unicode="&#xc5;" horiz-adv-x="470" 
d="M382 0l-28 203h-254l-85 -203h-24l288 681h29l98 -681h-24zM109 224h243l-60 438zM370.5 909q15.5 -18 15.5 -47q0 -41 -22 -66.5t-55 -25.5q-27 0 -43 18t-16 48q0 40 22.5 65.5t54.5 25.5q28 0 43.5 -18zM285 889q-15 -20 -15 -53q0 -22 10.5 -35t29.5 -13
q26 0 41.5 20.5t15.5 53.5q0 22 -10.5 34.5t-29.5 12.5q-27 0 -42 -20z" />
    <glyph glyph-name="Aringacute" unicode="&#x1fa;" horiz-adv-x="470" 
d="M382 0l-28 203h-254l-85 -203h-24l288 681h29l98 -681h-24zM109 224h243l-60 438zM359.5 869q15.5 -18 15.5 -47q0 -41 -22 -66.5t-55 -25.5q-27 0 -43 18t-16 48q0 40 22.5 65.5t54.5 25.5q28 0 43.5 -18zM274 849q-15 -20 -15 -53q0 -22 10.5 -35t29.5 -13
q26 0 41.5 20.5t15.5 53.5q0 22 -10.5 34.5t-29.5 12.5q-27 0 -42 -20zM398 994l10 -23l-158 -72l-8 15z" />
    <glyph glyph-name="uni023A" unicode="&#x23a;" horiz-adv-x="470" 
d="M382 0l-28 203h-143l-96 -269l-16 5l94 264h-93l-85 -203h-24l288 681h29l16 -112l60 168l16 -5l-71 -198l77 -534h-24zM109 224h92l109 306l-18 132zM219 224h133l-37 270z" />
    <glyph glyph-name="Atilde" unicode="&#xc3;" horiz-adv-x="470" 
d="M382 0l-28 203h-254l-85 -203h-24l288 681h29l98 -681h-24zM109 224h243l-60 438zM335.5 810q-11.5 6 -27.5 18q-12 10 -21 14.5t-19 4.5q-15 0 -25 -7.5t-28 -27.5l-13 9q18 23 33.5 34.5t32.5 11.5q12 0 22.5 -5.5t25.5 -16.5q13 -10 23 -15.5t21 -5.5q14 0 26 9.5
t28 31.5l13 -9q-31 -52 -66 -52q-14 0 -25.5 6z" />
    <glyph glyph-name="AE" unicode="&#xc6;" horiz-adv-x="627" 
d="M603 660h-280l22 -290h214l-3 -21h-210l25 -328h189l-4 -21h-206l-14 196h-246l-89 -196h-22l313 681h317zM335 217l-32 446l-203 -446h235z" />
    <glyph glyph-name="AEacute" unicode="&#x1fc;" horiz-adv-x="627" 
d="M603 660h-280l22 -290h214l-3 -21h-210l25 -328h189l-4 -21h-206l-14 196h-246l-89 -196h-22l313 681h317zM335 217l-32 446l-203 -446h235zM522 859l10 -23l-158 -72l-8 15z" />
    <glyph glyph-name="uni01E2" unicode="&#x1e2;" horiz-adv-x="627" 
d="M603 660h-280l22 -290h214l-3 -21h-210l25 -328h189l-4 -21h-206l-14 196h-246l-89 -196h-22l313 681h317zM335 217l-32 446l-203 -446h235zM537 811h-173l3 21h173z" />
    <glyph glyph-name="B" unicode="B" horiz-adv-x="497" 
d="M402 320q31 -34 31 -97q0 -54 -21.5 -105t-72 -84.5t-131.5 -33.5h-145l96 681h137q80 0 122 -36t42 -104q0 -71 -39.5 -120t-103.5 -60q54 -7 85 -41zM137 370h137q49 0 86.5 23t57.5 61.5t20 85.5q0 61 -35.5 90.5t-106.5 29.5h-118zM363 81.5q46 60.5 46 141.5
q0 63 -34 95t-99 32h-142l-46 -329h124q105 0 151 60.5z" />
    <glyph glyph-name="uni1E02" unicode="&#x1e02;" horiz-adv-x="497" 
d="M402 320q31 -34 31 -97q0 -54 -21.5 -105t-72 -84.5t-131.5 -33.5h-145l96 681h137q80 0 122 -36t42 -104q0 -71 -39.5 -120t-103.5 -60q54 -7 85 -41zM137 370h137q49 0 86.5 23t57.5 61.5t20 85.5q0 61 -35.5 90.5t-106.5 29.5h-118zM363 81.5q46 60.5 46 141.5
q0 63 -34 95t-99 32h-142l-46 -329h124q105 0 151 60.5zM315 816q-5 5 -5 12q0 9 5.5 15t15.5 6q8 0 12.5 -4.5t4.5 -12.5q0 -9 -6 -15t-15 -6q-7 0 -12 5z" />
    <glyph glyph-name="uni1E04" unicode="&#x1e04;" horiz-adv-x="497" 
d="M402 320q31 -34 31 -97q0 -54 -21.5 -105t-72 -84.5t-131.5 -33.5h-145l96 681h137q80 0 122 -36t42 -104q0 -71 -39.5 -120t-103.5 -60q54 -7 85 -41zM137 370h137q49 0 86.5 23t57.5 61.5t20 85.5q0 61 -35.5 90.5t-106.5 29.5h-118zM363 81.5q46 60.5 46 141.5
q0 63 -34 95t-99 32h-142l-46 -329h124q105 0 151 60.5zM223 -104q5 -5 5 -12q0 -9 -5.5 -15t-15.5 -6q-8 0 -12.5 4.5t-4.5 12.5q0 9 6 15t15 6q7 0 12 -5z" />
    <glyph glyph-name="uniA7B4" unicode="&#xa7b4;" horiz-adv-x="490" 
d="M394.5 320q31.5 -34 31.5 -97q0 -52 -22.5 -103.5t-69.5 -85.5t-115 -34q-72 0 -129 29l-31 -221h-23l123 873h121q78 0 121 -36t43 -104q0 -70 -38.5 -119.5t-96.5 -60.5q54 -7 85.5 -41zM322.5 51.5q41.5 30.5 61 77t19.5 94.5q0 63 -35 95t-100 32h-64l7 20h55
q45 0 80.5 23t55 62t19.5 85q0 120 -141 120h-102l-85 -611q56 -28 127 -28q61 0 102.5 30.5z" />
    <glyph glyph-name="uni0181" unicode="&#x181;" horiz-adv-x="534" 
d="M438 320q31 -34 31 -97q0 -54 -21.5 -105t-72 -84.5t-131.5 -33.5h-145l93 661h-26q-41 0 -62 -24.5t-21 -62.5t14 -68l-18 -8q-18 34 -18 76q0 47 27.5 77t77.5 30h166q80 0 122 -36t42 -104q0 -71 -39.5 -120t-103.5 -60q54 -7 85 -41zM173 370h137q49 0 86.5 23
t57.5 61.5t20 85.5q0 61 -35.5 90.5t-106.5 29.5h-118zM399 81.5q46 60.5 46 141.5q0 63 -34 95t-99 32h-142l-46 -329h124q105 0 151 60.5z" />
    <glyph glyph-name="uni0243" unicode="&#x243;" horiz-adv-x="501" 
d="M406 320q31 -34 31 -97q0 -54 -21.5 -105t-72 -84.5t-131.5 -33.5h-145l26 183h-76l3 21h76l67 477h137q80 0 122 -36t42 -104q0 -71 -39.5 -120t-103.5 -60q54 -7 85 -41zM141 370h137q49 0 86.5 23t57.5 61.5t20 85.5q0 61 -35.5 90.5t-106.5 29.5h-118zM367 81.5
q46 60.5 46 141.5q0 63 -34 95t-99 32h-142l-20 -146h155l-3 -21h-155l-23 -162h124q105 0 151 60.5z" />
    <glyph glyph-name="uni0182" unicode="&#x182;" horiz-adv-x="466" 
d="M178 660l-36 -255h101q81 0 124 -40t43 -120q0 -60 -22 -115.5t-71.5 -92.5t-127.5 -37h-126l96 681h262l-7 -21h-236zM139 384l-51 -363h108q69 0 111.5 35t60.5 86t18 102q0 140 -142 140h-105z" />
    <glyph glyph-name="C" unicode="C" horiz-adv-x="448" 
d="M426.5 676.5q29.5 -14.5 53.5 -43.5l-14 -15q-25 27 -50.5 39.5t-61.5 12.5q-90 0 -149.5 -68t-87.5 -169.5t-28 -202.5q0 -106 39.5 -162t107.5 -56q42 0 74 15t63 42l13 -16q-33 -29 -69 -46t-81 -17q-79 0 -124.5 62t-45.5 177q0 107 30.5 213.5t96 177.5t162.5 71
q42 0 71.5 -14.5z" />
    <glyph glyph-name="Cacute" unicode="&#x106;" horiz-adv-x="448" 
d="M426.5 676.5q29.5 -14.5 53.5 -43.5l-14 -15q-25 27 -50.5 39.5t-61.5 12.5q-90 0 -149.5 -68t-87.5 -169.5t-28 -202.5q0 -106 39.5 -162t107.5 -56q42 0 74 15t63 42l13 -16q-33 -29 -69 -46t-81 -17q-79 0 -124.5 62t-45.5 177q0 107 30.5 213.5t96 177.5t162.5 71
q42 0 71.5 -14.5zM437 859l10 -23l-158 -72l-8 15z" />
    <glyph glyph-name="Ccaron" unicode="&#x10c;" horiz-adv-x="448" 
d="M426.5 676.5q29.5 -14.5 53.5 -43.5l-14 -15q-25 27 -50.5 39.5t-61.5 12.5q-90 0 -149.5 -68t-87.5 -169.5t-28 -202.5q0 -106 39.5 -162t107.5 -56q42 0 74 15t63 42l13 -16q-33 -29 -69 -46t-81 -17q-79 0 -124.5 62t-45.5 177q0 107 30.5 213.5t96 177.5t162.5 71
q42 0 71.5 -14.5zM467 862l10 -12l-112 -90h-13l-85 90l12 12l81 -78z" />
    <glyph glyph-name="Ccedilla" unicode="&#xc7;" horiz-adv-x="448" 
d="M426.5 676.5q29.5 -14.5 53.5 -43.5l-14 -15q-25 27 -50.5 39.5t-61.5 12.5q-90 0 -149.5 -68t-87.5 -169.5t-28 -202.5q0 -106 39.5 -162t107.5 -56q42 0 74 15t63 42l13 -16q-69 -62 -145 -63l-12 -64q67 -6 67 -63q0 -34 -22 -54.5t-57 -20.5t-57 18l9 16
q22 -14 48 -14t41.5 14.5t15.5 39.5t-15 35.5t-52 11.5l16 81q-73 5 -115 67t-42 172q0 107 30.5 213.5t96 177.5t162.5 71q42 0 71.5 -14.5z" />
    <glyph glyph-name="Ccircumflex" unicode="&#x108;" horiz-adv-x="448" 
d="M426.5 676.5q29.5 -14.5 53.5 -43.5l-14 -15q-25 27 -50.5 39.5t-61.5 12.5q-90 0 -149.5 -68t-87.5 -169.5t-28 -202.5q0 -106 39.5 -162t107.5 -56q42 0 74 15t63 42l13 -16q-33 -29 -69 -46t-81 -17q-79 0 -124.5 62t-45.5 177q0 107 30.5 213.5t96 177.5t162.5 71
q42 0 71.5 -14.5zM261 766l-10 13l112 90h12l86 -90l-12 -13l-81 79z" />
    <glyph glyph-name="Cdotaccent" unicode="&#x10a;" horiz-adv-x="448" 
d="M426.5 676.5q29.5 -14.5 53.5 -43.5l-14 -15q-25 27 -50.5 39.5t-61.5 12.5q-90 0 -149.5 -68t-87.5 -169.5t-28 -202.5q0 -106 39.5 -162t107.5 -56q42 0 74 15t63 42l13 -16q-33 -29 -69 -46t-81 -17q-79 0 -124.5 62t-45.5 177q0 107 30.5 213.5t96 177.5t162.5 71
q42 0 71.5 -14.5zM351 816q-5 5 -5 12q0 9 5.5 15t15.5 6q8 0 12.5 -4.5t4.5 -12.5q0 -9 -6 -15t-15 -6q-7 0 -12 5z" />
    <glyph glyph-name="uniA7B3" unicode="&#xa7b3;" horiz-adv-x="394" 
d="M416 681l-199 -359l114 -421h-24l-105 404l-217 -404h-23l228 420l-99 360h25l89 -344l186 344h25z" />
    <glyph glyph-name="uni0187" unicode="&#x187;" horiz-adv-x="435" 
d="M604 805.5q17 -8.5 32 -22.5l-13 -14q-14 13 -27 19t-33 6q-28 0 -47 -20t-24 -60l-12 -81l-14 -12q-25 25 -50.5 37t-61.5 12q-90 0 -149.5 -68t-87.5 -169.5t-28 -202.5q0 -106 39.5 -162t107.5 -56q42 0 74 15t63 42l13 -16q-33 -29 -69 -46t-81 -17q-79 0 -124.5 62
t-45.5 177q0 107 30.5 213.5t96 177.5t162.5 71q61 0 105 -39l9 64q7 47 32 72.5t62 25.5q24 0 41 -8.5z" />
    <glyph glyph-name="uni023B" unicode="&#x23b;" horiz-adv-x="448" 
d="M480 633l-14 -15q-18 19 -35 30.5t-37 16.5l-227 -635q30 -18 69 -18q42 0 74 15t63 42l13 -16q-33 -29 -69 -46t-81 -17q-44 0 -76 19l-27 -75l-16 5l28 79q-38 27 -58.5 81t-20.5 130q0 107 30.5 213.5t96 177.5t162.5 71q12 0 30 -2l17 48l16 -5l-17 -47
q44 -10 79 -52zM378 668q-16 2 -24 2q-90 0 -149.5 -68t-87.5 -169.5t-28 -202.5q0 -136 64 -190z" />
    <glyph glyph-name="D" unicode="D" horiz-adv-x="525" 
d="M426 630q56 -51 56 -174q0 -119 -31.5 -222t-102 -168.5t-179.5 -65.5h-106l96 681h120q91 0 147 -51zM178 660l-90 -639h84q101 0 165.5 63.5t93 162t28.5 209.5q0 113 -49.5 158.5t-130.5 45.5h-101z" />
    <glyph glyph-name="uni01F1" unicode="&#x1f1;" horiz-adv-x="916" 
d="M426 630q56 -51 56 -174q0 -119 -31.5 -222t-102 -168.5t-179.5 -65.5h-106l96 681h120q91 0 147 -51zM178 660l-90 -639h84q101 0 165.5 63.5t93 162t28.5 209.5q0 113 -49.5 158.5t-130.5 45.5h-101zM494 0l4 21l408 639h-289l4 21h313l-3 -19l-408 -640h309l-7 -22
h-331z" />
    <glyph glyph-name="uni01C4" unicode="&#x1c4;" horiz-adv-x="916" 
d="M426 630q56 -51 56 -174q0 -119 -31.5 -222t-102 -168.5t-179.5 -65.5h-106l96 681h120q91 0 147 -51zM178 660l-90 -639h84q101 0 165.5 63.5t93 162t28.5 209.5q0 113 -49.5 158.5t-130.5 45.5h-101zM494 0l4 21l408 639h-289l4 21h313l-3 -19l-408 -640h309l-7 -22
h-331zM886 862l10 -12l-112 -90h-13l-85 90l12 12l81 -78z" />
    <glyph glyph-name="uni0189" unicode="&#x189;" horiz-adv-x="528" 
d="M429 630q56 -51 56 -174q0 -119 -31.5 -222t-102 -168.5t-179.5 -65.5h-106l48 343h-75l3 20h75l45 318h120q91 0 147 -51zM340.5 84.5q64.5 63.5 93 162t28.5 209.5q0 113 -49.5 158.5t-130.5 45.5h-101l-42 -297h156l-3 -20h-156l-45 -322h84q101 0 165.5 63.5z" />
    <glyph glyph-name="Eth" unicode="&#xd0;" horiz-adv-x="528" 
d="M429 630q56 -51 56 -174q0 -119 -31.5 -222t-102 -168.5t-179.5 -65.5h-106l48 343h-75l3 20h75l45 318h120q91 0 147 -51zM340.5 84.5q64.5 63.5 93 162t28.5 209.5q0 113 -49.5 158.5t-130.5 45.5h-101l-42 -297h156l-3 -20h-156l-45 -322h84q101 0 165.5 63.5z" />
    <glyph glyph-name="Dcaron" unicode="&#x10e;" horiz-adv-x="525" 
d="M426 630q56 -51 56 -174q0 -119 -31.5 -222t-102 -168.5t-179.5 -65.5h-106l96 681h120q91 0 147 -51zM178 660l-90 -639h84q101 0 165.5 63.5t93 162t28.5 209.5q0 113 -49.5 158.5t-130.5 45.5h-101zM444 862l10 -12l-112 -90h-13l-85 90l12 12l81 -78z" />
    <glyph glyph-name="uni1E12" unicode="&#x1e12;" horiz-adv-x="525" 
d="M426 630q56 -51 56 -174q0 -119 -31.5 -222t-102 -168.5t-179.5 -65.5h-106l96 681h120q91 0 147 -51zM178 660l-90 -639h84q101 0 165.5 63.5t93 162t28.5 209.5q0 113 -49.5 158.5t-130.5 45.5h-101zM92 -184l-11 14l112 95h13l85 -95l-11 -14l-83 85z" />
    <glyph glyph-name="Dcroat" unicode="&#x110;" horiz-adv-x="528" 
d="M429 630q56 -51 56 -174q0 -119 -31.5 -222t-102 -168.5t-179.5 -65.5h-106l48 343h-75l3 20h75l45 318h120q91 0 147 -51zM340.5 84.5q64.5 63.5 93 162t28.5 209.5q0 113 -49.5 158.5t-130.5 45.5h-101l-42 -297h156l-3 -20h-156l-45 -322h84q101 0 165.5 63.5z" />
    <glyph glyph-name="uni1E0A" unicode="&#x1e0a;" horiz-adv-x="525" 
d="M426 630q56 -51 56 -174q0 -119 -31.5 -222t-102 -168.5t-179.5 -65.5h-106l96 681h120q91 0 147 -51zM178 660l-90 -639h84q101 0 165.5 63.5t93 162t28.5 209.5q0 113 -49.5 158.5t-130.5 45.5h-101zM328 816q-5 5 -5 12q0 9 5.5 15t15.5 6q8 0 12.5 -4.5t4.5 -12.5
q0 -9 -6 -15t-15 -6q-7 0 -12 5z" />
    <glyph glyph-name="uni1E0C" unicode="&#x1e0c;" horiz-adv-x="525" 
d="M426 630q56 -51 56 -174q0 -119 -31.5 -222t-102 -168.5t-179.5 -65.5h-106l96 681h120q91 0 147 -51zM178 660l-90 -639h84q101 0 165.5 63.5t93 162t28.5 209.5q0 113 -49.5 158.5t-130.5 45.5h-101zM206 -104q5 -5 5 -12q0 -9 -5.5 -15t-15.5 -6q-8 0 -12.5 4.5
t-4.5 12.5q0 9 6 15t15 6q7 0 12 -5z" />
    <glyph glyph-name="uni018A" unicode="&#x18a;" horiz-adv-x="562" 
d="M462 630q56 -51 56 -174q0 -119 -31.5 -222t-102 -168.5t-179.5 -65.5h-106l93 661h-26q-41 0 -62 -24.5t-21 -62.5t14 -68l-18 -8q-18 34 -18 76q0 47 27.5 77t77.5 30h149q91 0 147 -51zM373.5 84.5q64.5 63.5 93 162t28.5 209.5q0 113 -49.5 158.5t-130.5 45.5h-101
l-90 -639h84q101 0 165.5 63.5z" />
    <glyph glyph-name="uni1E0E" unicode="&#x1e0e;" horiz-adv-x="525" 
d="M426 630q56 -51 56 -174q0 -119 -31.5 -222t-102 -168.5t-179.5 -65.5h-106l96 681h120q91 0 147 -51zM178 660l-90 -639h84q101 0 165.5 63.5t93 162t28.5 209.5q0 113 -49.5 158.5t-130.5 45.5h-101zM108 -118h173l-3 -21h-173z" />
    <glyph glyph-name="uni018B" unicode="&#x18b;" horiz-adv-x="467" 
d="M330 0h-108q-181 0 -181 172q0 108 60.5 170.5t161.5 62.5h101l36 255h-237l3 21h260zM361 384h-101q-90 0 -143 -57t-53 -155q0 -78 39.5 -114.5t118.5 -36.5h88z" />
    <glyph glyph-name="uni01F2" unicode="&#x1f2;" horiz-adv-x="853" 
d="M426 630q56 -51 56 -174q0 -119 -31.5 -222t-102 -168.5t-179.5 -65.5h-106l96 681h120q91 0 147 -51zM178 660l-90 -639h84q101 0 165.5 63.5t93 162t28.5 209.5q0 113 -49.5 158.5t-130.5 45.5h-101zM859 519l-3 -18l-324 -480h252l-6 -21h-274l3 18l324 481h-235l3 20
h260z" />
    <glyph glyph-name="uni01C5" unicode="&#x1c5;" horiz-adv-x="853" 
d="M426 630q56 -51 56 -174q0 -119 -31.5 -222t-102 -168.5t-179.5 -65.5h-106l96 681h120q91 0 147 -51zM178 660l-90 -639h84q101 0 165.5 63.5t93 162t28.5 209.5q0 113 -49.5 158.5t-130.5 45.5h-101zM859 519l-3 -18l-324 -480h252l-6 -21h-274l3 18l324 481h-235l3 20
h260zM853 749l11 -13l-112 -95h-13l-85 95l13 13l80 -84z" />
    <glyph glyph-name="E" unicode="E" horiz-adv-x="406" 
d="M424 681l-6 -21h-240l-40 -290h207l-3 -21h-208l-46 -328h250l-3 -21h-272l96 681h265z" />
    <glyph glyph-name="Eacute" unicode="&#xc9;" horiz-adv-x="406" 
d="M424 681l-6 -21h-240l-40 -290h207l-3 -21h-208l-46 -328h250l-3 -21h-272l96 681h265zM384 859l10 -23l-158 -72l-8 15z" />
    <glyph glyph-name="Ebreve" unicode="&#x114;" horiz-adv-x="406" 
d="M424 681l-6 -21h-240l-40 -290h207l-3 -21h-208l-46 -328h250l-3 -21h-272l96 681h265zM245.5 793.5q-21.5 22.5 -23.5 54.5l16 2q4 -27 20.5 -42.5t46.5 -15.5q29 0 50 16t33 43l16 -5q-11 -32 -37.5 -53.5t-62.5 -21.5q-37 0 -58.5 22.5z" />
    <glyph glyph-name="Ecaron" unicode="&#x11a;" horiz-adv-x="406" 
d="M424 681l-6 -21h-240l-40 -290h207l-3 -21h-208l-46 -328h250l-3 -21h-272l96 681h265zM414 862l10 -12l-112 -90h-13l-85 90l12 12l81 -78z" />
    <glyph glyph-name="uni0228" unicode="&#x228;" horiz-adv-x="406" 
d="M178 660l-40 -290h207l-3 -21h-208l-46 -328h250l-3 -21h-132l-13 -74q67 -6 67 -63q0 -34 -22 -54.5t-57 -20.5t-57 18l9 16q22 -14 48 -14t41.5 14.5t15.5 39.5t-15 35.5t-52 11.5l19 91h-124l96 681h265l-6 -21h-240z" />
    <glyph glyph-name="Ecircumflex" unicode="&#xca;" horiz-adv-x="406" 
d="M424 681l-6 -21h-240l-40 -290h207l-3 -21h-208l-46 -328h250l-3 -21h-272l96 681h265zM208 766l-10 13l112 90h12l86 -90l-12 -13l-81 79z" />
    <glyph glyph-name="uni1EBE" unicode="&#x1ebe;" horiz-adv-x="406" 
d="M466 953l17 -16l-103 -113l-12 10zM205 737l-10 13l112 90h12l86 -90l-12 -13l-81 79zM424 681l-6 -21h-240l-40 -290h207l-3 -21h-208l-46 -328h250l-3 -21h-272l96 681h265z" />
    <glyph glyph-name="uni1EC6" unicode="&#x1ec6;" horiz-adv-x="406" 
d="M424 681l-6 -21h-240l-40 -290h207l-3 -21h-208l-46 -328h250l-3 -21h-272l96 681h265zM208 766l-10 13l112 90h12l86 -90l-12 -13l-81 79zM195 -104q5 -5 5 -12q0 -9 -5.5 -15t-15.5 -6q-8 0 -12.5 4.5t-4.5 12.5q0 9 6 15t15 6q7 0 12 -5z" />
    <glyph glyph-name="uni1EC0" unicode="&#x1ec0;" horiz-adv-x="406" 
d="M183 953l64 -121l-13 -8l-72 116zM204 737l-10 13l112 90h12l86 -90l-12 -13l-81 79zM424 681l-6 -21h-240l-40 -290h207l-3 -21h-208l-46 -328h250l-3 -21h-272l96 681h265z" />
    <glyph glyph-name="uni1EC2" unicode="&#x1ec2;" horiz-adv-x="406" 
d="M424 681l-6 -21h-240l-40 -290h207l-3 -21h-208l-46 -328h250l-3 -21h-272l96 681h265zM203 737l-10 13l112 90h12l86 -90l-12 -13l-81 79zM388 861q64 4 64 57q0 41 -37 41q-13 0 -23.5 -3.5t-23.5 -10.5l-7 17q26 17 55 17q27 0 43 -16.5t16 -44.5q0 -31 -18 -49
t-50 -23l-5 -42h-21z" />
    <glyph glyph-name="uni1EC4" unicode="&#x1ec4;" horiz-adv-x="406" 
d="M339.5 885q-11.5 6 -27.5 18q-13 10 -21.5 14.5t-18.5 4.5q-15 0 -25 -7.5t-28 -27.5l-13 9q18 23 33.5 34.5t32.5 11.5q12 0 22.5 -5.5t25.5 -16.5q13 -10 23 -15.5t21 -5.5q14 0 26 9.5t28 31.5l13 -9q-31 -52 -66 -52q-14 0 -25.5 6zM202 737l-10 13l112 90h12l86 -90
l-12 -13l-81 79zM424 681l-6 -21h-240l-40 -290h207l-3 -21h-208l-46 -328h250l-3 -21h-272l96 681h265z" />
    <glyph glyph-name="uni0204" unicode="&#x204;" horiz-adv-x="406" 
d="M424 681l-6 -21h-240l-40 -290h207l-3 -21h-208l-46 -328h250l-3 -21h-272l96 681h265zM227 917l41 -132l-18 -7l-48 129zM319 916l37 -127l-18 -7l-44 124z" />
    <glyph glyph-name="Edieresis" unicode="&#xcb;" horiz-adv-x="406" 
d="M424 681l-6 -21h-240l-40 -290h207l-3 -21h-208l-46 -328h250l-3 -21h-272l96 681h265zM230.5 804q-4.5 5 -4.5 12q0 9 5.5 15t14.5 6q7 0 12 -4.5t5 -12.5q0 -9 -6 -15t-15 -6q-7 0 -11.5 5zM369 804q-5 5 -5 12q0 9 5.5 15t15.5 6q7 0 11.5 -4.5t4.5 -12.5
q0 -9 -5.5 -15t-14.5 -6q-7 0 -12 5z" />
    <glyph glyph-name="Edotaccent" unicode="&#x116;" horiz-adv-x="406" 
d="M424 681l-6 -21h-240l-40 -290h207l-3 -21h-208l-46 -328h250l-3 -21h-272l96 681h265zM298 816q-5 5 -5 12q0 9 5.5 15t15.5 6q8 0 12.5 -4.5t4.5 -12.5q0 -9 -6 -15t-15 -6q-7 0 -12 5z" />
    <glyph glyph-name="uni1EB8" unicode="&#x1eb8;" horiz-adv-x="406" 
d="M424 681l-6 -21h-240l-40 -290h207l-3 -21h-208l-46 -328h250l-3 -21h-272l96 681h265zM195 -104q5 -5 5 -12q0 -9 -5.5 -15t-15.5 -6q-8 0 -12.5 4.5t-4.5 12.5q0 9 6 15t15 6q7 0 12 -5z" />
    <glyph glyph-name="Egrave" unicode="&#xc8;" horiz-adv-x="406" 
d="M424 681l-6 -21h-240l-40 -290h207l-3 -21h-208l-46 -328h250l-3 -21h-272l96 681h265zM257 858l131 -80l-9 -14l-137 72z" />
    <glyph glyph-name="uni1EBA" unicode="&#x1eba;" horiz-adv-x="406" 
d="M424 681l-6 -21h-240l-40 -290h207l-3 -21h-208l-46 -328h250l-3 -21h-272l96 681h265zM305 839q64 4 64 57q0 41 -37 41q-13 0 -23.5 -3.5t-23.5 -10.5l-7 17q26 17 55 17q27 0 43 -16.5t16 -44.5q0 -31 -18 -49t-50 -23l-5 -42h-21z" />
    <glyph glyph-name="uni0206" unicode="&#x206;" horiz-adv-x="406" 
d="M424 681l-6 -21h-240l-40 -290h207l-3 -21h-208l-46 -328h250l-3 -21h-272l96 681h265zM218 802q12 38 38 61.5t62 23.5q37 0 59 -24.5t23 -62.5l-16 -2q-8 68 -67 68q-58 0 -85 -69z" />
    <glyph glyph-name="Emacron" unicode="&#x112;" horiz-adv-x="406" 
d="M424 681l-6 -21h-240l-40 -290h207l-3 -21h-208l-46 -328h250l-3 -21h-272l96 681h265zM399 811h-173l3 21h173z" />
    <glyph glyph-name="Eogonek" unicode="&#x118;" horiz-adv-x="406" 
d="M178 660l-40 -290h207l-3 -21h-208l-46 -328h250l-3 -21h-22q-63 -29 -92 -59t-29 -73q0 -24 13 -36.5t36 -12.5q18 0 46 6l-5 -21q-24 -7 -43 -7q-31 0 -50.5 19t-19.5 51q0 43 26.5 74.5t82.5 58.5h-215l96 681h265l-6 -21h-240z" />
    <glyph glyph-name="uni0190" unicode="&#x190;" horiz-adv-x="431" 
d="M387 670.5q35 -20.5 64 -63.5l-17 -13q-26 38 -57 57t-77 19q-45 0 -80 -22t-55 -61.5t-20 -90.5q0 -55 32 -85.5t89 -30.5h39l-5 -21l-39 1q-89 1 -141 -55t-52 -148q0 -70 33.5 -107.5t92.5 -37.5q47 0 87.5 21.5t80.5 62.5l15 -14q-87 -92 -183 -92q-69 0 -109 43.5
t-40 122.5q0 93 48 150.5t124 64.5q-44 9 -70 40t-26 83q0 57 23 101.5t64.5 70t92.5 25.5t86 -20.5z" />
    <glyph glyph-name="uni018E" unicode="&#x18e;" horiz-adv-x="406" 
d="M99 681h267l-96 -681h-272l3 21h249l47 328h-208l3 21h208l40 290h-244z" />
    <glyph glyph-name="uni01A9" unicode="&#x1a9;" horiz-adv-x="409" 
d="M420 681l-3 -21h-283l144 -319l-2 -9l-229 -311h280l-3 -21h-312l1 12l242 328l-150 329l2 12h313z" />
    <glyph glyph-name="uni0246" unicode="&#x246;" horiz-adv-x="406" 
d="M418 660h-40l-103 -290h70l-3 -21h-75l-117 -328h188l-3 -21h-192l-24 -66l-16 5l22 61h-62l96 681h209l20 56l16 -5l-18 -51h38zM257 370l104 290h-183l-40 -290h119zM132 21l117 328h-115l-46 -328h44z" />
    <glyph glyph-name="uni1EBC" unicode="&#x1ebc;" horiz-adv-x="406" 
d="M424 681l-6 -21h-240l-40 -290h207l-3 -21h-208l-46 -328h250l-3 -21h-272l96 681h265zM336.5 810q-11.5 6 -27.5 18q-12 10 -21 14.5t-19 4.5q-15 0 -25 -7.5t-28 -27.5l-13 9q18 23 33.5 34.5t32.5 11.5q12 0 22.5 -5.5t25.5 -16.5q13 -10 23 -15.5t21 -5.5
q14 0 26 9.5t28 31.5l13 -9q-31 -52 -66 -52q-14 0 -25.5 6z" />
    <glyph glyph-name="uni01B7" unicode="&#x1b7;" horiz-adv-x="385" 
d="M378 662l-237 -289h31q83 0 123.5 -38.5t40.5 -111.5q0 -67 -24.5 -120t-69.5 -83t-103 -30q-53 0 -88.5 21t-63.5 62l17 12q27 -38 57.5 -55.5t77.5 -17.5q52 0 91.5 27t61 75t21.5 108q0 130 -140 130h-60l3 21l232 288h-267l3 20h296z" />
    <glyph glyph-name="uni01EE" unicode="&#x1ee;" horiz-adv-x="385" 
d="M378 662l-237 -289h31q83 0 123.5 -38.5t40.5 -111.5q0 -67 -24.5 -120t-69.5 -83t-103 -30q-53 0 -88.5 21t-63.5 62l17 12q27 -38 57.5 -55.5t77.5 -17.5q52 0 91.5 27t61 75t21.5 108q0 130 -140 130h-60l3 21l232 288h-267l3 20h296zM351 862l10 -12l-112 -90h-13
l-85 90l12 12l81 -78z" />
    <glyph glyph-name="uni01B8" unicode="&#x1b8;" horiz-adv-x="385" 
d="M416 661h-269l154 -287l-3 -22h-64q-84 0 -133.5 -54.5t-49.5 -145.5q0 -65 33 -102.5t92 -37.5q48 0 83.5 17.5t72.5 55.5l14 -14q-38 -40 -78 -60.5t-93 -20.5q-68 0 -107 44.5t-39 117.5q0 67 26 117t72.5 77t108.5 27h43l-160 289l3 19h297z" />
    <glyph glyph-name="F" unicode="F" horiz-adv-x="386" 
d="M420 681l-6 -21h-236l-42 -304h204l-3 -21h-204l-47 -335h-23l96 681h261z" />
    <glyph glyph-name="uni1E1E" unicode="&#x1e1e;" horiz-adv-x="386" 
d="M420 681l-6 -21h-236l-42 -304h204l-3 -21h-204l-47 -335h-23l96 681h261zM292 816q-5 5 -5 12q0 9 5.5 15t15.5 6q8 0 12.5 -4.5t4.5 -12.5q0 -9 -6 -15t-15 -6q-7 0 -12 5z" />
    <glyph glyph-name="uni0191" unicode="&#x191;" horiz-adv-x="386" 
d="M178 660l-42 -304h204l-3 -21h-204l-47 -335l-13 -97q-7 -48 -34 -74t-64 -26q-39 0 -70 31l13 14q13 -12 26 -18t32 -6q28 0 48 20.5t26 61.5l13 94l96 681h261l-6 -21h-236z" />
    <glyph glyph-name="G" unicode="G" horiz-adv-x="499" 
d="M429.5 676.5q32.5 -14.5 61.5 -44.5l-16 -15q-27 28 -54.5 40.5t-66.5 12.5q-84 0 -143.5 -62t-90 -163t-30.5 -216q0 -108 40.5 -162.5t117.5 -54.5q70 0 138 41l40 280h-118v21h143l-43 -314q-37 -23 -79.5 -36.5t-81.5 -13.5q-86 0 -133 61.5t-47 178.5
q0 121 34 226.5t99 170t155 64.5q42 0 74.5 -14.5z" />
    <glyph glyph-name="uni01F4" unicode="&#x1f4;" horiz-adv-x="499" 
d="M429.5 676.5q32.5 -14.5 61.5 -44.5l-16 -15q-27 28 -54.5 40.5t-66.5 12.5q-84 0 -143.5 -62t-90 -163t-30.5 -216q0 -108 40.5 -162.5t117.5 -54.5q70 0 138 41l40 280h-118v21h143l-43 -314q-37 -23 -79.5 -36.5t-81.5 -13.5q-86 0 -133 61.5t-47 178.5
q0 121 34 226.5t99 170t155 64.5q42 0 74.5 -14.5zM442 859l10 -23l-158 -72l-8 15z" />
    <glyph glyph-name="uni0194" unicode="&#x194;" horiz-adv-x="451" 
d="M210 54q14 -61 19.5 -93t5.5 -63q0 -42 -19.5 -68.5t-51.5 -26.5q-26 0 -39.5 16.5t-13.5 45.5q0 36 17 79t56 113l-97 624h23l89 -606l259 606h24zM209 -44.5q-4 28.5 -15 81.5q-32 -59 -47 -99.5t-15 -72.5q0 -42 32 -42q23 0 36 20.5t13 54.5q0 29 -4 57.5z" />
    <glyph glyph-name="Gbreve" unicode="&#x11e;" horiz-adv-x="499" 
d="M429.5 676.5q32.5 -14.5 61.5 -44.5l-16 -15q-27 28 -54.5 40.5t-66.5 12.5q-84 0 -143.5 -62t-90 -163t-30.5 -216q0 -108 40.5 -162.5t117.5 -54.5q70 0 138 41l40 280h-118v21h143l-43 -314q-37 -23 -79.5 -36.5t-81.5 -13.5q-86 0 -133 61.5t-47 178.5
q0 121 34 226.5t99 170t155 64.5q42 0 74.5 -14.5zM303.5 793.5q-21.5 22.5 -23.5 54.5l16 2q4 -27 20.5 -42.5t46.5 -15.5q29 0 50 16t33 43l16 -5q-11 -32 -37.5 -53.5t-62.5 -21.5q-37 0 -58.5 22.5z" />
    <glyph glyph-name="Gcaron" unicode="&#x1e6;" horiz-adv-x="499" 
d="M429.5 676.5q32.5 -14.5 61.5 -44.5l-16 -15q-27 28 -54.5 40.5t-66.5 12.5q-84 0 -143.5 -62t-90 -163t-30.5 -216q0 -108 40.5 -162.5t117.5 -54.5q70 0 138 41l40 280h-118v21h143l-43 -314q-37 -23 -79.5 -36.5t-81.5 -13.5q-86 0 -133 61.5t-47 178.5
q0 121 34 226.5t99 170t155 64.5q42 0 74.5 -14.5zM472 862l10 -12l-112 -90h-13l-85 90l12 12l81 -78z" />
    <glyph glyph-name="Gcircumflex" unicode="&#x11c;" horiz-adv-x="499" 
d="M429.5 676.5q32.5 -14.5 61.5 -44.5l-16 -15q-27 28 -54.5 40.5t-66.5 12.5q-84 0 -143.5 -62t-90 -163t-30.5 -216q0 -108 40.5 -162.5t117.5 -54.5q70 0 138 41l40 280h-118v21h143l-43 -314q-37 -23 -79.5 -36.5t-81.5 -13.5q-86 0 -133 61.5t-47 178.5
q0 121 34 226.5t99 170t155 64.5q42 0 74.5 -14.5zM266 766l-10 13l112 90h12l86 -90l-12 -13l-81 79z" />
    <glyph glyph-name="Gcommaaccent" unicode="&#x122;" horiz-adv-x="499" 
d="M429.5 676.5q32.5 -14.5 61.5 -44.5l-16 -15q-27 28 -54.5 40.5t-66.5 12.5q-84 0 -143.5 -62t-90 -163t-30.5 -216q0 -108 40.5 -162.5t117.5 -54.5q70 0 138 41l40 280h-118v21h143l-43 -314q-37 -23 -79.5 -36.5t-81.5 -13.5q-86 0 -133 61.5t-47 178.5
q0 121 34 226.5t99 170t155 64.5q42 0 74.5 -14.5zM250.5 -102q5.5 -6 5.5 -15q0 -13 -13 -35l-48 -106h-15l42 116q-12 7 -12 21q0 11 7 18t18 7q10 0 15.5 -6z" />
    <glyph glyph-name="Gdotaccent" unicode="&#x120;" horiz-adv-x="499" 
d="M429.5 676.5q32.5 -14.5 61.5 -44.5l-16 -15q-27 28 -54.5 40.5t-66.5 12.5q-84 0 -143.5 -62t-90 -163t-30.5 -216q0 -108 40.5 -162.5t117.5 -54.5q70 0 138 41l40 280h-118v21h143l-43 -314q-37 -23 -79.5 -36.5t-81.5 -13.5q-86 0 -133 61.5t-47 178.5
q0 121 34 226.5t99 170t155 64.5q42 0 74.5 -14.5zM356 816q-5 5 -5 12q0 9 5.5 15t15.5 6q8 0 12.5 -4.5t4.5 -12.5q0 -9 -6 -15t-15 -6q-7 0 -12 5z" />
    <glyph glyph-name="uni0193" unicode="&#x193;" horiz-adv-x="446" 
d="M648 783l-12 -14q-13 12 -27 18.5t-33 6.5q-28 0 -48 -22t-26 -68l-11 -72l-14 -13q-28 27 -56.5 39t-66.5 12q-84 0 -143.5 -62t-90 -163t-30.5 -216q0 -108 40.5 -162.5t117.5 -54.5q70 0 138 41l40 280h-118v21h143l-43 -314q-37 -23 -79.5 -36.5t-81.5 -13.5
q-86 0 -133 61.5t-47 178.5q0 121 34 226.5t99 170t155 64.5q36 0 64 -10.5t53 -32.5l8 59q7 53 32.5 80t63.5 27q41 0 72 -31z" />
    <glyph glyph-name="uni0241" unicode="&#x241;" horiz-adv-x="374" 
d="M140 289l55 16q79 24 118.5 77t39.5 144q0 67 -30.5 105.5t-88.5 38.5q-42 0 -78 -19.5t-76 -57.5l-13 16q42 41 81.5 61.5t86.5 20.5q67 0 104.5 -45t37.5 -120q0 -99 -44.5 -156.5t-131.5 -83.5l-41 -12l-38 -274h-23z" />
    <glyph glyph-name="uni01E4" unicode="&#x1e4;" horiz-adv-x="500" 
d="M491 212h-59l-24 -172q-37 -23 -79.5 -36.5t-81.5 -13.5q-86 0 -133 61.5t-47 178.5q0 121 34 226.5t99 170t155 64.5q42 0 74.5 -14.5t61.5 -44.5l-16 -15q-27 28 -54.5 40.5t-66.5 12.5q-84 0 -143.5 -62t-90 -163t-30.5 -216q0 -108 40.5 -162.5t117.5 -54.5
q70 0 138 41l23 159h-117l3 21h117l14 100h-118v21h143l-17 -121h60z" />
    <glyph glyph-name="uni021C" unicode="&#x21c;" horiz-adv-x="402" 
d="M343 654.5q34 -36.5 34 -100.5q0 -82 -40.5 -130.5t-108.5 -62.5q111 -13 111 -124q0 -129 -93 -201t-259 -116l-1 21q155 42 242 109t87 185q0 116 -133 115l-45 -1l6 21h38q78 0 125.5 51.5t47.5 132.5q0 55 -28 85.5t-78 30.5q-42 0 -79.5 -19t-78.5 -57l-13 15
q44 41 85 61.5t88 20.5q59 0 93 -36.5z" />
    <glyph glyph-name="H" unicode="H" horiz-adv-x="542" 
d="M86 0h-23l96 681h22l-43 -310h298l43 310h23l-96 -681h-23l50 351h-298z" />
    <glyph glyph-name="Hbar" unicode="&#x126;" horiz-adv-x="542" 
d="M531 538l-2 -18h-50l-73 -520h-23l50 351h-298l-49 -351h-23l73 520h-50l3 18h50l20 143h22l-20 -143h298l20 143h23l-20 -143h49zM436 371l21 149h-298l-21 -149h298z" />
    <glyph glyph-name="uni021E" unicode="&#x21e;" horiz-adv-x="542" 
d="M86 0h-23l96 681h22l-43 -310h298l43 310h23l-96 -681h-23l50 351h-298zM448 862l10 -12l-112 -90h-13l-85 90l12 12l81 -78z" />
    <glyph glyph-name="Hcircumflex" unicode="&#x124;" horiz-adv-x="542" 
d="M86 0h-23l96 681h22l-43 -310h298l43 310h23l-96 -681h-23l50 351h-298zM242 766l-10 13l112 90h12l86 -90l-12 -13l-81 79z" />
    <glyph glyph-name="uni1E24" unicode="&#x1e24;" horiz-adv-x="542" 
d="M86 0h-23l96 681h22l-43 -310h298l43 310h23l-96 -681h-23l50 351h-298zM234 -104q5 -5 5 -12q0 -9 -5.5 -15t-15.5 -6q-8 0 -12.5 4.5t-4.5 12.5q0 9 6 15t15 6q7 0 12 -5z" />
    <glyph glyph-name="uniA7AA" unicode="&#xa7aa;" horiz-adv-x="579" 
d="M538 681l-96 -681h-23l50 351h-298l-49 -351h-23l93 661h-26q-41 0 -62 -24.5t-21 -62.5t14 -68l-18 -8q-18 34 -18 76q0 47 27.5 77t77.5 30h51l-43 -310h298l43 310h23z" />
    <glyph glyph-name="uniA78D" unicode="&#xa78d;" horiz-adv-x="479" 
d="M439 681l-96 -681h-23l44 314q-73 -83 -165 -83q-61 0 -97 37t-36 99q0 10 2 30l40 284h22l-39 -284q-2 -20 -2 -28q0 -53 30 -85t81 -32q48 0 92 25t77 68l47 336h23z" />
    <glyph glyph-name="uni01F6" unicode="&#x1f6;" horiz-adv-x="787" 
d="M429.5 22.5q-29.5 32.5 -29.5 85.5q0 8 2 28l31 215h-298l-49 -351h-23l96 681h22l-43 -310h298l43 310h23l-77 -545q-2 -20 -2 -28q0 -46 24 -71.5t68 -25.5q107 0 147.5 127.5t40.5 310.5q0 34 -3 70h21q4 -48 4 -70q0 -459 -212 -459q-54 0 -83.5 32.5z" />
    <glyph glyph-name="I" unicode="I" horiz-adv-x="222" 
d="M181 681l-95 -681h-23l96 681h22z" />
    <glyph glyph-name="IJ" unicode="&#x132;" horiz-adv-x="458" 
d="M181 681l-95 -681h-23l96 681h22zM339 87q-8 -54 -21.5 -85.5t-39.5 -54.5t-75 -47l-8 16q44 23 67 44t35.5 50.5t19.5 79.5l83 591h22z" />
    <glyph glyph-name="Iacute" unicode="&#xcd;" horiz-adv-x="222" 
d="M181 681l-95 -681h-23l96 681h22zM259 859l10 -23l-158 -72l-8 15z" />
    <glyph glyph-name="Ibreve" unicode="&#x12c;" horiz-adv-x="222" 
d="M181 681l-95 -681h-23l96 681h22zM120.5 793.5q-21.5 22.5 -23.5 54.5l16 2q4 -27 20.5 -42.5t46.5 -15.5q29 0 50 16t33 43l16 -5q-11 -32 -37.5 -53.5t-62.5 -21.5q-37 0 -58.5 22.5z" />
    <glyph glyph-name="uni01CF" unicode="&#x1cf;" horiz-adv-x="222" 
d="M181 681l-95 -681h-23l96 681h22zM289 862l10 -12l-112 -90h-13l-85 90l12 12l81 -78z" />
    <glyph glyph-name="Icircumflex" unicode="&#xce;" horiz-adv-x="222" 
d="M181 681l-95 -681h-23l96 681h22zM83 766l-10 13l112 90h12l86 -90l-12 -13l-81 79z" />
    <glyph glyph-name="uni0208" unicode="&#x208;" horiz-adv-x="222" 
d="M181 681l-95 -681h-23l96 681h22zM102 917l41 -132l-18 -7l-48 129zM194 916l37 -127l-18 -7l-44 124z" />
    <glyph glyph-name="Idieresis" unicode="&#xcf;" horiz-adv-x="222" 
d="M181 681l-95 -681h-23l96 681h22zM105.5 804q-4.5 5 -4.5 12q0 9 5.5 15t14.5 6q7 0 12 -4.5t5 -12.5q0 -9 -6 -15t-15 -6q-7 0 -11.5 5zM244 804q-5 5 -5 12q0 9 5.5 15t15.5 6q7 0 11.5 -4.5t4.5 -12.5q0 -9 -5.5 -15t-14.5 -6q-7 0 -12 5z" />
    <glyph glyph-name="uni1E2E" unicode="&#x1e2e;" horiz-adv-x="222" 
d="M181 681l-95 -681h-23l96 681h22zM266 921l17 -16l-103 -113l-12 10zM95 748q-5 5 -5 12q0 9 5.5 15t15.5 6q7 0 11.5 -4.5t4.5 -12.5q0 -9 -5.5 -15t-14.5 -6q-7 0 -12 5zM233.5 748q-4.5 5 -4.5 12q0 9 5.5 15t14.5 6q8 0 12.5 -4.5t4.5 -12.5q0 -9 -5.5 -15t-14.5 -6
q-8 0 -12.5 5z" />
    <glyph glyph-name="Idotaccent" unicode="&#x130;" horiz-adv-x="222" 
d="M181 681l-95 -681h-23l96 681h22zM173 816q-5 5 -5 12q0 9 5.5 15t15.5 6q8 0 12.5 -4.5t4.5 -12.5q0 -9 -6 -15t-15 -6q-7 0 -12 5z" />
    <glyph glyph-name="uni1ECA" unicode="&#x1eca;" horiz-adv-x="222" 
d="M181 681l-95 -681h-23l96 681h22zM74 -104q5 -5 5 -12q0 -9 -5.5 -15t-15.5 -6q-8 0 -12.5 4.5t-4.5 12.5q0 9 6 15t15 6q7 0 12 -5z" />
    <glyph glyph-name="Igrave" unicode="&#xcc;" horiz-adv-x="222" 
d="M181 681l-95 -681h-23l96 681h22zM132 858l131 -80l-9 -14l-137 72z" />
    <glyph glyph-name="uni1EC8" unicode="&#x1ec8;" horiz-adv-x="222" 
d="M181 681l-95 -681h-23l96 681h22zM180 839q64 4 64 57q0 41 -37 41q-13 0 -23.5 -3.5t-23.5 -10.5l-7 17q26 17 55 17q27 0 43 -16.5t16 -44.5q0 -31 -18 -49t-50 -23l-5 -42h-21z" />
    <glyph glyph-name="uni020A" unicode="&#x20a;" horiz-adv-x="222" 
d="M181 681l-95 -681h-23l96 681h22zM93 802q12 38 38 61.5t62 23.5q37 0 59 -24.5t23 -62.5l-16 -2q-8 68 -67 68q-58 0 -85 -69z" />
    <glyph glyph-name="Imacron" unicode="&#x12a;" horiz-adv-x="222" 
d="M181 681l-95 -681h-23l96 681h22zM274 811h-173l3 21h173z" />
    <glyph glyph-name="Iogonek" unicode="&#x12e;" horiz-adv-x="222" 
d="M-6 -59q-29 -30 -29 -73q0 -24 13 -36.5t36 -12.5q17 0 46 6l-5 -21q-24 -7 -43 -7q-31 0 -50.5 19t-19.5 51q0 45 29 77.5t93 61.5l95 675h22l-95 -681q-63 -29 -92 -59z" />
    <glyph glyph-name="uni0196" unicode="&#x196;" horiz-adv-x="257" 
d="M212 19q-33 -29 -76 -29q-33 0 -52.5 20.5t-19.5 57.5q0 6 2 22l13 97l70 494h22l-69 -494l-13 -98q-2 -16 -2 -21q0 -28 13.5 -42.5t36.5 -14.5q21 0 35.5 6.5t28.5 17.5z" />
    <glyph glyph-name="uni0197" unicode="&#x197;" horiz-adv-x="255" 
d="M244 371l-2 -21h-87l-49 -350h-23l49 350h-92l3 21h92l44 310h22l-43 -310h86z" />
    <glyph glyph-name="Itilde" unicode="&#x128;" horiz-adv-x="222" 
d="M181 681l-95 -681h-23l96 681h22zM211.5 810q-11.5 6 -27.5 18q-12 10 -21 14.5t-19 4.5q-15 0 -25 -7.5t-28 -27.5l-13 9q18 23 33.5 34.5t32.5 11.5q12 0 22.5 -5.5t25.5 -16.5q13 -10 23 -15.5t21 -5.5q14 0 26 9.5t28 31.5l13 -9q-31 -52 -66 -52q-14 0 -25.5 6z" />
    <glyph glyph-name="J" unicode="J" horiz-adv-x="236" 
d="M117 87q-8 -54 -21.5 -85.5t-39.5 -54.5t-75 -47l-8 16q44 23 67 44t35.5 50.5t19.5 79.5l83 591h22z" />
    <glyph glyph-name="Jcircumflex" unicode="&#x134;" horiz-adv-x="236" 
d="M117 87q-8 -54 -21.5 -85.5t-39.5 -54.5t-75 -47l-8 16q44 23 67 44t35.5 50.5t19.5 79.5l83 591h22zM101 766l-10 13l112 90h12l86 -90l-12 -13l-81 79z" />
    <glyph glyph-name="uniA7B2" unicode="&#xa7b2;" horiz-adv-x="242" 
d="M106 -29q33 -11 74 -34l-9 -17q-36 22 -67 31q-10 -70 -41.5 -109t-86.5 -39q-38 0 -59 22t-21 57q0 47 31.5 74.5t82.5 27.5q42 0 76 -9l99 706h23zM47.5 -144q24.5 33 35.5 99q-40 9 -73 9q-45 0 -69 -21.5t-24 -60.5q0 -27 15.5 -43t44.5 -16q46 0 70.5 33z" />
    <glyph glyph-name="uni0248" unicode="&#x248;" horiz-adv-x="258" 
d="M244 332h-91l-34 -245q-8 -54 -21.5 -85.5t-39.5 -54.5t-75 -47l-8 16q44 23 67 44t35.5 50.5t19.5 79.5l34 242h-89l3 21h89l46 328h22l-46 -328h90z" />
    <glyph glyph-name="K" unicode="K" horiz-adv-x="430" 
d="M63 0l96 681h22l-95 -681h-23zM357 0l-217 367l300 314h26l-301 -316l218 -365h-26z" />
    <glyph glyph-name="uni01E8" unicode="&#x1e8;" horiz-adv-x="430" 
d="M63 0l96 681h22l-95 -681h-23zM357 0l-217 367l300 314h26l-301 -316l218 -365h-26zM417 862l10 -12l-112 -90h-13l-85 90l12 12l81 -78z" />
    <glyph glyph-name="Kcommaaccent" unicode="&#x136;" horiz-adv-x="430" 
d="M63 0l96 681h22l-95 -681h-23zM357 0l-217 367l300 314h26l-301 -316l218 -365h-26zM211.5 -102q5.5 -6 5.5 -15q0 -13 -13 -35l-48 -106h-15l42 116q-12 7 -12 21q0 11 7 18t18 7q10 0 15.5 -6z" />
    <glyph glyph-name="uni0198" unicode="&#x198;" horiz-adv-x="458" 
d="M140 367l205 261q28 36 48.5 49.5t46.5 13.5q20 0 35.5 -9t28.5 -24l-14 -13q-13 13 -24 19.5t-27 6.5q-20 0 -36.5 -11.5t-44.5 -47.5l-193 -245l218 -367h-26zM63 0l96 681h22l-95 -681h-23z" />
    <glyph glyph-name="L" unicode="L" horiz-adv-x="367" 
d="M181 681l-93 -659h238l-8 -22h-255l96 681h22z" />
    <glyph glyph-name="uni01C7" unicode="&#x1c7;" horiz-adv-x="588" 
d="M181 681l-93 -659h238l-8 -22h-255l96 681h22zM469 87q-8 -54 -21.5 -85.5t-39.5 -54.5t-75 -47l-8 16q44 23 67 44t35.5 50.5t19.5 79.5l83 591h22z" />
    <glyph glyph-name="Lacute" unicode="&#x139;" horiz-adv-x="367" 
d="M181 681l-93 -659h238l-8 -22h-255l96 681h22zM259 859l10 -23l-158 -72l-8 15z" />
    <glyph glyph-name="uni023D" unicode="&#x23d;" horiz-adv-x="383" 
d="M104 22h238l-8 -22h-255l50 352h-89l3 21h89l43 308h22l-43 -308h90l-2 -21h-91z" />
    <glyph glyph-name="uniA7AD" unicode="&#xa7ad;" horiz-adv-x="389" 
d="M348 22l-8 -22h-255l39 279q-40 0 -63 19.5t-23 56.5q0 41 24.5 64.5t61.5 23.5q11 0 23 -2l34 240h22l-54 -382h1q43 1 90 12l3 -19q-48 -12 -96 -13h-1l-36 -257h238zM127 299l18 123q-12 2 -22 2q-29 0 -46 -18.5t-17 -49.5q0 -57 67 -57z" />
    <glyph glyph-name="Lcaron" unicode="&#x13d;" horiz-adv-x="367" 
d="M181 681l-93 -659h238l-8 -22h-255l96 681h22zM266 686l22 -2l-43 -145l-14 3z" />
    <glyph glyph-name="uni1E3C" unicode="&#x1e3c;" horiz-adv-x="367" 
d="M181 681l-93 -659h238l-8 -22h-255l96 681h22zM75 -184l-11 14l112 95h13l85 -95l-11 -14l-83 85z" />
    <glyph glyph-name="Lcommaaccent" unicode="&#x13b;" horiz-adv-x="367" 
d="M181 681l-93 -659h238l-8 -22h-255l96 681h22zM195.5 -102q5.5 -6 5.5 -15q0 -13 -13 -35l-48 -106h-15l42 116q-12 7 -12 21q0 11 7 18t18 7q10 0 15.5 -6z" />
    <glyph glyph-name="Ldot" unicode="&#x13f;" horiz-adv-x="367" 
d="M181 681l-93 -659h238l-8 -22h-255l96 681h22zM290 340q-5 5 -5 12q0 9 5.5 15t15.5 6q8 0 12.5 -4.5t4.5 -12.5q0 -9 -6 -15t-15 -6q-7 0 -12 5z" />
    <glyph glyph-name="uni1E36" unicode="&#x1e36;" horiz-adv-x="367" 
d="M181 681l-93 -659h238l-8 -22h-255l96 681h22zM189 -104q5 -5 5 -12q0 -9 -5.5 -15t-15.5 -6q-8 0 -12.5 4.5t-4.5 12.5q0 9 6 15t15 6q7 0 12 -5z" />
    <glyph glyph-name="uni01C8" unicode="&#x1c8;" horiz-adv-x="566" 
d="M181 681l-93 -659h238l-8 -22h-255l96 681h22zM305 -178q34 19 53.5 38t32 51t20.5 86l74 522h22l-74 -522q-8 -58 -22.5 -93t-37 -56t-62.5 -43zM509 690q-5 5 -5 12q0 9 5.5 15t15.5 6q8 0 12.5 -4.5t4.5 -12.5q0 -9 -6 -15t-15 -6q-7 0 -12 5z" />
    <glyph glyph-name="Lslash" unicode="&#x141;" horiz-adv-x="384" 
d="M104 22h238l-8 -22h-255l43 308l-65 -46l-9 16l78 53l49 350h22l-47 -333l177 121l9 -16l-189 -129z" />
    <glyph glyph-name="M" unicode="M" horiz-adv-x="628" 
d="M527 0h-22l18 346q9 212 17 317l-239 -579h-24l-80 578l-38 -172l-30 -137l-79 -353h-22l155 681h31l79 -571l234 571h35z" />
    <glyph glyph-name="uni1E3E" unicode="&#x1e3e;" horiz-adv-x="628" 
d="M527 0h-22l18 346q9 212 17 317l-239 -579h-24l-80 578l-38 -172l-30 -137l-79 -353h-22l155 681h31l79 -571l234 571h35zM460 859l10 -23l-158 -72l-8 15z" />
    <glyph glyph-name="uni1E40" unicode="&#x1e40;" horiz-adv-x="628" 
d="M527 0h-22l18 346q9 212 17 317l-239 -579h-24l-80 578l-38 -172l-30 -137l-79 -353h-22l155 681h31l79 -571l234 571h35zM374 816q-5 5 -5 12q0 9 5.5 15t15.5 6q8 0 12.5 -4.5t4.5 -12.5q0 -9 -6 -15t-15 -6q-7 0 -12 5z" />
    <glyph glyph-name="uni019C" unicode="&#x19c;" horiz-adv-x="755" 
d="M714 681l-95 -681h-19l13 107q-73 -117 -162 -117q-51 0 -78.5 31t-28.5 90q-74 -121 -165 -121q-51 0 -78.5 31.5t-27.5 91.5q0 21 3 45l73 523h22l-73 -528q-3 -22 -3 -41q0 -50 22 -75.5t64 -25.5q46 0 86.5 35t77.5 97l2 15l73 523h23l-74 -528q-3 -21 -3 -39
q0 -51 22 -77t64 -26q88 0 165 133l75 537h22z" />
    <glyph glyph-name="N" unicode="N" horiz-adv-x="544" 
d="M407 0h-28l-206 658q-4 -58 -22 -182l-66 -476h-22l96 681h28l206 -656q7 78 22 180l66 476h22z" />
    <glyph glyph-name="uni01CA" unicode="&#x1ca;" horiz-adv-x="780" 
d="M407 0h-28l-206 658q-4 -58 -22 -182l-66 -476h-22l96 681h28l206 -656q7 78 22 180l66 476h22zM661 87q-8 -54 -21.5 -85.5t-39.5 -54.5t-75 -47l-8 16q44 23 67 44t35.5 50.5t19.5 79.5l83 591h22z" />
    <glyph glyph-name="Nacute" unicode="&#x143;" horiz-adv-x="544" 
d="M407 0h-28l-206 658q-4 -58 -22 -182l-66 -476h-22l96 681h28l206 -656q7 78 22 180l66 476h22zM425 859l10 -23l-158 -72l-8 15z" />
    <glyph glyph-name="Ncaron" unicode="&#x147;" horiz-adv-x="544" 
d="M407 0h-28l-206 658q-4 -58 -22 -182l-66 -476h-22l96 681h28l206 -656q7 78 22 180l66 476h22zM455 862l10 -12l-112 -90h-13l-85 90l12 12l81 -78z" />
    <glyph glyph-name="uni1E4A" unicode="&#x1e4a;" horiz-adv-x="544" 
d="M407 0h-28l-206 658q-4 -58 -22 -182l-66 -476h-22l96 681h28l206 -656q7 78 22 180l66 476h22zM118 -184l-11 14l112 95h13l85 -95l-11 -14l-83 85z" />
    <glyph glyph-name="Ncommaaccent" unicode="&#x145;" horiz-adv-x="544" 
d="M407 0h-28l-206 658q-4 -58 -22 -182l-66 -476h-22l96 681h28l206 -656q7 78 22 180l66 476h22zM238.5 -102q5.5 -6 5.5 -15q0 -13 -13 -35l-48 -106h-15l42 116q-12 7 -12 21q0 11 7 18t18 7q10 0 15.5 -6z" />
    <glyph glyph-name="uni1E44" unicode="&#x1e44;" horiz-adv-x="544" 
d="M407 0h-28l-206 658q-4 -58 -22 -182l-66 -476h-22l96 681h28l206 -656q7 78 22 180l66 476h22zM339 816q-5 5 -5 12q0 9 5.5 15t15.5 6q8 0 12.5 -4.5t4.5 -12.5q0 -9 -6 -15t-15 -6q-7 0 -12 5z" />
    <glyph glyph-name="uni1E46" unicode="&#x1e46;" horiz-adv-x="544" 
d="M407 0h-28l-206 658q-4 -58 -22 -182l-66 -476h-22l96 681h28l206 -656q7 78 22 180l66 476h22zM232 -104q5 -5 5 -12q0 -9 -5.5 -15t-15.5 -6q-8 0 -12.5 4.5t-4.5 12.5q0 9 6 15t15 6q7 0 12 -5z" />
    <glyph glyph-name="uni01F8" unicode="&#x1f8;" horiz-adv-x="544" 
d="M407 0h-28l-206 658q-4 -58 -22 -182l-66 -476h-22l96 681h28l206 -656q7 78 22 180l66 476h22zM298 858l131 -80l-9 -14l-137 72z" />
    <glyph glyph-name="Eng" unicode="&#x14a;" horiz-adv-x="544" 
d="M503 681l-96 -681l-13 -97q-7 -48 -34 -74t-64 -26q-39 0 -70 31l13 14q13 -12 26 -18t32 -6q28 0 48 20.5t26 61.5l13 94h-5l-206 658q-4 -58 -22 -182l-66 -476h-22l96 681h28l206 -656q7 78 22 180l66 476h22z" />
    <glyph glyph-name="uni019D" unicode="&#x19d;" horiz-adv-x="544" 
d="M503 681l-96 -681h-28l-206 658q-4 -58 -22 -182l-66 -476l-13 -97q-7 -48 -33.5 -74t-63.5 -26q-41 0 -70 31l12 14q14 -12 26.5 -18t31.5 -6q28 0 48.5 20.5t26.5 61.5l13 94l96 681h28l206 -656q7 78 22 180l66 476h22z" />
    <glyph glyph-name="uni01CB" unicode="&#x1cb;" horiz-adv-x="758" 
d="M407 0h-28l-206 658q-4 -58 -22 -182l-66 -476h-22l96 681h28l206 -656q7 78 22 180l66 476h22zM497 -178q34 19 53.5 38t32 51t20.5 86l74 522h22l-74 -522q-8 -58 -22.5 -93t-37 -56t-62.5 -43zM701 690q-5 5 -5 12q0 9 5.5 15t15.5 6q8 0 12.5 -4.5t4.5 -12.5
q0 -9 -6 -15t-15 -6q-7 0 -12 5z" />
    <glyph glyph-name="uni0220" unicode="&#x220;" horiz-adv-x="533" 
d="M446.5 656.5q31.5 -34.5 31.5 -97.5q0 -19 -3 -42l-100 -709h-22l100 708q3 21 3 40q0 56 -26 85t-74 29q-55 0 -102 -33t-92 -91l-76 -546h-23l96 681h19l-12 -104q89 114 191 114q58 0 89.5 -34.5z" />
    <glyph glyph-name="Ntilde" unicode="&#xd1;" horiz-adv-x="544" 
d="M407 0h-28l-206 658q-4 -58 -22 -182l-66 -476h-22l96 681h28l206 -656q7 78 22 180l66 476h22zM377.5 810q-11.5 6 -27.5 18q-12 10 -21 14.5t-19 4.5q-15 0 -25 -7.5t-28 -27.5l-13 9q18 23 33.5 34.5t32.5 11.5q12 0 22.5 -5.5t25.5 -16.5q13 -10 23 -15.5t21 -5.5
q14 0 26 9.5t28 31.5l13 -9q-31 -52 -66 -52q-14 0 -25.5 6z" />
    <glyph glyph-name="O" unicode="O" horiz-adv-x="571" 
d="M482.5 630.5q45.5 -60.5 45.5 -175.5q0 -104 -29.5 -211t-94.5 -180.5t-165 -73.5q-82 0 -127.5 62t-45.5 176q0 102 30.5 209t95.5 180.5t162 73.5q83 0 128.5 -60.5zM203.5 599.5q-59.5 -71.5 -87 -174t-27.5 -197.5q0 -105 39.5 -160.5t110.5 -55.5q94 0 154 72
t86 174t26 198q0 106 -39 160.5t-112 54.5q-91 0 -150.5 -71.5z" />
    <glyph glyph-name="uni0222" unicode="&#x222;" horiz-adv-x="518" 
d="M336 381q55 -15 83.5 -55t28.5 -100q0 -71 -29 -124.5t-80 -82.5t-117 -29q-83 0 -127 45t-44 120q0 87 45 148t120 79q-39 12 -58 40.5t-19 74.5q0 19 3 40l20 144h22l-20 -145q-3 -21 -3 -39q0 -54 28.5 -80t87.5 -26q74 0 110 38.5t46 107.5l21 144h22l-20 -145
q-18 -128 -120 -155zM387 332q-37 38 -112 38q-59 0 -105 -27t-71 -76t-25 -112q0 -66 37.5 -104.5t111.5 -38.5q92 0 146.5 57.5t54.5 156.5q0 68 -37 106z" />
    <glyph glyph-name="Oacute" unicode="&#xd3;" horiz-adv-x="571" 
d="M482.5 630.5q45.5 -60.5 45.5 -175.5q0 -104 -29.5 -211t-94.5 -180.5t-165 -73.5q-82 0 -127.5 62t-45.5 176q0 102 30.5 209t95.5 180.5t162 73.5q83 0 128.5 -60.5zM203.5 599.5q-59.5 -71.5 -87 -174t-27.5 -197.5q0 -105 39.5 -160.5t110.5 -55.5q94 0 154 72
t86 174t26 198q0 106 -39 160.5t-112 54.5q-91 0 -150.5 -71.5zM443 859l10 -23l-158 -72l-8 15z" />
    <glyph glyph-name="Obreve" unicode="&#x14e;" horiz-adv-x="571" 
d="M482.5 630.5q45.5 -60.5 45.5 -175.5q0 -104 -29.5 -211t-94.5 -180.5t-165 -73.5q-82 0 -127.5 62t-45.5 176q0 102 30.5 209t95.5 180.5t162 73.5q83 0 128.5 -60.5zM203.5 599.5q-59.5 -71.5 -87 -174t-27.5 -197.5q0 -105 39.5 -160.5t110.5 -55.5q94 0 154 72
t86 174t26 198q0 106 -39 160.5t-112 54.5q-91 0 -150.5 -71.5zM304.5 793.5q-21.5 22.5 -23.5 54.5l16 2q4 -27 20.5 -42.5t46.5 -15.5q29 0 50 16t33 43l16 -5q-11 -32 -37.5 -53.5t-62.5 -21.5q-37 0 -58.5 22.5z" />
    <glyph glyph-name="uni01D1" unicode="&#x1d1;" horiz-adv-x="571" 
d="M482.5 630.5q45.5 -60.5 45.5 -175.5q0 -104 -29.5 -211t-94.5 -180.5t-165 -73.5q-82 0 -127.5 62t-45.5 176q0 102 30.5 209t95.5 180.5t162 73.5q83 0 128.5 -60.5zM203.5 599.5q-59.5 -71.5 -87 -174t-27.5 -197.5q0 -105 39.5 -160.5t110.5 -55.5q94 0 154 72
t86 174t26 198q0 106 -39 160.5t-112 54.5q-91 0 -150.5 -71.5zM473 862l10 -12l-112 -90h-13l-85 90l12 12l81 -78z" />
    <glyph glyph-name="uni019F" unicode="&#x19f;" horiz-adv-x="571" 
d="M482.5 630.5q45.5 -60.5 45.5 -175.5q0 -104 -29.5 -211t-94.5 -180.5t-165 -73.5q-82 0 -127.5 62t-45.5 176q0 102 30.5 209t95.5 180.5t162 73.5q83 0 128.5 -60.5zM187.5 579.5q-63.5 -91.5 -86.5 -222.5h397q7 49 7 99q0 106 -39 160.5t-112 54.5
q-103 0 -166.5 -91.5zM412 106.5q63 94.5 84 230.5h-398q-9 -58 -9 -109q0 -105 39.5 -160.5t110.5 -55.5q110 0 173 94.5z" />
    <glyph glyph-name="Ocircumflex" unicode="&#xd4;" horiz-adv-x="571" 
d="M482.5 630.5q45.5 -60.5 45.5 -175.5q0 -104 -29.5 -211t-94.5 -180.5t-165 -73.5q-82 0 -127.5 62t-45.5 176q0 102 30.5 209t95.5 180.5t162 73.5q83 0 128.5 -60.5zM203.5 599.5q-59.5 -71.5 -87 -174t-27.5 -197.5q0 -105 39.5 -160.5t110.5 -55.5q94 0 154 72
t86 174t26 198q0 106 -39 160.5t-112 54.5q-91 0 -150.5 -71.5zM267 766l-10 13l112 90h12l86 -90l-12 -13l-81 79z" />
    <glyph glyph-name="uni1ED0" unicode="&#x1ed0;" horiz-adv-x="571" 
d="M525 953l17 -16l-103 -113l-12 10zM264 737l-10 13l112 90h12l86 -90l-12 -13l-81 79zM482.5 630.5q45.5 -60.5 45.5 -175.5q0 -104 -29.5 -211t-94.5 -180.5t-165 -73.5q-82 0 -127.5 62t-45.5 176q0 102 30.5 209t95.5 180.5t162 73.5q83 0 128.5 -60.5zM203.5 599.5
q-59.5 -71.5 -87 -174t-27.5 -197.5q0 -105 39.5 -160.5t110.5 -55.5q94 0 154 72t86 174t26 198q0 106 -39 160.5t-112 54.5q-91 0 -150.5 -71.5z" />
    <glyph glyph-name="uni1ED8" unicode="&#x1ed8;" horiz-adv-x="571" 
d="M482.5 630.5q45.5 -60.5 45.5 -175.5q0 -104 -29.5 -211t-94.5 -180.5t-165 -73.5q-82 0 -127.5 62t-45.5 176q0 102 30.5 209t95.5 180.5t162 73.5q83 0 128.5 -60.5zM203.5 599.5q-59.5 -71.5 -87 -174t-27.5 -197.5q0 -105 39.5 -160.5t110.5 -55.5q94 0 154 72
t86 174t26 198q0 106 -39 160.5t-112 54.5q-91 0 -150.5 -71.5zM267 766l-10 13l112 90h12l86 -90l-12 -13l-81 79zM238 -104q5 -5 5 -12q0 -9 -5.5 -15t-15.5 -6q-8 0 -12.5 4.5t-4.5 12.5q0 9 6 15t15 6q7 0 12 -5z" />
    <glyph glyph-name="uni1ED2" unicode="&#x1ed2;" horiz-adv-x="571" 
d="M242 953l64 -121l-13 -8l-72 116zM263 737l-10 13l112 90h12l86 -90l-12 -13l-81 79zM482.5 630.5q45.5 -60.5 45.5 -175.5q0 -104 -29.5 -211t-94.5 -180.5t-165 -73.5q-82 0 -127.5 62t-45.5 176q0 102 30.5 209t95.5 180.5t162 73.5q83 0 128.5 -60.5zM203.5 599.5
q-59.5 -71.5 -87 -174t-27.5 -197.5q0 -105 39.5 -160.5t110.5 -55.5q94 0 154 72t86 174t26 198q0 106 -39 160.5t-112 54.5q-91 0 -150.5 -71.5z" />
    <glyph glyph-name="uni1ED4" unicode="&#x1ed4;" horiz-adv-x="571" 
d="M482.5 630.5q45.5 -60.5 45.5 -175.5q0 -104 -29.5 -211t-94.5 -180.5t-165 -73.5q-82 0 -127.5 62t-45.5 176q0 102 30.5 209t95.5 180.5t162 73.5q83 0 128.5 -60.5zM203.5 599.5q-59.5 -71.5 -87 -174t-27.5 -197.5q0 -105 39.5 -160.5t110.5 -55.5q94 0 154 72
t86 174t26 198q0 106 -39 160.5t-112 54.5q-91 0 -150.5 -71.5zM262 737l-10 13l112 90h12l86 -90l-12 -13l-81 79zM447 861q64 4 64 57q0 41 -37 41q-13 0 -23.5 -3.5t-23.5 -10.5l-7 17q26 17 55 17q27 0 43 -16.5t16 -44.5q0 -31 -18 -49t-50 -23l-5 -42h-21z" />
    <glyph glyph-name="uni1ED6" unicode="&#x1ed6;" horiz-adv-x="571" 
d="M398.5 885q-11.5 6 -27.5 18q-12 10 -21 14.5t-19 4.5q-15 0 -25 -7.5t-28 -27.5l-13 9q18 23 33.5 34.5t32.5 11.5q12 0 22.5 -5.5t25.5 -16.5q13 -10 23 -15.5t21 -5.5q14 0 26 9.5t28 31.5l13 -9q-31 -52 -66 -52q-14 0 -25.5 6zM261 737l-10 13l112 90h12l86 -90
l-12 -13l-81 79zM482.5 630.5q45.5 -60.5 45.5 -175.5q0 -104 -29.5 -211t-94.5 -180.5t-165 -73.5q-82 0 -127.5 62t-45.5 176q0 102 30.5 209t95.5 180.5t162 73.5q83 0 128.5 -60.5zM203.5 599.5q-59.5 -71.5 -87 -174t-27.5 -197.5q0 -105 39.5 -160.5t110.5 -55.5
q94 0 154 72t86 174t26 198q0 106 -39 160.5t-112 54.5q-91 0 -150.5 -71.5z" />
    <glyph glyph-name="uni020C" unicode="&#x20c;" horiz-adv-x="571" 
d="M482.5 630.5q45.5 -60.5 45.5 -175.5q0 -104 -29.5 -211t-94.5 -180.5t-165 -73.5q-82 0 -127.5 62t-45.5 176q0 102 30.5 209t95.5 180.5t162 73.5q83 0 128.5 -60.5zM203.5 599.5q-59.5 -71.5 -87 -174t-27.5 -197.5q0 -105 39.5 -160.5t110.5 -55.5q94 0 154 72
t86 174t26 198q0 106 -39 160.5t-112 54.5q-91 0 -150.5 -71.5zM286 917l41 -132l-18 -7l-48 129zM378 916l37 -127l-18 -7l-44 124z" />
    <glyph glyph-name="Odieresis" unicode="&#xd6;" horiz-adv-x="571" 
d="M482.5 630.5q45.5 -60.5 45.5 -175.5q0 -104 -29.5 -211t-94.5 -180.5t-165 -73.5q-82 0 -127.5 62t-45.5 176q0 102 30.5 209t95.5 180.5t162 73.5q83 0 128.5 -60.5zM203.5 599.5q-59.5 -71.5 -87 -174t-27.5 -197.5q0 -105 39.5 -160.5t110.5 -55.5q94 0 154 72
t86 174t26 198q0 106 -39 160.5t-112 54.5q-91 0 -150.5 -71.5zM289.5 804q-4.5 5 -4.5 12q0 9 5.5 15t14.5 6q7 0 12 -4.5t5 -12.5q0 -9 -6 -15t-15 -6q-7 0 -11.5 5zM428 804q-5 5 -5 12q0 9 5.5 15t15.5 6q7 0 11.5 -4.5t4.5 -12.5q0 -9 -5.5 -15t-14.5 -6q-7 0 -12 5z
" />
    <glyph glyph-name="uni022A" unicode="&#x22a;" horiz-adv-x="571" 
d="M482.5 630.5q45.5 -60.5 45.5 -175.5q0 -104 -29.5 -211t-94.5 -180.5t-165 -73.5q-82 0 -127.5 62t-45.5 176q0 102 30.5 209t95.5 180.5t162 73.5q83 0 128.5 -60.5zM203.5 599.5q-59.5 -71.5 -87 -174t-27.5 -197.5q0 -105 39.5 -160.5t110.5 -55.5q94 0 154 72
t86 174t26 198q0 106 -39 160.5t-112 54.5q-91 0 -150.5 -71.5zM278.5 747q-4.5 5 -4.5 12q0 9 5.5 15t14.5 6q7 0 12 -4.5t5 -12.5q0 -9 -6 -15t-15 -6q-7 0 -11.5 5zM417 747q-5 5 -5 12q0 9 5.5 15t15.5 6q7 0 11.5 -4.5t4.5 -12.5q0 -9 -5.5 -15t-14.5 -6q-7 0 -12 5z
M456 850h-173l3 21h173z" />
    <glyph glyph-name="uni022E" unicode="&#x22e;" horiz-adv-x="571" 
d="M482.5 630.5q45.5 -60.5 45.5 -175.5q0 -104 -29.5 -211t-94.5 -180.5t-165 -73.5q-82 0 -127.5 62t-45.5 176q0 102 30.5 209t95.5 180.5t162 73.5q83 0 128.5 -60.5zM203.5 599.5q-59.5 -71.5 -87 -174t-27.5 -197.5q0 -105 39.5 -160.5t110.5 -55.5q94 0 154 72
t86 174t26 198q0 106 -39 160.5t-112 54.5q-91 0 -150.5 -71.5zM357 816q-5 5 -5 12q0 9 5.5 15t15.5 6q8 0 12.5 -4.5t4.5 -12.5q0 -9 -6 -15t-15 -6q-7 0 -12 5z" />
    <glyph glyph-name="uni0230" unicode="&#x230;" horiz-adv-x="571" 
d="M482.5 630.5q45.5 -60.5 45.5 -175.5q0 -104 -29.5 -211t-94.5 -180.5t-165 -73.5q-82 0 -127.5 62t-45.5 176q0 102 30.5 209t95.5 180.5t162 73.5q83 0 128.5 -60.5zM203.5 599.5q-59.5 -71.5 -87 -174t-27.5 -197.5q0 -105 39.5 -160.5t110.5 -55.5q94 0 154 72
t86 174t26 198q0 106 -39 160.5t-112 54.5q-91 0 -150.5 -71.5zM349 752q-5 5 -5 12q0 9 5.5 15t15.5 6q8 0 12.5 -4.5t4.5 -12.5q0 -9 -6 -15t-15 -6q-7 0 -12 5zM458 849h-173l3 21h173z" />
    <glyph glyph-name="uni1ECC" unicode="&#x1ecc;" horiz-adv-x="571" 
d="M482.5 630.5q45.5 -60.5 45.5 -175.5q0 -104 -29.5 -211t-94.5 -180.5t-165 -73.5q-82 0 -127.5 62t-45.5 176q0 102 30.5 209t95.5 180.5t162 73.5q83 0 128.5 -60.5zM203.5 599.5q-59.5 -71.5 -87 -174t-27.5 -197.5q0 -105 39.5 -160.5t110.5 -55.5q94 0 154 72
t86 174t26 198q0 106 -39 160.5t-112 54.5q-91 0 -150.5 -71.5zM238 -104q5 -5 5 -12q0 -9 -5.5 -15t-15.5 -6q-8 0 -12.5 4.5t-4.5 12.5q0 9 6 15t15 6q7 0 12 -5z" />
    <glyph glyph-name="Ograve" unicode="&#xd2;" horiz-adv-x="571" 
d="M482.5 630.5q45.5 -60.5 45.5 -175.5q0 -104 -29.5 -211t-94.5 -180.5t-165 -73.5q-82 0 -127.5 62t-45.5 176q0 102 30.5 209t95.5 180.5t162 73.5q83 0 128.5 -60.5zM203.5 599.5q-59.5 -71.5 -87 -174t-27.5 -197.5q0 -105 39.5 -160.5t110.5 -55.5q94 0 154 72
t86 174t26 198q0 106 -39 160.5t-112 54.5q-91 0 -150.5 -71.5zM316 858l131 -80l-9 -14l-137 72z" />
    <glyph glyph-name="uni1ECE" unicode="&#x1ece;" horiz-adv-x="571" 
d="M482.5 630.5q45.5 -60.5 45.5 -175.5q0 -104 -29.5 -211t-94.5 -180.5t-165 -73.5q-82 0 -127.5 62t-45.5 176q0 102 30.5 209t95.5 180.5t162 73.5q83 0 128.5 -60.5zM203.5 599.5q-59.5 -71.5 -87 -174t-27.5 -197.5q0 -105 39.5 -160.5t110.5 -55.5q94 0 154 72
t86 174t26 198q0 106 -39 160.5t-112 54.5q-91 0 -150.5 -71.5zM364 839q64 4 64 57q0 41 -37 41q-13 0 -23.5 -3.5t-23.5 -10.5l-7 17q26 17 55 17q27 0 43 -16.5t16 -44.5q0 -31 -18 -49t-50 -23l-5 -42h-21z" />
    <glyph glyph-name="Ohorn" unicode="&#x1a0;" horiz-adv-x="571" 
d="M552.5 641q-17.5 -24 -56.5 -31q32 -59 32 -155q0 -104 -29.5 -211t-94.5 -180.5t-165 -73.5q-82 0 -127.5 62t-45.5 176q0 102 30.5 209t95.5 180.5t162 73.5q87 0 132 -66q37 6 51 25.5t14 58.5q0 27 -7 50l18 5q8 -26 8 -55q0 -44 -17.5 -68zM393 84q60 72 86 174
t26 198q0 106 -39 160.5t-112 54.5q-91 0 -150.5 -71.5t-87 -174t-27.5 -197.5q0 -105 39.5 -160.5t110.5 -55.5q94 0 154 72z" />
    <glyph glyph-name="uni1EDA" unicode="&#x1eda;" horiz-adv-x="571" 
d="M453 836l-158 -72l-8 15l156 80zM552.5 641q-17.5 -24 -56.5 -31q32 -59 32 -155q0 -104 -29.5 -211t-94.5 -180.5t-165 -73.5q-82 0 -127.5 62t-45.5 176q0 102 30.5 209t95.5 180.5t162 73.5q87 0 132 -66q37 6 51 25.5t14 58.5q0 27 -7 50l18 5q8 -26 8 -55
q0 -44 -17.5 -68zM393 84q60 72 86 174t26 198q0 106 -39 160.5t-112 54.5q-91 0 -150.5 -71.5t-87 -174t-27.5 -197.5q0 -105 39.5 -160.5t110.5 -55.5q94 0 154 72z" />
    <glyph glyph-name="uni1EE2" unicode="&#x1ee2;" horiz-adv-x="571" 
d="M552.5 641q-17.5 -24 -56.5 -31q32 -59 32 -155q0 -104 -29.5 -211t-94.5 -180.5t-165 -73.5q-82 0 -127.5 62t-45.5 176q0 102 30.5 209t95.5 180.5t162 73.5q87 0 132 -66q37 6 51 25.5t14 58.5q0 27 -7 50l18 5q8 -26 8 -55q0 -44 -17.5 -68zM393 84q60 72 86 174
t26 198q0 106 -39 160.5t-112 54.5q-91 0 -150.5 -71.5t-87 -174t-27.5 -197.5q0 -105 39.5 -160.5t110.5 -55.5q94 0 154 72zM238 -104q5 -5 5 -12q0 -9 -5.5 -15t-15.5 -6q-7 0 -12 4.5t-5 12.5q0 9 6 15t15 6q7 0 12 -5z" />
    <glyph glyph-name="uni1EDC" unicode="&#x1edc;" horiz-adv-x="571" 
d="M447 778l-9 -14l-137 72l15 22zM552.5 641q-17.5 -24 -56.5 -31q32 -59 32 -155q0 -104 -29.5 -211t-94.5 -180.5t-165 -73.5q-82 0 -127.5 62t-45.5 176q0 102 30.5 209t95.5 180.5t162 73.5q87 0 132 -66q37 6 51 25.5t14 58.5q0 27 -7 50l18 5q8 -26 8 -55
q0 -44 -17.5 -68zM393 84q60 72 86 174t26 198q0 106 -39 160.5t-112 54.5q-91 0 -150.5 -71.5t-87 -174t-27.5 -197.5q0 -105 39.5 -160.5t110.5 -55.5q94 0 154 72z" />
    <glyph glyph-name="uni1EDE" unicode="&#x1ede;" horiz-adv-x="571" 
d="M367.5 933.5q-10.5 -3.5 -23.5 -10.5l-7 17q26 17 55 17q27 0 43 -16.5t16 -44.5q0 -31 -18 -49t-50 -23l-5 -42h-21l7 57q64 4 64 57q0 41 -37 41q-13 0 -23.5 -3.5zM552.5 641q-17.5 -24 -56.5 -31q32 -59 32 -155q0 -104 -29.5 -211t-94.5 -180.5t-165 -73.5
q-82 0 -127.5 62t-45.5 176q0 102 30.5 209t95.5 180.5t162 73.5q87 0 132 -66q37 6 51 25.5t14 58.5q0 27 -7 50l18 5q8 -26 8 -55q0 -44 -17.5 -68zM393 84q60 72 86 174t26 198q0 106 -39 160.5t-112 54.5q-91 0 -150.5 -71.5t-87 -174t-27.5 -197.5q0 -105 39.5 -160.5
t110.5 -55.5q94 0 154 72z" />
    <glyph glyph-name="uni1EE0" unicode="&#x1ee0;" horiz-adv-x="571" 
d="M303 839.5q-10 -7.5 -28 -27.5l-13 9q18 23 33.5 34.5t32.5 11.5q12 0 22.5 -5.5t25.5 -16.5q13 -10 23 -15.5t21 -5.5q14 0 26 9.5t28 31.5l13 -9q-31 -52 -66 -52q-14 0 -25.5 6t-27.5 18q-12 10 -21 14.5t-19 4.5q-15 0 -25 -7.5zM552.5 641q-17.5 -24 -56.5 -31
q32 -59 32 -155q0 -104 -29.5 -211t-94.5 -180.5t-165 -73.5q-82 0 -127.5 62t-45.5 176q0 102 30.5 209t95.5 180.5t162 73.5q87 0 132 -66q37 6 51 25.5t14 58.5q0 27 -7 50l18 5q8 -26 8 -55q0 -44 -17.5 -68zM393 84q60 72 86 174t26 198q0 106 -39 160.5t-112 54.5
q-91 0 -150.5 -71.5t-87 -174t-27.5 -197.5q0 -105 39.5 -160.5t110.5 -55.5q94 0 154 72z" />
    <glyph glyph-name="Ohungarumlaut" unicode="&#x150;" horiz-adv-x="571" 
d="M482.5 630.5q45.5 -60.5 45.5 -175.5q0 -104 -29.5 -211t-94.5 -180.5t-165 -73.5q-82 0 -127.5 62t-45.5 176q0 102 30.5 209t95.5 180.5t162 73.5q83 0 128.5 -60.5zM203.5 599.5q-59.5 -71.5 -87 -174t-27.5 -197.5q0 -105 39.5 -160.5t110.5 -55.5q94 0 154 72
t86 174t26 198q0 106 -39 160.5t-112 54.5q-91 0 -150.5 -71.5zM476 917l20 -11l-83 -128l-15 9zM383 916l21 -12l-78 -122l-14 8z" />
    <glyph glyph-name="uni01A2" unicode="&#x1a2;" horiz-adv-x="729" 
d="M654 667.5q22 -23.5 22 -61.5q0 -6 -2 -22l-109 -776h-22l109 776q1 7 1 20q0 68 -65 68q-28 0 -53.5 -10t-55.5 -28q49 -60 49 -179q0 -104 -29.5 -211t-94.5 -180.5t-165 -73.5q-82 0 -127.5 62t-45.5 176q0 102 30.5 209t95.5 180.5t162 73.5q68 0 113 -43
q31 20 60.5 31.5t60.5 11.5q44 0 66 -23.5zM393 84q60 72 86 174t26 198q0 106 -39 160.5t-112 54.5q-91 0 -150.5 -71.5t-87 -174t-27.5 -197.5q0 -105 39.5 -160.5t110.5 -55.5q94 0 154 72z" />
    <glyph glyph-name="uni020E" unicode="&#x20e;" horiz-adv-x="571" 
d="M482.5 630.5q45.5 -60.5 45.5 -175.5q0 -104 -29.5 -211t-94.5 -180.5t-165 -73.5q-82 0 -127.5 62t-45.5 176q0 102 30.5 209t95.5 180.5t162 73.5q83 0 128.5 -60.5zM203.5 599.5q-59.5 -71.5 -87 -174t-27.5 -197.5q0 -105 39.5 -160.5t110.5 -55.5q94 0 154 72
t86 174t26 198q0 106 -39 160.5t-112 54.5q-91 0 -150.5 -71.5zM277 802q12 38 38 61.5t62 23.5q37 0 59 -24.5t23 -62.5l-16 -2q-8 68 -67 68q-58 0 -85 -69z" />
    <glyph glyph-name="Omacron" unicode="&#x14c;" horiz-adv-x="571" 
d="M482.5 630.5q45.5 -60.5 45.5 -175.5q0 -104 -29.5 -211t-94.5 -180.5t-165 -73.5q-82 0 -127.5 62t-45.5 176q0 102 30.5 209t95.5 180.5t162 73.5q83 0 128.5 -60.5zM203.5 599.5q-59.5 -71.5 -87 -174t-27.5 -197.5q0 -105 39.5 -160.5t110.5 -55.5q94 0 154 72
t86 174t26 198q0 106 -39 160.5t-112 54.5q-91 0 -150.5 -71.5zM458 811h-173l3 21h173z" />
    <glyph glyph-name="uni1E52" unicode="&#x1e52;" horiz-adv-x="571" 
d="M482.5 630.5q45.5 -60.5 45.5 -175.5q0 -104 -29.5 -211t-94.5 -180.5t-165 -73.5q-82 0 -127.5 62t-45.5 176q0 102 30.5 209t95.5 180.5t162 73.5q83 0 128.5 -60.5zM203.5 599.5q-59.5 -71.5 -87 -174t-27.5 -197.5q0 -105 39.5 -160.5t110.5 -55.5q94 0 154 72
t86 174t26 198q0 106 -39 160.5t-112 54.5q-91 0 -150.5 -71.5zM452 767h-173l3 21h173zM451 939l10 -23l-158 -72l-8 15z" />
    <glyph glyph-name="uni1E50" unicode="&#x1e50;" horiz-adv-x="571" 
d="M482.5 630.5q45.5 -60.5 45.5 -175.5q0 -104 -29.5 -211t-94.5 -180.5t-165 -73.5q-82 0 -127.5 62t-45.5 176q0 102 30.5 209t95.5 180.5t162 73.5q83 0 128.5 -60.5zM203.5 599.5q-59.5 -71.5 -87 -174t-27.5 -197.5q0 -105 39.5 -160.5t110.5 -55.5q94 0 154 72
t86 174t26 198q0 106 -39 160.5t-112 54.5q-91 0 -150.5 -71.5zM452 767h-173l3 21h173zM323 938l131 -80l-9 -14l-137 72z" />
    <glyph glyph-name="uniA7B6" unicode="&#xa7b6;" horiz-adv-x="703" 
d="M69 172q0 124 33 246.5t94 262.5h23q-61 -137 -94 -262t-33 -247q0 -86 26 -123t75 -37q111 0 136 175l28 209h24l-30 -212q-5 -35 -5 -59q0 -113 89 -113q103 0 144.5 132t41.5 320q0 103 -18 217h23q18 -118 18 -216q0 -201 -47 -338t-162 -137q-54 0 -80 34t-24 98
q-36 -132 -138 -132q-124 0 -124 182z" />
    <glyph glyph-name="uni01EA" unicode="&#x1ea;" horiz-adv-x="571" 
d="M213 -59q-29 -30 -29 -73q0 -24 13 -36.5t36 -12.5q17 0 46 6l-5 -21q-24 -7 -43 -7q-31 0 -50.5 19t-19.5 51q0 39 22 68.5t69 54.5h-13q-82 0 -127.5 62t-45.5 176q0 102 30.5 209t95.5 180.5t162 73.5q83 0 128.5 -60.5t45.5 -175.5q0 -91 -23 -187t-73.5 -171
t-127.5 -98q-62 -28 -91 -58zM128.5 67.5q39.5 -55.5 110.5 -55.5q94 0 154 72t86 174t26 198q0 106 -39 160.5t-112 54.5q-91 0 -150.5 -71.5t-87 -174t-27.5 -197.5q0 -105 39.5 -160.5z" />
    <glyph glyph-name="uni01EC" unicode="&#x1ec;" horiz-adv-x="571" 
d="M461 832l-3 -21h-173l3 21h173zM213 -59q-29 -30 -29 -73q0 -24 13 -36.5t36 -12.5q17 0 46 6l-5 -21q-24 -7 -43 -7q-31 0 -50.5 19t-19.5 51q0 39 22 68.5t69 54.5h-13q-82 0 -127.5 62t-45.5 176q0 102 30.5 209t95.5 180.5t162 73.5q83 0 128.5 -60.5t45.5 -175.5
q0 -91 -23 -187t-73.5 -171t-127.5 -98q-62 -28 -91 -58zM128.5 67.5q39.5 -55.5 110.5 -55.5q94 0 154 72t86 174t26 198q0 106 -39 160.5t-112 54.5q-91 0 -150.5 -71.5t-87 -174t-27.5 -197.5q0 -105 39.5 -160.5z" />
    <glyph glyph-name="uni0186" unicode="&#x186;" horiz-adv-x="455" 
d="M369.5 632q42.5 -59 42.5 -172q0 -121 -34.5 -229t-99 -174.5t-149.5 -66.5q-46 0 -78 17t-60 47l16 15q27 -28 53.5 -42.5t68.5 -14.5q79 0 138.5 64t91 167t31.5 218q0 104 -37 156.5t-101 52.5q-42 0 -74 -12.5t-68 -40.5l-11 17q35 28 71.5 42.5t82.5 14.5
q74 0 116.5 -59z" />
    <glyph glyph-name="Oslash" unicode="&#xd8;" horiz-adv-x="571" 
d="M504.5 592q23.5 -55 23.5 -137q0 -104 -29.5 -211t-94.5 -180.5t-165 -73.5q-34 0 -60 10l-42 -111l-19 7l44 112q-47 24 -71.5 80t-24.5 140q0 102 30.5 209t95.5 180.5t162 73.5q34 0 65 -11l44 118l20 -6l-47 -120q45 -25 68.5 -80zM110 99q21 -51 62 -72l240 633
q-27 11 -58 11q-91 0 -150.5 -71.5t-87 -174t-27.5 -197.5q0 -78 21 -129zM393 84q60 72 86 174t26 198q0 152 -79 198l-239 -634q26 -8 52 -8q94 0 154 72z" />
    <glyph glyph-name="Oslashacute" unicode="&#x1fe;" horiz-adv-x="571" 
d="M504.5 592q23.5 -55 23.5 -137q0 -104 -29.5 -211t-94.5 -180.5t-165 -73.5q-34 0 -60 10l-42 -111l-19 7l44 112q-47 24 -71.5 80t-24.5 140q0 102 30.5 209t95.5 180.5t162 73.5q34 0 65 -11l44 118l20 -6l-47 -120q45 -25 68.5 -80zM110 99q21 -51 62 -72l240 633
q-27 11 -58 11q-91 0 -150.5 -71.5t-87 -174t-27.5 -197.5q0 -78 21 -129zM393 84q60 72 86 174t26 198q0 152 -79 198l-239 -634q26 -8 52 -8q94 0 154 72zM442 859l10 -23l-158 -72l-8 15z" />
    <glyph glyph-name="Otilde" unicode="&#xd5;" horiz-adv-x="571" 
d="M482.5 630.5q45.5 -60.5 45.5 -175.5q0 -104 -29.5 -211t-94.5 -180.5t-165 -73.5q-82 0 -127.5 62t-45.5 176q0 102 30.5 209t95.5 180.5t162 73.5q83 0 128.5 -60.5zM203.5 599.5q-59.5 -71.5 -87 -174t-27.5 -197.5q0 -105 39.5 -160.5t110.5 -55.5q94 0 154 72
t86 174t26 198q0 106 -39 160.5t-112 54.5q-91 0 -150.5 -71.5zM395.5 810q-11.5 6 -27.5 18q-12 10 -21 14.5t-19 4.5q-15 0 -25 -7.5t-28 -27.5l-13 9q18 23 33.5 34.5t32.5 11.5q12 0 22.5 -5.5t25.5 -16.5q13 -10 23 -15.5t21 -5.5q14 0 26 9.5t28 31.5l13 -9
q-31 -52 -66 -52q-14 0 -25.5 6z" />
    <glyph glyph-name="uni1E4C" unicode="&#x1e4c;" horiz-adv-x="571" 
d="M482.5 630.5q45.5 -60.5 45.5 -175.5q0 -104 -29.5 -211t-94.5 -180.5t-165 -73.5q-82 0 -127.5 62t-45.5 176q0 102 30.5 209t95.5 180.5t162 73.5q83 0 128.5 -60.5zM203.5 599.5q-59.5 -71.5 -87 -174t-27.5 -197.5q0 -105 39.5 -160.5t110.5 -55.5q94 0 154 72
t86 174t26 198q0 106 -39 160.5t-112 54.5q-91 0 -150.5 -71.5zM390.5 763q-11.5 6 -27.5 18q-13 10 -21.5 14.5t-18.5 4.5q-15 0 -25 -7.5t-28 -27.5l-13 9q18 23 33.5 34.5t32.5 11.5q12 0 22.5 -5.5t25.5 -16.5q13 -10 23 -15.5t21 -5.5q14 0 26 9.5t28 31.5l13 -9
q-31 -52 -66 -52q-14 0 -25.5 6zM453 952l10 -23l-158 -72l-8 15z" />
    <glyph glyph-name="uni022C" unicode="&#x22c;" horiz-adv-x="571" 
d="M464 879h-173l3 21h173zM389.5 763q-11.5 6 -27.5 18q-12 10 -21 14.5t-19 4.5q-15 0 -25 -7.5t-28 -27.5l-13 9q18 23 33.5 34.5t32.5 11.5q12 0 22.5 -5.5t25.5 -16.5q13 -10 23 -15.5t21 -5.5q14 0 26 9.5t28 31.5l13 -9q-31 -52 -66 -52q-14 0 -25.5 6zM482.5 630.5
q45.5 -60.5 45.5 -175.5q0 -104 -29.5 -211t-94.5 -180.5t-165 -73.5q-82 0 -127.5 62t-45.5 176q0 102 30.5 209t95.5 180.5t162 73.5q83 0 128.5 -60.5zM203.5 599.5q-59.5 -71.5 -87 -174t-27.5 -197.5q0 -105 39.5 -160.5t110.5 -55.5q94 0 154 72t86 174t26 198
q0 106 -39 160.5t-112 54.5q-91 0 -150.5 -71.5z" />
    <glyph glyph-name="OE" unicode="&#x152;" horiz-adv-x="694" 
d="M706 660h-273q35 -26 54 -78.5t19 -126.5q0 -35 -5 -85h132l-3 -21h-131q-15 -109 -57 -199t-110 -129h294l-4 -21h-332q-26 -10 -59 -10q-77 0 -121 62.5t-44 175.5q0 101 30 208.5t92 181t152 73.5q32 0 56 -10h316zM444.5 616q-37.5 55 -104.5 55q-84 0 -140.5 -71.5
t-83.5 -174.5t-27 -197q0 -105 38 -160.5t104 -55.5q88 0 144.5 72t81.5 174.5t25 197.5q0 105 -37.5 160z" />
    <glyph glyph-name="P" unicode="P" horiz-adv-x="461" 
d="M457 527q0 -63 -23 -118t-77 -91t-142 -36h-90l-39 -282h-23l96 681h121q177 0 177 -154zM384 368.5q49 65.5 49 157.5q0 70 -38.5 102t-115.5 32h-101l-50 -357h91q116 0 165 65.5z" />
    <glyph glyph-name="uni1E54" unicode="&#x1e54;" horiz-adv-x="461" 
d="M457 527q0 -63 -23 -118t-77 -91t-142 -36h-90l-39 -282h-23l96 681h121q177 0 177 -154zM384 368.5q49 65.5 49 157.5q0 70 -38.5 102t-115.5 32h-101l-50 -357h91q116 0 165 65.5zM392 859l10 -23l-158 -72l-8 15z" />
    <glyph glyph-name="uni1E56" unicode="&#x1e56;" horiz-adv-x="461" 
d="M457 527q0 -63 -23 -118t-77 -91t-142 -36h-90l-39 -282h-23l96 681h121q177 0 177 -154zM384 368.5q49 65.5 49 157.5q0 70 -38.5 102t-115.5 32h-101l-50 -357h91q116 0 165 65.5zM306 816q-5 5 -5 12q0 9 5.5 15t15.5 6q8 0 12.5 -4.5t4.5 -12.5q0 -9 -6 -15t-15 -6
q-7 0 -12 5z" />
    <glyph glyph-name="uni01A4" unicode="&#x1a4;" horiz-adv-x="498" 
d="M493 527q0 -63 -23 -118t-77 -91t-142 -36h-90l-39 -282h-23l93 661h-26q-41 0 -62 -24.5t-21 -62.5t14 -68l-18 -8q-18 34 -18 76q0 47 27.5 77t77.5 30h150q177 0 177 -154zM420 368.5q49 65.5 49 157.5q0 70 -38.5 102t-115.5 32h-101l-50 -357h91q116 0 165 65.5z
" />
    <glyph glyph-name="Thorn" unicode="&#xde;" horiz-adv-x="454" 
d="M430 395q0 -103 -56 -175.5t-185 -72.5h-82l-21 -147h-23l96 681h22l-18 -127h90q177 0 177 -159zM358 234q49 66 49 161q0 73 -38.5 105.5t-116.5 32.5h-92l-51 -365h83q117 0 166 66z" />
    <glyph glyph-name="Q" unicode="Q" horiz-adv-x="572" 
d="M397 -14.5q40 -16.5 68 -51.5l-18 -16q-33 42 -79 57t-125 15h-4h-1h-1v0q-81 1 -126 62.5t-45 175.5q0 102 30.5 209t95.5 180.5t162 73.5q83 0 128.5 -60.5t45.5 -175.5q0 -91 -23 -186t-73.5 -168.5t-127.5 -96.5q53 -2 93 -18.5zM128.5 67.5q39.5 -55.5 110.5 -55.5
q94 0 154 72t86 174t26 198q0 106 -39 160.5t-112 54.5q-91 0 -150.5 -71.5t-87 -174t-27.5 -197.5q0 -105 39.5 -160.5z" />
    <glyph glyph-name="uni024A" unicode="&#x24a;" horiz-adv-x="545" 
d="M515 -168q-33 -29 -76 -29q-33 0 -52.5 20.5t-19.5 57.5q0 6 2 22l13 97l13 88q-65 -98 -161 -98q-77 0 -121.5 65t-44.5 189q0 114 33.5 217t95.5 166.5t143 63.5q86 0 128 -93l13 83h20l-96 -681l-13 -98q-2 -16 -2 -21q0 -28 13.5 -42.5t36.5 -14.5q21 0 35.5 6.5
t28.5 17.5zM400 127l63 441q-22 52 -51.5 77t-72.5 25q-75 0 -131.5 -62t-86.5 -160.5t-30 -204.5q0 -115 38.5 -173t104.5 -58q100 0 166 115z" />
    <glyph glyph-name="R" unicode="R" horiz-adv-x="472" 
d="M413 401q-41 -60 -124 -74l110 -327h-24l-108 324h-2h-134l-45 -324h-23l96 681h127q87 0 127.5 -36t40.5 -107q0 -77 -41 -137zM354 373q40 28 58 71.5t18 92.5q0 63 -33 93t-111 30h-108l-44 -315h117q63 0 103 28z" />
    <glyph glyph-name="Racute" unicode="&#x154;" horiz-adv-x="472" 
d="M413 401q-41 -60 -124 -74l110 -327h-24l-108 324h-2h-134l-45 -324h-23l96 681h127q87 0 127.5 -36t40.5 -107q0 -77 -41 -137zM354 373q40 28 58 71.5t18 92.5q0 63 -33 93t-111 30h-108l-44 -315h117q63 0 103 28zM387 859l10 -23l-158 -72l-8 15z" />
    <glyph glyph-name="Rcaron" unicode="&#x158;" horiz-adv-x="472" 
d="M413 401q-41 -60 -124 -74l110 -327h-24l-108 324h-2h-134l-45 -324h-23l96 681h127q87 0 127.5 -36t40.5 -107q0 -77 -41 -137zM354 373q40 28 58 71.5t18 92.5q0 63 -33 93t-111 30h-108l-44 -315h117q63 0 103 28zM417 862l10 -12l-112 -90h-13l-85 90l12 12l81 -78z
" />
    <glyph glyph-name="Rcommaaccent" unicode="&#x156;" horiz-adv-x="472" 
d="M413 401q-41 -60 -124 -74l110 -327h-24l-108 324h-2h-134l-45 -324h-23l96 681h127q87 0 127.5 -36t40.5 -107q0 -77 -41 -137zM354 373q40 28 58 71.5t18 92.5q0 63 -33 93t-111 30h-108l-44 -315h117q63 0 103 28zM234.5 -102q5.5 -6 5.5 -15q0 -13 -13 -35l-48 -106
h-15l42 116q-12 7 -12 21q0 11 7 18t18 7q10 0 15.5 -6z" />
    <glyph glyph-name="uni0210" unicode="&#x210;" horiz-adv-x="472" 
d="M413 401q-41 -60 -124 -74l110 -327h-24l-108 324h-2h-134l-45 -324h-23l96 681h127q87 0 127.5 -36t40.5 -107q0 -77 -41 -137zM354 373q40 28 58 71.5t18 92.5q0 63 -33 93t-111 30h-108l-44 -315h117q63 0 103 28zM230 917l41 -132l-18 -7l-48 129zM322 916l37 -127
l-18 -7l-44 124z" />
    <glyph glyph-name="uni1E5A" unicode="&#x1e5a;" horiz-adv-x="472" 
d="M413 401q-41 -60 -124 -74l110 -327h-24l-108 324h-2h-134l-45 -324h-23l96 681h127q87 0 127.5 -36t40.5 -107q0 -77 -41 -137zM354 373q40 28 58 71.5t18 92.5q0 63 -33 93t-111 30h-108l-44 -315h117q63 0 103 28zM228 -104q5 -5 5 -12q0 -9 -5.5 -15t-15.5 -6
q-8 0 -12.5 4.5t-4.5 12.5q0 9 6 15t15 6q7 0 12 -5z" />
    <glyph glyph-name="uni0212" unicode="&#x212;" horiz-adv-x="472" 
d="M413 401q-41 -60 -124 -74l110 -327h-24l-108 324h-2h-134l-45 -324h-23l96 681h127q87 0 127.5 -36t40.5 -107q0 -77 -41 -137zM354 373q40 28 58 71.5t18 92.5q0 63 -33 93t-111 30h-108l-44 -315h117q63 0 103 28zM221 802q12 38 38 61.5t62 23.5q37 0 59 -24.5
t23 -62.5l-16 -2q-8 68 -67 68q-58 0 -85 -69z" />
    <glyph glyph-name="uni024C" unicode="&#x24c;" horiz-adv-x="476" 
d="M417 401q-41 -60 -124 -74l110 -327h-24l-108 324h-2h-134l-45 -324h-23l46 324h-76l3 21h76l47 336h127q87 0 127.5 -36t40.5 -107q0 -77 -41 -137zM358 373q40 28 58 71.5t18 92.5q0 63 -33 93t-111 30h-108l-44 -315h117q63 0 103 28z" />
    <glyph glyph-name="uni2C64" unicode="&#x2c64;" horiz-adv-x="472" 
d="M413 401q-41 -60 -124 -74l110 -327h-24l-108 324h-2h-134l-45 -324l-13 -98q-2 -16 -2 -21q0 -28 13.5 -42.5t36.5 -14.5q21 0 35.5 6.5t28.5 17.5l11 -16q-33 -29 -76 -29q-33 0 -52.5 20.5t-19.5 57.5q0 6 2 22l13 97l96 681h127q87 0 127.5 -36t40.5 -107
q0 -77 -41 -137zM354 373q40 28 58 71.5t18 92.5q0 63 -33 93t-111 30h-108l-44 -315h117q63 0 103 28z" />
    <glyph glyph-name="S" unicode="S" horiz-adv-x="440" 
d="M366.5 673q34.5 -18 62.5 -52l-16 -13q-27 32 -57 47.5t-70 15.5q-45 0 -80 -22t-54.5 -59.5t-19.5 -80.5q0 -47 24.5 -74.5t88.5 -55.5q69 -31 99 -68t30 -99q0 -56 -24.5 -107t-71 -83t-110.5 -32q-54 0 -91.5 21t-67.5 62l16 12q27 -36 60 -54.5t82 -18.5
q58 0 100 28.5t63 74.5t21 96q0 55 -26.5 87t-89.5 61q-71 33 -98.5 64.5t-27.5 85.5q0 46 21.5 88t62 68t93.5 26q46 0 80.5 -18z" />
    <glyph glyph-name="Sacute" unicode="&#x15a;" horiz-adv-x="440" 
d="M366.5 673q34.5 -18 62.5 -52l-16 -13q-27 32 -57 47.5t-70 15.5q-45 0 -80 -22t-54.5 -59.5t-19.5 -80.5q0 -47 24.5 -74.5t88.5 -55.5q69 -31 99 -68t30 -99q0 -56 -24.5 -107t-71 -83t-110.5 -32q-54 0 -91.5 21t-67.5 62l16 12q27 -36 60 -54.5t82 -18.5
q58 0 100 28.5t63 74.5t21 96q0 55 -26.5 87t-89.5 61q-71 33 -98.5 64.5t-27.5 85.5q0 46 21.5 88t62 68t93.5 26q46 0 80.5 -18zM377 859l10 -23l-158 -72l-8 15z" />
    <glyph glyph-name="uniA78B" unicode="&#xa78b;" horiz-adv-x="171" 
d="M91 361l41 320h25l-48 -320h-18z" />
    <glyph glyph-name="Scaron" unicode="&#x160;" horiz-adv-x="440" 
d="M366.5 673q34.5 -18 62.5 -52l-16 -13q-27 32 -57 47.5t-70 15.5q-45 0 -80 -22t-54.5 -59.5t-19.5 -80.5q0 -47 24.5 -74.5t88.5 -55.5q69 -31 99 -68t30 -99q0 -56 -24.5 -107t-71 -83t-110.5 -32q-54 0 -91.5 21t-67.5 62l16 12q27 -36 60 -54.5t82 -18.5
q58 0 100 28.5t63 74.5t21 96q0 55 -26.5 87t-89.5 61q-71 33 -98.5 64.5t-27.5 85.5q0 46 21.5 88t62 68t93.5 26q46 0 80.5 -18zM407 862l10 -12l-112 -90h-13l-85 90l12 12l81 -78z" />
    <glyph glyph-name="Scedilla" unicode="&#x15e;" horiz-adv-x="440" 
d="M366.5 673q34.5 -18 62.5 -52l-16 -13q-27 32 -57 47.5t-70 15.5q-45 0 -80 -22t-54.5 -59.5t-19.5 -80.5q0 -47 24.5 -74.5t88.5 -55.5q69 -31 99 -68t30 -99q0 -53 -22 -102t-64.5 -81.5t-100.5 -37.5l-12 -65q67 -6 67 -63q0 -34 -22 -54.5t-57 -20.5t-57 18l9 16
q22 -14 48 -14t41.5 14.5t15.5 39.5t-15 35.5t-52 11.5l16 81h-1q-54 0 -91.5 21t-67.5 62l16 12q27 -36 60 -54.5t82 -18.5q58 0 100 28.5t63 74.5t21 96q0 55 -26.5 87t-89.5 61q-71 33 -98.5 64.5t-27.5 85.5q0 46 21.5 88t62 68t93.5 26q46 0 80.5 -18z" />
    <glyph glyph-name="Scircumflex" unicode="&#x15c;" horiz-adv-x="440" 
d="M366.5 673q34.5 -18 62.5 -52l-16 -13q-27 32 -57 47.5t-70 15.5q-45 0 -80 -22t-54.5 -59.5t-19.5 -80.5q0 -47 24.5 -74.5t88.5 -55.5q69 -31 99 -68t30 -99q0 -56 -24.5 -107t-71 -83t-110.5 -32q-54 0 -91.5 21t-67.5 62l16 12q27 -36 60 -54.5t82 -18.5
q58 0 100 28.5t63 74.5t21 96q0 55 -26.5 87t-89.5 61q-71 33 -98.5 64.5t-27.5 85.5q0 46 21.5 88t62 68t93.5 26q46 0 80.5 -18zM201 766l-10 13l112 90h12l86 -90l-12 -13l-81 79z" />
    <glyph glyph-name="Scommaaccent" unicode="&#x218;" horiz-adv-x="440" 
d="M366.5 673q34.5 -18 62.5 -52l-16 -13q-27 32 -57 47.5t-70 15.5q-45 0 -80 -22t-54.5 -59.5t-19.5 -80.5q0 -47 24.5 -74.5t88.5 -55.5q69 -31 99 -68t30 -99q0 -56 -24.5 -107t-71 -83t-110.5 -32q-54 0 -91.5 21t-67.5 62l16 12q27 -36 60 -54.5t82 -18.5
q58 0 100 28.5t63 74.5t21 96q0 55 -26.5 87t-89.5 61q-71 33 -98.5 64.5t-27.5 85.5q0 46 21.5 88t62 68t93.5 26q46 0 80.5 -18zM185.5 -102q5.5 -6 5.5 -15q0 -13 -13 -35l-48 -106h-15l42 116q-12 7 -12 21q0 11 7 18t18 7q10 0 15.5 -6z" />
    <glyph glyph-name="uni1E60" unicode="&#x1e60;" horiz-adv-x="440" 
d="M366.5 673q34.5 -18 62.5 -52l-16 -13q-27 32 -57 47.5t-70 15.5q-45 0 -80 -22t-54.5 -59.5t-19.5 -80.5q0 -47 24.5 -74.5t88.5 -55.5q69 -31 99 -68t30 -99q0 -56 -24.5 -107t-71 -83t-110.5 -32q-54 0 -91.5 21t-67.5 62l16 12q27 -36 60 -54.5t82 -18.5
q58 0 100 28.5t63 74.5t21 96q0 55 -26.5 87t-89.5 61q-71 33 -98.5 64.5t-27.5 85.5q0 46 21.5 88t62 68t93.5 26q46 0 80.5 -18zM291 816q-5 5 -5 12q0 9 5.5 15t15.5 6q8 0 12.5 -4.5t4.5 -12.5q0 -9 -6 -15t-15 -6q-7 0 -12 5z" />
    <glyph glyph-name="uni1E62" unicode="&#x1e62;" horiz-adv-x="440" 
d="M366.5 673q34.5 -18 62.5 -52l-16 -13q-27 32 -57 47.5t-70 15.5q-45 0 -80 -22t-54.5 -59.5t-19.5 -80.5q0 -47 24.5 -74.5t88.5 -55.5q69 -31 99 -68t30 -99q0 -56 -24.5 -107t-71 -83t-110.5 -32q-54 0 -91.5 21t-67.5 62l16 12q27 -36 60 -54.5t82 -18.5
q58 0 100 28.5t63 74.5t21 96q0 55 -26.5 87t-89.5 61q-71 33 -98.5 64.5t-27.5 85.5q0 46 21.5 88t62 68t93.5 26q46 0 80.5 -18zM179 -104q5 -5 5 -12q0 -9 -5.5 -15t-15.5 -6q-8 0 -12.5 4.5t-4.5 12.5q0 9 6 15t15 6q7 0 12 -5z" />
    <glyph glyph-name="uni1E9E" unicode="&#x1e9e;" horiz-adv-x="532" 
d="M494 632l-2 -17l-200 -234q88 -15 130.5 -55t42.5 -114q0 -62 -23 -112.5t-65 -80t-95 -29.5q-54 0 -90 22l10 18q35 -19 80 -19q48 0 84.5 26.5t56 72.5t19.5 102q0 69 -42 104.5t-134 47.5l3 21l201 238q-38 22 -72.5 34.5t-75.5 12.5q-141 0 -164 -158l-72 -512h-23
l73 516q12 86 60.5 130.5t125.5 44.5q83 0 172 -59z" />
    <glyph glyph-name="uni018F" unicode="&#x18f;" horiz-adv-x="534" 
d="M449.5 637q42.5 -54 42.5 -164q0 -121 -31.5 -232t-94.5 -181t-153 -70q-78 0 -119.5 57t-41.5 166q0 35 5.5 76.5t11.5 70.5l391 -1q1 8 4.5 43t3.5 70q0 198 -138 198q-45 0 -85.5 -17.5t-83.5 -55.5l-12 15q45 41 88.5 60t94.5 19q75 0 117.5 -54zM364 92
q65 80 93 247l-369 -1q-13 -66 -13 -124q0 -202 138 -202q86 0 151 80z" />
    <glyph glyph-name="T" unicode="T" horiz-adv-x="391" 
d="M440 681l-6 -22h-171l-92 -659h-23l93 659h-172l3 22h368z" />
    <glyph glyph-name="Tbar" unicode="&#x166;" horiz-adv-x="391" 
d="M434 659h-171l-39 -279h101l-3 -20h-101l-50 -360h-23l51 360h-101l3 20h101l39 279h-172l3 22h368z" />
    <glyph glyph-name="Tcaron" unicode="&#x164;" horiz-adv-x="391" 
d="M440 681l-6 -22h-171l-92 -659h-23l93 659h-172l3 22h368zM374 862l10 -12l-112 -90h-13l-85 90l12 12l81 -78z" />
    <glyph glyph-name="uni0162" unicode="&#x162;" horiz-adv-x="391" 
d="M440 681l-6 -22h-171l-92 -659l-12 -74q33 -2 49.5 -16t16.5 -43q0 -34 -23.5 -56.5t-57.5 -22.5q-33 0 -56 18l11 17q17 -15 45 -15q26 0 42 16.5t16 43.5q0 21 -15 31t-50 11l17 90h-6l93 659h-172l3 22h368z" />
    <glyph glyph-name="uni1E70" unicode="&#x1e70;" horiz-adv-x="391" 
d="M440 681l-6 -22h-171l-92 -659h-23l93 659h-172l3 22h368zM45 -184l-11 14l112 95h13l85 -95l-11 -14l-83 85z" />
    <glyph glyph-name="uni021A" unicode="&#x21a;" horiz-adv-x="391" 
d="M440 681l-6 -22h-171l-92 -659h-23l93 659h-172l3 22h368zM165.5 -102q5.5 -6 5.5 -15q0 -13 -13 -35l-48 -106h-15l42 116q-12 7 -12 21q0 11 7 18t18 7q10 0 15.5 -6z" />
    <glyph glyph-name="uni023E" unicode="&#x23e;" horiz-adv-x="391" 
d="M434 659h-100l-115 -317l-48 -342h-23l34 241l-112 -307l-16 5l139 382l48 338h-172l3 22h253l20 56l16 -5l-19 -51h98zM230 421l87 238h-54z" />
    <glyph glyph-name="uni1E6A" unicode="&#x1e6a;" horiz-adv-x="391" 
d="M440 681l-6 -22h-171l-92 -659h-23l93 659h-172l3 22h368zM258 816q-5 5 -5 12q0 9 5.5 15t15.5 6q8 0 12.5 -4.5t4.5 -12.5q0 -9 -6 -15t-15 -6q-7 0 -12 5z" />
    <glyph glyph-name="uni1E6C" unicode="&#x1e6c;" horiz-adv-x="391" 
d="M440 681l-6 -22h-171l-92 -659h-23l93 659h-172l3 22h368zM159 -104q5 -5 5 -12q0 -9 -5.5 -15t-15.5 -6q-8 0 -12.5 4.5t-4.5 12.5q0 9 6 15t15 6q7 0 12 -5z" />
    <glyph glyph-name="uni01AC" unicode="&#x1ac;" horiz-adv-x="409" 
d="M451 659h-170l-93 -659h-23l93 659h-92q-41 0 -62 -23.5t-21 -61.5t14 -68l-18 -8q-18 34 -18 76q0 47 27.5 77t77.5 30h292z" />
    <glyph glyph-name="uni1E6E" unicode="&#x1e6e;" horiz-adv-x="391" 
d="M440 681l-6 -22h-171l-92 -659h-23l93 659h-172l3 22h368zM61 -118h173l-3 -21h-173z" />
    <glyph glyph-name="uni01BC" unicode="&#x1bc;" horiz-adv-x="398" 
d="M4 69l17 13q22 -36 50.5 -53.5t70.5 -17.5q64 0 105.5 40t60.5 100t19 121q0 64 -27.5 98.5t-78.5 34.5q-61 0 -122 -41h-19l45 317h262l-8 -20h-235l-39 -275q58 39 117 39q62 0 95 -40t33 -113q0 -65 -21.5 -130t-69 -108.5t-119.5 -43.5q-90 0 -136 79z" />
    <glyph glyph-name="uni0184" unicode="&#x184;" 
d="M373 368q43 -40 43 -121q0 -61 -22 -117t-71.5 -93t-127.5 -37h-126l82 587l-24 22q27 29 42 72h19l-38 -273h99q81 0 124 -40zM314 56q43 35 61 86.5t18 102.5q0 142 -143 142h-103l-52 -366h107q69 0 112 35z" />
    <glyph glyph-name="uni01A7" unicode="&#x1a7;" horiz-adv-x="430" 
d="M400.5 656.5q33.5 -34.5 33.5 -90.5t-22 -94t-61.5 -63t-103.5 -51q-63 -26 -101.5 -53.5t-58.5 -67t-20 -98.5q0 -60 31.5 -93.5t88.5 -33.5q49 0 88.5 19t76.5 55l13 -15q-41 -40 -83.5 -60.5t-94.5 -20.5q-65 0 -104 40t-39 109q0 92 48.5 146t148.5 94
q59 23 94.5 45.5t55.5 56t20 84.5q0 49 -27 77t-77 28q-42 0 -77 -15t-74 -48l-13 15q41 35 79 52t85 17q60 0 93.5 -34.5z" />
    <glyph glyph-name="uni01AE" unicode="&#x1ae;" horiz-adv-x="391" 
d="M158 -98q-2 -16 -2 -21q0 -28 13.5 -42.5t36.5 -14.5q21 0 35.5 6.5t28.5 17.5l11 -16q-33 -29 -76 -29q-33 0 -52.5 20.5t-19.5 57.5q0 6 2 22l13 97l93 659h-172l3 22h368l-6 -22h-171l-92 -659z" />
    <glyph glyph-name="U" unicode="U" horiz-adv-x="523" 
d="M421 169q-10 -77 -60.5 -128t-135.5 -51q-76 0 -113 41t-37 106q0 22 2 33l72 511h22l-71 -510q-2 -11 -2 -33q0 -58 31 -92t97 -34q76 0 119.5 45.5t53.5 114.5l71 509h23z" />
    <glyph glyph-name="Uacute" unicode="&#xda;" horiz-adv-x="523" 
d="M421 169q-10 -77 -60.5 -128t-135.5 -51q-76 0 -113 41t-37 106q0 22 2 33l72 511h22l-71 -510q-2 -11 -2 -33q0 -58 31 -92t97 -34q76 0 119.5 45.5t53.5 114.5l71 509h23zM410 859l10 -23l-158 -72l-8 15z" />
    <glyph glyph-name="uni0244" unicode="&#x244;" horiz-adv-x="541" 
d="M528 520h-49l-49 -351q-10 -77 -60.5 -128t-135.5 -51q-76 0 -113 41t-37 106q0 22 2 33l49 350h-49l3 18h49l20 143h22l-20 -143h299l20 143h23l-20 -143h49zM457 520h-299l-49 -349q-2 -11 -2 -33q0 -58 31 -92t97 -34q76 0 119.5 45.5t53.5 114.5z" />
    <glyph glyph-name="Ubreve" unicode="&#x16c;" horiz-adv-x="523" 
d="M421 169q-10 -77 -60.5 -128t-135.5 -51q-76 0 -113 41t-37 106q0 22 2 33l72 511h22l-71 -510q-2 -11 -2 -33q0 -58 31 -92t97 -34q76 0 119.5 45.5t53.5 114.5l71 509h23zM271.5 793.5q-21.5 22.5 -23.5 54.5l16 2q4 -27 20.5 -42.5t46.5 -15.5q29 0 50 16t33 43l16 -5
q-11 -32 -37.5 -53.5t-62.5 -21.5q-37 0 -58.5 22.5z" />
    <glyph glyph-name="uni01D3" unicode="&#x1d3;" horiz-adv-x="523" 
d="M421 169q-10 -77 -60.5 -128t-135.5 -51q-76 0 -113 41t-37 106q0 22 2 33l72 511h22l-71 -510q-2 -11 -2 -33q0 -58 31 -92t97 -34q76 0 119.5 45.5t53.5 114.5l71 509h23zM440 862l10 -12l-112 -90h-13l-85 90l12 12l81 -78z" />
    <glyph glyph-name="Ucircumflex" unicode="&#xdb;" horiz-adv-x="523" 
d="M421 169q-10 -77 -60.5 -128t-135.5 -51q-76 0 -113 41t-37 106q0 22 2 33l72 511h22l-71 -510q-2 -11 -2 -33q0 -58 31 -92t97 -34q76 0 119.5 45.5t53.5 114.5l71 509h23zM234 766l-10 13l112 90h12l86 -90l-12 -13l-81 79z" />
    <glyph glyph-name="uni0214" unicode="&#x214;" horiz-adv-x="523" 
d="M421 169q-10 -77 -60.5 -128t-135.5 -51q-76 0 -113 41t-37 106q0 22 2 33l72 511h22l-71 -510q-2 -11 -2 -33q0 -58 31 -92t97 -34q76 0 119.5 45.5t53.5 114.5l71 509h23zM253 917l41 -132l-18 -7l-48 129zM345 916l37 -127l-18 -7l-44 124z" />
    <glyph glyph-name="Udieresis" unicode="&#xdc;" horiz-adv-x="523" 
d="M421 169q-10 -77 -60.5 -128t-135.5 -51q-76 0 -113 41t-37 106q0 22 2 33l72 511h22l-71 -510q-2 -11 -2 -33q0 -58 31 -92t97 -34q76 0 119.5 45.5t53.5 114.5l71 509h23zM256.5 804q-4.5 5 -4.5 12q0 9 5.5 15t14.5 6q7 0 12 -4.5t5 -12.5q0 -9 -6 -15t-15 -6
q-7 0 -11.5 5zM395 804q-5 5 -5 12q0 9 5.5 15t15.5 6q7 0 11.5 -4.5t4.5 -12.5q0 -9 -5.5 -15t-14.5 -6q-7 0 -12 5z" />
    <glyph glyph-name="uni01D7" unicode="&#x1d7;" horiz-adv-x="523" 
d="M421 169q-10 -77 -60.5 -128t-135.5 -51q-76 0 -113 41t-37 106q0 22 2 33l72 511h22l-71 -510q-2 -11 -2 -33q0 -58 31 -92t97 -34q76 0 119.5 45.5t53.5 114.5l71 509h23zM417 921l17 -16l-103 -113l-12 10zM246 748q-5 5 -5 12q0 9 5.5 15t15.5 6q7 0 11.5 -4.5
t4.5 -12.5q0 -9 -5.5 -15t-14.5 -6q-7 0 -12 5zM384.5 748q-4.5 5 -4.5 12q0 9 5.5 15t14.5 6q8 0 12.5 -4.5t4.5 -12.5q0 -9 -5.5 -15t-14.5 -6q-8 0 -12.5 5z" />
    <glyph glyph-name="uni01D9" unicode="&#x1d9;" horiz-adv-x="523" 
d="M421 169q-10 -77 -60.5 -128t-135.5 -51q-76 0 -113 41t-37 106q0 22 2 33l72 511h22l-71 -510q-2 -11 -2 -33q0 -58 31 -92t97 -34q76 0 119.5 45.5t53.5 114.5l71 509h23zM442 893l10 -12l-112 -90h-13l-85 90l12 12l81 -78zM247 748q-5 5 -5 12q0 9 5.5 15t15.5 6
q7 0 11.5 -4.5t4.5 -12.5q0 -9 -5.5 -15t-14.5 -6q-7 0 -12 5zM385.5 748q-4.5 5 -4.5 12q0 9 5.5 15t14.5 6q8 0 12.5 -4.5t4.5 -12.5q0 -9 -5.5 -15t-14.5 -6q-8 0 -12.5 5z" />
    <glyph glyph-name="uni01DB" unicode="&#x1db;" horiz-adv-x="523" 
d="M421 169q-10 -77 -60.5 -128t-135.5 -51q-76 0 -113 41t-37 106q0 22 2 33l72 511h22l-71 -510q-2 -11 -2 -33q0 -58 31 -92t97 -34q76 0 119.5 45.5t53.5 114.5l71 509h23zM278 921l64 -121l-13 -8l-72 116zM246.5 748q-4.5 5 -4.5 12q0 9 5.5 15t14.5 6q8 0 12.5 -4.5
t4.5 -12.5q0 -9 -6 -15t-15 -6q-7 0 -11.5 5zM385 748q-5 5 -5 12q0 9 5.5 15t15.5 6q7 0 11.5 -4.5t4.5 -12.5q0 -9 -5.5 -15t-14.5 -6q-7 0 -12 5z" />
    <glyph glyph-name="uni01D5" unicode="&#x1d5;" horiz-adv-x="523" 
d="M421 169q-10 -77 -60.5 -128t-135.5 -51q-76 0 -113 41t-37 106q0 22 2 33l72 511h22l-71 -510q-2 -11 -2 -33q0 -58 31 -92t97 -34q76 0 119.5 45.5t53.5 114.5l71 509h23zM245.5 747q-4.5 5 -4.5 12q0 9 5.5 15t14.5 6q7 0 12 -4.5t5 -12.5q0 -9 -6 -15t-15 -6
q-7 0 -11.5 5zM384 747q-5 5 -5 12q0 9 5.5 15t15.5 6q7 0 11.5 -4.5t4.5 -12.5q0 -9 -5.5 -15t-14.5 -6q-7 0 -12 5zM423 850h-173l3 21h173z" />
    <glyph glyph-name="uni1EE4" unicode="&#x1ee4;" horiz-adv-x="523" 
d="M421 169q-10 -77 -60.5 -128t-135.5 -51q-76 0 -113 41t-37 106q0 22 2 33l72 511h22l-71 -510q-2 -11 -2 -33q0 -58 31 -92t97 -34q76 0 119.5 45.5t53.5 114.5l71 509h23zM224 -104q5 -5 5 -12q0 -9 -5.5 -15t-15.5 -6q-8 0 -12.5 4.5t-4.5 12.5q0 9 6 15t15 6
q7 0 12 -5z" />
    <glyph glyph-name="Ugrave" unicode="&#xd9;" horiz-adv-x="523" 
d="M421 169q-10 -77 -60.5 -128t-135.5 -51q-76 0 -113 41t-37 106q0 22 2 33l72 511h22l-71 -510q-2 -11 -2 -33q0 -58 31 -92t97 -34q76 0 119.5 45.5t53.5 114.5l71 509h23zM283 858l131 -80l-9 -14l-137 72z" />
    <glyph glyph-name="uni1EE6" unicode="&#x1ee6;" horiz-adv-x="523" 
d="M421 169q-10 -77 -60.5 -128t-135.5 -51q-76 0 -113 41t-37 106q0 22 2 33l72 511h22l-71 -510q-2 -11 -2 -33q0 -58 31 -92t97 -34q76 0 119.5 45.5t53.5 114.5l71 509h23zM331 839q64 4 64 57q0 41 -37 41q-13 0 -23.5 -3.5t-23.5 -10.5l-7 17q26 17 55 17
q27 0 43 -16.5t16 -44.5q0 -31 -18 -49t-50 -23l-5 -42h-21z" />
    <glyph glyph-name="Uhorn" unicode="&#x1af;" horiz-adv-x="523" 
d="M562 709q0 -46 -18.5 -69.5t-60.5 -30.5l-62 -440q-10 -77 -60.5 -128t-135.5 -51q-76 0 -113 41t-37 106q0 22 2 33l72 511h22l-71 -510q-2 -11 -2 -33q0 -58 31 -92t97 -34q76 0 119.5 45.5t53.5 114.5l71 509h23l-8 -55q32 7 45 26.5t13 56.5q0 27 -7 50l18 5
q8 -26 8 -55z" />
    <glyph glyph-name="uni1EE8" unicode="&#x1ee8;" horiz-adv-x="523" 
d="M420 836l-158 -72l-8 15l156 80zM562 709q0 -46 -18.5 -69.5t-60.5 -30.5l-62 -440q-10 -77 -60.5 -128t-135.5 -51q-76 0 -113 41t-37 106q0 22 2 33l72 511h22l-71 -510q-2 -11 -2 -33q0 -58 31 -92t97 -34q76 0 119.5 45.5t53.5 114.5l71 509h23l-8 -55q32 7 45 26.5
t13 56.5q0 27 -7 50l18 5q8 -26 8 -55z" />
    <glyph glyph-name="uni1EF0" unicode="&#x1ef0;" horiz-adv-x="523" 
d="M562 709q0 -46 -18.5 -69.5t-60.5 -30.5l-62 -440q-10 -77 -60.5 -128t-135.5 -51q-76 0 -113 41t-37 106q0 22 2 33l72 511h22l-71 -510q-2 -11 -2 -33q0 -58 31 -92t97 -34q76 0 119.5 45.5t53.5 114.5l71 509h23l-8 -55q32 7 45 26.5t13 56.5q0 27 -7 50l18 5
q8 -26 8 -55zM224 -104q5 -5 5 -12q0 -9 -5.5 -15t-15.5 -6q-7 0 -12 4.5t-5 12.5q0 9 6 15t15 6q7 0 12 -5z" />
    <glyph glyph-name="uni1EEA" unicode="&#x1eea;" horiz-adv-x="523" 
d="M414 778l-9 -14l-137 72l15 22zM562 709q0 -46 -18.5 -69.5t-60.5 -30.5l-62 -440q-10 -77 -60.5 -128t-135.5 -51q-76 0 -113 41t-37 106q0 22 2 33l72 511h22l-71 -510q-2 -11 -2 -33q0 -58 31 -92t97 -34q76 0 119.5 45.5t53.5 114.5l71 509h23l-8 -55q32 7 45 26.5
t13 56.5q0 27 -7 50l18 5q8 -26 8 -55z" />
    <glyph glyph-name="uni1EEC" unicode="&#x1eec;" horiz-adv-x="523" 
d="M334.5 933.5q-10.5 -3.5 -23.5 -10.5l-7 17q26 17 55 17q27 0 43 -16.5t16 -44.5q0 -31 -18 -49t-50 -23l-5 -42h-21l7 57q64 4 64 57q0 41 -37 41q-13 0 -23.5 -3.5zM562 709q0 -46 -18.5 -69.5t-60.5 -30.5l-62 -440q-10 -77 -60.5 -128t-135.5 -51q-76 0 -113 41
t-37 106q0 22 2 33l72 511h22l-71 -510q-2 -11 -2 -33q0 -58 31 -92t97 -34q76 0 119.5 45.5t53.5 114.5l71 509h23l-8 -55q32 7 45 26.5t13 56.5q0 27 -7 50l18 5q8 -26 8 -55z" />
    <glyph glyph-name="uni1EEE" unicode="&#x1eee;" horiz-adv-x="523" 
d="M270 839.5q-10 -7.5 -28 -27.5l-13 9q18 23 33.5 34.5t32.5 11.5q12 0 22.5 -5.5t25.5 -16.5q13 -10 23 -15.5t21 -5.5q14 0 26 9.5t28 31.5l13 -9q-31 -52 -66 -52q-14 0 -25.5 6t-27.5 18q-13 10 -21.5 14.5t-18.5 4.5q-15 0 -25 -7.5zM562 709q0 -46 -18.5 -69.5
t-60.5 -30.5l-62 -440q-10 -77 -60.5 -128t-135.5 -51q-76 0 -113 41t-37 106q0 22 2 33l72 511h22l-71 -510q-2 -11 -2 -33q0 -58 31 -92t97 -34q76 0 119.5 45.5t53.5 114.5l71 509h23l-8 -55q32 7 45 26.5t13 56.5q0 27 -7 50l18 5q8 -26 8 -55z" />
    <glyph glyph-name="Uhungarumlaut" unicode="&#x170;" horiz-adv-x="523" 
d="M421 169q-10 -77 -60.5 -128t-135.5 -51q-76 0 -113 41t-37 106q0 22 2 33l72 511h22l-71 -510q-2 -11 -2 -33q0 -58 31 -92t97 -34q76 0 119.5 45.5t53.5 114.5l71 509h23zM443 917l20 -11l-83 -128l-15 9zM350 916l21 -12l-78 -122l-14 8z" />
    <glyph glyph-name="uni0216" unicode="&#x216;" horiz-adv-x="523" 
d="M421 169q-10 -77 -60.5 -128t-135.5 -51q-76 0 -113 41t-37 106q0 22 2 33l72 511h22l-71 -510q-2 -11 -2 -33q0 -58 31 -92t97 -34q76 0 119.5 45.5t53.5 114.5l71 509h23zM244 802q12 38 38 61.5t62 23.5q37 0 59 -24.5t23 -62.5l-16 -2q-8 68 -67 68q-58 0 -85 -69z
" />
    <glyph glyph-name="Umacron" unicode="&#x16a;" horiz-adv-x="523" 
d="M421 169q-10 -77 -60.5 -128t-135.5 -51q-76 0 -113 41t-37 106q0 22 2 33l72 511h22l-71 -510q-2 -11 -2 -33q0 -58 31 -92t97 -34q76 0 119.5 45.5t53.5 114.5l71 509h23zM425 811h-173l3 21h173z" />
    <glyph glyph-name="Uogonek" unicode="&#x172;" horiz-adv-x="523" 
d="M493 681l-72 -512q-8 -61 -42.5 -107t-91.5 -63q-51 -27 -77 -54.5t-26 -67.5q0 -27 15 -42.5t42 -15.5q19 0 44 7l-3 -22q-22 -7 -44 -7q-38 0 -57.5 21.5t-19.5 57.5q0 37 21.5 64.5t63.5 50.5q-7 -1 -21 -1q-76 0 -113 41t-37 106q0 22 2 33l72 511h22l-71 -510
q-2 -11 -2 -33q0 -58 31 -92t97 -34q76 0 119.5 45.5t53.5 114.5l71 509h23z" />
    <glyph glyph-name="uni01B1" unicode="&#x1b1;" horiz-adv-x="588" 
d="M120.5 51.5q-45.5 61.5 -45.5 176.5q0 139 45 259.5t148 172.5h-113l3 21h145l-3 -21q-111 -51 -156 -172.5t-45 -259.5q0 -107 39 -162t112 -55q90 0 149.5 71.5t87.5 175t28 197.5q0 76 -26.5 125.5t-77.5 79.5l3 21h145l-4 -21h-113q48 -31 72 -80.5t24 -124.5
q0 -101 -30.5 -208.5t-96 -182t-163.5 -74.5q-82 0 -127.5 61.5z" />
    <glyph glyph-name="Uring" unicode="&#x16e;" horiz-adv-x="523" 
d="M421 169q-10 -77 -60.5 -128t-135.5 -51q-76 0 -113 41t-37 106q0 22 2 33l72 511h22l-71 -510q-2 -11 -2 -33q0 -58 31 -92t97 -34q76 0 119.5 45.5t53.5 114.5l71 509h23zM397.5 909q15.5 -18 15.5 -47q0 -41 -22 -66.5t-55 -25.5q-27 0 -43 18t-16 48q0 40 22.5 65.5
t54.5 25.5q28 0 43.5 -18zM312 889q-15 -20 -15 -53q0 -22 10.5 -35t29.5 -13q26 0 41.5 20.5t15.5 53.5q0 22 -10.5 34.5t-29.5 12.5q-27 0 -42 -20z" />
    <glyph glyph-name="Utilde" unicode="&#x168;" horiz-adv-x="523" 
d="M421 169q-10 -77 -60.5 -128t-135.5 -51q-76 0 -113 41t-37 106q0 22 2 33l72 511h22l-71 -510q-2 -11 -2 -33q0 -58 31 -92t97 -34q76 0 119.5 45.5t53.5 114.5l71 509h23zM362.5 810q-11.5 6 -27.5 18q-12 10 -21 14.5t-19 4.5q-15 0 -25 -7.5t-28 -27.5l-13 9
q18 23 33.5 34.5t32.5 11.5q12 0 22.5 -5.5t25.5 -16.5q13 -10 23 -15.5t21 -5.5q14 0 26 9.5t28 31.5l13 -9q-31 -52 -66 -52q-14 0 -25.5 6z" />
    <glyph glyph-name="uni1E78" unicode="&#x1e78;" horiz-adv-x="523" 
d="M421 169q-10 -77 -60.5 -128t-135.5 -51q-76 0 -113 41t-37 106q0 22 2 33l72 511h22l-71 -510q-2 -11 -2 -33q0 -58 31 -92t97 -34q76 0 119.5 45.5t53.5 114.5l71 509h23zM357.5 763q-11.5 6 -27.5 18q-13 10 -21.5 14.5t-18.5 4.5q-15 0 -25 -7.5t-28 -27.5l-13 9
q18 23 33.5 34.5t32.5 11.5q12 0 22.5 -5.5t25.5 -16.5q13 -10 23 -15.5t21 -5.5q14 0 26 9.5t28 31.5l13 -9q-31 -52 -66 -52q-14 0 -25.5 6zM420 952l10 -23l-158 -72l-8 15z" />
    <glyph glyph-name="V" unicode="V" horiz-adv-x="451" 
d="M482 681l-279 -681h-28l-88 681h23l82 -659l266 659h24z" />
    <glyph glyph-name="uni01B2" unicode="&#x1b2;" horiz-adv-x="518" 
d="M469 675q15 -16 15 -45q0 -12 -1 -18l-49 -348q-19 -136 -81 -205t-149 -69q-61 0 -95.5 37t-34.5 100q0 22 2 33l73 521h22l-73 -520q-2 -11 -2 -32q0 -56 29 -86.5t81 -30.5q78 0 133.5 64t72.5 191l48 345q2 14 2 19q0 41 -36 41q-17 0 -39 -11l-7 16q24 14 48 14
q26 0 41 -16z" />
    <glyph glyph-name="uni0245" unicode="&#x245;" horiz-adv-x="470" 
d="M308 681l98 -681h-24l-91 662l-276 -662h-24l288 681h29z" />
    <glyph glyph-name="W" unicode="W" horiz-adv-x="657" 
d="M682 681l-225 -681h-27l-46 659l-229 -659h-28l-34 681h22l30 -655l228 655h29l44 -657l213 657h23z" />
    <glyph glyph-name="Wacute" unicode="&#x1e82;" horiz-adv-x="657" 
d="M682 681l-225 -681h-27l-46 659l-229 -659h-28l-34 681h22l30 -655l228 655h29l44 -657l213 657h23zM476 859l10 -23l-158 -72l-8 15z" />
    <glyph glyph-name="Wcircumflex" unicode="&#x174;" horiz-adv-x="657" 
d="M682 681l-225 -681h-27l-46 659l-229 -659h-28l-34 681h22l30 -655l228 655h29l44 -657l213 657h23zM300 766l-10 13l112 90h12l86 -90l-12 -13l-81 79z" />
    <glyph glyph-name="Wdieresis" unicode="&#x1e84;" horiz-adv-x="657" 
d="M682 681l-225 -681h-27l-46 659l-229 -659h-28l-34 681h22l30 -655l228 655h29l44 -657l213 657h23zM322.5 804q-4.5 5 -4.5 12q0 9 5.5 15t14.5 6q7 0 12 -4.5t5 -12.5q0 -9 -6 -15t-15 -6q-7 0 -11.5 5zM461 804q-5 5 -5 12q0 9 5.5 15t15.5 6q7 0 11.5 -4.5t4.5 -12.5
q0 -9 -5.5 -15t-14.5 -6q-7 0 -12 5z" />
    <glyph glyph-name="Wgrave" unicode="&#x1e80;" horiz-adv-x="657" 
d="M682 681l-225 -681h-27l-46 659l-229 -659h-28l-34 681h22l30 -655l228 655h29l44 -657l213 657h23zM349 858l131 -80l-9 -14l-137 72z" />
    <glyph glyph-name="uni2C72" unicode="&#x2c72;" horiz-adv-x="670" 
d="M155 0l229 659l46 -659h27l199 614q10 30 24.5 44t36.5 14q28 0 56 -30l13 13q-32 36 -70 36q-28 0 -47 -16.5t-31 -52.5l-192 -598l-44 657h-29l-228 -655l-30 655h-22l34 -681h28z" />
    <glyph glyph-name="uni01F7" unicode="&#x1f7;" horiz-adv-x="454" 
d="M418 653q34 -38 34 -105q0 -112 -62.5 -176.5t-176.5 -109.5l-96 -38l-31 -224h-23l96 681h22l-8 -59q73 69 152 69q59 0 93 -38zM372.5 385q55.5 60 55.5 163q0 59 -27.5 90.5t-77.5 31.5q-44 0 -81 -20t-73 -53l-49 -352l93 38q104 42 159.5 102z" />
    <glyph glyph-name="X" unicode="X" horiz-adv-x="400" 
d="M421 681l-196 -312l126 -369h-23l-117 351l-211 -351h-24l223 369l-108 312h25l98 -296l183 296h24z" />
    <glyph glyph-name="Y" unicode="Y" horiz-adv-x="408" 
d="M450 681l-233 -411l-38 -270h-23l38 270l-119 411h23l110 -388l217 388h25z" />
    <glyph glyph-name="Yacute" unicode="&#xdd;" horiz-adv-x="408" 
d="M450 681l-233 -411l-38 -270h-23l38 270l-119 411h23l110 -388l217 388h25zM350 859l10 -23l-158 -72l-8 15z" />
    <glyph glyph-name="Ycircumflex" unicode="&#x176;" horiz-adv-x="408" 
d="M450 681l-233 -411l-38 -270h-23l38 270l-119 411h23l110 -388l217 388h25zM174 766l-10 13l112 90h12l86 -90l-12 -13l-81 79z" />
    <glyph glyph-name="Ydieresis" unicode="&#x178;" horiz-adv-x="408" 
d="M450 681l-233 -411l-38 -270h-23l38 270l-119 411h23l110 -388l217 388h25zM196.5 804q-4.5 5 -4.5 12q0 9 5.5 15t14.5 6q7 0 12 -4.5t5 -12.5q0 -9 -6 -15t-15 -6q-7 0 -11.5 5zM335 804q-5 5 -5 12q0 9 5.5 15t15.5 6q7 0 11.5 -4.5t4.5 -12.5q0 -9 -5.5 -15t-14.5 -6
q-7 0 -12 5z" />
    <glyph glyph-name="uni1EF4" unicode="&#x1ef4;" horiz-adv-x="408" 
d="M450 681l-233 -411l-38 -270h-23l38 270l-119 411h23l110 -388l217 388h25zM167 -104q5 -5 5 -12q0 -9 -5.5 -15t-15.5 -6q-8 0 -12.5 4.5t-4.5 12.5q0 9 6 15t15 6q7 0 12 -5z" />
    <glyph glyph-name="Ygrave" unicode="&#x1ef2;" horiz-adv-x="408" 
d="M450 681l-233 -411l-38 -270h-23l38 270l-119 411h23l110 -388l217 388h25zM223 858l131 -80l-9 -14l-137 72z" />
    <glyph glyph-name="uni01B3" unicode="&#x1b3;" horiz-adv-x="417" 
d="M194 270l-119 411h25l109 -387l170 328q20 38 39.5 53.5t47.5 15.5q36 0 70 -36l-13 -13q-14 14 -27.5 22t-29.5 8q-21 0 -35.5 -12.5t-32.5 -44.5l-181 -345l-38 -270h-23z" />
    <glyph glyph-name="uni1EF6" unicode="&#x1ef6;" horiz-adv-x="408" 
d="M450 681l-233 -411l-38 -270h-23l38 270l-119 411h23l110 -388l217 388h25zM271 839q64 4 64 57q0 41 -37 41q-13 0 -23.5 -3.5t-23.5 -10.5l-7 17q26 17 55 17q27 0 43 -16.5t16 -44.5q0 -31 -18 -49t-50 -23l-5 -42h-21z" />
    <glyph glyph-name="uni0232" unicode="&#x232;" horiz-adv-x="408" 
d="M450 681l-233 -411l-38 -270h-23l38 270l-119 411h23l110 -388l217 388h25zM365 811h-173l3 21h173z" />
    <glyph glyph-name="uni01A6" unicode="&#x1a6;" horiz-adv-x="464" 
d="M386 268q-41 -60 -123 -74l110 -327h-24l-109 324h-1h-126l-27 -191h-23l96 681h22l-18 -132h97q87 0 127 -36.5t40 -107.5q0 -77 -41 -137zM225 212q63 0 103 28t58 71.5t18 92.5q0 63 -33 93t-111 30h-100l-44 -315h109z" />
    <glyph glyph-name="uni024E" unicode="&#x24e;" horiz-adv-x="411" 
d="M397 584h43l-3 -17h-50l-167 -296l-39 -271h-22l38 270l-86 297h-51l3 17h43l-28 97h24l27 -97h243l54 97h26zM210 293l153 274h-229z" />
    <glyph glyph-name="uni1EF8" unicode="&#x1ef8;" horiz-adv-x="408" 
d="M450 681l-233 -411l-38 -270h-23l38 270l-119 411h23l110 -388l217 388h25zM302.5 810q-11.5 6 -27.5 18q-12 10 -21 14.5t-19 4.5q-15 0 -25 -7.5t-28 -27.5l-13 9q18 23 33.5 34.5t32.5 11.5q12 0 22.5 -5.5t25.5 -16.5q13 -10 23 -15.5t21 -5.5q14 0 26 9.5t28 31.5
l13 -9q-31 -52 -66 -52q-14 0 -25.5 6z" />
    <glyph glyph-name="Z" unicode="Z" horiz-adv-x="416" 
d="M-6 0l4 21l408 639h-289l4 21h313l-3 -19l-408 -640h309l-7 -22h-331z" />
    <glyph glyph-name="Zacute" unicode="&#x179;" horiz-adv-x="416" 
d="M-6 0l4 21l408 639h-289l4 21h313l-3 -19l-408 -640h309l-7 -22h-331zM356 859l10 -23l-158 -72l-8 15z" />
    <glyph glyph-name="Zcaron" unicode="&#x17d;" horiz-adv-x="416" 
d="M-6 0l4 21l408 639h-289l4 21h313l-3 -19l-408 -640h309l-7 -22h-331zM386 862l10 -12l-112 -90h-13l-85 90l12 12l81 -78z" />
    <glyph glyph-name="Zdotaccent" unicode="&#x17b;" horiz-adv-x="416" 
d="M-6 0l4 21l408 639h-289l4 21h313l-3 -19l-408 -640h309l-7 -22h-331zM270 816q-5 5 -5 12q0 9 5.5 15t15.5 6q8 0 12.5 -4.5t4.5 -12.5q0 -9 -6 -15t-15 -6q-7 0 -12 5z" />
    <glyph glyph-name="uni1E92" unicode="&#x1e92;" horiz-adv-x="416" 
d="M-6 0l4 21l408 639h-289l4 21h313l-3 -19l-408 -640h309l-7 -22h-331zM160 -104q5 -5 5 -12q0 -9 -5.5 -15t-15.5 -6q-8 0 -12.5 4.5t-4.5 12.5q0 9 6 15t15 6q7 0 12 -5z" />
    <glyph glyph-name="uni0224" unicode="&#x224;" horiz-adv-x="416" 
d="M431 662l-408 -640h307l-3 -22l-13 -97q-7 -48 -34 -74t-64 -26q-41 0 -70 31l13 14q13 -12 26 -18t32 -6q28 0 48 20t26 62l13 94h-310l4 21l408 639h-289l4 21h313z" />
    <glyph glyph-name="uni01B5" unicode="&#x1b5;" horiz-adv-x="416" 
d="M434 681l-3 -19l-197 -309h93l-3 -21h-103l-198 -310h309l-7 -22h-331l4 21l199 311h-95l3 21h105l196 307h-289l4 21h313z" />
    <glyph glyph-name="Cacute.loclPLK" horiz-adv-x="448" 
d="M426.5 676.5q29.5 -14.5 53.5 -43.5l-14 -15q-25 27 -50.5 39.5t-61.5 12.5q-90 0 -149.5 -68t-87.5 -169.5t-28 -202.5q0 -106 39.5 -162t107.5 -56q42 0 74 15t63 42l13 -16q-33 -29 -69 -46t-81 -17q-79 0 -124.5 62t-45.5 177q0 107 30.5 213.5t96 177.5t162.5 71
q42 0 71.5 -14.5zM435 887l18 -14l-105 -142l-12 9z" />
    <glyph glyph-name="Nacute.loclPLK" horiz-adv-x="544" 
d="M407 0h-28l-206 658q-4 -58 -22 -182l-66 -476h-22l96 681h28l206 -656q7 78 22 180l66 476h22zM423 887l18 -14l-105 -142l-12 9z" />
    <glyph glyph-name="Oacute.loclPLK" horiz-adv-x="571" 
d="M482.5 630.5q45.5 -60.5 45.5 -175.5q0 -104 -29.5 -211t-94.5 -180.5t-165 -73.5q-82 0 -127.5 62t-45.5 176q0 102 30.5 209t95.5 180.5t162 73.5q83 0 128.5 -60.5zM203.5 599.5q-59.5 -71.5 -87 -174t-27.5 -197.5q0 -105 39.5 -160.5t110.5 -55.5q94 0 154 72
t86 174t26 198q0 106 -39 160.5t-112 54.5q-91 0 -150.5 -71.5zM441 887l18 -14l-105 -142l-12 9z" />
    <glyph glyph-name="Sacute.loclPLK" horiz-adv-x="440" 
d="M366.5 673q34.5 -18 62.5 -52l-16 -13q-27 32 -57 47.5t-70 15.5q-45 0 -80 -22t-54.5 -59.5t-19.5 -80.5q0 -47 24.5 -74.5t88.5 -55.5q69 -31 99 -68t30 -99q0 -56 -24.5 -107t-71 -83t-110.5 -32q-54 0 -91.5 21t-67.5 62l16 12q27 -36 60 -54.5t82 -18.5
q58 0 100 28.5t63 74.5t21 96q0 55 -26.5 87t-89.5 61q-71 33 -98.5 64.5t-27.5 85.5q0 46 21.5 88t62 68t93.5 26q46 0 80.5 -18zM375 887l18 -14l-105 -142l-12 9z" />
    <glyph glyph-name="Zacute.loclPLK" horiz-adv-x="416" 
d="M-6 0l4 21l408 639h-289l4 21h313l-3 -19l-408 -640h309l-7 -22h-331zM354 887l18 -14l-105 -142l-12 9z" />
    <glyph glyph-name="Eng.ss01" horiz-adv-x="534" 
d="M446.5 656.5q31.5 -34.5 31.5 -97.5q0 -19 -3 -42l-73 -517l-13 -97q-7 -48 -34 -74t-64 -26q-39 0 -70 31l13 14q13 -12 26 -18t32 -6q28 0 48 20.5t26 61.5l13 94h1l73 516q3 21 3 40q0 56 -26 85t-74 29q-55 0 -101.5 -33t-92.5 -91l-76 -546h-23l96 681h19l-12 -105
q92 115 191 115q58 0 89.5 -34.5z" />
    <glyph glyph-name="uni019D.ss01" horiz-adv-x="532" 
d="M445.5 656q31.5 -35 31.5 -99q0 -19 -3 -40l-73 -517h-23l73 516q3 21 3 40q0 56 -26 85t-74 29q-54 0 -101.5 -34t-92.5 -92l-76 -544l-13 -97q-7 -48 -34 -74t-64 -26q-39 0 -70 31l13 14q13 -12 26 -18t32 -6q28 0 48 20.5t26 61.5l13 94l96 681h20l-13 -105
q44 54 90.5 84.5t101.5 30.5q58 0 89.5 -35z" />
    <glyph glyph-name="uni2C64.ss01" horiz-adv-x="316" 
d="M368 682l-7 -20q-21 7 -46 7q-51 0 -89 -39t-69 -123l-71 -507l-13 -98q-2 -16 -2 -21q0 -28 13.5 -42.5t36.5 -14.5q21 0 35.5 6.5t28.5 17.5l11 -16q-33 -29 -76 -29q-33 0 -52.5 20.5t-19.5 57.5q0 6 2 22l13 97l96 681h19l-14 -116q27 65 64 95.5t88 30.5q29 0 52 -9
z" />
    <glyph glyph-name="uni0181.ss02" horiz-adv-x="466" 
d="M178 660l-36 -255h101q81 0 124 -40t43 -120q0 -60 -22 -115.5t-71.5 -92.5t-127.5 -37h-126l96 681h262l-7 -21h-236zM139 384l-51 -363h108q69 0 111.5 35t60.5 86t18 102q0 140 -142 140h-105z" />
    <glyph glyph-name="uniA78D.ss02" horiz-adv-x="475" 
d="M339 0h-23l38 272h-295l57 409h23l-54 -388h272l55 388h22z" />
    <glyph glyph-name="uni0299" unicode="&#x299;" horiz-adv-x="417" 
d="M343.5 252.5q25.5 -24.5 25.5 -72.5q0 -87 -54.5 -133.5t-144.5 -46.5h-111l73 514q66 15 118 15q64 0 96 -30.5t32 -83.5q0 -56 -29 -91t-81 -43q50 -4 75.5 -28.5zM122 290h111q59 0 90.5 35.5t31.5 94.5q0 41 -25.5 65t-79.5 24q-46 0 -99 -12zM299 61.5
q47 40.5 47 117.5q0 46 -26 68.5t-84 22.5h-117l-35 -249h87q81 0 128 40.5z" />
    <glyph glyph-name="uni0262" unicode="&#x262;" horiz-adv-x="448" 
d="M339 519q27 -12 53 -38l-15 -14q-42 44 -101 44q-61 0 -107 -45.5t-70 -121t-24 -163.5q0 -168 131 -168q61 0 115 32l29 207h-102v20h127l-34 -239q-65 -41 -136 -41q-72 0 -112 46.5t-40 141.5t27.5 175t78.5 128t117 48q36 0 63 -12z" />
    <glyph glyph-name="uni029B" unicode="&#x29b;" horiz-adv-x="443" 
d="M558 706l-12 -14q-14 12 -27.5 18.5t-31.5 6.5q-29 0 -49 -21t-26 -64l-20 -151l-13 -13q-24 22 -48.5 32.5t-54.5 10.5q-61 0 -107 -45.5t-70 -121t-24 -163.5q0 -168 131 -168q61 0 115 32l29 207h-102v20h127l-34 -239q-65 -41 -136 -41q-72 0 -112 46.5t-40 141.5
t27.5 175t78.5 128t117 48q55 0 97 -33l18 136q7 50 32.5 76.5t63.5 26.5q40 0 71 -31z" />
    <glyph glyph-name="uni029C" unicode="&#x29c;" horiz-adv-x="478" 
d="M324 0l37 262h-243l-37 -262h-22l73 519h22l-33 -237h243l33 237h22l-73 -519h-22z" />
    <glyph glyph-name="uni026A" unicode="&#x26a;" horiz-adv-x="248" 
d="M259 501h-91l-67 -483h91l-3 -18h-202l3 18h89l67 483h-89l3 18h201z" />
    <glyph glyph-name="uni029F" unicode="&#x29f;" horiz-adv-x="322" 
d="M154 519l-70 -498h201l-7 -21h-219l73 519h22z" />
    <glyph glyph-name="uni0274" unicode="&#x274;" horiz-adv-x="479" 
d="M346 0h-28l-171 497q-3 -36 -13 -112l-54 -385h-21l73 519h29l171 -497q6 70 18 150l49 347h21z" />
    <glyph glyph-name="uni0276" unicode="&#x276;" horiz-adv-x="581" 
d="M576 499h-218q53 -45 53 -153q0 -29 -3 -61h108l-4 -20h-107q-11 -80 -42 -146.5t-82 -97.5h232l-3 -21h-269q-23 -10 -53 -10q-66 0 -101.5 48.5t-35.5 135.5q0 80 23.5 162t74 137.5t126.5 55.5q26 0 53 -10h254zM360 467q-29 42 -85 42q-69 0 -114.5 -53.5t-66 -131
t-20.5 -150.5q0 -79 29 -121t85 -42q70 0 115 54t65.5 131t20.5 150q0 79 -29 121z" />
    <glyph glyph-name="uni0280" unicode="&#x280;" horiz-adv-x="419" 
d="M337 287q-36 -39 -95 -50l94 -237h-23l-92 234h-107l-33 -234h-22l73 519h98q143 0 143 -124q0 -69 -36 -108zM206 254q66 0 105.5 36t39.5 105q0 104 -122 104h-78l-34 -245h89z" />
    <glyph glyph-name="uni0281" unicode="&#x281;" horiz-adv-x="419" 
d="M316 244q24 -29 24 -77q0 -83 -49 -125t-133 -42h-99l73 519h22l-33 -234h108l157 234h24l-160 -237q42 -9 66 -38zM318 167q0 49 -28 73.5t-76 24.5h-96l-34 -244h74q160 0 160 146z" />
    <glyph glyph-name="uni028F" unicode="&#x28f;" horiz-adv-x="355" 
d="M369 519l-187 -307l-29 -212h-22l29 211l-101 308h23l91 -288l173 288h23z" />
    <glyph glyph-name="a" unicode="a" 
d="M399 495l-54 -383q-5 -38 -5 -55q0 -19 5.5 -30.5t19.5 -19.5l-8 -17q-20 10 -28.5 26.5t-8.5 44.5q0 8 2 32q-29 -49 -65.5 -76t-79.5 -27q-60 0 -93.5 47.5t-33.5 130.5q0 86 25 169t78 137.5t132 54.5q62 0 114 -34zM165.5 458q-47.5 -52 -70 -130.5t-22.5 -158.5
q0 -75 27 -116.5t78 -41.5q81 0 147 117l51 358q-41 24 -92 24q-71 0 -118.5 -52z" />
    <glyph glyph-name="aacute" unicode="&#xe1;" 
d="M399 495l-54 -383q-5 -38 -5 -55q0 -19 5.5 -30.5t19.5 -19.5l-8 -17q-20 10 -28.5 26.5t-8.5 44.5q0 8 2 32q-29 -49 -65.5 -76t-79.5 -27q-60 0 -93.5 47.5t-33.5 130.5q0 86 25 169t78 137.5t132 54.5q62 0 114 -34zM165.5 458q-47.5 -52 -70 -130.5t-22.5 -158.5
q0 -75 27 -116.5t78 -41.5q81 0 147 117l51 358q-41 24 -92 24q-71 0 -118.5 -52zM385 760l11 -22l-160 -84l-8 15z" />
    <glyph glyph-name="abreve" unicode="&#x103;" 
d="M399 495l-54 -383q-5 -38 -5 -55q0 -19 5.5 -30.5t19.5 -19.5l-8 -17q-20 10 -28.5 26.5t-8.5 44.5q0 8 2 32q-29 -49 -65.5 -76t-79.5 -27q-60 0 -93.5 47.5t-33.5 130.5q0 86 25 169t78 137.5t132 54.5q62 0 114 -34zM165.5 458q-47.5 -52 -70 -130.5t-22.5 -158.5
q0 -75 27 -116.5t78 -41.5q81 0 147 117l51 358q-41 24 -92 24q-71 0 -118.5 -52zM247 686q-21 24 -22 63l17 2q6 -67 64 -67q29 0 51.5 18t34.5 51l16 -6q-12 -38 -39 -61.5t-64 -23.5t-58 24z" />
    <glyph glyph-name="uni1EAF" unicode="&#x1eaf;" 
d="M388 816l17 -16l-103 -113l-12 10zM236.5 617.5q-21.5 22.5 -23.5 54.5l16 2q4 -27 20.5 -42.5t46.5 -15.5q29 0 50 16t33 43l16 -5q-11 -32 -37.5 -53.5t-62.5 -21.5q-37 0 -58.5 22.5zM399 495l-54 -383q-5 -38 -5 -55q0 -19 5.5 -30.5t19.5 -19.5l-8 -17
q-20 10 -28.5 26.5t-8.5 44.5q0 8 2 32q-29 -49 -65.5 -76t-79.5 -27q-60 0 -93.5 47.5t-33.5 130.5q0 86 25 169t78 137.5t132 54.5q62 0 114 -34zM165.5 458q-47.5 -52 -70 -130.5t-22.5 -158.5q0 -75 27 -116.5t78 -41.5q81 0 147 117l51 358q-41 24 -92 24
q-71 0 -118.5 -52z" />
    <glyph glyph-name="uni1EB7" unicode="&#x1eb7;" 
d="M399 495l-54 -383q-5 -38 -5 -55q0 -19 5.5 -30.5t19.5 -19.5l-8 -17q-20 10 -28.5 26.5t-8.5 44.5q0 8 2 32q-29 -49 -65.5 -76t-79.5 -27q-60 0 -93.5 47.5t-33.5 130.5q0 86 25 169t78 137.5t132 54.5q62 0 114 -34zM165.5 458q-47.5 -52 -70 -130.5t-22.5 -158.5
q0 -75 27 -116.5t78 -41.5q81 0 147 117l51 358q-41 24 -92 24q-71 0 -118.5 -52zM247 686q-21 24 -22 63l17 2q6 -67 64 -67q29 0 51.5 18t34.5 51l16 -6q-12 -38 -39 -61.5t-64 -23.5t-58 24zM209 -104q5 -5 5 -12q0 -9 -5.5 -15t-15.5 -6q-8 0 -12.5 4.5t-4.5 12.5
q0 9 6 15t15 6q7 0 12 -5z" />
    <glyph glyph-name="uni1EB1" unicode="&#x1eb1;" 
d="M249 816l64 -121l-13 -8l-72 116zM236.5 617.5q-21.5 22.5 -23.5 54.5l16 2q4 -27 20.5 -42.5t46.5 -15.5q29 0 50 16t33 43l16 -5q-11 -32 -37.5 -53.5t-62.5 -21.5q-37 0 -58.5 22.5zM399 495l-54 -383q-5 -38 -5 -55q0 -19 5.5 -30.5t19.5 -19.5l-8 -17
q-20 10 -28.5 26.5t-8.5 44.5q0 8 2 32q-29 -49 -65.5 -76t-79.5 -27q-60 0 -93.5 47.5t-33.5 130.5q0 86 25 169t78 137.5t132 54.5q62 0 114 -34zM165.5 458q-47.5 -52 -70 -130.5t-22.5 -158.5q0 -75 27 -116.5t78 -41.5q81 0 147 117l51 358q-41 24 -92 24
q-71 0 -118.5 -52z" />
    <glyph glyph-name="uni1EB3" unicode="&#x1eb3;" 
d="M399 495l-54 -383q-5 -38 -5 -55q0 -19 5.5 -30.5t19.5 -19.5l-8 -17q-20 10 -28.5 26.5t-8.5 44.5q0 8 2 32q-29 -49 -65.5 -76t-79.5 -27q-60 0 -93.5 47.5t-33.5 130.5q0 86 25 169t78 137.5t132 54.5q62 0 114 -34zM165.5 458q-47.5 -52 -70 -130.5t-22.5 -158.5
q0 -75 27 -116.5t78 -41.5q81 0 147 117l51 358q-41 24 -92 24q-71 0 -118.5 -52zM236.5 617.5q-21.5 22.5 -23.5 54.5l16 2q4 -27 20.5 -42.5t46.5 -15.5q29 0 50 16t33 43l16 -5q-11 -32 -37.5 -53.5t-62.5 -21.5q-37 0 -58.5 22.5zM298 728q65 4 65 58q0 19 -9.5 30
t-27.5 11q-23 0 -47 -14l-8 17q29 17 56 17t43 -16.5t16 -44.5q0 -32 -18.5 -50t-49.5 -23l-8 -55h-20z" />
    <glyph glyph-name="uni1EB5" unicode="&#x1eb5;" 
d="M336.5 727q-11.5 6 -27.5 18q-12 10 -21 14.5t-19 4.5q-15 0 -25 -7.5t-28 -27.5l-13 9q18 23 33.5 34.5t32.5 11.5q12 0 22.5 -5.5t25.5 -16.5q13 -10 23 -15.5t21 -5.5q14 0 26 9.5t28 31.5l13 -9q-31 -52 -66 -52q-14 0 -25.5 6zM237.5 617.5q-21.5 22.5 -23.5 54.5
l16 2q4 -27 20.5 -42.5t46.5 -15.5q29 0 50 16t33 43l16 -5q-11 -32 -37.5 -53.5t-62.5 -21.5q-37 0 -58.5 22.5zM399 495l-54 -383q-5 -38 -5 -55q0 -19 5.5 -30.5t19.5 -19.5l-8 -17q-20 10 -28.5 26.5t-8.5 44.5q0 8 2 32q-29 -49 -65.5 -76t-79.5 -27q-60 0 -93.5 47.5
t-33.5 130.5q0 86 25 169t78 137.5t132 54.5q62 0 114 -34zM165.5 458q-47.5 -52 -70 -130.5t-22.5 -158.5q0 -75 27 -116.5t78 -41.5q81 0 147 117l51 358q-41 24 -92 24q-71 0 -118.5 -52z" />
    <glyph glyph-name="uni01CE" unicode="&#x1ce;" 
d="M399 495l-54 -383q-5 -38 -5 -55q0 -19 5.5 -30.5t19.5 -19.5l-8 -17q-20 10 -28.5 26.5t-8.5 44.5q0 8 2 32q-29 -49 -65.5 -76t-79.5 -27q-60 0 -93.5 47.5t-33.5 130.5q0 86 25 169t78 137.5t132 54.5q62 0 114 -34zM165.5 458q-47.5 -52 -70 -130.5t-22.5 -158.5
q0 -75 27 -116.5t78 -41.5q81 0 147 117l51 358q-41 24 -92 24q-71 0 -118.5 -52zM410 749l11 -13l-112 -95h-13l-85 95l13 13l80 -84z" />
    <glyph glyph-name="acircumflex" unicode="&#xe2;" 
d="M399 495l-54 -383q-5 -38 -5 -55q0 -19 5.5 -30.5t19.5 -19.5l-8 -17q-20 10 -28.5 26.5t-8.5 44.5q0 8 2 32q-29 -49 -65.5 -76t-79.5 -27q-60 0 -93.5 47.5t-33.5 130.5q0 86 25 169t78 137.5t132 54.5q62 0 114 -34zM165.5 458q-47.5 -52 -70 -130.5t-22.5 -158.5
q0 -75 27 -116.5t78 -41.5q81 0 147 117l51 358q-41 24 -92 24q-71 0 -118.5 -52zM211 654l-11 13l112 95h13l85 -95l-13 -13l-79 84z" />
    <glyph glyph-name="uni1EA5" unicode="&#x1ea5;" 
d="M456 802l17 -16l-103 -113l-12 10zM195 586l-10 13l112 90h12l86 -90l-12 -13l-81 79zM399 495l-54 -383q-5 -38 -5 -55q0 -19 5.5 -30.5t19.5 -19.5l-8 -17q-20 10 -28.5 26.5t-8.5 44.5q0 8 2 32q-29 -49 -65.5 -76t-79.5 -27q-60 0 -93.5 47.5t-33.5 130.5
q0 86 25 169t78 137.5t132 54.5q62 0 114 -34zM165.5 458q-47.5 -52 -70 -130.5t-22.5 -158.5q0 -75 27 -116.5t78 -41.5q81 0 147 117l51 358q-41 24 -92 24q-71 0 -118.5 -52z" />
    <glyph glyph-name="uni1EAD" unicode="&#x1ead;" 
d="M399 495l-54 -383q-5 -38 -5 -55q0 -19 5.5 -30.5t19.5 -19.5l-8 -17q-20 10 -28.5 26.5t-8.5 44.5q0 8 2 32q-29 -49 -65.5 -76t-79.5 -27q-60 0 -93.5 47.5t-33.5 130.5q0 86 25 169t78 137.5t132 54.5q62 0 114 -34zM165.5 458q-47.5 -52 -70 -130.5t-22.5 -158.5
q0 -75 27 -116.5t78 -41.5q81 0 147 117l51 358q-41 24 -92 24q-71 0 -118.5 -52zM211 654l-11 13l112 95h13l85 -95l-13 -13l-79 84zM209 -104q5 -5 5 -12q0 -9 -5.5 -15t-15.5 -6q-8 0 -12.5 4.5t-4.5 12.5q0 9 6 15t15 6q7 0 12 -5z" />
    <glyph glyph-name="uni1EA7" unicode="&#x1ea7;" 
d="M175 802l64 -121l-13 -8l-72 116zM196 586l-10 13l112 90h12l86 -90l-12 -13l-81 79zM399 495l-54 -383q-5 -38 -5 -55q0 -19 5.5 -30.5t19.5 -19.5l-8 -17q-20 10 -28.5 26.5t-8.5 44.5q0 8 2 32q-29 -49 -65.5 -76t-79.5 -27q-60 0 -93.5 47.5t-33.5 130.5q0 86 25 169
t78 137.5t132 54.5q62 0 114 -34zM165.5 458q-47.5 -52 -70 -130.5t-22.5 -158.5q0 -75 27 -116.5t78 -41.5q81 0 147 117l51 358q-41 24 -92 24q-71 0 -118.5 -52z" />
    <glyph glyph-name="uni1EA9" unicode="&#x1ea9;" 
d="M399 495l-54 -383q-5 -38 -5 -55q0 -19 5.5 -30.5t19.5 -19.5l-8 -17q-20 10 -28.5 26.5t-8.5 44.5q0 8 2 32q-29 -49 -65.5 -76t-79.5 -27q-60 0 -93.5 47.5t-33.5 130.5q0 86 25 169t78 137.5t132 54.5q62 0 114 -34zM165.5 458q-47.5 -52 -70 -130.5t-22.5 -158.5
q0 -75 27 -116.5t78 -41.5q81 0 147 117l51 358q-41 24 -92 24q-71 0 -118.5 -52zM194 586l-10 13l112 90h12l86 -90l-12 -13l-81 79zM390 734q65 4 65 58q0 19 -9.5 30t-27.5 11q-23 0 -47 -14l-8 17q29 17 56 17t43 -16.5t16 -44.5q0 -32 -18.5 -50t-49.5 -23l-8 -55h-20z
" />
    <glyph glyph-name="uni1EAB" unicode="&#x1eab;" 
d="M334.5 726q-11.5 6 -27.5 18q-12 10 -21 14.5t-19 4.5q-15 0 -25 -7.5t-28 -27.5l-13 9q18 23 33.5 34.5t32.5 11.5q12 0 22.5 -5.5t25.5 -16.5q13 -10 23 -15.5t21 -5.5q14 0 26 9.5t28 31.5l13 -9q-31 -52 -66 -52q-14 0 -25.5 6zM198 577l-10 13l112 90h12l86 -90
l-12 -13l-81 79zM399 495l-54 -383q-5 -38 -5 -55q0 -19 5.5 -30.5t19.5 -19.5l-8 -17q-20 10 -28.5 26.5t-8.5 44.5q0 8 2 32q-29 -49 -65.5 -76t-79.5 -27q-60 0 -93.5 47.5t-33.5 130.5q0 86 25 169t78 137.5t132 54.5q62 0 114 -34zM165.5 458q-47.5 -52 -70 -130.5
t-22.5 -158.5q0 -75 27 -116.5t78 -41.5q81 0 147 117l51 358q-41 24 -92 24q-71 0 -118.5 -52z" />
    <glyph glyph-name="uni0201" unicode="&#x201;" 
d="M399 495l-54 -383q-5 -38 -5 -55q0 -19 5.5 -30.5t19.5 -19.5l-8 -17q-20 10 -28.5 26.5t-8.5 44.5q0 8 2 32q-29 -49 -65.5 -76t-79.5 -27q-60 0 -93.5 47.5t-33.5 130.5q0 86 25 169t78 137.5t132 54.5q62 0 114 -34zM165.5 458q-47.5 -52 -70 -130.5t-22.5 -158.5
q0 -75 27 -116.5t78 -41.5q81 0 147 117l51 358q-41 24 -92 24q-71 0 -118.5 -52zM226 791l41 -132l-18 -7l-48 129zM318 790l37 -127l-18 -7l-44 124z" />
    <glyph glyph-name="adieresis" unicode="&#xe4;" 
d="M399 495l-54 -383q-5 -38 -5 -55q0 -19 5.5 -30.5t19.5 -19.5l-8 -17q-20 10 -28.5 26.5t-8.5 44.5q0 8 2 32q-29 -49 -65.5 -76t-79.5 -27q-60 0 -93.5 47.5t-33.5 130.5q0 86 25 169t78 137.5t132 54.5q62 0 114 -34zM165.5 458q-47.5 -52 -70 -130.5t-22.5 -158.5
q0 -75 27 -116.5t78 -41.5q81 0 147 117l51 358q-41 24 -92 24q-71 0 -118.5 -52zM227.5 678q-4.5 5 -4.5 12q0 9 5.5 15t14.5 6q7 0 12 -4.5t5 -12.5q0 -9 -6 -15t-15 -6q-7 0 -11.5 5zM366 678q-5 5 -5 12q0 9 5.5 15t15.5 6q7 0 11.5 -4.5t4.5 -12.5q0 -9 -5.5 -15
t-14.5 -6q-7 0 -12 5z" />
    <glyph glyph-name="uni01DF" unicode="&#x1df;" 
d="M399 495l-54 -383q-5 -38 -5 -55q0 -19 5.5 -30.5t19.5 -19.5l-8 -17q-20 10 -28.5 26.5t-8.5 44.5q0 8 2 32q-29 -49 -65.5 -76t-79.5 -27q-60 0 -93.5 47.5t-33.5 130.5q0 86 25 169t78 137.5t132 54.5q62 0 114 -34zM165.5 458q-47.5 -52 -70 -130.5t-22.5 -158.5
q0 -75 27 -116.5t78 -41.5q81 0 147 117l51 358q-41 24 -92 24q-71 0 -118.5 -52zM221.5 648q-4.5 5 -4.5 12q0 9 5.5 15t14.5 6q7 0 12 -4.5t5 -12.5q0 -9 -6 -15t-15 -6q-7 0 -11.5 5zM360 648q-5 5 -5 12q0 9 5.5 15t15.5 6q7 0 11.5 -4.5t4.5 -12.5q0 -9 -5.5 -15
t-14.5 -6q-7 0 -12 5zM400 753h-173l3 21h173z" />
    <glyph glyph-name="uni0227" unicode="&#x227;" 
d="M399 495l-54 -383q-5 -38 -5 -55q0 -19 5.5 -30.5t19.5 -19.5l-8 -17q-20 10 -28.5 26.5t-8.5 44.5q0 8 2 32q-29 -49 -65.5 -76t-79.5 -27q-60 0 -93.5 47.5t-33.5 130.5q0 86 25 169t78 137.5t132 54.5q62 0 114 -34zM165.5 458q-47.5 -52 -70 -130.5t-22.5 -158.5
q0 -75 27 -116.5t78 -41.5q81 0 147 117l51 358q-41 24 -92 24q-71 0 -118.5 -52zM298 690q-5 5 -5 12q0 9 5.5 15t15.5 6q8 0 12.5 -4.5t4.5 -12.5q0 -9 -6 -15t-15 -6q-7 0 -12 5z" />
    <glyph glyph-name="uni1EA1" unicode="&#x1ea1;" 
d="M399 495l-54 -383q-5 -38 -5 -55q0 -19 5.5 -30.5t19.5 -19.5l-8 -17q-20 10 -28.5 26.5t-8.5 44.5q0 8 2 32q-29 -49 -65.5 -76t-79.5 -27q-60 0 -93.5 47.5t-33.5 130.5q0 86 25 169t78 137.5t132 54.5q62 0 114 -34zM165.5 458q-47.5 -52 -70 -130.5t-22.5 -158.5
q0 -75 27 -116.5t78 -41.5q81 0 147 117l51 358q-41 24 -92 24q-71 0 -118.5 -52zM209 -104q5 -5 5 -12q0 -9 -5.5 -15t-15.5 -6q-8 0 -12.5 4.5t-4.5 12.5q0 9 6 15t15 6q7 0 12 -5z" />
    <glyph glyph-name="uni01E1" unicode="&#x1e1;" 
d="M399 495l-54 -383q-5 -38 -5 -55q0 -19 5.5 -30.5t19.5 -19.5l-8 -17q-20 10 -28.5 26.5t-8.5 44.5q0 8 2 32q-29 -49 -65.5 -76t-79.5 -27q-60 0 -93.5 47.5t-33.5 130.5q0 86 25 169t78 137.5t132 54.5q62 0 114 -34zM165.5 458q-47.5 -52 -70 -130.5t-22.5 -158.5
q0 -75 27 -116.5t78 -41.5q81 0 147 117l51 358q-41 24 -92 24q-71 0 -118.5 -52zM288 637q-5 5 -5 12q0 9 5.5 15t15.5 6q8 0 12.5 -4.5t4.5 -12.5q0 -9 -6 -15t-15 -6q-7 0 -12 5zM400 745h-173l3 21h173z" />
    <glyph glyph-name="agrave" unicode="&#xe0;" 
d="M399 495l-54 -383q-5 -38 -5 -55q0 -19 5.5 -30.5t19.5 -19.5l-8 -17q-20 10 -28.5 26.5t-8.5 44.5q0 8 2 32q-29 -49 -65.5 -76t-79.5 -27q-60 0 -93.5 47.5t-33.5 130.5q0 86 25 169t78 137.5t132 54.5q62 0 114 -34zM165.5 458q-47.5 -52 -70 -130.5t-22.5 -158.5
q0 -75 27 -116.5t78 -41.5q81 0 147 117l51 358q-41 24 -92 24q-71 0 -118.5 -52zM263 760l131 -92l-10 -14l-136 84z" />
    <glyph glyph-name="uni1EA3" unicode="&#x1ea3;" 
d="M399 495l-54 -383q-5 -38 -5 -55q0 -19 5.5 -30.5t19.5 -19.5l-8 -17q-20 10 -28.5 26.5t-8.5 44.5q0 8 2 32q-29 -49 -65.5 -76t-79.5 -27q-60 0 -93.5 47.5t-33.5 130.5q0 86 25 169t78 137.5t132 54.5q62 0 114 -34zM165.5 458q-47.5 -52 -70 -130.5t-22.5 -158.5
q0 -75 27 -116.5t78 -41.5q81 0 147 117l51 358q-41 24 -92 24q-71 0 -118.5 -52zM294 692q65 4 65 58q0 19 -9.5 30t-27.5 11q-23 0 -47 -14l-8 17q29 17 56 17t43 -16.5t16 -44.5q0 -32 -18.5 -50t-49.5 -23l-8 -55h-20z" />
    <glyph glyph-name="uni0203" unicode="&#x203;" 
d="M399 495l-54 -383q-5 -38 -5 -55q0 -19 5.5 -30.5t19.5 -19.5l-8 -17q-20 10 -28.5 26.5t-8.5 44.5q0 8 2 32q-29 -49 -65.5 -76t-79.5 -27q-60 0 -93.5 47.5t-33.5 130.5q0 86 25 169t78 137.5t132 54.5q62 0 114 -34zM165.5 458q-47.5 -52 -70 -130.5t-22.5 -158.5
q0 -75 27 -116.5t78 -41.5q81 0 147 117l51 358q-41 24 -92 24q-71 0 -118.5 -52zM209 640q12 38 38 61.5t62 23.5q37 0 59 -24.5t23 -62.5l-16 -2q-8 68 -67 68q-58 0 -85 -69z" />
    <glyph glyph-name="uni0251" unicode="&#x251;" 
d="M339 57q0 -19 6 -30.5t19 -19.5l-7 -17q-20 10 -29 26t-9 43q0 15 3 34q-63 -103 -146 -103q-60 0 -93 47.5t-33 130.5t25.5 167t73.5 139t113 55q41 0 68.5 -23.5t40.5 -70.5l15 84h18l-59 -407q-6 -46 -6 -55zM364 393q-19 116 -104 116q-57 0 -99.5 -52t-65 -131.5
t-22.5 -156.5q0 -74 27 -116t77 -42q82 0 148 117z" />
    <glyph glyph-name="uni0252" unicode="&#x252;" 
d="M377 481.5q33 -47.5 33 -130.5t-25.5 -167t-73.5 -139t-113 -55q-41 0 -68.5 23.5t-40.5 70.5l-15 -84h-18l59 407q6 46 6 55q0 19 -5.5 30.5t-19.5 19.5l7 17q20 -10 29 -26t9 -43q0 -14 -3 -34q63 103 146 103q60 0 93 -47.5zM299.5 62q42.5 52 65 131.5t22.5 156.5
q0 74 -27 116t-77 42q-82 0 -148 -117l-39 -265q19 -116 104 -116q57 0 99.5 52z" />
    <glyph glyph-name="amacron" unicode="&#x101;" 
d="M399 495l-54 -383q-5 -38 -5 -55q0 -19 5.5 -30.5t19.5 -19.5l-8 -17q-20 10 -28.5 26.5t-8.5 44.5q0 8 2 32q-29 -49 -65.5 -76t-79.5 -27q-60 0 -93.5 47.5t-33.5 130.5q0 86 25 169t78 137.5t132 54.5q62 0 114 -34zM165.5 458q-47.5 -52 -70 -130.5t-22.5 -158.5
q0 -75 27 -116.5t78 -41.5q81 0 147 117l51 358q-41 24 -92 24q-71 0 -118.5 -52zM395 685h-173l3 21h173z" />
    <glyph glyph-name="aogonek" unicode="&#x105;" 
d="M340 57q0 -19 5.5 -30.5t19.5 -19.5l-7 -16v-1q-63 -29 -92 -59t-29 -73q0 -24 13 -36.5t36 -12.5q18 0 46 6l-5 -21q-24 -7 -43 -7q-31 0 -50.5 19t-19.5 51q0 46 30.5 79t98.5 63q-12 11 -17.5 25.5t-5.5 36.5q0 8 2 32q-29 -49 -65.5 -76t-79.5 -27q-60 0 -93.5 47.5
t-33.5 130.5q0 86 25 169t78 137.5t132 54.5q62 0 114 -34l-54 -383q-5 -38 -5 -55zM376 486q-41 24 -92 24q-71 0 -118.5 -52t-70 -130.5t-22.5 -158.5q0 -75 27 -116.5t78 -41.5q81 0 147 117z" />
    <glyph glyph-name="aring" unicode="&#xe5;" 
d="M399 495l-54 -383q-5 -38 -5 -55q0 -19 5.5 -30.5t19.5 -19.5l-8 -17q-20 10 -28.5 26.5t-8.5 44.5q0 8 2 32q-29 -49 -65.5 -76t-79.5 -27q-60 0 -93.5 47.5t-33.5 130.5q0 86 25 169t78 137.5t132 54.5q62 0 114 -34zM165.5 458q-47.5 -52 -70 -130.5t-22.5 -158.5
q0 -75 27 -116.5t78 -41.5q81 0 147 117l51 358q-41 24 -92 24q-71 0 -118.5 -52zM366.5 783q15.5 -18 15.5 -47q0 -41 -22 -66.5t-55 -25.5q-27 0 -43 18t-16 48q0 40 22.5 65.5t54.5 25.5q28 0 43.5 -18zM281 763q-15 -20 -15 -53q0 -22 10.5 -35t29.5 -13q26 0 41.5 20.5
t15.5 53.5q0 22 -10.5 34.5t-29.5 12.5q-27 0 -42 -20z" />
    <glyph glyph-name="aringacute" unicode="&#x1fb;" 
d="M399 495l-54 -383q-5 -38 -5 -55q0 -19 5.5 -30.5t19.5 -19.5l-8 -17q-20 10 -28.5 26.5t-8.5 44.5q0 8 2 32q-29 -49 -65.5 -76t-79.5 -27q-60 0 -93.5 47.5t-33.5 130.5q0 86 25 169t78 137.5t132 54.5q62 0 114 -34zM165.5 458q-47.5 -52 -70 -130.5t-22.5 -158.5
q0 -75 27 -116.5t78 -41.5q81 0 147 117l51 358q-41 24 -92 24q-71 0 -118.5 -52zM356.5 727q15.5 -18 15.5 -47q0 -41 -22 -66.5t-55 -25.5q-27 0 -43 18t-16 48q0 40 22.5 65.5t54.5 25.5q28 0 43.5 -18zM271 707q-15 -20 -15 -53q0 -22 10.5 -35t29.5 -13q26 0 41.5 20.5
t15.5 53.5q0 22 -10.5 34.5t-29.5 12.5q-27 0 -42 -20zM387 855l10 -23l-158 -72l-8 15z" />
    <glyph glyph-name="uni2C65" unicode="&#x2c65;" 
d="M340 57q0 -19 5.5 -30.5t19.5 -19.5l-8 -17q-20 8 -29 24t-9 43q0 15 3 36q-29 -49 -65.5 -76t-79.5 -27q-24 0 -41 7l-23 -63l-15 5l23 64q-35 19 -53 61.5t-18 103.5q0 86 25 169t78 137.5t132 54.5q10 0 28 -2l21 59l16 -5l-21 -56q38 -9 70 -30l-54 -383
q-5 -38 -5 -55zM87 78q14 -37 42 -54l177 485q-7 1 -22 1q-71 0 -118.5 -52t-70 -130.5t-22.5 -158.5q0 -54 14 -91zM377 486q-24 14 -54 20l-180 -489q17 -6 35 -6q81 0 147 117z" />
    <glyph glyph-name="atilde" unicode="&#xe3;" 
d="M399 495l-54 -383q-5 -38 -5 -55q0 -19 5.5 -30.5t19.5 -19.5l-8 -17q-20 10 -28.5 26.5t-8.5 44.5q0 8 2 32q-29 -49 -65.5 -76t-79.5 -27q-60 0 -93.5 47.5t-33.5 130.5q0 86 25 169t78 137.5t132 54.5q62 0 114 -34zM165.5 458q-47.5 -52 -70 -130.5t-22.5 -158.5
q0 -75 27 -116.5t78 -41.5q81 0 147 117l51 358q-41 24 -92 24q-71 0 -118.5 -52zM333.5 684q-11.5 6 -27.5 18q-13 10 -21.5 14.5t-18.5 4.5q-15 0 -25 -7.5t-28 -27.5l-13 9q18 23 33.5 34.5t32.5 11.5q12 0 22.5 -5.5t25.5 -16.5q13 -10 23 -15.5t21 -5.5q14 0 26 9.5
t28 31.5l13 -9q-31 -52 -66 -52q-14 0 -25.5 6z" />
    <glyph glyph-name="uni0250" unicode="&#x250;" horiz-adv-x="427" 
d="M99 128q-2 -22 -2 -30q0 -87 90 -87q32 0 60 7.5t62 23.5l7 -18q-36 -17 -66 -25.5t-64 -8.5q-55 0 -83.5 28t-28.5 79q0 8 2 30l39 282q6 44 6 53q0 18 -6 29.5t-20 19.5l8 17q19 -10 28.5 -26t9.5 -41q0 -13 -3 -30q31 49 67.5 73.5t82.5 24.5q52 0 81.5 -34t29.5 -90
q0 -60 -25 -104t-69 -67t-99 -23h-96zM113 231h92q77 0 124 46t47 127q0 49 -23 76.5t-66 27.5q-48 0 -84 -27.5t-67 -81.5z" />
    <glyph glyph-name="ae" unicode="&#xe6;" horiz-adv-x="677" 
d="M321.5 498q30.5 -31 39.5 -87q29 55 73 86.5t101 31.5q54 0 85 -30t31 -81q0 -93 -85.5 -143.5t-236.5 -60.5q-1 -13 -1 -37q0 -75 26 -120.5t86 -45.5q36 0 66 13.5t64 41.5l11 -15q-36 -31 -69 -46t-72 -15q-49 0 -81 27.5t-45 82.5q-46 -59 -86.5 -84.5t-85.5 -25.5
q-54 0 -84 35t-30 93q0 77 47.5 129t145.5 52h98q8 40 26 81q-11 129 -108 129q-28 0 -57 -8t-65 -24l-5 18q71 34 129 34q52 0 82.5 -31zM395.5 428.5q-51.5 -80.5 -64.5 -194.5q144 10 221 55.5t77 128.5q0 43 -24.5 67t-70.5 24q-87 0 -138.5 -80.5zM223 279
q-90 0 -131 -45.5t-41 -115.5q0 -49 24.5 -78t66.5 -29q44 0 83.5 26.5t83.5 85.5q-3 23 -3 51q0 53 9 105h-92z" />
    <glyph glyph-name="aeacute" unicode="&#x1fd;" horiz-adv-x="677" 
d="M321.5 498q30.5 -31 39.5 -87q29 55 73 86.5t101 31.5q54 0 85 -30t31 -81q0 -93 -85.5 -143.5t-236.5 -60.5q-1 -13 -1 -37q0 -75 26 -120.5t86 -45.5q36 0 66 13.5t64 41.5l11 -15q-36 -31 -69 -46t-72 -15q-49 0 -81 27.5t-45 82.5q-46 -59 -86.5 -84.5t-85.5 -25.5
q-54 0 -84 35t-30 93q0 77 47.5 129t145.5 52h98q8 40 26 81q-11 129 -108 129q-28 0 -57 -8t-65 -24l-5 18q71 34 129 34q52 0 82.5 -31zM395.5 428.5q-51.5 -80.5 -64.5 -194.5q144 10 221 55.5t77 128.5q0 43 -24.5 67t-70.5 24q-87 0 -138.5 -80.5zM223 279
q-90 0 -131 -45.5t-41 -115.5q0 -49 24.5 -78t66.5 -29q44 0 83.5 26.5t83.5 85.5q-3 23 -3 51q0 53 9 105h-92zM469 760l11 -22l-160 -84l-8 15z" />
    <glyph glyph-name="uni01E3" unicode="&#x1e3;" horiz-adv-x="677" 
d="M321.5 498q30.5 -31 39.5 -87q29 55 73 86.5t101 31.5q54 0 85 -30t31 -81q0 -93 -85.5 -143.5t-236.5 -60.5q-1 -13 -1 -37q0 -75 26 -120.5t86 -45.5q36 0 66 13.5t64 41.5l11 -15q-36 -31 -69 -46t-72 -15q-49 0 -81 27.5t-45 82.5q-46 -59 -86.5 -84.5t-85.5 -25.5
q-54 0 -84 35t-30 93q0 77 47.5 129t145.5 52h98q8 40 26 81q-11 129 -108 129q-28 0 -57 -8t-65 -24l-5 18q71 34 129 34q52 0 82.5 -31zM395.5 428.5q-51.5 -80.5 -64.5 -194.5q144 10 221 55.5t77 128.5q0 43 -24.5 67t-70.5 24q-87 0 -138.5 -80.5zM223 279
q-90 0 -131 -45.5t-41 -115.5q0 -49 24.5 -78t66.5 -29q44 0 83.5 26.5t83.5 85.5q-3 23 -3 51q0 53 9 105h-92zM479 685h-173l3 21h173z" />
    <glyph glyph-name="b" unicode="b" horiz-adv-x="469" 
d="M389.5 486q30.5 -43 30.5 -123q0 -85 -23.5 -170.5t-74.5 -144t-129 -58.5q-34 0 -63.5 8t-66.5 25l100 710l22 3l-42 -300q37 45 75 69t82 24q59 0 89.5 -43zM218 482.5q-39 -26.5 -78 -74.5l-53 -372q27 -12 52 -18.5t55 -6.5q71 0 117 56.5t66.5 138.5t20.5 161
q0 69 -25 105.5t-73 36.5q-43 0 -82 -26.5z" />
    <glyph glyph-name="uni1E03" unicode="&#x1e03;" horiz-adv-x="469" 
d="M389.5 486q30.5 -43 30.5 -123q0 -85 -23.5 -170.5t-74.5 -144t-129 -58.5q-34 0 -63.5 8t-66.5 25l100 710l22 3l-42 -300q37 45 75 69t82 24q59 0 89.5 -43zM218 482.5q-39 -26.5 -78 -74.5l-53 -372q27 -12 52 -18.5t55 -6.5q71 0 117 56.5t66.5 138.5t20.5 161
q0 69 -25 105.5t-73 36.5q-43 0 -82 -26.5zM324 867q-5 5 -5 12q0 9 5.5 15t15.5 6q8 0 12.5 -4.5t4.5 -12.5q0 -9 -6 -15t-15 -6q-7 0 -12 5z" />
    <glyph glyph-name="uni1E05" unicode="&#x1e05;" horiz-adv-x="469" 
d="M389.5 486q30.5 -43 30.5 -123q0 -85 -23.5 -170.5t-74.5 -144t-129 -58.5q-34 0 -63.5 8t-66.5 25l100 710l22 3l-42 -300q37 45 75 69t82 24q59 0 89.5 -43zM218 482.5q-39 -26.5 -78 -74.5l-53 -372q27 -12 52 -18.5t55 -6.5q71 0 117 56.5t66.5 138.5t20.5 161
q0 69 -25 105.5t-73 36.5q-43 0 -82 -26.5zM195 -104q5 -5 5 -12q0 -9 -5.5 -15t-15.5 -6q-8 0 -12.5 4.5t-4.5 12.5q0 9 6 15t15 6q7 0 12 -5z" />
    <glyph glyph-name="uniA7B5" unicode="&#xa7b5;" horiz-adv-x="478" 
d="M132 520q16 113 67 165t123 52q58 0 93.5 -37.5t35.5 -103.5q0 -80 -43 -135.5t-121 -62.5q62 -2 100.5 -45t38.5 -117q0 -60 -22 -116.5t-67 -93t-110 -36.5q-94 0 -135 84l-37 -267l-24 -3zM324.5 44.5q39.5 33.5 59 84.5t19.5 105q0 74 -39.5 114.5t-111.5 40.5h-51
l5 20h49q84 0 128.5 53.5t44.5 133.5q0 59 -28.5 90t-77.5 31q-63 0 -107.5 -46t-59.5 -151l-59 -419q24 -48 54.5 -69t76.5 -21q58 0 97.5 33.5z" />
    <glyph glyph-name="uni0253" unicode="&#x253;" horiz-adv-x="470" 
d="M389.5 486q30.5 -43 30.5 -123q0 -85 -23 -170.5t-74.5 -144t-129.5 -58.5q-33 0 -63 8t-67 25l70 495h-1l14 100q8 58 40 88.5t78 30.5q51 0 94 -32l-11 -16q-38 27 -82 27q-39 0 -65 -25.5t-33 -76.5l-13 -95h1l-11 -83q36 44 74 68.5t83 24.5q58 0 88.5 -43z
M311.5 67.5q45.5 56.5 66 138.5t20.5 161q0 69 -25 105.5t-73 36.5q-43 0 -82 -26.5t-78 -74.5l-53 -372q27 -12 52 -18.5t55 -6.5q72 0 117.5 56.5z" />
    <glyph glyph-name="uni02AD" unicode="&#x2ad;" horiz-adv-x="264" 
d="M254 401h-22l13 90h-161l-13 -91h-20l15 111h203zM197 1h-22l13 90h-161l-13 -91h-20l15 111h203z" />
    <glyph glyph-name="uni0298" unicode="&#x298;" horiz-adv-x="654" 
d="M553 625.5q56 -65.5 56 -187.5q0 -128 -39.5 -230t-114 -160t-175.5 -58q-99 0 -155.5 67t-56.5 187q0 127 41.5 229t116 160t171.5 58q100 0 156 -65.5zM236 615.5q-70 -55.5 -108 -153t-38 -217.5q0 -112 50.5 -173t139.5 -61q94 0 163.5 55t106.5 152t37 220
q0 113 -49.5 173t-140.5 60t-161 -55.5zM325 325q-5 5 -5 12q0 9 5.5 15t15.5 6q8 0 12.5 -4.5t4.5 -12.5q0 -9 -6 -15t-15 -6q-7 0 -12 5z" />
    <glyph glyph-name="uni02AC" unicode="&#x2ac;" horiz-adv-x="376" 
d="M389 660l-96 -260h-26l-25 242l-92 -242h-26l-25 260h19l21 -244l93 244h24l25 -244l89 244h19zM333 260l-96 -260h-26l-25 242l-92 -242h-26l-25 260h19l21 -244l93 244h24l25 -244l89 244h19z" />
    <glyph glyph-name="uni0180" unicode="&#x180;" horiz-adv-x="472" 
d="M392.5 486q30.5 -43 30.5 -123q0 -85 -23.5 -170.5t-74.5 -144t-129 -58.5q-34 0 -63.5 8t-66.5 25l85 606h-61l3 20h61l12 84l22 3l-12 -87h150l-7 -20h-146l-27 -193q37 45 75 69t82 24q59 0 89.5 -43zM314 67.5q46 56.5 66.5 138.5t20.5 161q0 69 -25 105.5t-73 36.5
q-43 0 -82 -26.5t-78 -74.5l-53 -372q27 -12 52 -18.5t55 -6.5q71 0 117 56.5z" />
    <glyph glyph-name="uni0183" unicode="&#x183;" horiz-adv-x="469" 
d="M389.5 486q30.5 -43 30.5 -123q0 -85 -23.5 -170.5t-74.5 -144t-129 -58.5q-34 0 -63.5 8t-66.5 25l100 709h220l-7 -21h-194l-39 -275q37 45 75 69t82 24q59 0 89.5 -43zM311 67.5q46 56.5 66.5 138.5t20.5 161q0 69 -25 105.5t-73 36.5q-43 0 -82 -26.5t-78 -74.5
l-53 -372q27 -12 52 -18.5t55 -6.5q71 0 117 56.5z" />
    <glyph glyph-name="c" unicode="c" horiz-adv-x="382" 
d="M335.5 517q25.5 -12 47.5 -38l-15 -14q-19 22 -41 33t-52 11q-66 0 -111 -49.5t-67.5 -126.5t-22.5 -157q0 -81 30.5 -123t84.5 -42q31 0 57.5 12t53.5 35l11 -15q-60 -53 -122 -53q-64 0 -100.5 48.5t-36.5 137.5q0 85 25 166.5t75.5 134t123.5 52.5q34 0 59.5 -12z" />
    <glyph glyph-name="cacute" unicode="&#x107;" horiz-adv-x="382" 
d="M335.5 517q25.5 -12 47.5 -38l-15 -14q-19 22 -41 33t-52 11q-66 0 -111 -49.5t-67.5 -126.5t-22.5 -157q0 -81 30.5 -123t84.5 -42q31 0 57.5 12t53.5 35l11 -15q-60 -53 -122 -53q-64 0 -100.5 48.5t-36.5 137.5q0 85 25 166.5t75.5 134t123.5 52.5q34 0 59.5 -12z
M369 760l11 -22l-160 -84l-8 15z" />
    <glyph glyph-name="ccaron" unicode="&#x10d;" horiz-adv-x="382" 
d="M335.5 517q25.5 -12 47.5 -38l-15 -14q-19 22 -41 33t-52 11q-66 0 -111 -49.5t-67.5 -126.5t-22.5 -157q0 -81 30.5 -123t84.5 -42q31 0 57.5 12t53.5 35l11 -15q-60 -53 -122 -53q-64 0 -100.5 48.5t-36.5 137.5q0 85 25 166.5t75.5 134t123.5 52.5q34 0 59.5 -12z
M394 749l11 -13l-112 -95h-13l-85 95l13 13l80 -84z" />
    <glyph glyph-name="ccedilla" unicode="&#xe7;" horiz-adv-x="382" 
d="M335.5 517q25.5 -12 47.5 -38l-15 -14q-19 22 -41 33t-52 11q-66 0 -111 -49.5t-67.5 -126.5t-22.5 -157q0 -81 30.5 -123t84.5 -42q31 0 57.5 12t53.5 35l11 -15q-58 -52 -119 -53l-12 -64q67 -6 67 -63q0 -34 -22 -54.5t-57 -20.5t-57 18l9 16q22 -14 48 -14t41.5 14.5
t15.5 39.5t-15 35.5t-52 11.5l16 82q-58 5 -90 53t-32 132q0 85 25 166.5t75.5 134t123.5 52.5q34 0 59.5 -12z" />
    <glyph glyph-name="ccircumflex" unicode="&#x109;" horiz-adv-x="382" 
d="M335.5 517q25.5 -12 47.5 -38l-15 -14q-19 22 -41 33t-52 11q-66 0 -111 -49.5t-67.5 -126.5t-22.5 -157q0 -81 30.5 -123t84.5 -42q31 0 57.5 12t53.5 35l11 -15q-60 -53 -122 -53q-64 0 -100.5 48.5t-36.5 137.5q0 85 25 166.5t75.5 134t123.5 52.5q34 0 59.5 -12z
M195 654l-11 13l112 95h13l85 -95l-13 -13l-79 84z" />
    <glyph glyph-name="uni0255" unicode="&#x255;" horiz-adv-x="385" 
d="M335.5 517q25.5 -12 47.5 -38l-15 -13q-19 22 -41 32.5t-52 10.5q-66 0 -111 -49.5t-67.5 -126.5t-22.5 -157q0 -84 36 -126q40 82 75.5 116.5t77.5 34.5q36 0 56 -22.5t20 -58.5q0 -59 -38.5 -94.5t-101.5 -35.5q-49 0 -84 27l-40 -73l-16 8l41 77q-23 25 -35.5 63
t-12.5 84q0 85 25 166.5t75.5 134t123.5 52.5q34 0 59.5 -12zM194.5 149.5q-30.5 -32.5 -68.5 -113.5q29 -25 74 -25q51 0 84.5 28t33.5 81q0 29 -14 45.5t-41 16.5q-38 0 -68.5 -32.5z" />
    <glyph glyph-name="cdotaccent" unicode="&#x10b;" horiz-adv-x="382" 
d="M335.5 517q25.5 -12 47.5 -38l-15 -14q-19 22 -41 33t-52 11q-66 0 -111 -49.5t-67.5 -126.5t-22.5 -157q0 -81 30.5 -123t84.5 -42q31 0 57.5 12t53.5 35l11 -15q-60 -53 -122 -53q-64 0 -100.5 48.5t-36.5 137.5q0 85 25 166.5t75.5 134t123.5 52.5q34 0 59.5 -12z
M282 690q-5 5 -5 12q0 9 5.5 15t15.5 6q8 0 12.5 -4.5t4.5 -12.5q0 -9 -6 -15t-15 -6q-7 0 -12 5z" />
    <glyph glyph-name="uni0188" unicode="&#x188;" horiz-adv-x="382" 
d="M550 706l-13 -14q-14 12 -27.5 18.5t-31.5 6.5q-29 0 -49 -21t-26 -64l-20 -153l-13 -12q-21 21 -43 31.5t-52 10.5q-66 0 -111 -49.5t-67.5 -126.5t-22.5 -157q0 -81 30.5 -123t84.5 -42q31 0 57.5 12t53.5 35l11 -15q-60 -53 -122 -53q-64 0 -100.5 48.5t-36.5 137.5
q0 85 24.5 166.5t75 134t123.5 52.5q51 0 89 -33l18 138q7 50 32.5 76.5t64.5 26.5q38 0 71 -31z" />
    <glyph glyph-name="uni0297" unicode="&#x297;" horiz-adv-x="402" 
d="M355 517q25 -12 48 -38l-15 -13q-19 22 -41 32.5t-52 10.5q-66 0 -116.5 -70.5t-77.5 -183.5t-27 -234q0 -106 29.5 -154t85.5 -48q31 0 57 12t54 35l11 -14q-58 -53 -122 -53q-66 0 -102 54t-36 168q0 133 30 249.5t85.5 187.5t128.5 71q35 0 60 -12z" />
    <glyph glyph-name="uni023C" unicode="&#x23c;" horiz-adv-x="382" 
d="M383 479l-15 -14q-22 25 -47 36l-176 -482q21 -8 44 -8q31 0 57.5 12t53.5 35l11 -15q-60 -53 -122 -53q-28 0 -51 9l-24 -65l-16 5l25 68q-34 21 -52.5 63.5t-18.5 105.5q0 85 25 166.5t75.5 134t123.5 52.5q21 0 37 -4l22 61l15 -5l-22 -61q30 -11 55 -41zM306 506
q-15 3 -31 3q-66 0 -111 -49.5t-67.5 -126.5t-22.5 -157q0 -55 14.5 -93t41.5 -56z" />
    <glyph glyph-name="d" unicode="d" horiz-adv-x="468" 
d="M440 733l-104 -733h-18l15 127q-71 -137 -162 -137q-57 0 -89 46.5t-32 130.5q0 83 24.5 167t73 139.5t117.5 55.5q45 0 72.5 -23t40.5 -57l40 287zM160.5 456.5q-43.5 -52.5 -65.5 -131.5t-22 -157q0 -74 26 -115.5t72 -41.5q50 0 89.5 41.5t78.5 118.5l34 246
q-30 92 -108 92q-61 0 -104.5 -52.5z" />
    <glyph glyph-name="eth" unicode="&#xf0;" horiz-adv-x="462" 
d="M404 428q0 -103 -24.5 -204t-76 -167.5t-126.5 -66.5q-63 0 -96.5 45t-33.5 123q0 68 22.5 138.5t68 117.5t110.5 47q85 0 132 -96q2 38 2 54q0 76 -17 132t-56 101l-82 -85l-16 6l86 91q-21 19 -47.5 34t-51.5 22l7 18q57 -17 106 -60l68 68l12 -12l-67 -68
q80 -85 80 -238zM311.5 105q48.5 94 65.5 226q-47 110 -129 110q-59 0 -99 -44t-59.5 -109t-19.5 -130q0 -70 27 -108.5t80 -38.5q86 0 134.5 94z" />
    <glyph glyph-name="uni0238" unicode="&#x238;" horiz-adv-x="686" 
d="M605.5 483q29.5 -46 29.5 -133q0 -92 -22.5 -175t-66.5 -134t-103 -51q-42 0 -70 29t-40 80l-16 -99h-17l12 100q-57 -110 -141 -110q-55 0 -86.5 51t-31.5 142q0 90 24.5 169.5t70.5 128t107 48.5q71 0 105 -87l41 291l22 3l-41 -294q60 87 138 87q56 0 85.5 -46z
M251.5 44q34.5 33 66.5 101l38 267q-21 48 -43.5 72.5t-58.5 24.5q-54 0 -94.5 -46t-62 -121t-21.5 -159q0 -81 25.5 -126.5t70.5 -45.5t79.5 33zM534.5 60.5q38.5 49.5 58 127.5t19.5 163q0 77 -23.5 117.5t-68.5 40.5q-74 0 -143 -98l-38 -274q29 -126 103 -126
q54 0 92.5 49.5z" />
    <glyph glyph-name="dcaron" unicode="&#x10f;" horiz-adv-x="468" 
d="M440 733l-104 -733h-18l15 127q-71 -137 -162 -137q-57 0 -89 46.5t-32 130.5q0 83 24.5 167t73 139.5t117.5 55.5q45 0 72.5 -23t40.5 -57l40 287zM160.5 456.5q-43.5 -52.5 -65.5 -131.5t-22 -157q0 -74 26 -115.5t72 -41.5q50 0 89.5 41.5t78.5 118.5l34 246
q-30 92 -108 92q-61 0 -104.5 -52.5zM536 737l22 -2l-43 -145l-14 3z" />
    <glyph glyph-name="uni1E13" unicode="&#x1e13;" horiz-adv-x="468" 
d="M440 733l-104 -733h-18l15 127q-71 -137 -162 -137q-57 0 -89 46.5t-32 130.5q0 83 24.5 167t73 139.5t117.5 55.5q45 0 72.5 -23t40.5 -57l40 287zM160.5 456.5q-43.5 -52.5 -65.5 -131.5t-22 -157q0 -74 26 -115.5t72 -41.5q50 0 89.5 41.5t78.5 118.5l34 246
q-30 92 -108 92q-61 0 -104.5 -52.5zM80 -184l-11 14l112 95h13l85 -95l-11 -14l-83 85z" />
    <glyph glyph-name="dcroat" unicode="&#x111;" horiz-adv-x="473" 
d="M487 629h-62l-89 -629h-18l15 127q-71 -137 -162 -137q-57 0 -89 46.5t-32 130.5q0 83 24.5 167t73 139.5t117.5 55.5q45 0 72.5 -23t40.5 -57l25 180h-138l1 20h140l12 87l22 -3l-12 -84h62zM373 417q-30 92 -108 92q-61 0 -104.5 -52.5t-65.5 -131.5t-22 -157
q0 -74 26 -115.5t72 -41.5q50 0 89.5 41.5t78.5 118.5z" />
    <glyph glyph-name="uni0221" unicode="&#x221;" horiz-adv-x="537" 
d="M523.5 161q18.5 -20 18.5 -53q0 -52 -36 -85t-88 -33q-53 0 -76 36l-49 -82l-15 8l55 94q-5 14 -5 38q0 22 4 42q-71 -136 -161 -136q-57 0 -89 46.5t-32 130.5q0 83 24.5 167t73 139.5t117.5 55.5q45 0 72.5 -23t40.5 -57l40 287l22 -3l-88 -618q-4 -21 -2 -43
q32 57 60 83t63 26q32 0 50.5 -20zM260.5 52.5q39.5 41.5 78.5 119.5l34 245q-30 92 -108 92q-61 0 -104.5 -52.5t-65.5 -131.5t-22 -157q0 -74 26 -115.5t72 -41.5q50 0 89.5 41.5zM491.5 36q28.5 25 28.5 72q0 25 -12.5 39.5t-35.5 14.5q-31 0 -56 -25t-61 -90
q15 -36 64 -36q44 0 72.5 25z" />
    <glyph glyph-name="uni1E0B" unicode="&#x1e0b;" horiz-adv-x="468" 
d="M440 733l-104 -733h-18l15 127q-71 -137 -162 -137q-57 0 -89 46.5t-32 130.5q0 83 24.5 167t73 139.5t117.5 55.5q45 0 72.5 -23t40.5 -57l40 287zM160.5 456.5q-43.5 -52.5 -65.5 -131.5t-22 -157q0 -74 26 -115.5t72 -41.5q50 0 89.5 41.5t78.5 118.5l34 246
q-30 92 -108 92q-61 0 -104.5 -52.5zM314 867q-5 5 -5 12q0 9 5.5 15t15.5 6q8 0 12.5 -4.5t4.5 -12.5q0 -9 -6 -15t-15 -6q-7 0 -12 5z" />
    <glyph glyph-name="uni1E0D" unicode="&#x1e0d;" horiz-adv-x="468" 
d="M440 733l-104 -733h-18l15 127q-71 -137 -162 -137q-57 0 -89 46.5t-32 130.5q0 83 24.5 167t73 139.5t117.5 55.5q45 0 72.5 -23t40.5 -57l40 287zM160.5 456.5q-43.5 -52.5 -65.5 -131.5t-22 -157q0 -74 26 -115.5t72 -41.5q50 0 89.5 41.5t78.5 118.5l34 246
q-30 92 -108 92q-61 0 -104.5 -52.5zM194 -104q5 -5 5 -12q0 -9 -5.5 -15t-15.5 -6q-8 0 -12.5 4.5t-4.5 12.5q0 9 6 15t15 6q7 0 12 -5z" />
    <glyph glyph-name="uni018D" unicode="&#x18d;" horiz-adv-x="459" 
d="M26 -143l15 14q24 -24 49.5 -35.5t60.5 -11.5q59 0 89.5 28.5t30.5 74.5q0 32 -20 55t-70 48q-67 34 -96 76t-29 110q0 71 21 142.5t69.5 121t124.5 49.5q65 0 101.5 -47.5t36.5 -130.5q0 -116 -44 -194t-150 -122q42 -25 60.5 -49t18.5 -58q0 -55 -38 -90t-105 -35
q-76 0 -125 54zM346 165q41 75 41 185q0 74 -30.5 116.5t-86.5 42.5q-69 0 -112 -47.5t-61 -114.5t-18 -130q0 -64 25.5 -102t91.5 -71q109 46 150 121z" />
    <glyph glyph-name="uni02A4" unicode="&#x2a4;" horiz-adv-x="707" 
d="M687 501l-226 -308h16q166 0 166 -149q0 -71 -25 -125.5t-69.5 -85t-101.5 -30.5q-49 0 -83 21t-59 61l16 12q25 -38 55 -55.5t71 -17.5q79 0 126 60.5t47 158.5q0 67 -35.5 98.5t-108.5 31.5h-42l3 21l222 305h-252l-71 -499h-18l15 127q-71 -137 -162 -137
q-57 0 -89 46.5t-32 130.5q0 83 24.5 167t73 139.5t117.5 55.5q45 0 72.5 -23t40.5 -57l40 287l22 -3l-30 -214h280zM373 417q-30 92 -108 92q-61 0 -104.5 -52.5t-65.5 -131.5t-22 -157q0 -74 26 -115.5t72 -41.5q50 0 89.5 41.5t78.5 118.5z" />
    <glyph glyph-name="uni0257" unicode="&#x257;" horiz-adv-x="468" 
d="M572 706l-13 -14q-13 12 -26 18.5t-33 6.5q-29 0 -48 -20t-25 -61l-17 -117l-74 -519h-18l15 127q-71 -137 -162 -137q-57 0 -89 46.5t-32 130.5q0 83 24.5 167t73 139.5t117.5 55.5q45 0 72.5 -23t40.5 -57l10 70l18 119q7 48 31.5 73.5t62.5 25.5q41 0 72 -31zM373 417
q-30 92 -108 92q-61 0 -104.5 -52.5t-65.5 -131.5t-22 -157q0 -74 26 -115.5t72 -41.5q50 0 89.5 41.5t78.5 118.5z" />
    <glyph glyph-name="uni1E0F" unicode="&#x1e0f;" horiz-adv-x="468" 
d="M440 733l-104 -733h-18l15 127q-71 -137 -162 -137q-57 0 -89 46.5t-32 130.5q0 83 24.5 167t73 139.5t117.5 55.5q45 0 72.5 -23t40.5 -57l40 287zM160.5 456.5q-43.5 -52.5 -65.5 -131.5t-22 -157q0 -74 26 -115.5t72 -41.5q50 0 89.5 41.5t78.5 118.5l34 246
q-30 92 -108 92q-61 0 -104.5 -52.5zM96 -118h173l-3 -21h-173z" />
    <glyph glyph-name="uni0256" unicode="&#x256;" horiz-adv-x="468" 
d="M448 -168q-31 -29 -73 -29q-36 0 -55.5 21t-19.5 59q0 14 1 21l13 96l17 123q-31 -60 -70 -96.5t-90 -36.5q-57 0 -89 46.5t-32 130.5q0 83 24.5 167t73 139.5t117.5 55.5q45 0 72.5 -23t40.5 -57l40 287l22 -3l-104 -733l-13 -96q-1 -7 -1 -20q0 -61 54 -61q31 0 60 24z
M260.5 52.5q39.5 41.5 78.5 118.5l34 246q-30 92 -108 92q-61 0 -104.5 -52.5t-65.5 -131.5t-22 -157q0 -74 26 -115.5t72 -41.5q50 0 89.5 41.5z" />
    <glyph glyph-name="uni018C" unicode="&#x18c;" horiz-adv-x="468" 
d="M336 0h-18l15 127q-71 -137 -162 -137q-57 0 -89 46.5t-32 130.5q0 83 24.5 167t73 139.5t117.5 55.5q45 0 72.5 -23t40.5 -57l36 262h-196l3 21h218zM373 417q-30 92 -108 92q-61 0 -104.5 -52.5t-65.5 -131.5t-22 -157q0 -74 26 -115.5t72 -41.5q50 0 89.5 41.5
t78.5 118.5z" />
    <glyph glyph-name="uni01F3" unicode="&#x1f3;" horiz-adv-x="806" 
d="M440 733l-104 -733h-18l15 127q-71 -137 -162 -137q-57 0 -89 46.5t-32 130.5q0 83 24.5 167t73 139.5t117.5 55.5q45 0 72.5 -23t40.5 -57l40 287zM160.5 456.5q-43.5 -52.5 -65.5 -131.5t-22 -157q0 -74 26 -115.5t72 -41.5q50 0 89.5 41.5t78.5 118.5l34 246
q-30 92 -108 92q-61 0 -104.5 -52.5zM812 519l-3 -18l-324 -480h252l-6 -21h-274l3 18l324 481h-235l3 20h260z" />
    <glyph glyph-name="uni02A3" unicode="&#x2a3;" horiz-adv-x="684" 
d="M688 501l-324 -480h251l-5 -21h-292l15 127q-71 -137 -162 -137q-57 0 -89 46.5t-32 130.5q0 83 24.5 167t73 139.5t117.5 55.5q45 0 72.5 -23t40.5 -57l40 287l22 -3l-30 -214h281zM260.5 52.5q39.5 41.5 78.5 118.5l34 246q-30 92 -108 92q-61 0 -104.5 -52.5
t-65.5 -131.5t-22 -157q0 -74 26 -115.5t72 -41.5q50 0 89.5 41.5zM339 19l323 480h-255z" />
    <glyph glyph-name="uni01C6" unicode="&#x1c6;" horiz-adv-x="806" 
d="M440 733l-104 -733h-18l15 127q-71 -137 -162 -137q-57 0 -89 46.5t-32 130.5q0 83 24.5 167t73 139.5t117.5 55.5q45 0 72.5 -23t40.5 -57l40 287zM160.5 456.5q-43.5 -52.5 -65.5 -131.5t-22 -157q0 -74 26 -115.5t72 -41.5q50 0 89.5 41.5t78.5 118.5l34 246
q-30 92 -108 92q-61 0 -104.5 -52.5zM812 519l-3 -18l-324 -480h252l-6 -21h-274l3 18l324 481h-235l3 20h260zM806 749l11 -13l-112 -95h-13l-85 95l13 13l80 -84z" />
    <glyph glyph-name="uni02A5" unicode="&#x2a5;" horiz-adv-x="693" 
d="M648.5 26q-45.5 -26 -124.5 -26q-12 -73 -15 -103l-21 2q11 73 16 101h-186l15 127q-71 -137 -162 -137q-57 0 -89 46.5t-32 130.5q0 83 24.5 167t73 139.5t117.5 55.5q45 0 72.5 -23t40.5 -57l40 287l22 -3l-30 -214h280l-3 -18l-324 -480h145q16 85 45 127.5t74 42.5
q31 0 49 -19.5t18 -53.5q0 -66 -45.5 -92zM260.5 52.5q39.5 41.5 78.5 118.5l34 246q-30 92 -108 92q-61 0 -104.5 -52.5t-65.5 -131.5t-22 -157q0 -74 26 -115.5t72 -41.5q50 0 89.5 41.5zM407 499l-68 -478l322 478h-254zM635.5 40.5q37.5 21.5 37.5 76.5t-46 55
q-36 0 -59.5 -36t-38.5 -115q69 -2 106.5 19.5z" />
    <glyph glyph-name="e" unicode="e" horiz-adv-x="423" 
d="M312.5 275q-85.5 -50 -236.5 -61q-2 -28 -2 -41q0 -80 29.5 -121t82.5 -41q36 0 66 13.5t64 41.5l12 -15q-36 -31 -69.5 -46t-72.5 -15q-64 0 -99.5 47t-35.5 135q0 86 25.5 168.5t77.5 135.5t127 53q55 0 86 -30t31 -81q0 -93 -85.5 -143zM141.5 428.5
q-51.5 -80.5 -64.5 -194.5q144 9 221.5 54.5t77.5 129.5q0 43 -24.5 67t-71.5 24q-87 0 -138.5 -80.5z" />
    <glyph glyph-name="eacute" unicode="&#xe9;" horiz-adv-x="423" 
d="M312.5 275q-85.5 -50 -236.5 -61q-2 -28 -2 -41q0 -80 29.5 -121t82.5 -41q36 0 66 13.5t64 41.5l12 -15q-36 -31 -69.5 -46t-72.5 -15q-64 0 -99.5 47t-35.5 135q0 86 25.5 168.5t77.5 135.5t127 53q55 0 86 -30t31 -81q0 -93 -85.5 -143zM141.5 428.5
q-51.5 -80.5 -64.5 -194.5q144 9 221.5 54.5t77.5 129.5q0 43 -24.5 67t-71.5 24q-87 0 -138.5 -80.5zM370 760l11 -22l-160 -84l-8 15z" />
    <glyph glyph-name="ebreve" unicode="&#x115;" horiz-adv-x="423" 
d="M312.5 275q-85.5 -50 -236.5 -61q-2 -28 -2 -41q0 -80 29.5 -121t82.5 -41q36 0 66 13.5t64 41.5l12 -15q-36 -31 -69.5 -46t-72.5 -15q-64 0 -99.5 47t-35.5 135q0 86 25.5 168.5t77.5 135.5t127 53q55 0 86 -30t31 -81q0 -93 -85.5 -143zM141.5 428.5
q-51.5 -80.5 -64.5 -194.5q144 9 221.5 54.5t77.5 129.5q0 43 -24.5 67t-71.5 24q-87 0 -138.5 -80.5zM232 686q-21 24 -22 63l17 2q6 -67 64 -67q29 0 51.5 18t34.5 51l16 -6q-12 -38 -39 -61.5t-64 -23.5t-58 24z" />
    <glyph glyph-name="ecaron" unicode="&#x11b;" horiz-adv-x="423" 
d="M312.5 275q-85.5 -50 -236.5 -61q-2 -28 -2 -41q0 -80 29.5 -121t82.5 -41q36 0 66 13.5t64 41.5l12 -15q-36 -31 -69.5 -46t-72.5 -15q-64 0 -99.5 47t-35.5 135q0 86 25.5 168.5t77.5 135.5t127 53q55 0 86 -30t31 -81q0 -93 -85.5 -143zM141.5 428.5
q-51.5 -80.5 -64.5 -194.5q144 9 221.5 54.5t77.5 129.5q0 43 -24.5 67t-71.5 24q-87 0 -138.5 -80.5zM395 749l11 -13l-112 -95h-13l-85 95l13 13l80 -84z" />
    <glyph glyph-name="uni0229" unicode="&#x229;" horiz-adv-x="423" 
d="M312.5 275q-85.5 -50 -236.5 -61q-2 -28 -2 -41q0 -80 29.5 -121t82.5 -41q36 0 66 13.5t64 41.5l12 -15q-36 -31 -69.5 -46t-71.5 -15l-12 -64q67 -6 67 -63q0 -34 -22 -54.5t-57 -20.5t-57 18l9 16q22 -14 48 -14t41.5 14.5t15.5 39.5t-15 35.5t-52 11.5l16 82
q-56 6 -87 52.5t-31 128.5q0 86 25.5 168.5t77.5 135.5t127 53q55 0 86 -30t31 -81q0 -93 -85.5 -143zM141.5 428.5q-51.5 -80.5 -64.5 -194.5q144 9 221.5 54.5t77.5 129.5q0 43 -24.5 67t-71.5 24q-87 0 -138.5 -80.5z" />
    <glyph glyph-name="ecircumflex" unicode="&#xea;" horiz-adv-x="423" 
d="M312.5 275q-85.5 -50 -236.5 -61q-2 -28 -2 -41q0 -80 29.5 -121t82.5 -41q36 0 66 13.5t64 41.5l12 -15q-36 -31 -69.5 -46t-72.5 -15q-64 0 -99.5 47t-35.5 135q0 86 25.5 168.5t77.5 135.5t127 53q55 0 86 -30t31 -81q0 -93 -85.5 -143zM141.5 428.5
q-51.5 -80.5 -64.5 -194.5q144 9 221.5 54.5t77.5 129.5q0 43 -24.5 67t-71.5 24q-87 0 -138.5 -80.5zM196 654l-11 13l112 95h13l85 -95l-13 -13l-79 84z" />
    <glyph glyph-name="uni1EBF" unicode="&#x1ebf;" horiz-adv-x="423" 
d="M458 786l-103 -113l-12 10l98 119zM287 665l-107 -79l-10 13l112 90h12l86 -90l-12 -13zM367 499q31 -30 31 -81q0 -93 -85.5 -143t-236.5 -61q-2 -28 -2 -41q0 -80 29.5 -121t82.5 -41q36 0 66 13.5t64 41.5l12 -15q-36 -31 -69.5 -46t-72.5 -15q-64 0 -99.5 47
t-35.5 135q0 86 25.5 168.5t77.5 135.5t127 53q55 0 86 -30zM298.5 288.5q77.5 45.5 77.5 129.5q0 43 -24.5 67t-71.5 24q-87 0 -138.5 -80.5t-64.5 -194.5q144 9 221.5 54.5z" />
    <glyph glyph-name="uni1EC7" unicode="&#x1ec7;" horiz-adv-x="423" 
d="M312.5 275q-85.5 -50 -236.5 -61q-2 -28 -2 -41q0 -80 29.5 -121t82.5 -41q36 0 66 13.5t64 41.5l12 -15q-36 -31 -69.5 -46t-72.5 -15q-64 0 -99.5 47t-35.5 135q0 86 25.5 168.5t77.5 135.5t127 53q55 0 86 -30t31 -81q0 -93 -85.5 -143zM141.5 428.5
q-51.5 -80.5 -64.5 -194.5q144 9 221.5 54.5t77.5 129.5q0 43 -24.5 67t-71.5 24q-87 0 -138.5 -80.5zM196 654l-11 13l112 95h13l85 -95l-13 -13l-79 84zM182 -104q5 -5 5 -12q0 -9 -5.5 -15t-15.5 -6q-8 0 -12.5 4.5t-4.5 12.5q0 9 6 15t15 6q7 0 12 -5z" />
    <glyph glyph-name="uni1EC1" unicode="&#x1ec1;" horiz-adv-x="423" 
d="M224 681l-13 -8l-72 116l21 13zM181 586l-10 13l112 90h12l86 -90l-12 -13l-81 79zM312.5 275q-85.5 -50 -236.5 -61q-2 -28 -2 -41q0 -80 29.5 -121t82.5 -41q36 0 66 13.5t64 41.5l12 -15q-36 -31 -69.5 -46t-72.5 -15q-64 0 -99.5 47t-35.5 135q0 86 25.5 168.5
t77.5 135.5t127 53q55 0 86 -30t31 -81q0 -93 -85.5 -143zM141.5 428.5q-51.5 -80.5 -64.5 -194.5q144 9 221.5 54.5t77.5 129.5q0 43 -24.5 67t-71.5 24q-87 0 -138.5 -80.5z" />
    <glyph glyph-name="uni1EC3" unicode="&#x1ec3;" horiz-adv-x="423" 
d="M312.5 275q-85.5 -50 -236.5 -61q-2 -28 -2 -41q0 -80 29.5 -121t82.5 -41q36 0 66 13.5t64 41.5l12 -15q-36 -31 -69.5 -46t-72.5 -15q-64 0 -99.5 47t-35.5 135q0 86 25.5 168.5t77.5 135.5t127 53q55 0 86 -30t31 -81q0 -93 -85.5 -143zM141.5 428.5
q-51.5 -80.5 -64.5 -194.5q144 9 221.5 54.5t77.5 129.5q0 43 -24.5 67t-71.5 24q-87 0 -138.5 -80.5zM179 586l-10 13l112 90h12l86 -90l-12 -13l-81 79zM375 734q65 4 65 58q0 19 -9.5 30t-27.5 11q-23 0 -47 -14l-8 17q29 17 56 17t43 -16.5t16 -44.5q0 -32 -18.5 -50
t-49.5 -23l-8 -55h-20z" />
    <glyph glyph-name="uni1EC5" unicode="&#x1ec5;" horiz-adv-x="423" 
d="M227 755.5q-10 -7.5 -28 -27.5l-13 9q18 23 33.5 34.5t32.5 11.5q12 0 22.5 -5.5t25.5 -16.5q13 -10 23 -15.5t21 -5.5q14 0 26 9.5t28 31.5l13 -9q-31 -52 -66 -52q-14 0 -25.5 6t-27.5 18q-13 10 -21.5 14.5t-18.5 4.5q-15 0 -25 -7.5zM290 656l-107 -79l-10 13l112 90
h12l86 -90l-12 -13zM367 499q31 -30 31 -81q0 -93 -85.5 -143t-236.5 -61q-2 -28 -2 -41q0 -80 29.5 -121t82.5 -41q36 0 66 13.5t64 41.5l12 -15q-36 -31 -69.5 -46t-72.5 -15q-64 0 -99.5 47t-35.5 135q0 86 25.5 168.5t77.5 135.5t127 53q55 0 86 -30zM298.5 288.5
q77.5 45.5 77.5 129.5q0 43 -24.5 67t-71.5 24q-87 0 -138.5 -80.5t-64.5 -194.5q144 9 221.5 54.5z" />
    <glyph glyph-name="uni0205" unicode="&#x205;" horiz-adv-x="423" 
d="M312.5 275q-85.5 -50 -236.5 -61q-2 -28 -2 -41q0 -80 29.5 -121t82.5 -41q36 0 66 13.5t64 41.5l12 -15q-36 -31 -69.5 -46t-72.5 -15q-64 0 -99.5 47t-35.5 135q0 86 25.5 168.5t77.5 135.5t127 53q55 0 86 -30t31 -81q0 -93 -85.5 -143zM141.5 428.5
q-51.5 -80.5 -64.5 -194.5q144 9 221.5 54.5t77.5 129.5q0 43 -24.5 67t-71.5 24q-87 0 -138.5 -80.5zM211 791l41 -132l-18 -7l-48 129zM303 790l37 -127l-18 -7l-44 124z" />
    <glyph glyph-name="edieresis" unicode="&#xeb;" horiz-adv-x="423" 
d="M312.5 275q-85.5 -50 -236.5 -61q-2 -28 -2 -41q0 -80 29.5 -121t82.5 -41q36 0 66 13.5t64 41.5l12 -15q-36 -31 -69.5 -46t-72.5 -15q-64 0 -99.5 47t-35.5 135q0 86 25.5 168.5t77.5 135.5t127 53q55 0 86 -30t31 -81q0 -93 -85.5 -143zM141.5 428.5
q-51.5 -80.5 -64.5 -194.5q144 9 221.5 54.5t77.5 129.5q0 43 -24.5 67t-71.5 24q-87 0 -138.5 -80.5zM212.5 678q-4.5 5 -4.5 12q0 9 5.5 15t14.5 6q7 0 12 -4.5t5 -12.5q0 -9 -6 -15t-15 -6q-7 0 -11.5 5zM351 678q-5 5 -5 12q0 9 5.5 15t15.5 6q7 0 11.5 -4.5t4.5 -12.5
q0 -9 -5.5 -15t-14.5 -6q-7 0 -12 5z" />
    <glyph glyph-name="edotaccent" unicode="&#x117;" horiz-adv-x="423" 
d="M312.5 275q-85.5 -50 -236.5 -61q-2 -28 -2 -41q0 -80 29.5 -121t82.5 -41q36 0 66 13.5t64 41.5l12 -15q-36 -31 -69.5 -46t-72.5 -15q-64 0 -99.5 47t-35.5 135q0 86 25.5 168.5t77.5 135.5t127 53q55 0 86 -30t31 -81q0 -93 -85.5 -143zM141.5 428.5
q-51.5 -80.5 -64.5 -194.5q144 9 221.5 54.5t77.5 129.5q0 43 -24.5 67t-71.5 24q-87 0 -138.5 -80.5zM283 690q-5 5 -5 12q0 9 5.5 15t15.5 6q8 0 12.5 -4.5t4.5 -12.5q0 -9 -6 -15t-15 -6q-7 0 -12 5z" />
    <glyph glyph-name="uni1EB9" unicode="&#x1eb9;" horiz-adv-x="423" 
d="M312.5 275q-85.5 -50 -236.5 -61q-2 -28 -2 -41q0 -80 29.5 -121t82.5 -41q36 0 66 13.5t64 41.5l12 -15q-36 -31 -69.5 -46t-72.5 -15q-64 0 -99.5 47t-35.5 135q0 86 25.5 168.5t77.5 135.5t127 53q55 0 86 -30t31 -81q0 -93 -85.5 -143zM141.5 428.5
q-51.5 -80.5 -64.5 -194.5q144 9 221.5 54.5t77.5 129.5q0 43 -24.5 67t-71.5 24q-87 0 -138.5 -80.5zM182 -104q5 -5 5 -12q0 -9 -5.5 -15t-15.5 -6q-8 0 -12.5 4.5t-4.5 12.5q0 9 6 15t15 6q7 0 12 -5z" />
    <glyph glyph-name="egrave" unicode="&#xe8;" horiz-adv-x="423" 
d="M312.5 275q-85.5 -50 -236.5 -61q-2 -28 -2 -41q0 -80 29.5 -121t82.5 -41q36 0 66 13.5t64 41.5l12 -15q-36 -31 -69.5 -46t-72.5 -15q-64 0 -99.5 47t-35.5 135q0 86 25.5 168.5t77.5 135.5t127 53q55 0 86 -30t31 -81q0 -93 -85.5 -143zM141.5 428.5
q-51.5 -80.5 -64.5 -194.5q144 9 221.5 54.5t77.5 129.5q0 43 -24.5 67t-71.5 24q-87 0 -138.5 -80.5zM248 760l131 -92l-10 -14l-136 84z" />
    <glyph glyph-name="uni1EBB" unicode="&#x1ebb;" horiz-adv-x="423" 
d="M312.5 275q-85.5 -50 -236.5 -61q-2 -28 -2 -41q0 -80 29.5 -121t82.5 -41q36 0 66 13.5t64 41.5l12 -15q-36 -31 -69.5 -46t-72.5 -15q-64 0 -99.5 47t-35.5 135q0 86 25.5 168.5t77.5 135.5t127 53q55 0 86 -30t31 -81q0 -93 -85.5 -143zM141.5 428.5
q-51.5 -80.5 -64.5 -194.5q144 9 221.5 54.5t77.5 129.5q0 43 -24.5 67t-71.5 24q-87 0 -138.5 -80.5zM279 692q65 4 65 58q0 19 -9.5 30t-27.5 11q-23 0 -47 -14l-8 17q29 17 56 17t43 -16.5t16 -44.5q0 -32 -18.5 -50t-49.5 -23l-8 -55h-20z" />
    <glyph glyph-name="uni0207" unicode="&#x207;" horiz-adv-x="423" 
d="M312.5 275q-85.5 -50 -236.5 -61q-2 -28 -2 -41q0 -80 29.5 -121t82.5 -41q36 0 66 13.5t64 41.5l12 -15q-36 -31 -69.5 -46t-72.5 -15q-64 0 -99.5 47t-35.5 135q0 86 25.5 168.5t77.5 135.5t127 53q55 0 86 -30t31 -81q0 -93 -85.5 -143zM141.5 428.5
q-51.5 -80.5 -64.5 -194.5q144 9 221.5 54.5t77.5 129.5q0 43 -24.5 67t-71.5 24q-87 0 -138.5 -80.5zM194 640q12 38 38 61.5t62 23.5q37 0 59 -24.5t23 -62.5l-16 -2q-8 68 -67 68q-58 0 -85 -69z" />
    <glyph glyph-name="emacron" unicode="&#x113;" horiz-adv-x="423" 
d="M312.5 275q-85.5 -50 -236.5 -61q-2 -28 -2 -41q0 -80 29.5 -121t82.5 -41q36 0 66 13.5t64 41.5l12 -15q-36 -31 -69.5 -46t-72.5 -15q-64 0 -99.5 47t-35.5 135q0 86 25.5 168.5t77.5 135.5t127 53q55 0 86 -30t31 -81q0 -93 -85.5 -143zM141.5 428.5
q-51.5 -80.5 -64.5 -194.5q144 9 221.5 54.5t77.5 129.5q0 43 -24.5 67t-71.5 24q-87 0 -138.5 -80.5zM380 685h-173l3 21h173z" />
    <glyph glyph-name="eogonek" unicode="&#x119;" horiz-adv-x="423" 
d="M312.5 275q-85.5 -50 -236.5 -61q-2 -28 -2 -41q0 -80 29.5 -121t82.5 -41q36 0 66 13.5t64 41.5l12 -15q-40 -34 -70 -46q-52 -27 -78 -54.5t-26 -67.5q0 -27 15 -42.5t42 -15.5q19 0 44 7l-3 -22q-22 -7 -44 -7q-38 0 -57.5 21.5t-19.5 57.5q0 64 75 109q-6 -1 -20 -1
q-64 0 -99.5 47t-35.5 135q0 86 25.5 168.5t77.5 135.5t127 53q55 0 86 -30t31 -81q0 -93 -85.5 -143zM141.5 428.5q-51.5 -80.5 -64.5 -194.5q144 9 221.5 54.5t77.5 129.5q0 43 -24.5 67t-71.5 24q-87 0 -138.5 -80.5z" />
    <glyph glyph-name="uni025B" unicode="&#x25b;" horiz-adv-x="379" 
d="M76 26.5q-36 36.5 -36 97.5t35 103.5t105 46.5q-40 8 -63 34t-23 71q0 37 17.5 71.5t52 56.5t83.5 22q68 0 119 -46l-13 -15q-24 20 -49 30.5t-58 10.5q-63 0 -96 -39t-33 -91q0 -44 26 -70t80 -26h41l-6 -20h-40q-85 0 -120 -40t-35 -100q0 -52 29 -82t78 -30
q43 0 74 14t60 41l13 -15q-29 -29 -64.5 -45t-82.5 -16q-58 0 -94 36.5z" />
    <glyph glyph-name="uni029A" unicode="&#x29a;" horiz-adv-x="454" 
d="M74.5 24.5q-34.5 34.5 -34.5 93.5q0 63 36 107.5t106 48.5q-79 18 -79 100q0 38 17.5 74t53 58.5t84.5 22.5q69 0 106 -49t37 -138q0 -100 -27.5 -180t-80.5 -126t-126 -46q-58 0 -92.5 34.5zM282.5 55q47.5 44 72 119.5t24.5 167.5q0 82 -31 124.5t-91 42.5
q-65 0 -98.5 -40t-33.5 -94q0 -42 24 -67t72 -25h33l-6 -20h-32q-84 0 -119 -42.5t-35 -102.5q0 -51 28 -79t78 -28q67 0 114.5 44z" />
    <glyph glyph-name="uni025C" unicode="&#x25c;" horiz-adv-x="388" 
d="M312 498.5q30 -30.5 30 -81.5q0 -59 -33 -96.5t-90 -45.5q46 -5 73.5 -32.5t27.5 -76.5q0 -44 -18.5 -84.5t-57.5 -66t-98 -25.5q-49 0 -82.5 19t-58.5 51l15 13q47 -62 126 -62q78 0 115 45.5t37 108.5q0 48 -33 74t-91 26h-42l6 19h38q68 0 105.5 37t37.5 95
q0 43 -23.5 68t-67.5 25q-37 0 -65.5 -11.5t-65.5 -36.5l-10 16q37 26 70 39t72 13q53 0 83 -30.5z" />
    <glyph glyph-name="uni025E" unicode="&#x25e;" horiz-adv-x="441" 
d="M89 38q-37 48 -37 136q0 96 27 177t79.5 129.5t123.5 48.5q53 0 83 -31.5t30 -84.5q0 -58 -30.5 -94t-87.5 -45q45 -5 70.5 -32t25.5 -77q0 -45 -18.5 -85t-57.5 -65t-99 -25q-72 0 -109 48zM314.5 55.5q36.5 44.5 36.5 107.5q0 102 -118 102h-31l6 19h27q67 0 102 35.5
t35 93.5q0 44 -23 70t-67 26q-67 0 -114 -46.5t-70.5 -123t-23.5 -165.5q0 -80 31.5 -121.5t94.5 -41.5q78 0 114.5 44.5z" />
    <glyph glyph-name="uni025D" unicode="&#x25d;" horiz-adv-x="495" 
d="M542 363q-37 -29 -75 -29q-34 0 -53.5 20.5t-19.5 60.5q0 7 2 27l8 56l-69 -36q7 -23 7 -45q0 -59 -33 -96.5t-90 -45.5q46 -5 73.5 -32.5t27.5 -76.5q0 -44 -18.5 -84.5t-57.5 -66t-98 -25.5q-49 0 -82.5 19t-58.5 51l15 13q47 -62 126 -62q78 0 115 45.5t37 108.5
q0 48 -33 74t-91 26h-42l6 19h38q68 0 105.5 37t37.5 95q0 18 -5 36l-7 -4l2 16q-21 45 -81 45q-37 0 -65.5 -11.5t-65.5 -36.5l-10 16q37 26 70 39t72 13q34 0 59 -13t39 -37l80 40h22l-11 -78q-2 -18 -2 -26q0 -62 51 -62q20 0 34.5 6.5t31.5 18.5z" />
    <glyph glyph-name="uni0258" unicode="&#x258;" horiz-adv-x="418" 
d="M328.5 475q36.5 -54 36.5 -140q0 -94 -28.5 -173t-80 -125.5t-116.5 -46.5q-39 0 -67.5 15t-55.5 46l16 15q22 -28 47 -41.5t61 -13.5q67 0 116.5 55.5t71.5 147.5q-138 5 -201 40.5t-63 110.5q0 47 19.5 84t54 58.5t78.5 21.5q75 0 111.5 -54zM144.5 268.5
q56.5 -30.5 188.5 -34.5q9 48 9 101q0 76 -29 125t-96 49q-59 0 -94 -40t-35 -103q0 -67 56.5 -97.5z" />
    <glyph glyph-name="uni0283" unicode="&#x283;" horiz-adv-x="212" 
d="M315 706l-13 -14q-13 12 -26 18.5t-33 6.5q-29 0 -48 -20t-25 -61l-17 -117h1l-74 -519l-14 -98q-7 -48 -33 -73.5t-64 -25.5t-70 30l13 14q13 -12 25.5 -18t31.5 -6q29 0 49 19.5t26 61.5l14 96l74 519h-1l18 119q7 48 31.5 73.5t62.5 25.5q41 0 72 -31z" />
    <glyph glyph-name="uni0286" unicode="&#x286;" horiz-adv-x="231" 
d="M334 706l-13 -14q-13 12 -26 18.5t-33 6.5q-29 0 -48 -20t-25 -61l-17 -117l-78 -549q44 -15 73 -33l-9 -16q-34 19 -67 29l-1 -9q-9 -64 -39 -101t-81 -37q-37 0 -59 22.5t-22 57.5q0 47 30.5 73.5t77.5 26.5q39 0 75 -9l78 545l18 119q7 48 31.5 73.5t62.5 25.5
q41 0 72 -31zM36.5 -145.5q23.5 31.5 32.5 96.5l1 4q-21 5 -36 7t-38 2q-40 0 -62.5 -21t-22.5 -60q0 -28 15 -44t44 -16q43 0 66.5 31.5z" />
    <glyph glyph-name="uni01AA" unicode="&#x1aa;" horiz-adv-x="226" 
d="M207 -168q-31 -29 -73 -29q-36 0 -55.5 21t-19.5 59q0 14 1 21l13 96l75 537q-26 -16 -55 -16q-31 0 -50.5 22.5t-19.5 60.5q0 58 28.5 95.5t68.5 37.5q31 0 48.5 -20t17.5 -55q0 -7 -2 -23l-89 -639l-13 -96q-1 -7 -1 -20q0 -61 54 -61q31 0 60 24zM151 559l11 81
q2 16 2 22q0 26 -11 40.5t-33 14.5q-33 0 -53.5 -32t-20.5 -81q0 -63 49 -63q30 0 56 18z" />
    <glyph glyph-name="uni0285" unicode="&#x285;" horiz-adv-x="307" 
d="M266 19q-31 -29 -73 -29q-36 0 -55.5 21t-19.5 59q0 14 1 21l13 96l21 145l13 96q1 7 1 20q0 61 -54 61q-31 0 -60 -24l-12 15q31 29 73 29q36 0 55.5 -21t19.5 -59q0 -14 -1 -21l-13 -96l-21 -145l-13 -96q-1 -7 -1 -20q0 -61 54 -61q31 0 60 24z" />
    <glyph glyph-name="uni0247" unicode="&#x247;" horiz-adv-x="423" 
d="M221 238l-80 -218q20 -9 45 -9q36 0 66 13.5t64 41.5l12 -15q-36 -31 -69.5 -46t-72.5 -15q-30 0 -53 10l-24 -66l-15 5l25 68q-33 21 -50.5 62.5t-17.5 102.5q0 86 25.5 168.5t77.5 135.5t127 53q16 0 29 -3l22 60l16 -5l-22 -59q34 -10 53 -37.5t19 -66.5
q0 -131 -177 -180zM141.5 428.5q-51.5 -80.5 -64.5 -194.5q72 4 133 20l93 253q-14 2 -23 2q-87 0 -138.5 -80.5zM319 503l-90 -244q147 45 147 159q0 67 -57 85zM202 233q-54 -13 -126 -19q-2 -28 -2 -41q0 -106 53 -145z" />
    <glyph glyph-name="uni1EBD" unicode="&#x1ebd;" horiz-adv-x="423" 
d="M312.5 275q-85.5 -50 -236.5 -61q-2 -28 -2 -41q0 -80 29.5 -121t82.5 -41q36 0 66 13.5t64 41.5l12 -15q-36 -31 -69.5 -46t-72.5 -15q-64 0 -99.5 47t-35.5 135q0 86 25.5 168.5t77.5 135.5t127 53q55 0 86 -30t31 -81q0 -93 -85.5 -143zM141.5 428.5
q-51.5 -80.5 -64.5 -194.5q144 9 221.5 54.5t77.5 129.5q0 43 -24.5 67t-71.5 24q-87 0 -138.5 -80.5zM318.5 684q-11.5 6 -27.5 18q-13 10 -21.5 14.5t-18.5 4.5q-15 0 -25 -7.5t-28 -27.5l-13 9q18 23 33.5 34.5t32.5 11.5q12 0 22.5 -5.5t25.5 -16.5q13 -10 23 -15.5
t21 -5.5q14 0 26 9.5t28 31.5l13 -9q-31 -52 -66 -52q-14 0 -25.5 6z" />
    <glyph glyph-name="uni01DD" unicode="&#x1dd;" horiz-adv-x="423" 
d="M336.5 482q35.5 -47 35.5 -135q0 -86 -25.5 -168.5t-77.5 -135.5t-127 -53q-55 0 -86 30t-31 81q0 93 85.5 143t236.5 61q2 28 2 41q0 80 -29.5 121t-82.5 41q-36 0 -66 -13.5t-64 -41.5l-12 15q36 31 69.5 46t72.5 15q64 0 99.5 -47zM281.5 90.5q51.5 80.5 64.5 194.5
q-144 -9 -221.5 -54.5t-77.5 -129.5q0 -43 24.5 -67t71.5 -24q87 0 138.5 80.5z" />
    <glyph glyph-name="uni0259" unicode="&#x259;" horiz-adv-x="423" 
d="M336.5 482q35.5 -47 35.5 -135q0 -86 -25.5 -168.5t-77.5 -135.5t-127 -53q-55 0 -86 30t-31 81q0 93 85.5 143t236.5 61q2 28 2 41q0 80 -29.5 121t-82.5 41q-36 0 -66 -13.5t-64 -41.5l-12 15q36 31 69.5 46t72.5 15q64 0 99.5 -47zM281.5 90.5q51.5 80.5 64.5 194.5
q-144 -9 -221.5 -54.5t-77.5 -129.5q0 -43 24.5 -67t71.5 -24q87 0 138.5 80.5z" />
    <glyph glyph-name="uni025A" unicode="&#x25a;" horiz-adv-x="525" 
d="M573 363q-37 -29 -75 -29q-34 0 -53.5 20.5t-19.5 60.5q0 7 2 27l8 56l-83 -43q20 -43 20 -108q0 -86 -25.5 -168.5t-77.5 -135.5t-127 -53q-55 0 -86 30t-31 81q0 93 85.5 143t236.5 61q2 28 2 41q0 80 -29.5 121t-82.5 41q-36 0 -66 -13.5t-64 -41.5l-12 15
q36 31 69.5 46t72.5 15q71 0 106 -58l95 48h22l-11 -78q-2 -18 -2 -26q0 -62 51 -62q20 0 34.5 6.5t31.5 18.5zM281.5 90.5q51.5 80.5 64.5 194.5q-144 -9 -221.5 -54.5t-77.5 -129.5q0 -43 24.5 -67t71.5 -24q87 0 138.5 80.5z" />
    <glyph glyph-name="uni0292" unicode="&#x292;" horiz-adv-x="367" 
d="M347 501l-226 -308h16q166 0 166 -149q0 -71 -25 -125.5t-69.5 -85t-101.5 -30.5q-49 0 -83 21t-59 61l16 12q25 -38 55 -55.5t71 -17.5q79 0 126 60.5t47 158.5q0 67 -35.5 98.5t-108.5 31.5h-42l3 21l222 305h-254l3 20h282z" />
    <glyph glyph-name="uni01EF" unicode="&#x1ef;" horiz-adv-x="367" 
d="M347 501l-226 -308h16q166 0 166 -149q0 -71 -25 -125.5t-69.5 -85t-101.5 -30.5q-49 0 -83 21t-59 61l16 12q25 -38 55 -55.5t71 -17.5q79 0 126 60.5t47 158.5q0 67 -35.5 98.5t-108.5 31.5h-42l3 21l222 305h-254l3 20h282zM334 749l11 -13l-112 -95h-13l-85 95l13 13
l80 -84z" />
    <glyph glyph-name="uni0293" unicode="&#x293;" horiz-adv-x="370" 
d="M352 501l-226 -308h20q81 0 121 -37.5t40 -109.5q0 -77 -34 -135.5t-95 -86.5l15 -60l-19 -6l-14 59q-39 -14 -85 -14q-57 0 -88 27.5t-31 75.5q0 45 26 76t67 31q46 0 75 -36.5t50 -132.5q54 25 82 78t28 122q0 66 -34.5 97.5t-106.5 31.5h-45l1 1l3 20l221 305h-253
l3 20h282zM2.5 -155.5q25.5 -20.5 73.5 -20.5q45 0 79 12q-20 90 -44 124.5t-62 34.5q-33 0 -52.5 -25t-19.5 -64q0 -41 25.5 -61.5z" />
    <glyph glyph-name="uni01B9" unicode="&#x1b9;" horiz-adv-x="368" 
d="M368 499h-258l142 -305l-3 -21h-43q-90 0 -140 -55.5t-50 -152.5q0 -64 30.5 -102.5t88.5 -38.5q44 0 79.5 17.5t68.5 55.5l15 -13q-35 -40 -74.5 -60.5t-88.5 -20.5q-67 0 -105 45t-38 117q0 69 27 121t75.5 80t113.5 28h22l-144 307l3 18h282z" />
    <glyph glyph-name="uni01BA" unicode="&#x1ba;" horiz-adv-x="362" 
d="M-1 -156q-18 23 -18 55q0 47 35.5 72.5t116.5 42.5q83 18 122 49t39 97q0 45 -23 66t-72 21h-108l3 20l215 232h-246l3 20h278l-3 -18l-220 -234h79q59 0 88 -27t29 -79q0 -74 -44 -111t-135 -56q-75 -15 -104.5 -36t-29.5 -59q0 -26 13.5 -44t44.5 -35l-10 -16
q-35 17 -53 40z" />
    <glyph glyph-name="f" unicode="f" horiz-adv-x="253" 
d="M176 614l-13 -95h119l-6 -20h-116l-70 -502q-8 -58 -22.5 -92.5t-37.5 -56t-62 -43.5l-7 16q35 20 54.5 39t32.5 51t20 86l70 502h-74l3 20h73l14 98q8 58 40 89t81 31q48 0 92 -35l-10 -16q-23 16 -41.5 23.5t-40.5 7.5q-85 0 -99 -103z" />
    <glyph glyph-name="uni1E1F" unicode="&#x1e1f;" horiz-adv-x="253" 
d="M176 614l-13 -95h119l-6 -20h-116l-70 -502q-8 -58 -22.5 -92.5t-37.5 -56t-62 -43.5l-7 16q35 20 54.5 39t32.5 51t20 86l70 502h-74l3 20h73l14 98q8 58 40 89t81 31q48 0 92 -35l-10 -16q-23 16 -41.5 23.5t-40.5 7.5q-85 0 -99 -103zM273 867q-5 5 -5 12q0 9 5.5 15
t15.5 6q8 0 12.5 -4.5t4.5 -12.5q0 -9 -6 -15t-15 -6q-7 0 -12 5z" />
    <glyph glyph-name="uni02A9" unicode="&#x2a9;" horiz-adv-x="709" 
d="M612 498.5q25 -30.5 25 -84.5q0 -18 -3 -38l-53 -376l-14 -98q-7 -48 -33 -73.5t-64 -25.5t-70 30l13 14q13 -12 25.5 -18t31.5 -6q29 0 49 19.5t26 61.5l14 96l53 374q3 21 3 40q0 96 -76 96q-49 0 -93.5 -48t-87.5 -137l-45 -325h-22l70 499h-201l-70 -502
q-8 -58 -22.5 -92.5t-37.5 -56t-62 -43.5l-7 16q35 20 54.5 39t32.5 51t20 86l70 502h-74l3 20h73l14 98q8 58 40 89t81 31q48 0 92 -35l-10 -16q-23 16 -41.5 23.5t-40.5 7.5q-85 0 -99 -103l-13 -95h220l-19 -150q40 79 82 119.5t94 40.5q47 0 72 -30.5z" />
    <glyph glyph-name="g" unicode="g" horiz-adv-x="458" 
d="M400 495l-71 -506q-27 -186 -168 -186q-38 0 -72 13t-60 34l11 14q57 -42 122 -42q56 0 94.5 39.5t50.5 128.5l16 113q-60 -103 -144 -103q-60 0 -93.5 46.5t-34.5 127.5q0 83 25 164.5t78 136t132 54.5q62 0 114 -34zM167 459q-48 -51 -70.5 -127.5t-22.5 -153.5
q0 -73 27 -115t78 -42q82 0 148 117l50 348q-39 24 -92 24q-70 0 -118 -51z" />
    <glyph glyph-name="uni01F5" unicode="&#x1f5;" horiz-adv-x="458" 
d="M400 495l-71 -506q-27 -186 -168 -186q-38 0 -72 13t-60 34l11 14q57 -42 122 -42q56 0 94.5 39.5t50.5 128.5l16 113q-60 -103 -144 -103q-60 0 -93.5 46.5t-34.5 127.5q0 83 25 164.5t78 136t132 54.5q62 0 114 -34zM167 459q-48 -51 -70.5 -127.5t-22.5 -153.5
q0 -73 27 -115t78 -42q82 0 148 117l50 348q-39 24 -92 24q-70 0 -118 -51zM381 760l11 -22l-160 -84l-8 15z" />
    <glyph glyph-name="uni0263" unicode="&#x263;" horiz-adv-x="377" 
d="M171 43q14 -48 20.5 -82t6.5 -64q0 -42 -19 -68t-52 -26q-25 0 -38.5 16.5t-13.5 45.5q0 32 18 74.5t55 105.5l-89 474h23l80 -457l206 457h23zM157 28q-29 -54 -45 -94t-16 -69q0 -42 32 -42q24 0 36.5 19.5t12.5 55.5q0 52 -20 130z" />
    <glyph glyph-name="gbreve" unicode="&#x11f;" horiz-adv-x="458" 
d="M400 495l-71 -506q-27 -186 -168 -186q-38 0 -72 13t-60 34l11 14q57 -42 122 -42q56 0 94.5 39.5t50.5 128.5l16 113q-60 -103 -144 -103q-60 0 -93.5 46.5t-34.5 127.5q0 83 25 164.5t78 136t132 54.5q62 0 114 -34zM167 459q-48 -51 -70.5 -127.5t-22.5 -153.5
q0 -73 27 -115t78 -42q82 0 148 117l50 348q-39 24 -92 24q-70 0 -118 -51zM243 686q-21 24 -22 63l17 2q6 -67 64 -67q29 0 51.5 18t34.5 51l16 -6q-12 -38 -39 -61.5t-64 -23.5t-58 24z" />
    <glyph glyph-name="gcaron" unicode="&#x1e7;" horiz-adv-x="458" 
d="M400 495l-71 -506q-27 -186 -168 -186q-38 0 -72 13t-60 34l11 14q57 -42 122 -42q56 0 94.5 39.5t50.5 128.5l16 113q-60 -103 -144 -103q-60 0 -93.5 46.5t-34.5 127.5q0 83 25 164.5t78 136t132 54.5q62 0 114 -34zM167 459q-48 -51 -70.5 -127.5t-22.5 -153.5
q0 -73 27 -115t78 -42q82 0 148 117l50 348q-39 24 -92 24q-70 0 -118 -51zM406 749l11 -13l-112 -95h-13l-85 95l13 13l80 -84z" />
    <glyph glyph-name="gcircumflex" unicode="&#x11d;" horiz-adv-x="458" 
d="M400 495l-71 -506q-27 -186 -168 -186q-38 0 -72 13t-60 34l11 14q57 -42 122 -42q56 0 94.5 39.5t50.5 128.5l16 113q-60 -103 -144 -103q-60 0 -93.5 46.5t-34.5 127.5q0 83 25 164.5t78 136t132 54.5q62 0 114 -34zM167 459q-48 -51 -70.5 -127.5t-22.5 -153.5
q0 -73 27 -115t78 -42q82 0 148 117l50 348q-39 24 -92 24q-70 0 -118 -51zM207 654l-11 13l112 95h13l85 -95l-13 -13l-79 84z" />
    <glyph glyph-name="gcommaaccent" unicode="&#x123;" horiz-adv-x="458" 
d="M400 495l-71 -506q-27 -186 -168 -186q-38 0 -72 13t-60 34l11 14q57 -42 122 -42q56 0 94.5 39.5t50.5 128.5l16 113q-60 -103 -144 -103q-60 0 -93.5 46.5t-34.5 127.5q0 83 25 164.5t78 136t132 54.5q62 0 114 -34zM167 459q-48 -51 -70.5 -127.5t-22.5 -153.5
q0 -73 27 -115t78 -42q82 0 148 117l50 348q-39 24 -92 24q-70 0 -118 -51zM274.5 601q-5.5 6 -5.5 15q0 13 13 35l48 106h15l-42 -116q12 -7 12 -21q0 -11 -7 -18t-18 -7q-10 0 -15.5 6z" />
    <glyph glyph-name="gdotaccent" unicode="&#x121;" horiz-adv-x="458" 
d="M400 495l-71 -506q-27 -186 -168 -186q-38 0 -72 13t-60 34l11 14q57 -42 122 -42q56 0 94.5 39.5t50.5 128.5l16 113q-60 -103 -144 -103q-60 0 -93.5 46.5t-34.5 127.5q0 83 25 164.5t78 136t132 54.5q62 0 114 -34zM167 459q-48 -51 -70.5 -127.5t-22.5 -153.5
q0 -73 27 -115t78 -42q82 0 148 117l50 348q-39 24 -92 24q-70 0 -118 -51zM294 690q-5 5 -5 12q0 9 5.5 15t15.5 6q8 0 12.5 -4.5t4.5 -12.5q0 -9 -6 -15t-15 -6q-7 0 -12 5z" />
    <glyph glyph-name="uni0260" unicode="&#x260;" horiz-adv-x="463" 
d="M567 706l-13 -14q-13 12 -26 18.5t-33 6.5q-29 0 -48 -20t-25 -61l-17 -117l-76 -530q-28 -186 -168 -186q-38 0 -72 13t-60 34l11 14q57 -42 122 -42q56 0 94.5 39.5t50.5 128.5l16 113q-60 -103 -144 -103q-60 0 -93.5 46.5t-34.5 127.5q0 83 25 164.5t78 136t132 54.5
q54 0 95 -25l2 15l18 119q7 48 31.5 73.5t62.5 25.5q41 0 72 -31zM378 485q-41 25 -93 25q-70 0 -118 -51t-70.5 -127.5t-22.5 -153.5q0 -73 27 -115t78 -42q82 0 148 117z" />
    <glyph glyph-name="uni01BE" unicode="&#x1be;" horiz-adv-x="401" 
d="M337 239q0 -69 -25 -125t-68.5 -87.5t-97.5 -31.5q-48 0 -80.5 20t-60.5 59l14 12q27 -34 55.5 -52t71.5 -18q48 0 86.5 29t60.5 80t22 115q0 67 -29 100t-77 47l-52 15l24 170h-49l3 20h48l20 141l22 3l-20 -144h107l-3 -20h-107l-21 -155l35 -10q121 -34 121 -168z" />
    <glyph glyph-name="uni0294" unicode="&#x294;" horiz-adv-x="350" 
d="M123 330l56 16q79 23 118 75t39 151q0 66 -30.5 104.5t-87.5 38.5q-42 0 -75 -17.5t-68 -52.5l-14 14q39 39 76 58.5t83 19.5q64 0 101.5 -45.5t37.5 -118.5q0 -108 -44 -164t-132 -82l-40 -12l-44 -315h-22z" />
    <glyph glyph-name="uni0296" unicode="&#x296;" horiz-adv-x="401" 
d="M225 736l-44 -319l35 -10q121 -34 121 -168q0 -69 -25 -125t-68.5 -87.5t-97.5 -31.5q-48 0 -80.5 20t-60.5 59l14 12q27 -34 55.5 -52t71.5 -18q48 0 86.5 29t60.5 80t22 115q0 67 -29 100t-77 47l-52 15l46 331z" />
    <glyph glyph-name="uni0295" unicode="&#x295;" horiz-adv-x="349" 
d="M178 0l44 314l-33 10q-57 18 -90 54.5t-33 111.5q0 68 25.5 124.5t70 89.5t100.5 33q46 0 78 -20t60 -59l-17 -14q-24 34 -52.5 52.5t-68.5 18.5q-51 0 -89.5 -31t-60 -84t-21.5 -117q0 -61 28.5 -92.5t76.5 -47.5l51 -16l-47 -327h-22z" />
    <glyph glyph-name="uni0242" unicode="&#x242;" horiz-adv-x="344" 
d="M98 171l59 17q65 20 99.5 67.5t34.5 121.5q0 62 -28 97t-79 35q-40 0 -71.5 -17t-63.5 -48l-12 16q35 34 69 51.5t79 17.5q60 0 94.5 -41t34.5 -110q0 -162 -154 -209l-43 -13l-21 -156h-22z" />
    <glyph glyph-name="uni02A1" unicode="&#x2a1;" horiz-adv-x="350" 
d="M143 315l-16 -111h99l-3 -20h-98l-26 -184h-22l26 184h-57l3 20h56l18 126l56 16q79 23 118 75t39 151q0 66 -30.5 104.5t-87.5 38.5q-42 0 -75 -17.5t-68 -52.5l-14 14q39 39 76 58.5t83 19.5q64 0 101.5 -45.5t37.5 -118.5q0 -108 -44 -164t-132 -82z" />
    <glyph glyph-name="uni02A2" unicode="&#x2a2;" horiz-adv-x="349" 
d="M340 717q32 -20 60 -59l-17 -14q-24 34 -52.5 52.5t-68.5 18.5q-51 0 -89.5 -31t-60 -84t-21.5 -117q0 -61 28.5 -92.5t76.5 -47.5l51 -16l-18 -123h57l-3 -20h-57l-26 -184h-22l26 184h-97l3 20h97l15 110l-33 10q-57 18 -90 54.5t-33 111.5q0 68 25.5 124.5t70 89.5
t100.5 33q46 0 78 -20z" />
    <glyph glyph-name="uni0261" unicode="&#x261;" horiz-adv-x="458" 
d="M400 495l-71 -506q-27 -186 -168 -186q-38 0 -72 13t-60 34l11 14q57 -42 122 -42q56 0 94.5 39.5t50.5 128.5l16 113q-60 -103 -144 -103q-60 0 -93.5 46.5t-34.5 127.5q0 83 25 164.5t78 136t132 54.5q62 0 114 -34zM167 459q-48 -51 -70.5 -127.5t-22.5 -153.5
q0 -73 27 -115t78 -42q82 0 148 117l50 348q-39 24 -92 24q-70 0 -118 -51z" />
    <glyph glyph-name="uni01E5" unicode="&#x1e5;" horiz-adv-x="458" 
d="M319 -60h62l-3 -20h-65q-40 -117 -152 -117q-38 0 -72 13t-60 34l11 14q57 -42 122 -42q93 0 128 98h-115l2 20h120q4 17 10 50l16 113q-60 -103 -144 -103q-60 0 -93.5 46.5t-34.5 127.5q0 83 25 164.5t78 136t132 54.5q62 0 114 -34l-71 -506q-5 -31 -10 -49zM327 138
l50 348q-39 24 -92 24q-70 0 -118 -51t-70.5 -127.5t-22.5 -153.5q0 -73 27 -115t78 -42q82 0 148 117z" />
    <glyph glyph-name="uni021D" unicode="&#x21d;" horiz-adv-x="373" 
d="M289 496.5q31 -32.5 31 -86.5q0 -60 -31.5 -98t-88.5 -46q106 -1 106 -96q0 -177 -288 -257l-2 18q124 37 195.5 93t71.5 146q0 44 -27 64.5t-88 20.5h-49l5 19h28q68 0 106.5 36.5t38.5 99.5q0 46 -24 72.5t-70 26.5q-36 0 -65.5 -11.5t-64.5 -36.5l-10 16
q34 26 68.5 39t72.5 13q54 0 85 -32.5z" />
    <glyph glyph-name="h" unicode="h" horiz-adv-x="477" 
d="M380 498.5q25 -30.5 25 -86.5q0 -23 -2 -36l-53 -376h-22l53 374q3 21 3 39q0 48 -19.5 72.5t-57.5 24.5q-92 0 -181 -185l-45 -325h-22l103 733l22 3l-51 -365q39 77 81.5 117.5t93.5 40.5q47 0 72 -30.5z" />
    <glyph glyph-name="hbar" unicode="&#x127;" horiz-adv-x="481" 
d="M384 498.5q25 -30.5 25 -86.5q0 -23 -2 -36l-53 -376h-22l53 374q3 21 3 39q0 48 -19.5 72.5t-57.5 24.5q-92 0 -181 -185l-45 -325h-22l88 629h-61l3 20h61l12 84l22 3l-12 -87h150l-7 -20h-146l-36 -258q39 77 81.5 117.5t93.5 40.5q47 0 72 -30.5z" />
    <glyph glyph-name="uni021F" unicode="&#x21f;" horiz-adv-x="477" 
d="M380 498.5q25 -30.5 25 -86.5q0 -23 -2 -36l-53 -376h-22l53 374q3 21 3 39q0 48 -19.5 72.5t-57.5 24.5q-92 0 -181 -185l-45 -325h-22l103 733l22 3l-51 -365q39 77 81.5 117.5t93.5 40.5q47 0 72 -30.5zM418 913l10 -12l-112 -90h-13l-85 90l12 12l81 -78z" />
    <glyph glyph-name="hcircumflex" unicode="&#x125;" horiz-adv-x="477" 
d="M380 498.5q25 -30.5 25 -86.5q0 -23 -2 -36l-53 -376h-22l53 374q3 21 3 39q0 48 -19.5 72.5t-57.5 24.5q-92 0 -181 -185l-45 -325h-22l103 733l22 3l-51 -365q39 77 81.5 117.5t93.5 40.5q47 0 72 -30.5zM212 817l-10 13l112 90h12l86 -90l-12 -13l-81 79z" />
    <glyph glyph-name="uni1E25" unicode="&#x1e25;" horiz-adv-x="477" 
d="M380 498.5q25 -30.5 25 -86.5q0 -23 -2 -36l-53 -376h-22l53 374q3 21 3 39q0 48 -19.5 72.5t-57.5 24.5q-92 0 -181 -185l-45 -325h-22l103 733l22 3l-51 -365q39 77 81.5 117.5t93.5 40.5q47 0 72 -30.5zM204 -104q5 -5 5 -12q0 -9 -5.5 -15t-15.5 -6q-8 0 -12.5 4.5
t-4.5 12.5q0 9 6 15t15 6q7 0 12 -5z" />
    <glyph glyph-name="uni0267" unicode="&#x267;" horiz-adv-x="478" 
d="M381 499q25 -30 25 -85q0 -18 -3 -38l-53 -376l-14 -98q-7 -48 -33 -73.5t-64 -25.5t-70 30l13 14q13 -12 25.5 -18t31.5 -6q29 0 49 19.5t26 61.5l14 96l53 374q3 23 3 41q0 47 -19.5 71t-57.5 24q-92 0 -180 -185l-46 -325h-22l74 518h-1l14 100q8 58 40 88.5t78 30.5
q51 0 94 -32l-11 -16q-38 27 -82 27q-39 0 -65 -25.5t-33 -76.5l-13 -96h1l-22 -147q40 77 82 117.5t93 40.5q48 0 73 -30z" />
    <glyph glyph-name="uni0266" unicode="&#x266;" horiz-adv-x="478" 
d="M381 499q25 -30 25 -85q0 -18 -3 -38l-53 -376h-22l53 374q3 23 3 41q0 47 -19.5 71t-57.5 24q-92 0 -180 -185l-46 -325h-22l74 518h-1l14 100q8 58 40 88.5t78 30.5q51 0 94 -32l-11 -16q-38 27 -82 27q-39 0 -65 -25.5t-33 -76.5l-13 -96h1l-22 -147q40 77 82 117.5
t93 40.5q48 0 73 -30z" />
    <glyph glyph-name="uni0265" unicode="&#x265;" horiz-adv-x="473" 
d="M344 147q-39 -76 -81.5 -116.5t-93.5 -40.5q-47 0 -72 30t-25 84q0 18 3 39l53 376h22l-53 -374q-3 -22 -3 -41q0 -46 19.5 -70.5t55.5 -24.5q94 0 182 185l46 325h22l-101 -713l-22 -3z" />
    <glyph glyph-name="uni02AE" unicode="&#x2ae;" horiz-adv-x="537" 
d="M482 519l-100 -713l-23 -3l49 344q-39 -76 -82 -116.5t-94 -40.5q-47 0 -72 30.5t-25 84.5q0 19 3 38l27 189l13 96q1 7 1 20q0 61 -54 61q-31 0 -60 -24l-12 15q31 29 73 29q36 0 55.5 -21t19.5 -59q0 -14 -1 -21l-13 -96l-27 -187q-3 -22 -3 -41q0 -46 19.5 -70.5
t56.5 -24.5q93 0 181 185l46 325h22z" />
    <glyph glyph-name="uni02AF" unicode="&#x2af;" horiz-adv-x="537" 
d="M520 -168q-31 -29 -73 -29q-36 0 -55.5 21t-19.5 59q0 14 1 21l13 96l22 147q-39 -76 -82 -116.5t-94 -40.5q-47 0 -72 30.5t-25 84.5q0 19 3 38l27 189l13 96q1 7 1 20q0 61 -54 61q-31 0 -60 -24l-12 15q31 29 73 29q36 0 55.5 -21t19.5 -59q0 -14 -1 -21l-13 -96
l-27 -187q-3 -22 -3 -41q0 -46 19.5 -70.5t56.5 -24.5q93 0 181 185l46 325h22l-74 -519l-13 -96q-1 -7 -1 -20q0 -61 54 -61q31 0 60 24z" />
    <glyph glyph-name="uni0195" unicode="&#x195;" horiz-adv-x="731" 
d="M374 22.5q-29 32.5 -29 86.5q0 9 2 27l34 238q3 21 3 39q0 48 -19.5 72.5t-57.5 24.5q-92 0 -181 -185l-45 -325h-22l103 733l22 3l-51 -365q39 77 81.5 117.5t93.5 40.5q47 0 72.5 -30.5t25.5 -85.5q0 -17 -3 -37l-34 -240q-2 -20 -2 -28q0 -45 24 -71t68 -26
q107 0 147.5 127.5t40.5 310.5q0 34 -3 70h21q4 -48 4 -70q0 -459 -212 -459q-54 0 -83 32.5z" />
    <glyph glyph-name="i" unicode="i" horiz-adv-x="213" 
d="M154 519l-73 -519h-22l73 519h22zM155 690q-5 5 -5 12q0 9 5.5 15t15.5 6q8 0 12.5 -4.5t4.5 -12.5q0 -9 -6 -15t-15 -6q-7 0 -12 5z" />
    <glyph glyph-name="dotlessi" unicode="&#x131;" horiz-adv-x="213" 
d="M154 519l-73 -519h-22l73 519h22z" />
    <glyph glyph-name="iacute" unicode="&#xed;" horiz-adv-x="213" 
d="M154 519l-73 -519h-22l73 519h22zM242 760l11 -22l-160 -84l-8 15z" />
    <glyph glyph-name="ibreve" unicode="&#x12d;" horiz-adv-x="213" 
d="M154 519l-73 -519h-22l73 519h22zM104 686q-21 24 -22 63l17 2q6 -67 64 -67q29 0 51.5 18t34.5 51l16 -6q-12 -38 -39 -61.5t-64 -23.5t-58 24z" />
    <glyph glyph-name="uni01D0" unicode="&#x1d0;" horiz-adv-x="213" 
d="M154 519l-73 -519h-22l73 519h22zM267 749l11 -13l-112 -95h-13l-85 95l13 13l80 -84z" />
    <glyph glyph-name="icircumflex" unicode="&#xee;" horiz-adv-x="213" 
d="M154 519l-73 -519h-22l73 519h22zM68 654l-11 13l112 95h13l85 -95l-13 -13l-79 84z" />
    <glyph glyph-name="uni0209" unicode="&#x209;" horiz-adv-x="213" 
d="M154 519l-73 -519h-22l73 519h22zM83 791l41 -132l-18 -7l-48 129zM175 790l37 -127l-18 -7l-44 124z" />
    <glyph glyph-name="idieresis" unicode="&#xef;" horiz-adv-x="213" 
d="M154 519l-73 -519h-22l73 519h22zM84.5 678q-4.5 5 -4.5 12q0 9 5.5 15t14.5 6q7 0 12 -4.5t5 -12.5q0 -9 -6 -15t-15 -6q-7 0 -11.5 5zM223 678q-5 5 -5 12q0 9 5.5 15t15.5 6q7 0 11.5 -4.5t4.5 -12.5q0 -9 -5.5 -15t-14.5 -6q-7 0 -12 5z" />
    <glyph glyph-name="uni1E2F" unicode="&#x1e2f;" horiz-adv-x="213" 
d="M154 519l-73 -519h-22l73 519h22zM246 821l17 -16l-103 -113l-12 10zM75.5 648.5q-4.5 4.5 -4.5 12.5q0 9 5.5 15t14.5 6q7 0 12 -5t5 -12q0 -9 -5.5 -15t-15.5 -6q-7 0 -11.5 4.5zM214 649q-5 5 -5 12q0 9 6 15t15 6q7 0 11.5 -5t4.5 -12q0 -9 -5.5 -15t-14.5 -6
q-7 0 -12 5z" />
    <glyph glyph-name="i.loclTRK" horiz-adv-x="213" 
d="M154 519l-73 -519h-22l73 519h22zM155 690q-5 5 -5 12q0 9 5.5 15t15.5 6q8 0 12.5 -4.5t4.5 -12.5q0 -9 -6 -15t-15 -6q-7 0 -12 5z" />
    <glyph glyph-name="uni1ECB" unicode="&#x1ecb;" horiz-adv-x="213" 
d="M154 519l-73 -519h-22l73 519h22zM155 690q-5 5 -5 12q0 9 5.5 15t15.5 6q8 0 12.5 -4.5t4.5 -12.5q0 -9 -6 -15t-15 -6q-7 0 -12 5zM69 -104q5 -5 5 -12q0 -9 -5.5 -15t-15.5 -6q-8 0 -12.5 4.5t-4.5 12.5q0 9 6 15t15 6q7 0 12 -5z" />
    <glyph glyph-name="igrave" unicode="&#xec;" horiz-adv-x="213" 
d="M154 519l-73 -519h-22l73 519h22zM120 760l131 -92l-10 -14l-136 84z" />
    <glyph glyph-name="uni1EC9" unicode="&#x1ec9;" horiz-adv-x="213" 
d="M154 519l-73 -519h-22l73 519h22zM151 692q65 4 65 58q0 19 -9.5 30t-27.5 11q-23 0 -47 -14l-8 17q29 17 56 17t43 -16.5t16 -44.5q0 -32 -18.5 -50t-49.5 -23l-8 -55h-20z" />
    <glyph glyph-name="uni020B" unicode="&#x20b;" horiz-adv-x="213" 
d="M154 519l-73 -519h-22l73 519h22zM66 640q12 38 38 61.5t62 23.5q37 0 59 -24.5t23 -62.5l-16 -2q-8 68 -67 68q-58 0 -85 -69z" />
    <glyph glyph-name="ij" unicode="&#x133;" horiz-adv-x="427" 
d="M154 519l-73 -519h-22l73 519h22zM155 690q-5 5 -5 12q0 9 5.5 15t15.5 6q8 0 12.5 -4.5t4.5 -12.5q0 -9 -6 -15t-15 -6q-7 0 -12 5zM166 -178q34 19 53.5 38t32 51t20.5 86l74 522h22l-74 -522q-8 -58 -22.5 -93t-37 -56t-62.5 -43zM370 690q-5 5 -5 12q0 9 5.5 15
t15.5 6q8 0 12.5 -4.5t4.5 -12.5q0 -9 -6 -15t-15 -6q-7 0 -12 5z" />
    <glyph glyph-name="imacron" unicode="&#x12b;" horiz-adv-x="213" 
d="M154 519l-73 -519h-22l73 519h22zM252 685h-173l3 21h173z" />
    <glyph glyph-name="iogonek" unicode="&#x12f;" horiz-adv-x="213" 
d="M183.5 718.5q4.5 -4.5 4.5 -12.5q0 -9 -6 -15t-15 -6q-7 0 -12 5t-5 12q0 9 5.5 15t15.5 6q8 0 12.5 -4.5zM132 519h22l-73 -519q-63 -29 -92 -59t-29 -73q0 -24 13 -36.5t36 -12.5q17 0 46 6l-5 -21q-24 -7 -43 -7q-31 0 -50.5 19t-19.5 51q0 45 29.5 77.5t93.5 61.5z
" />
    <glyph glyph-name="uni0269" unicode="&#x269;" horiz-adv-x="227" 
d="M127 519h22l-63 -452q-2 -12 -2 -18q0 -18 9 -28t25 -10t33 7l6 -18q-24 -10 -42 -10q-24 0 -38.5 15t-14.5 43q0 6 2 20z" />
    <glyph glyph-name="uni0268" unicode="&#x268;" horiz-adv-x="225" 
d="M161 690q-5 5 -5 12q0 9 5.5 15t15.5 6q8 0 12.5 -4.5t4.5 -12.5q0 -9 -6 -15t-15 -6q-7 0 -12 5zM217 291l-2 -19h-90l-38 -272h-22l38 272h-90l3 19h90l32 228h22l-32 -228h89z" />
    <glyph glyph-name="itilde" unicode="&#x129;" horiz-adv-x="213" 
d="M154 519l-73 -519h-22l73 519h22zM190.5 684q-11.5 6 -27.5 18q-13 10 -21.5 14.5t-18.5 4.5q-15 0 -25 -7.5t-28 -27.5l-13 9q18 23 33.5 34.5t32.5 11.5q12 0 22.5 -5.5t25.5 -16.5q13 -10 23 -15.5t21 -5.5q14 0 26 9.5t28 31.5l13 -9q-31 -52 -66 -52q-14 0 -25.5 6z
" />
    <glyph glyph-name="j" unicode="j" horiz-adv-x="214" 
d="M-47 -178q34 19 53.5 38t32 51t20.5 86l74 522h22l-74 -522q-8 -58 -22.5 -93t-37 -56t-62.5 -43zM156 690q-5 5 -5 12q0 9 5.5 15t15.5 6q8 0 12.5 -4.5t4.5 -12.5q0 -9 -6 -15t-15 -6q-7 0 -12 5z" />
    <glyph glyph-name="uni0237" unicode="&#x237;" horiz-adv-x="214" 
d="M-47 -178q34 19 53.5 38t32 51t20.5 86l74 522h22l-74 -522q-8 -58 -22.5 -93t-37 -56t-62.5 -43z" />
    <glyph glyph-name="uni01F0" unicode="&#x1f0;" horiz-adv-x="214" 
d="M-47 -178q34 19 53.5 38t32 51t20.5 86l74 522h22l-74 -522q-8 -58 -22.5 -93t-37 -56t-62.5 -43zM268 749l11 -13l-112 -95h-13l-85 95l13 13l80 -84z" />
    <glyph glyph-name="jcircumflex" unicode="&#x135;" horiz-adv-x="214" 
d="M-47 -178q34 19 53.5 38t32 51t20.5 86l74 522h22l-74 -522q-8 -58 -22.5 -93t-37 -56t-62.5 -43zM69 654l-11 13l112 95h13l85 -95l-13 -13l-79 84z" />
    <glyph glyph-name="uni029D" unicode="&#x29d;" horiz-adv-x="271" 
d="M201.5 718.5q4.5 -4.5 4.5 -12.5q0 -9 -6 -15t-15 -6q-7 0 -12 5t-5 12q0 9 5.5 15t15.5 6q8 0 12.5 -4.5zM172 519l-78 -549q44 -15 73 -33l-9 -16q-34 19 -67 29l-1 -9q-9 -64 -39 -101t-81 -37q-37 0 -59 22.5t-22 57.5q0 47 30.5 73.5t77.5 26.5q39 0 75 -9l78 545
h22zM36.5 -145.5q23.5 31.5 32.5 96.5l1 4q-21 5 -36 7t-38 2q-40 0 -62.5 -21t-22.5 -60q0 -28 15 -44t44 -16q43 0 66.5 31.5z" />
    <glyph glyph-name="uni025F" unicode="&#x25f;" horiz-adv-x="230" 
d="M215 233h-92l-33 -236q-8 -58 -22.5 -93t-37 -56t-62.5 -43l-6 17q34 19 53.5 38t32 51t20.5 86l33 236h-88l3 21h88l38 265h22l-38 -265h92z" />
    <glyph glyph-name="uni0284" unicode="&#x284;" horiz-adv-x="286" 
d="M334 706l-13 -14q-13 12 -26 18.5t-33 6.5q-29 0 -48 -20t-25 -61l-17 -117l-71 -498h91l-3 -21h-91v-3q-8 -58 -23 -92.5t-37.5 -56t-61.5 -43.5l-7 16q34 20 54 39t32.5 51t20.5 86v3h-89l3 21h89l71 498l18 119q7 48 31.5 73.5t62.5 25.5q41 0 72 -31z" />
    <glyph glyph-name="uni0249" unicode="&#x249;" horiz-adv-x="230" 
d="M215 233h-92l-33 -236q-8 -58 -22.5 -93t-37 -56t-62.5 -43l-6 17q34 19 53.5 38t32 51t20.5 86l33 236h-88l3 21h88l38 265h22l-38 -265h92zM165 690q-5 5 -5 12q0 9 5.5 15t15.5 6q8 0 12.5 -4.5t4.5 -12.5q0 -9 -6 -15t-15 -6q-7 0 -12 5z" />
    <glyph glyph-name="k" unicode="k" horiz-adv-x="425" 
d="M130 349q40 89 84 134.5t99 45.5q43 0 66.5 -27t23.5 -69q0 -132 -158 -192l93 -241h-22l-97 250q80 28 121 72.5t41 110.5q0 35 -17.5 56t-52.5 21q-52 0 -97.5 -54t-90.5 -158l-42 -298h-22l103 733l22 3z" />
    <glyph glyph-name="uni01E9" unicode="&#x1e9;" horiz-adv-x="425" 
d="M130 349q40 89 84 134.5t99 45.5q43 0 66.5 -27t23.5 -69q0 -132 -158 -192l93 -241h-22l-97 250q80 28 121 72.5t41 110.5q0 35 -17.5 56t-52.5 21q-52 0 -97.5 -54t-90.5 -158l-42 -298h-22l103 733l22 3zM428 913l10 -12l-112 -90h-13l-85 90l12 12l81 -78z" />
    <glyph glyph-name="kcommaaccent" unicode="&#x137;" horiz-adv-x="425" 
d="M130 349q40 89 84 134.5t99 45.5q43 0 66.5 -27t23.5 -69q0 -132 -158 -192l93 -241h-22l-97 250q80 28 121 72.5t41 110.5q0 35 -17.5 56t-52.5 21q-52 0 -97.5 -54t-90.5 -158l-42 -298h-22l103 733l22 3zM201.5 -102q5.5 -6 5.5 -15q0 -13 -13 -35l-48 -106h-15
l42 116q-12 7 -12 21q0 11 7 18t18 7q10 0 15.5 -6z" />
    <glyph glyph-name="kgreenlandic" unicode="&#x138;" horiz-adv-x="386" 
d="M154 519l-73 -519h-22l73 519h22zM385 519l-232 -247l178 -272h-25l-180 274l231 245h28z" />
    <glyph glyph-name="uni0199" unicode="&#x199;" horiz-adv-x="425" 
d="M245 241l94 -241h-23l-96 250q80 28 120.5 73t40.5 110q0 35 -17 56t-52 21q-52 0 -97.5 -53.5t-91.5 -158.5l-42 -298h-22l73 518l14 100q8 58 40 88.5t78 30.5q51 0 94 -32l-11 -16q-38 27 -82 27q-39 0 -65 -25.5t-33 -76.5l-13 -96l-23 -169q39 88 83.5 134t98.5 46
q44 0 67 -27t23 -69q0 -133 -158 -192z" />
    <glyph glyph-name="uni029E" unicode="&#x29e;" horiz-adv-x="382" 
d="M2 0l233 238l-180 281h24l181 -284l-230 -235h-28zM204 -196l101 715h22l-100 -712z" />
    <glyph glyph-name="l" unicode="l" horiz-adv-x="228" 
d="M85 64q-1 -5 -1 -15q0 -38 34 -38q16 0 33 7l6 -18q-24 -10 -42 -10q-25 0 -39 15t-14 44q0 10 1 16l94 668l22 3z" />
    <glyph glyph-name="lacute" unicode="&#x13a;" horiz-adv-x="228" 
d="M85 64q-1 -5 -1 -15q0 -38 34 -38q16 0 33 7l6 -18q-24 -10 -42 -10q-25 0 -39 15t-14 44q0 10 1 16l94 668l22 3zM257 911l10 -23l-158 -72l-8 15z" />
    <glyph glyph-name="uni019B" unicode="&#x19b;" horiz-adv-x="371" 
d="M270.5 254q12.5 -96 28.5 -143t44 -108l-20 -8q-28 61 -44.5 109t-29 142t-16.5 248l-209 -499l-22 5l223 521l9 -1q-3 87 -18 125l-74 -80l-16 8l83 90q-21 40 -72 56l5 17q58 -19 82 -60l64 70l13 -12l-69 -75q20 -48 22 -149q4 -160 16.5 -256z" />
    <glyph glyph-name="uni019A" unicode="&#x19a;" horiz-adv-x="225" 
d="M95 64q-1 -5 -1 -15q0 -38 34 -38q16 0 33 7l6 -18q-24 -10 -42 -10q-25 0 -39 15t-14 44q0 10 1 16l42 295h-89l3 21h88l50 352l22 3l-50 -355h91l-2 -21h-92z" />
    <glyph glyph-name="uni026C" unicode="&#x26c;" horiz-adv-x="254" 
d="M177 18l6 -18q-24 -10 -42 -10q-25 0 -39 15t-14 44q0 10 1 16l30 215q-41 0 -63.5 19.5t-22.5 56.5q0 41 24.5 64.5t61.5 23.5q11 0 23 -2l41 291l22 3l-61 -436q37 1 67 8l3 -18q-29 -7 -73 -9l-30 -217q-1 -5 -1 -15q0 -38 34 -38q15 0 33 7zM70 313.5
q17 -13.5 52 -13.5l17 122q-12 2 -22 2q-29 0 -46.5 -18t-17.5 -50q0 -29 17 -42.5z" />
    <glyph glyph-name="lcaron" unicode="&#x13e;" horiz-adv-x="228" 
d="M85 64q-1 -5 -1 -15q0 -38 34 -38q16 0 33 7l6 -18q-24 -10 -42 -10q-25 0 -39 15t-14 44q0 10 1 16l94 668l22 3zM256 737l22 -2l-43 -145l-14 3z" />
    <glyph glyph-name="uni1E3D" unicode="&#x1e3d;" horiz-adv-x="228" 
d="M85 64q-1 -5 -1 -15q0 -38 34 -38q16 0 33 7l6 -18q-24 -10 -42 -10q-25 0 -39 15t-14 44q0 10 1 16l94 668l22 3zM-4 -184l-11 14l112 95h13l85 -95l-11 -14l-83 85z" />
    <glyph glyph-name="lcommaaccent" unicode="&#x13c;" horiz-adv-x="228" 
d="M85 64q-1 -5 -1 -15q0 -38 34 -38q16 0 33 7l6 -18q-24 -10 -42 -10q-25 0 -39 15t-14 44q0 10 1 16l94 668l22 3zM113.5 -102q5.5 -6 5.5 -15q0 -13 -13 -35l-48 -106h-15l42 116q-12 7 -12 21q0 11 7 18t18 7q10 0 15.5 -6z" />
    <glyph glyph-name="uni0234" unicode="&#x234;" horiz-adv-x="277" 
d="M263.5 161q18.5 -20 18.5 -53q0 -52 -36 -85t-89 -33t-75 35l-48 -81l-16 8l54 91q-5 18 -5 35q0 12 1 18l90 637l22 3l-91 -640q-2 -20 -1 -28q32 59 61 86t64 27q32 0 50.5 -20zM232 36q29 25 29 72q0 25 -12.5 39.5t-35.5 14.5q-31 0 -57 -25.5t-62 -91.5
q15 -34 65 -34q44 0 73 25z" />
    <glyph glyph-name="ldot" unicode="&#x140;" horiz-adv-x="228" 
d="M85 64q-1 -5 -1 -15q0 -38 34 -38q16 0 33 7l6 -18q-24 -10 -42 -10q-25 0 -39 15t-14 44q0 10 1 16l94 668l22 3zM217 361q-5 5 -5 12q0 9 5.5 15t15.5 6q8 0 12.5 -4.5t4.5 -12.5q0 -9 -6 -15t-15 -6q-7 0 -12 5z" />
    <glyph glyph-name="uni1E37" unicode="&#x1e37;" horiz-adv-x="228" 
d="M85 64q-1 -5 -1 -15q0 -38 34 -38q16 0 33 7l6 -18q-24 -10 -42 -10q-25 0 -39 15t-14 44q0 10 1 16l94 668l22 3zM110 -104q5 -5 5 -12q0 -9 -5.5 -15t-15.5 -6q-8 0 -12.5 4.5t-4.5 12.5q0 9 6 15t15 6q7 0 12 -5z" />
    <glyph glyph-name="uni026E" unicode="&#x26e;" horiz-adv-x="500" 
d="M481 501l-227 -308h16q85 0 125.5 -37.5t40.5 -111.5q0 -71 -25 -125.5t-69.5 -85t-101.5 -30.5q-49 0 -82.5 20.5t-59.5 61.5l17 12q24 -38 53.5 -55.5t71.5 -17.5q80 0 126.5 60.5t46.5 158.5q0 67 -35 98.5t-109 31.5h-41l3 21l221 305h-306l-61 -435q-1 -5 -1 -15
q0 -38 34 -38q16 0 33 7l6 -18q-24 -10 -42 -10q-25 0 -39 15t-14 44q0 10 1 16l94 668l22 3l-30 -217h335z" />
    <glyph glyph-name="uni026D" unicode="&#x26d;" horiz-adv-x="213" 
d="M193 -168q-31 -29 -73 -29q-36 0 -55.5 21t-19.5 59q0 14 1 21l13 96l103 733l22 3l-103 -736l-13 -96q-1 -7 -1 -20q0 -61 54 -61q31 0 60 24z" />
    <glyph glyph-name="uni01C9" unicode="&#x1c9;" horiz-adv-x="442" 
d="M85 64q-1 -5 -1 -15q0 -38 34 -38q16 0 33 7l6 -18q-24 -10 -42 -10q-25 0 -39 15t-14 44q0 10 1 16l94 668l22 3zM181 -178q34 19 53.5 38t32 51t20.5 86l74 522h22l-74 -522q-8 -58 -22.5 -93t-37 -56t-62.5 -43zM384 690q-5 5 -5 12q0 9 5.5 15t15.5 6q8 0 12.5 -4.5
t4.5 -12.5q0 -9 -6 -15t-15 -6q-7 0 -12 5z" />
    <glyph glyph-name="uni026B" unicode="&#x26b;" horiz-adv-x="230" 
d="M252 377q-20 -27 -37 -40.5t-39 -13.5q-20 0 -48 19l-39 -278q-1 -5 -1 -15q0 -38 34 -38q16 0 33 7l6 -18q-24 -10 -42 -10q-25 0 -39 15t-14 44q0 10 1 16l41 292q-15 11 -25.5 16t-21.5 5q-20 0 -33 -10.5t-31 -32.5l-13 10q20 27 37.5 41t40.5 14q22 0 49 -20l50 353
l22 3l-52 -370q14 -10 24.5 -15.5t21.5 -5.5q18 0 31.5 10t30.5 32z" />
    <glyph glyph-name="uni02AA" unicode="&#x2aa;" horiz-adv-x="519" 
d="M119 25q-44 35 -44 105q0 17 3 35l79 568l23 3l-80 -571q-3 -18 -3 -34q0 -61 37.5 -90.5t103.5 -29.5q89 0 138.5 37t49.5 105q0 39 -21 64.5t-76 49.5q-59 26 -82.5 54t-23.5 72q0 60 41.5 98t103.5 38q37 0 66.5 -13t55.5 -40l-14 -14q-24 24 -49.5 35.5t-59.5 11.5
q-52 0 -86.5 -32t-34.5 -84q0 -38 20 -61t74 -46q59 -26 84 -56.5t25 -76.5q0 -75 -56.5 -119t-154.5 -44q-75 0 -119 35z" />
    <glyph glyph-name="lslash" unicode="&#x142;" horiz-adv-x="231" 
d="M151 18l6 -18q-24 -10 -42 -10q-25 0 -39 15t-14 44q0 10 1 16l40 282l-46 -31l-9 14l58 39l51 364l22 3l-49 -351l103 70l9 -14l-115 -78l-42 -299q-1 -5 -1 -15q0 -38 34 -38q16 0 33 7z" />
    <glyph glyph-name="uni02AB" unicode="&#x2ab;" horiz-adv-x="498" 
d="M501 501l-324 -480h252l-6 -21h-269q-18 -10 -39 -10q-25 0 -39 14.5t-14 43.5q0 11 1 17l94 668l22 3l-94 -672q-1 -5 -1 -15q0 -38 34 -38q16 0 33 7l324 481h-234l2 20h261z" />
    <glyph glyph-name="m" unicode="m" horiz-adv-x="696" 
d="M600 499q22 -30 22 -85q0 -21 -3 -45l-51 -369h-22l51 367q4 36 4 49q0 46 -17 70t-49 24q-84 0 -166 -189l-46 -321h-21l52 367q4 34 4 48q0 47 -17 71t-50 24q-43 0 -84 -49.5t-82 -145.5l-44 -315h-22l73 519h19l-20 -155q35 81 76.5 123t84.5 42q42 0 64.5 -30
t22.5 -84q0 -21 -3 -44q35 77 76.5 117.5t83.5 40.5t64 -30z" />
    <glyph glyph-name="uni1E3F" unicode="&#x1e3f;" horiz-adv-x="696" 
d="M600 499q22 -30 22 -85q0 -21 -3 -45l-51 -369h-22l51 367q4 36 4 49q0 46 -17 70t-49 24q-84 0 -166 -189l-46 -321h-21l52 367q4 34 4 48q0 47 -17 71t-50 24q-43 0 -84 -49.5t-82 -145.5l-44 -315h-22l73 519h19l-20 -155q35 81 76.5 123t84.5 42q42 0 64.5 -30
t22.5 -84q0 -21 -3 -44q35 77 76.5 117.5t83.5 40.5t64 -30zM488 760l11 -22l-160 -84l-8 15z" />
    <glyph glyph-name="uni1E41" unicode="&#x1e41;" horiz-adv-x="696" 
d="M600 499q22 -30 22 -85q0 -21 -3 -45l-51 -369h-22l51 367q4 36 4 49q0 46 -17 70t-49 24q-84 0 -166 -189l-46 -321h-21l52 367q4 34 4 48q0 47 -17 71t-50 24q-43 0 -84 -49.5t-82 -145.5l-44 -315h-22l73 519h19l-20 -155q35 81 76.5 123t84.5 42q42 0 64.5 -30
t22.5 -84q0 -21 -3 -44q35 77 76.5 117.5t83.5 40.5t64 -30zM401 690q-5 5 -5 12q0 9 5.5 15t15.5 6q8 0 12.5 -4.5t4.5 -12.5q0 -9 -6 -15t-15 -6q-7 0 -12 5z" />
    <glyph glyph-name="uni0271" unicode="&#x271;" horiz-adv-x="696" 
d="M600 499q22 -30 22 -85q0 -21 -3 -45l-51 -369l-14 -98q-7 -48 -33 -73.5t-64 -25.5t-70 30l13 14q13 -12 25.5 -18t31.5 -6q29 0 49 19.5t26 61.5l14 96l51 367q4 36 4 49q0 46 -17 70t-49 24q-84 0 -166 -189l-46 -321h-21l52 367q4 34 4 48q0 47 -17 71t-50 24
q-43 0 -84 -49.5t-82 -145.5l-44 -315h-22l73 519h19l-20 -155q35 81 76.5 123t84.5 42q42 0 64.5 -30t22.5 -84q0 -21 -3 -44q35 77 76.5 117.5t83.5 40.5t64 -30z" />
    <glyph glyph-name="uni0270" unicode="&#x270;" horiz-adv-x="691" 
d="M637 519l-100 -712l-23 -3l49 350q-71 -164 -159 -164q-42 0 -65 30t-23 84q0 14 4 46q-35 -79 -76 -119.5t-85 -40.5q-42 0 -64 30.5t-22 85.5q0 20 3 44l52 369h22l-51 -367q-4 -36 -4 -49q0 -46 16.5 -70t48.5 -24q44 0 85 48.5t83 143.5l44 318h21l-51 -367
q-4 -24 -4 -50q0 -93 66 -93q84 0 166 195l45 315h22z" />
    <glyph glyph-name="uni026F" unicode="&#x26f;" horiz-adv-x="696" 
d="M637 519l-73 -519h-19l20 155q-35 -81 -76.5 -123t-84.5 -42q-42 0 -64.5 30t-22.5 84q0 22 3 44q-35 -77 -76.5 -117.5t-83.5 -40.5t-64 30t-22 85q0 21 3 45l51 369h22l-51 -367q-4 -36 -4 -49q0 -46 17 -70t49 -24q84 0 166 189l46 321h21l-52 -367q-4 -34 -4 -48
q0 -47 17 -71t50 -24q43 0 84 49.5t82 145.5l44 315h22z" />
    <glyph glyph-name="n" unicode="n" horiz-adv-x="477" 
d="M380 498.5q25 -30.5 25 -84.5q0 -18 -3 -38l-53 -376h-22l53 374q3 21 3 40q0 96 -76 96q-49 0 -93.5 -48t-87.5 -137l-45 -325h-22l73 519h19l-19 -150q40 79 82 119.5t94 40.5q47 0 72 -30.5z" />
    <glyph glyph-name="nacute" unicode="&#x144;" horiz-adv-x="477" 
d="M380 498.5q25 -30.5 25 -84.5q0 -18 -3 -38l-53 -376h-22l53 374q3 21 3 40q0 96 -76 96q-49 0 -93.5 -48t-87.5 -137l-45 -325h-22l73 519h19l-19 -150q40 79 82 119.5t94 40.5q47 0 72 -30.5zM376 760l11 -22l-160 -84l-8 15z" />
    <glyph glyph-name="napostrophe" unicode="&#x149;" horiz-adv-x="531" 
d="M167.5 731q5.5 -6 5.5 -15q0 -7 -3.5 -16.5t-9.5 -20.5l-47 -109h-14l40 121q-12 8 -12 21q0 11 7 18t18 7q10 0 15.5 -6zM435 498.5q25 -30.5 25 -84.5q0 -18 -3 -38l-53 -376h-22l53 374q3 21 3 40q0 96 -76 96q-49 0 -93.5 -48t-87.5 -137l-45 -325h-22l73 519h19
l-19 -150q40 79 82 119.5t94 40.5q47 0 72 -30.5z" />
    <glyph glyph-name="ncaron" unicode="&#x148;" horiz-adv-x="477" 
d="M380 498.5q25 -30.5 25 -84.5q0 -18 -3 -38l-53 -376h-22l53 374q3 21 3 40q0 96 -76 96q-49 0 -93.5 -48t-87.5 -137l-45 -325h-22l73 519h19l-19 -150q40 79 82 119.5t94 40.5q47 0 72 -30.5zM401 749l11 -13l-112 -95h-13l-85 95l13 13l80 -84z" />
    <glyph glyph-name="uni1E4B" unicode="&#x1e4b;" horiz-adv-x="477" 
d="M380 498.5q25 -30.5 25 -84.5q0 -18 -3 -38l-53 -376h-22l53 374q3 21 3 40q0 96 -76 96q-49 0 -93.5 -48t-87.5 -137l-45 -325h-22l73 519h19l-19 -150q40 79 82 119.5t94 40.5q47 0 72 -30.5zM90 -184l-11 14l112 95h13l85 -95l-11 -14l-83 85z" />
    <glyph glyph-name="ncommaaccent" unicode="&#x146;" horiz-adv-x="477" 
d="M380 498.5q25 -30.5 25 -84.5q0 -18 -3 -38l-53 -376h-22l53 374q3 21 3 40q0 96 -76 96q-49 0 -93.5 -48t-87.5 -137l-45 -325h-22l73 519h19l-19 -150q40 79 82 119.5t94 40.5q47 0 72 -30.5zM207.5 -102q5.5 -6 5.5 -15q0 -13 -13 -35l-48 -106h-15l42 116
q-12 7 -12 21q0 11 7 18t18 7q10 0 15.5 -6z" />
    <glyph glyph-name="uni0235" unicode="&#x235;" horiz-adv-x="550" 
d="M536.5 161q18.5 -20 18.5 -53q0 -52 -35.5 -85t-88.5 -33q-54 0 -76 35l-48 -81l-16 8l54 91q-5 18 -5 35q0 12 1 18l39 278q3 21 3 40q0 47 -19.5 71.5t-57.5 24.5q-92 0 -180 -185l-45 -325h-22l73 519h19l-19 -150q39 79 81.5 119.5t93.5 40.5q48 0 73 -30t25 -85
q0 -18 -3 -38l-39 -280q-2 -19 -1 -27q31 58 60 85t64 27q32 0 50.5 -20zM505 36q29 25 29 72q0 25 -12.5 39.5t-35.5 14.5q-31 0 -57 -25.5t-62 -91.5q15 -34 66 -34q43 0 72 25z" />
    <glyph glyph-name="uni1E45" unicode="&#x1e45;" horiz-adv-x="477" 
d="M380 498.5q25 -30.5 25 -84.5q0 -18 -3 -38l-53 -376h-22l53 374q3 21 3 40q0 96 -76 96q-49 0 -93.5 -48t-87.5 -137l-45 -325h-22l73 519h19l-19 -150q40 79 82 119.5t94 40.5q47 0 72 -30.5zM289 690q-5 5 -5 12q0 9 5.5 15t15.5 6q8 0 12.5 -4.5t4.5 -12.5
q0 -9 -6 -15t-15 -6q-7 0 -12 5z" />
    <glyph glyph-name="uni1E47" unicode="&#x1e47;" horiz-adv-x="477" 
d="M380 498.5q25 -30.5 25 -84.5q0 -18 -3 -38l-53 -376h-22l53 374q3 21 3 40q0 96 -76 96q-49 0 -93.5 -48t-87.5 -137l-45 -325h-22l73 519h19l-19 -150q40 79 82 119.5t94 40.5q47 0 72 -30.5zM204 -104q5 -5 5 -12q0 -9 -5.5 -15t-15.5 -6q-8 0 -12.5 4.5t-4.5 12.5
q0 9 6 15t15 6q7 0 12 -5z" />
    <glyph glyph-name="uni01F9" unicode="&#x1f9;" horiz-adv-x="477" 
d="M380 498.5q25 -30.5 25 -84.5q0 -18 -3 -38l-53 -376h-22l53 374q3 21 3 40q0 96 -76 96q-49 0 -93.5 -48t-87.5 -137l-45 -325h-22l73 519h19l-19 -150q40 79 82 119.5t94 40.5q47 0 72 -30.5zM254 760l131 -92l-10 -14l-136 84z" />
    <glyph glyph-name="eng" unicode="&#x14b;" horiz-adv-x="477" 
d="M380 498.5q25 -30.5 25 -84.5q0 -18 -3 -38l-53 -376l-14 -98q-7 -48 -33 -73.5t-64 -25.5t-70 30l13 14q13 -12 25.5 -18t31.5 -6q29 0 49 19.5t26 61.5l14 96l53 374q3 21 3 40q0 96 -76 96q-49 0 -93.5 -48t-87.5 -137l-45 -325h-22l73 519h19l-19 -150
q40 79 82 119.5t94 40.5q47 0 72 -30.5z" />
    <glyph glyph-name="uni0272" unicode="&#x272;" horiz-adv-x="477" 
d="M380 498.5q25 -30.5 25 -84.5q0 -18 -3 -38l-53 -376h-22l53 374q3 21 3 40q0 96 -76 96q-49 0 -93.5 -48t-87.5 -137l-45 -325l-14 -98q-7 -48 -33 -73.5t-64 -25.5t-70 30l13 14q13 -12 25.5 -18t31.5 -6q29 0 49 19.5t26 61.5l14 96l73 519h19l-19 -150
q40 79 82 119.5t94 40.5q47 0 72 -30.5z" />
    <glyph glyph-name="uni0273" unicode="&#x273;" horiz-adv-x="477" 
d="M461 -168q-31 -29 -73 -29q-36 0 -55.5 21t-19.5 59q0 14 1 21l13 96l53 374q3 21 3 40q0 96 -76 96q-49 0 -93.5 -48t-87.5 -137l-45 -325h-22l73 519h19l-19 -150q40 79 82 119.5t94 40.5q47 0 72 -30.5t25 -84.5q0 -18 -3 -38l-53 -376l-13 -96q-1 -7 -1 -20
q0 -61 54 -61q31 0 60 24z" />
    <glyph glyph-name="uni01CC" unicode="&#x1cc;" horiz-adv-x="691" 
d="M380 498.5q25 -30.5 25 -84.5q0 -18 -3 -38l-53 -376h-22l53 374q3 21 3 40q0 96 -76 96q-49 0 -93.5 -48t-87.5 -137l-45 -325h-22l73 519h19l-19 -150q40 79 82 119.5t94 40.5q47 0 72 -30.5zM430 -178q34 19 53.5 38t32 51t20.5 86l74 522h22l-74 -522
q-8 -58 -22.5 -93t-37 -56t-62.5 -43zM633 690q-5 5 -5 12q0 9 5.5 15t15.5 6q8 0 12.5 -4.5t4.5 -12.5q0 -9 -6 -15t-15 -6q-7 0 -12 5z" />
    <glyph glyph-name="uni019E" unicode="&#x19e;" horiz-adv-x="477" 
d="M379.5 499q25.5 -30 25.5 -84q0 -18 -3 -39l-81 -570l-22 -3l81 571q3 23 3 41q0 47 -19.5 71t-57.5 24q-92 0 -180 -185l-45 -325h-22l73 519h19l-19 -150q39 79 81.5 119.5t93.5 40.5q47 0 72.5 -30z" />
    <glyph glyph-name="ntilde" unicode="&#xf1;" horiz-adv-x="477" 
d="M380 498.5q25 -30.5 25 -84.5q0 -18 -3 -38l-53 -376h-22l53 374q3 21 3 40q0 96 -76 96q-49 0 -93.5 -48t-87.5 -137l-45 -325h-22l73 519h19l-19 -150q40 79 82 119.5t94 40.5q47 0 72 -30.5zM324.5 684q-11.5 6 -27.5 18q-13 10 -21.5 14.5t-18.5 4.5q-15 0 -25 -7.5
t-28 -27.5l-13 9q18 23 33.5 34.5t32.5 11.5q12 0 22.5 -5.5t25.5 -16.5q13 -10 23 -15.5t21 -5.5q14 0 26 9.5t28 31.5l13 -9q-31 -52 -66 -52q-14 0 -25.5 6z" />
    <glyph glyph-name="o" unicode="o" horiz-adv-x="463" 
d="M86.5 38.5q-35.5 48.5 -35.5 135.5q0 80 23.5 162t74 137.5t126.5 55.5q65 0 100.5 -48.5t35.5 -134.5q0 -80 -23.5 -162t-73.5 -138t-126 -56q-66 0 -101.5 48.5zM303 65q45 54 65.5 131t20.5 150q0 79 -29 121t-85 42q-69 0 -114.5 -53.5t-66 -131t-20.5 -150.5
q0 -79 29 -121t85 -42q70 0 115 54z" />
    <glyph glyph-name="oacute" unicode="&#xf3;" horiz-adv-x="463" 
d="M86.5 38.5q-35.5 48.5 -35.5 135.5q0 80 23.5 162t74 137.5t126.5 55.5q65 0 100.5 -48.5t35.5 -134.5q0 -80 -23.5 -162t-73.5 -138t-126 -56q-66 0 -101.5 48.5zM303 65q45 54 65.5 131t20.5 150q0 79 -29 121t-85 42q-69 0 -114.5 -53.5t-66 -131t-20.5 -150.5
q0 -79 29 -121t85 -42q70 0 115 54zM374 760l11 -22l-160 -84l-8 15z" />
    <glyph glyph-name="uni0275" unicode="&#x275;" horiz-adv-x="463" 
d="M375.5 480.5q35.5 -48.5 35.5 -134.5q0 -80 -23.5 -162t-73.5 -138t-126 -56q-66 0 -101.5 48.5t-35.5 135.5q0 80 23.5 162t74 137.5t126.5 55.5q65 0 100.5 -48.5zM148 440.5q-48 -68.5 -65 -167.5h301q5 43 5 73q0 79 -29 121t-85 42q-79 0 -127 -68.5zM316.5 81.5
q47.5 70.5 64.5 171.5h-301q-6 -42 -6 -79q0 -79 29 -121t85 -42q81 0 128.5 70.5z" />
    <glyph glyph-name="obreve" unicode="&#x14f;" horiz-adv-x="463" 
d="M86.5 38.5q-35.5 48.5 -35.5 135.5q0 80 23.5 162t74 137.5t126.5 55.5q65 0 100.5 -48.5t35.5 -134.5q0 -80 -23.5 -162t-73.5 -138t-126 -56q-66 0 -101.5 48.5zM303 65q45 54 65.5 131t20.5 150q0 79 -29 121t-85 42q-69 0 -114.5 -53.5t-66 -131t-20.5 -150.5
q0 -79 29 -121t85 -42q70 0 115 54zM236 686q-21 24 -22 63l17 2q6 -67 64 -67q29 0 51.5 18t34.5 51l16 -6q-12 -38 -39 -61.5t-64 -23.5t-58 24z" />
    <glyph glyph-name="uni01D2" unicode="&#x1d2;" horiz-adv-x="463" 
d="M86.5 38.5q-35.5 48.5 -35.5 135.5q0 80 23.5 162t74 137.5t126.5 55.5q65 0 100.5 -48.5t35.5 -134.5q0 -80 -23.5 -162t-73.5 -138t-126 -56q-66 0 -101.5 48.5zM303 65q45 54 65.5 131t20.5 150q0 79 -29 121t-85 42q-69 0 -114.5 -53.5t-66 -131t-20.5 -150.5
q0 -79 29 -121t85 -42q70 0 115 54zM399 749l11 -13l-112 -95h-13l-85 95l13 13l80 -84z" />
    <glyph glyph-name="ocircumflex" unicode="&#xf4;" horiz-adv-x="463" 
d="M86.5 38.5q-35.5 48.5 -35.5 135.5q0 80 23.5 162t74 137.5t126.5 55.5q65 0 100.5 -48.5t35.5 -134.5q0 -80 -23.5 -162t-73.5 -138t-126 -56q-66 0 -101.5 48.5zM303 65q45 54 65.5 131t20.5 150q0 79 -29 121t-85 42q-69 0 -114.5 -53.5t-66 -131t-20.5 -150.5
q0 -79 29 -121t85 -42q70 0 115 54zM200 654l-11 13l112 95h13l85 -95l-13 -13l-79 84z" />
    <glyph glyph-name="uni1ED1" unicode="&#x1ed1;" horiz-adv-x="463" 
d="M445 802l17 -16l-103 -113l-12 10zM184 586l-10 13l112 90h12l86 -90l-12 -13l-81 79zM86.5 38.5q-35.5 48.5 -35.5 135.5q0 80 23.5 162t74 137.5t126.5 55.5q65 0 100.5 -48.5t35.5 -134.5q0 -80 -23.5 -162t-73.5 -138t-126 -56q-66 0 -101.5 48.5zM303 65
q45 54 65.5 131t20.5 150q0 79 -29 121t-85 42q-69 0 -114.5 -53.5t-66 -131t-20.5 -150.5q0 -79 29 -121t85 -42q70 0 115 54z" />
    <glyph glyph-name="uni1ED9" unicode="&#x1ed9;" horiz-adv-x="463" 
d="M86.5 38.5q-35.5 48.5 -35.5 135.5q0 80 23.5 162t74 137.5t126.5 55.5q65 0 100.5 -48.5t35.5 -134.5q0 -80 -23.5 -162t-73.5 -138t-126 -56q-66 0 -101.5 48.5zM303 65q45 54 65.5 131t20.5 150q0 79 -29 121t-85 42q-69 0 -114.5 -53.5t-66 -131t-20.5 -150.5
q0 -79 29 -121t85 -42q70 0 115 54zM200 654l-11 13l112 95h13l85 -95l-13 -13l-79 84zM187 -104q5 -5 5 -12q0 -9 -5.5 -15t-15.5 -6q-8 0 -12.5 4.5t-4.5 12.5q0 9 6 15t15 6q7 0 12 -5z" />
    <glyph glyph-name="uni1ED3" unicode="&#x1ed3;" horiz-adv-x="463" 
d="M164 802l64 -121l-13 -8l-72 116zM185 586l-10 13l112 90h12l86 -90l-12 -13l-81 79zM86.5 38.5q-35.5 48.5 -35.5 135.5q0 80 23.5 162t74 137.5t126.5 55.5q65 0 100.5 -48.5t35.5 -134.5q0 -80 -23.5 -162t-73.5 -138t-126 -56q-66 0 -101.5 48.5zM303 65
q45 54 65.5 131t20.5 150q0 79 -29 121t-85 42q-69 0 -114.5 -53.5t-66 -131t-20.5 -150.5q0 -79 29 -121t85 -42q70 0 115 54z" />
    </font>
</defs>
</svg>
