<?xml version="1.0" standalone="no"?>
<!DOCTYPE svg PUBLIC "-//W3C//DTD SVG 1.1//EN" "http://www.w3.org/Graphics/SVG/1.1/DTD/svg11.dtd" >
<svg>
<metadata>
Created by FontForge 20120731 at Fri May  5 11:08:53 2017
 By www-data
Digitized data copyright 2012-2016, The Mozilla Foundation and Telefonica S.A.
</metadata>
<defs>
<font id="FiraSansExtraCondensed-Italic" horiz-adv-x="460" >
  <font-face 
    font-family="Fira Sans Extra Condensed"
    font-weight="400"
    font-style="italic"
    font-stretch="condensed"
    units-per-em="1000"
    panose-1="2 11 5 3 5 0 0 2 0 4"
    ascent="800"
    descent="-200"
    x-height="527"
    cap-height="689"
    bbox="-640 -352 1417 1091"
    underline-thickness="50"
    underline-position="-50"
    slope="-8"
    unicode-range="U+000D-FEFF"
  />
<missing-glyph horiz-adv-x="660" 
d="M649 1050l-198 -1400h-416l198 1400h416zM587 998h-307l-183 -1296h307zM418.5 425.5q23.5 -25.5 23.5 -67.5q0 -9 -2 -27q-7 -52 -32 -79t-75 -34l-9 -48q-1 -10 -8 -15.5t-16 -5.5q-11 0 -18.5 8t-6.5 19l9 81q54 3 76.5 21.5t28.5 60.5q2 14 2 20q0 21 -11 32.5
t-39 11.5q-31 0 -54 -13l-12 -1q-13 0 -19.5 8.5t-4.5 19.5q2 17 30.5 25.5t61.5 8.5q52 0 75.5 -25.5zM312 110.5q9 -9.5 9 -24.5q0 -16 -10 -27t-25 -11q-16 0 -25.5 12.5t-6.5 29.5q1 13 10.5 21.5t23.5 8.5q15 0 24 -9.5z" />
    <glyph glyph-name="fi" unicode="fi" horiz-adv-x="484" 
d="M375 0h-87l64 458h-152l-61 -440q-10 -72 -32 -113.5t-54 -65.5t-89 -51l-22 66q35 17 55.5 34.5t34.5 50t22 89.5l59 430h-72l10 69h72l10 76q10 67 53.5 106.5t113.5 39.5q38 0 67.5 -11.5t59.5 -32.5l-35 -57q-45 30 -87 30q-40 0 -60.5 -20t-25.5 -60l-10 -71h240z
" />
    <glyph glyph-name="fl" unicode="fl" horiz-adv-x="506" 
d="M441 66l14 -61q-31 -17 -66 -17q-38 0 -60 24t-22 65q0 8 2 24l78 560q-46 17 -87 17q-37 0 -56.5 -20t-24.5 -60l-10 -71h99l-20 -69h-88l-61 -440q-10 -72 -32 -113.5t-54 -65.5t-89 -51l-22 66q35 17 55.5 34.5t34.5 50t22 89.5l59 430h-73l10 69h73l10 76
q10 67 53 106.5t112 39.5q61 0 109 -22l77 9l-90 -639q-1 -5 -1 -12q0 -24 21 -24q10 0 27 5z" />
    <glyph glyph-name=".notdef" horiz-adv-x="660" 
d="M649 1050l-198 -1400h-416l198 1400h416zM587 998h-307l-183 -1296h307zM418.5 425.5q23.5 -25.5 23.5 -67.5q0 -9 -2 -27q-7 -52 -32 -79t-75 -34l-9 -48q-1 -10 -8 -15.5t-16 -5.5q-11 0 -18.5 8t-6.5 19l9 81q54 3 76.5 21.5t28.5 60.5q2 14 2 20q0 21 -11 32.5
t-39 11.5q-31 0 -54 -13l-12 -1q-13 0 -19.5 8.5t-4.5 19.5q2 17 30.5 25.5t61.5 8.5q52 0 75.5 -25.5zM312 110.5q9 -9.5 9 -24.5q0 -16 -10 -27t-25 -11q-16 0 -25.5 12.5t-6.5 29.5q1 13 10.5 21.5t23.5 8.5q15 0 24 -9.5z" />
    <glyph glyph-name="nonmarkingreturn" unicode="&#xd;" horiz-adv-x="206" 
 />
    <glyph glyph-name="space" unicode=" " horiz-adv-x="206" 
 />
    <glyph glyph-name="A" unicode="A" horiz-adv-x="482" 
d="M343 0l-15 175h-200l-64 -175h-93l273 689h113l80 -689h-94zM155 248h166l-32 365z" />
    <glyph glyph-name="Aacute" unicode="&#xc1;" horiz-adv-x="482" 
d="M343 0l-15 175h-200l-64 -175h-93l273 689h113l80 -689h-94zM155 248h166l-32 365zM388 902l37 -71l-187 -76l-23 45z" />
    <glyph glyph-name="Abreve" unicode="&#x102;" horiz-adv-x="482" 
d="M343 0l-15 175h-200l-64 -175h-93l273 689h113l80 -689h-94zM155 248h166l-32 365zM224 793q-29 34 -26 89l53 8q4 -32 18 -48t42 -16q57 0 84 68l53 -18q-13 -54 -50 -85.5t-90 -31.5q-55 0 -84 34z" />
    <glyph glyph-name="uni1EAE" unicode="&#x1eae;" horiz-adv-x="482" 
d="M463 1006l-134 -131l-33 29l119 149zM396 875l53 -18q-13 -54 -50 -85.5t-90 -31.5q-55 0 -84 34t-26 89l53 8q4 -32 18 -48t42 -16q57 0 84 68zM244 689h113l80 -689h-94l-15 175h-200l-64 -175h-93zM155 248h166l-32 365z" />
    <glyph glyph-name="uni1EB6" unicode="&#x1eb6;" horiz-adv-x="482" 
d="M343 0l-15 175h-200l-64 -175h-93l273 689h113l80 -689h-94zM155 248h166l-32 365zM224 793q-29 34 -26 89l53 8q4 -32 18 -48t42 -16q57 0 84 68l53 -18q-13 -54 -50 -85.5t-90 -31.5q-55 0 -84 34zM229 -90.5q14 -14.5 14 -38.5q0 -30 -18.5 -48.5t-45.5 -18.5
q-25 0 -39 14.5t-14 38.5q0 30 18.5 48.5t45.5 18.5q25 0 39 -14.5z" />
    <glyph glyph-name="uni1EB0" unicode="&#x1eb0;" horiz-adv-x="482" 
d="M352 901l-38 -26l-99 134l59 42zM225 774q-29 34 -26 89l53 8q4 -32 18 -48t42 -16q57 0 84 68l53 -18q-13 -54 -50 -85.5t-90 -31.5q-55 0 -84 34zM244 689h113l80 -689h-94l-15 175h-200l-64 -175h-93zM155 248h166l-32 365z" />
    <glyph glyph-name="uni1EB2" unicode="&#x1eb2;" horiz-adv-x="482" 
d="M343 0l-15 175h-200l-64 -175h-93l273 689h113l80 -689h-94zM155 248h166l-32 365zM225 774q-29 34 -26 89l53 8q4 -32 18 -48t42 -16q57 0 84 68l53 -18q-13 -54 -50 -85.5t-90 -31.5q-55 0 -84 34zM300 941q32 5 48.5 16t16.5 36q0 29 -28 29q-13 0 -23 -3t-24 -10
l-16 51q18 11 35.5 16t40.5 5q39 0 62 -23.5t23 -60.5q0 -41 -20 -62.5t-58 -28.5l-7 -48h-60z" />
    <glyph glyph-name="uni1EB4" unicode="&#x1eb4;" horiz-adv-x="482" 
d="M261 945q-11 -11 -26 -33l-45 27q45 84 97 84q18 0 30.5 -7t28.5 -21q11 -10 19 -15t17 -5q12 0 22.5 10t25.5 33l46 -27q-42 -83 -96 -83q-17 0 -30.5 7.5t-28.5 20.5q-12 10 -20 15t-17 5q-12 0 -23 -11zM394 875l53 -18q-13 -54 -50 -85.5t-90 -31.5q-55 0 -84 34
t-26 89l53 8q4 -32 18 -48t42 -16q57 0 84 68zM244 689h113l80 -689h-94l-15 175h-200l-64 -175h-93zM155 248h166l-32 365z" />
    <glyph glyph-name="uni01CD" unicode="&#x1cd;" horiz-adv-x="482" 
d="M343 0l-15 175h-200l-64 -175h-93l273 689h113l80 -689h-94zM155 248h166l-32 365zM431 907l36 -40l-129 -113h-55l-96 117l37 36l94 -81z" />
    <glyph glyph-name="Acircumflex" unicode="&#xc2;" horiz-adv-x="482" 
d="M343 0l-15 175h-200l-64 -175h-93l273 689h113l80 -689h-94zM155 248h166l-32 365zM206 759l-36 40l129 113h55l96 -117l-37 -36l-94 81z" />
    <glyph glyph-name="uni1EA4" unicode="&#x1ea4;" horiz-adv-x="482" 
d="M564 968l-134 -131l-33 29l119 149zM294 870h55l96 -117l-37 -36l-94 81l-113 -81l-36 40zM244 689h113l80 -689h-94l-15 175h-200l-64 -175h-93zM155 248h166l-32 365z" />
    <glyph glyph-name="uni1EAC" unicode="&#x1eac;" horiz-adv-x="482" 
d="M343 0l-15 175h-200l-64 -175h-93l273 689h113l80 -689h-94zM155 248h166l-32 365zM206 759l-36 40l129 113h55l96 -117l-37 -36l-94 81zM229 -90.5q14 -14.5 14 -38.5q0 -30 -18.5 -48.5t-45.5 -18.5q-25 0 -39 14.5t-14 38.5q0 30 18.5 48.5t45.5 18.5q25 0 39 -14.5z
" />
    <glyph glyph-name="uni1EA6" unicode="&#x1ea6;" horiz-adv-x="482" 
d="M244 863l-38 -26l-99 134l59 42zM199 717l-36 40l129 113h55l96 -117l-37 -36l-94 81zM244 689h113l80 -689h-94l-15 175h-200l-64 -175h-93zM155 248h166l-32 365z" />
    <glyph glyph-name="uni1EA8" unicode="&#x1ea8;" horiz-adv-x="482" 
d="M343 0l-15 175h-200l-64 -175h-93l273 689h113l80 -689h-94zM155 248h166l-32 365zM200 717l-36 40l129 113h55l96 -117l-37 -36l-94 81zM422 898q32 5 48.5 16t16.5 36q0 29 -28 29q-13 0 -23 -3t-24 -10l-16 51q18 11 35.5 16t40.5 5q39 0 62 -23.5t23 -60.5
q0 -41 -20 -62.5t-58 -28.5l-7 -48h-60z" />
    <glyph glyph-name="uni1EAA" unicode="&#x1eaa;" horiz-adv-x="482" 
d="M264 938q-11 -11 -26 -33l-45 27q46 84 97 84q18 0 30.5 -7t28.5 -21q11 -10 19 -15t17 -5q12 0 22.5 10t25.5 33l46 -27q-42 -83 -96 -83q-17 0 -30.5 7.5t-28.5 20.5q-12 10 -20 15t-17 5q-12 0 -23 -11zM295 870h55l96 -117l-37 -36l-94 81l-113 -81l-36 40zM244 689
h113l80 -689h-94l-15 175h-200l-64 -175h-93zM155 248h166l-32 365z" />
    <glyph glyph-name="uni0200" unicode="&#x200;" horiz-adv-x="482" 
d="M343 0l-15 175h-200l-64 -175h-93l273 689h113l80 -689h-94zM155 248h166l-32 365zM231 956l51 -175l-57 -20l-72 162zM358 955l43 -169l-57 -20l-65 157z" />
    <glyph glyph-name="Adieresis" unicode="&#xc4;" horiz-adv-x="482" 
d="M343 0l-15 175h-200l-64 -175h-93l273 689h113l80 -689h-94zM155 248h166l-32 365zM195 795.5q-13 13.5 -13 33.5q0 26 17.5 43.5t40.5 17.5q21 0 34 -13.5t13 -33.5q0 -27 -17 -44t-41 -17q-21 0 -34 13.5zM369 795.5q-13 13.5 -13 33.5q0 26 17.5 43.5t40.5 17.5
q21 0 34 -13.5t13 -33.5q0 -26 -17 -43.5t-41 -17.5q-21 0 -34 13.5z" />
    <glyph glyph-name="uni01DE" unicode="&#x1de;" horiz-adv-x="482" 
d="M343 0l-15 175h-200l-64 -175h-93l273 689h113l80 -689h-94zM155 248h166l-32 365zM184 760.5q-13 13.5 -13 33.5q0 26 17.5 43.5t40.5 17.5q21 0 34 -13.5t13 -33.5q0 -27 -17 -44t-41 -17q-21 0 -34 13.5zM358 760.5q-13 13.5 -13 33.5q0 26 17.5 43.5t40.5 17.5
q21 0 34 -13.5t13 -33.5q0 -26 -17 -43.5t-41 -17.5q-21 0 -34 13.5zM436 904h-226l10 66h226z" />
    <glyph glyph-name="uni0226" unicode="&#x226;" horiz-adv-x="482" 
d="M343 0l-15 175h-200l-64 -175h-93l273 689h113l80 -689h-94zM155 248h166l-32 365zM278 797.5q-14 14.5 -14 38.5q0 30 18.5 48.5t45.5 18.5q25 0 39 -14.5t14 -38.5q0 -30 -18.5 -48.5t-45.5 -18.5q-25 0 -39 14.5z" />
    <glyph glyph-name="uni1EA0" unicode="&#x1ea0;" horiz-adv-x="482" 
d="M343 0l-15 175h-200l-64 -175h-93l273 689h113l80 -689h-94zM155 248h166l-32 365zM229 -90.5q14 -14.5 14 -38.5q0 -30 -18.5 -48.5t-45.5 -18.5q-25 0 -39 14.5t-14 38.5q0 30 18.5 48.5t45.5 18.5q25 0 39 -14.5z" />
    <glyph glyph-name="uni01E0" unicode="&#x1e0;" horiz-adv-x="482" 
d="M343 0l-15 175h-200l-64 -175h-93l273 689h113l80 -689h-94zM155 248h166l-32 365zM269 756.5q-14 14.5 -14 38.5q0 30 18.5 48.5t45.5 18.5q25 0 39 -14.5t14 -38.5q0 -30 -18.5 -48.5t-45.5 -18.5q-25 0 -39 14.5zM437 905h-226l10 66h226z" />
    <glyph glyph-name="Agrave" unicode="&#xc0;" horiz-adv-x="482" 
d="M343 0l-15 175h-200l-64 -175h-93l273 689h113l80 -689h-94zM155 248h166l-32 365zM271 901l150 -101l-29 -44l-165 76z" />
    <glyph glyph-name="uni1EA2" unicode="&#x1ea2;" horiz-adv-x="482" 
d="M343 0l-15 175h-200l-64 -175h-93l273 689h113l80 -689h-94zM155 248h166l-32 365zM292 847q32 5 48.5 16t16.5 36q0 29 -28 29q-13 0 -23 -3t-24 -10l-16 51q18 11 35.5 16t40.5 5q39 0 62 -23.5t23 -60.5q0 -41 -20 -62.5t-58 -28.5l-7 -48h-60z" />
    <glyph glyph-name="uni0202" unicode="&#x202;" horiz-adv-x="482" 
d="M343 0l-15 175h-200l-64 -175h-93l273 689h113l80 -689h-94zM155 248h166l-32 365zM187 792q17 62 55 95t89 33q53 0 82 -35.5t27 -97.5l-54 -8q-6 74 -61 74q-58 0 -85 -78z" />
    <glyph glyph-name="uni2C6D" unicode="&#x2c6d;" horiz-adv-x="564" 
d="M462 96q0 -17 6 -28t19 -18l-27 -62q-34 5 -54.5 23t-27.5 53q-28 -38 -61 -57t-75 -19q-56 0 -99 29.5t-67.5 88t-24.5 141.5q0 128 36.5 231.5t100.5 162.5t145 59q71 0 115 -68l18 57h78l-80 -570q-2 -16 -2 -23zM320 82.5q29 19.5 58 59.5l56 411q-20 36 -42 54.5
t-55 18.5q-58 0 -102 -51t-67.5 -138t-23.5 -192q0 -94 31 -138t81 -44q35 0 64 19.5z" />
    <glyph glyph-name="Amacron" unicode="&#x100;" horiz-adv-x="482" 
d="M343 0l-15 175h-200l-64 -175h-93l273 689h113l80 -689h-94zM155 248h166l-32 365zM428 794h-226l10 66h226z" />
    <glyph glyph-name="Aogonek" unicode="&#x104;" horiz-adv-x="482" 
d="M305.5 -65.5q-23.5 -29.5 -23.5 -61.5q0 -36 39 -36q21 0 49 5l-14 -65q-26 -6 -52 -6q-43 0 -68.5 25.5t-25.5 67.5q0 45 30 83.5t102 69.5l-14 158h-200l-64 -175h-93l273 689h113l80 -689h-38q-70 -36 -93.5 -65.5zM155 248h166l-32 365z" />
    <glyph glyph-name="Aring" unicode="&#xc5;" horiz-adv-x="482" 
d="M343 0l-15 175h-200l-64 -175h-93l273 689h113l80 -689h-94zM155 248h166l-32 365zM398 933q24 -26 24 -67q0 -49 -30.5 -81.5t-77.5 -32.5q-39 0 -63 26t-24 67q0 49 30.5 81.5t77.5 32.5q39 0 63 -26zM295.5 894q-13.5 -19 -13.5 -48q0 -22 9 -35t26 -13q23 0 36.5 19
t13.5 48q0 23 -9 35.5t-26 12.5q-23 0 -36.5 -19z" />
    <glyph glyph-name="Aringacute" unicode="&#x1fa;" horiz-adv-x="482" 
d="M343 0l-15 175h-200l-64 -175h-93l273 689h113l80 -689h-94zM155 248h166l-32 365zM390 912q24 -26 24 -67q0 -49 -30.5 -81.5t-77.5 -32.5q-39 0 -63 26t-24 67q0 49 30.5 81.5t77.5 32.5q39 0 63 -26zM287.5 873q-13.5 -19 -13.5 -48q0 -22 9 -35t26 -13q23 0 36.5 19
t13.5 48q0 23 -9 35.5t-26 12.5q-23 0 -36.5 -19zM397 1091l37 -71l-187 -76l-23 45z" />
    <glyph glyph-name="uni023A" unicode="&#x23a;" horiz-adv-x="482" 
d="M350 0l-17 175h-106l-88 -245l-39 12l84 233h-59l-66 -175h-88l274 689h112l3 -26l31 86l39 -12l-59 -165l66 -572h-87zM151 246h59l91 254l-11 117zM253 246h73l-15 160z" />
    <glyph glyph-name="Atilde" unicode="&#xc3;" horiz-adv-x="482" 
d="M343 0l-15 175h-200l-64 -175h-93l273 689h113l80 -689h-94zM155 248h166l-32 365zM337.5 790.5q-13.5 7.5 -28.5 20.5q-12 10 -20 15t-17 5q-12 0 -23 -11t-26 -33l-45 27q45 84 97 84q18 0 30.5 -7t28.5 -21q11 -10 19 -15t17 -5q12 0 22.5 10t25.5 33l46 -27
q-42 -83 -96 -83q-17 0 -30.5 7.5z" />
    <glyph glyph-name="AE" unicode="&#xc6;" horiz-adv-x="675" 
d="M640 616h-243l11 -230h205l-11 -73h-190l12 -240h186l-12 -73h-255l-7 174h-209l-75 -174h-93l317 689h386zM159 248h174l-15 368z" />
    <glyph glyph-name="AEacute" unicode="&#x1fc;" horiz-adv-x="675" 
d="M640 616h-243l11 -230h205l-11 -73h-190l12 -240h186l-12 -73h-255l-7 174h-209l-75 -174h-93l317 689h386zM159 248h174l-15 368zM539 902l37 -71l-187 -76l-23 45z" />
    <glyph glyph-name="uni01E2" unicode="&#x1e2;" horiz-adv-x="675" 
d="M640 616h-243l11 -230h205l-11 -73h-190l12 -240h186l-12 -73h-255l-7 174h-209l-75 -174h-93l317 689h386zM159 248h174l-15 368zM579 794h-226l10 66h226z" />
    <glyph glyph-name="B" unicode="B" horiz-adv-x="507" 
d="M432.5 318.5q31.5 -31.5 31.5 -88.5q0 -100 -62.5 -165t-199.5 -65h-163l97 689h174q86 0 135.5 -40.5t49.5 -110.5q0 -71 -40 -114t-110 -60q56 -14 87.5 -45.5zM216 617l-31 -221h80q68 0 103 35t35 104q0 82 -94 82h-93zM336.5 115.5q34.5 42.5 34.5 113.5
q0 51 -27 73.5t-82 22.5h-87l-36 -252h74q89 0 123.5 42.5z" />
    <glyph glyph-name="uni1E02" unicode="&#x1e02;" horiz-adv-x="507" 
d="M432.5 318.5q31.5 -31.5 31.5 -88.5q0 -100 -62.5 -165t-199.5 -65h-163l97 689h174q86 0 135.5 -40.5t49.5 -110.5q0 -71 -40 -114t-110 -60q56 -14 87.5 -45.5zM216 617l-31 -221h80q68 0 103 35t35 104q0 82 -94 82h-93zM336.5 115.5q34.5 42.5 34.5 113.5
q0 51 -27 73.5t-82 22.5h-87l-36 -252h74q89 0 123.5 42.5zM291 797.5q-14 14.5 -14 38.5q0 30 18.5 48.5t45.5 18.5q25 0 39 -14.5t14 -38.5q0 -30 -18.5 -48.5t-45.5 -18.5q-25 0 -39 14.5z" />
    <glyph glyph-name="uni1E04" unicode="&#x1e04;" horiz-adv-x="507" 
d="M432.5 318.5q31.5 -31.5 31.5 -88.5q0 -100 -62.5 -165t-199.5 -65h-163l97 689h174q86 0 135.5 -40.5t49.5 -110.5q0 -71 -40 -114t-110 -60q56 -14 87.5 -45.5zM216 617l-31 -221h80q68 0 103 35t35 104q0 82 -94 82h-93zM336.5 115.5q34.5 42.5 34.5 113.5
q0 51 -27 73.5t-82 22.5h-87l-36 -252h74q89 0 123.5 42.5zM242 -90.5q14 -14.5 14 -38.5q0 -30 -18.5 -48.5t-45.5 -18.5q-25 0 -39 14.5t-14 38.5q0 30 18.5 48.5t45.5 18.5q25 0 39 -14.5z" />
    <glyph glyph-name="uniA7B4" unicode="&#xa7b4;" horiz-adv-x="502" 
d="M428.5 318.5q31.5 -31.5 31.5 -88.5q0 -61 -27 -114t-78.5 -84.5t-121.5 -31.5q-55 0 -101 17l-31 -219h-90l125 891h160q86 0 135.5 -40.5t49.5 -110.5t-38.5 -113.5t-101.5 -60.5q56 -14 87.5 -45.5zM332 118.5q35 45.5 35 110.5q0 51 -27 73.5t-82 22.5h-32l17 71h18
q61 0 94.5 35.5t33.5 103.5q0 82 -94 82h-79l-74 -530q49 -14 91 -14q64 0 99 45.5z" />
    <glyph glyph-name="uni0181" unicode="&#x181;" horiz-adv-x="584" 
d="M509.5 318.5q31.5 -31.5 31.5 -88.5q0 -100 -62.5 -165t-199.5 -65h-163l87 617h-22q-54 0 -54 -63q0 -32 12 -65l-65 -26q-24 42 -24 93q0 60 34.5 96.5t98.5 36.5h204q86 0 135.5 -40.5t49.5 -110.5q0 -71 -40 -114t-110 -60q56 -14 87.5 -45.5zM293 617l-31 -221h80
q68 0 103 35t35 104q0 82 -94 82h-93zM413.5 115.5q34.5 42.5 34.5 113.5q0 51 -27 73.5t-82 22.5h-87l-36 -252h74q89 0 123.5 42.5z" />
    <glyph glyph-name="uni0243" unicode="&#x243;" horiz-adv-x="515" 
d="M440.5 318.5q31.5 -31.5 31.5 -88.5q0 -100 -62.5 -165t-199.5 -65h-163l24 169h-69l10 67h68l64 453h174q86 0 135.5 -40.5t49.5 -110.5q0 -71 -40 -114t-110 -60q56 -14 87.5 -45.5zM224 617l-31 -221h80q68 0 103 35t35 104q0 82 -94 82h-93zM344.5 115.5
q34.5 42.5 34.5 113.5q0 51 -27 73.5t-82 22.5h-87l-13 -89h119l-10 -67h-118l-14 -96h74q89 0 123.5 42.5z" />
    <glyph glyph-name="uni0182" unicode="&#x182;" horiz-adv-x="475" 
d="M397.5 381q52.5 -47 52.5 -133q0 -65 -25 -121t-80.5 -91.5t-143.5 -35.5h-162l97 689h315l-22 -75h-214l-26 -186h60q96 0 148.5 -47zM322.5 123q32.5 50 32.5 124q0 57 -26.5 83.5t-78.5 26.5h-71l-40 -284h72q79 0 111.5 50z" />
    <glyph glyph-name="C" unicode="C" horiz-adv-x="467" 
d="M439 682.5q36 -17.5 66 -52.5l-52 -50q-25 24 -48.5 35t-52.5 11q-72 0 -119 -60.5t-68.5 -150.5t-21.5 -181q0 -86 29 -127.5t79 -41.5q35 0 62 13.5t65 41.5l36 -59q-79 -73 -174 -73q-86 0 -138.5 66t-52.5 185q0 111 33 217t101.5 175t169.5 69q50 0 86 -17.5z" />
    <glyph glyph-name="Cacute" unicode="&#x106;" horiz-adv-x="467" 
d="M439 682.5q36 -17.5 66 -52.5l-52 -50q-25 24 -48.5 35t-52.5 11q-72 0 -119 -60.5t-68.5 -150.5t-21.5 -181q0 -86 29 -127.5t79 -41.5q35 0 62 13.5t65 41.5l36 -59q-79 -73 -174 -73q-86 0 -138.5 66t-52.5 185q0 111 33 217t101.5 175t169.5 69q50 0 86 -17.5z
M439 902l37 -71l-187 -76l-23 45z" />
    <glyph glyph-name="Ccaron" unicode="&#x10c;" horiz-adv-x="467" 
d="M439 682.5q36 -17.5 66 -52.5l-52 -50q-25 24 -48.5 35t-52.5 11q-72 0 -119 -60.5t-68.5 -150.5t-21.5 -181q0 -86 29 -127.5t79 -41.5q35 0 62 13.5t65 41.5l36 -59q-79 -73 -174 -73q-86 0 -138.5 66t-52.5 185q0 111 33 217t101.5 175t169.5 69q50 0 86 -17.5z
M482 907l36 -40l-129 -113h-55l-96 117l37 36l94 -81z" />
    <glyph glyph-name="Ccedilla" unicode="&#xc7;" horiz-adv-x="467" 
d="M233 565.5q-47 -60.5 -68.5 -150.5t-21.5 -181q0 -86 29 -127.5t79 -41.5q35 0 62 13.5t65 41.5l36 -59q-70 -64 -152 -72l-7 -49q34 -4 50.5 -23.5t16.5 -50.5q0 -43 -30 -74t-86 -31q-47 0 -76 26l29 45q23 -14 47 -14q21 0 34.5 11.5t13.5 32.5q0 22 -14 30.5t-53 8.5
l20 90q-72 12 -115 76t-43 172q0 111 33 217t101.5 175t169.5 69q50 0 86 -17.5t66 -52.5l-52 -50q-25 24 -48.5 35t-52.5 11q-72 0 -119 -60.5z" />
    <glyph glyph-name="Ccircumflex" unicode="&#x108;" horiz-adv-x="467" 
d="M439 682.5q36 -17.5 66 -52.5l-52 -50q-25 24 -48.5 35t-52.5 11q-72 0 -119 -60.5t-68.5 -150.5t-21.5 -181q0 -86 29 -127.5t79 -41.5q35 0 62 13.5t65 41.5l36 -59q-79 -73 -174 -73q-86 0 -138.5 66t-52.5 185q0 111 33 217t101.5 175t169.5 69q50 0 86 -17.5z
M257 759l-36 40l129 113h55l96 -117l-37 -36l-94 81z" />
    <glyph glyph-name="Cdotaccent" unicode="&#x10a;" horiz-adv-x="467" 
d="M439 682.5q36 -17.5 66 -52.5l-52 -50q-25 24 -48.5 35t-52.5 11q-72 0 -119 -60.5t-68.5 -150.5t-21.5 -181q0 -86 29 -127.5t79 -41.5q35 0 62 13.5t65 41.5l36 -59q-79 -73 -174 -73q-86 0 -138.5 66t-52.5 185q0 111 33 217t101.5 175t169.5 69q50 0 86 -17.5z
M329 797.5q-14 14.5 -14 38.5q0 30 18.5 48.5t45.5 18.5q25 0 39 -14.5t14 -38.5q0 -30 -18.5 -48.5t-45.5 -18.5q-25 0 -39 14.5z" />
    <glyph glyph-name="uniA7B3" unicode="&#xa7b3;" horiz-adv-x="437" 
d="M479 689l-203 -382l104 -435h-93l-72 371l-168 -371h-100l223 436l-93 381h94l60 -321l150 321h98z" />
    <glyph glyph-name="uni0187" unicode="&#x187;" horiz-adv-x="459" 
d="M665 792l-37 -51q-14 10 -26.5 14.5t-29.5 4.5q-24 0 -39.5 -17.5t-19.5 -50.5l-8 -62l-47 -46q-27 21 -52.5 31.5t-53.5 10.5q-72 0 -119 -60.5t-68.5 -150.5t-21.5 -181q0 -86 29 -127.5t79 -41.5q35 0 62 13.5t65 41.5l36 -59q-79 -73 -174 -73q-86 0 -138.5 66
t-52.5 185q0 110 32.5 216.5t100 175.5t165.5 69q47 0 81 -20l5 31q9 55 43.5 87.5t91.5 32.5q56 0 97 -39z" />
    <glyph glyph-name="uni023B" unicode="&#x23b;" horiz-adv-x="467" 
d="M405 615l-196 -541q19 -9 42 -9q35 0 62 13.5t65 41.5l36 -59q-79 -73 -174 -73q-30 0 -59 9l-24 -67l-39 12l26 73q-45 29 -70 86t-25 138q0 111 33 217t101.5 175t169.5 69q20 0 38 -3l19 52l39 -12l-18 -51q39 -16 74 -56l-52 -50q-22 22 -48 35zM365 625q-4 1 -13 1
q-72 0 -119 -60.5t-68.5 -150.5t-21.5 -181t33 -133z" />
    <glyph glyph-name="D" unicode="D" horiz-adv-x="545" 
d="M519 457q0 -127 -34 -229.5t-109 -165t-193 -62.5h-144l97 689h141q242 0 242 -232zM216 616l-77 -544h62q82 0 132.5 56.5t72 143.5t21.5 185q0 90 -37.5 124.5t-107.5 34.5h-66z" />
    <glyph glyph-name="uni01F1" unicode="&#x1f1;" horiz-adv-x="945" 
d="M519 457q0 -127 -34 -229.5t-109 -165t-193 -62.5h-144l97 689h141q242 0 242 -232zM216 616l-77 -544h62q82 0 132.5 56.5t72 143.5t21.5 185q0 90 -37.5 124.5t-107.5 34.5h-66zM505 0l11 73l351 539h-249l12 77h345l-12 -74l-351 -538l279 1l-23 -78h-363z" />
    <glyph glyph-name="uni01C4" unicode="&#x1c4;" horiz-adv-x="945" 
d="M519 457q0 -127 -34 -229.5t-109 -165t-193 -62.5h-144l97 689h141q242 0 242 -232zM216 616l-77 -544h62q82 0 132.5 56.5t72 143.5t21.5 185q0 90 -37.5 124.5t-107.5 34.5h-66zM505 0l11 73l351 539h-249l12 77h345l-12 -74l-351 -538l279 1l-23 -78h-363zM933 907
l36 -40l-129 -113h-55l-96 117l37 36l94 -81z" />
    <glyph glyph-name="uni0189" unicode="&#x189;" horiz-adv-x="552" 
d="M526 457q0 -127 -34 -229.5t-109 -165t-193 -62.5h-144l45 319h-68l10 68h67l43 302h141q242 0 242 -232zM340.5 128.5q50.5 56.5 72 143.5t21.5 185q0 90 -37.5 124.5t-107.5 34.5h-66l-32 -229h123l-10 -68h-123l-35 -247h62q82 0 132.5 56.5z" />
    <glyph glyph-name="Eth" unicode="&#xd0;" horiz-adv-x="552" 
d="M526 457q0 -127 -34 -229.5t-109 -165t-193 -62.5h-144l45 319h-68l10 68h67l43 302h141q242 0 242 -232zM340.5 128.5q50.5 56.5 72 143.5t21.5 185q0 90 -37.5 124.5t-107.5 34.5h-66l-32 -229h123l-10 -68h-123l-35 -247h62q82 0 132.5 56.5z" />
    <glyph glyph-name="Dcaron" unicode="&#x10e;" horiz-adv-x="545" 
d="M519 457q0 -127 -34 -229.5t-109 -165t-193 -62.5h-144l97 689h141q242 0 242 -232zM216 616l-77 -544h62q82 0 132.5 56.5t72 143.5t21.5 185q0 90 -37.5 124.5t-107.5 34.5h-66zM460 907l36 -40l-129 -113h-55l-96 117l37 36l94 -81z" />
    <glyph glyph-name="uni1E12" unicode="&#x1e12;" horiz-adv-x="545" 
d="M519 457q0 -127 -34 -229.5t-109 -165t-193 -62.5h-144l97 689h141q242 0 242 -232zM216 616l-77 -544h62q82 0 132.5 56.5t72 143.5t21.5 185q0 90 -37.5 124.5t-107.5 34.5h-66zM84 -221l-36 40l129 113h55l96 -117l-39 -36l-91 81z" />
    <glyph glyph-name="Dcroat" unicode="&#x110;" horiz-adv-x="552" 
d="M526 457q0 -127 -34 -229.5t-109 -165t-193 -62.5h-144l45 319h-68l10 68h67l43 302h141q242 0 242 -232zM340.5 128.5q50.5 56.5 72 143.5t21.5 185q0 90 -37.5 124.5t-107.5 34.5h-66l-32 -229h123l-10 -68h-123l-35 -247h62q82 0 132.5 56.5z" />
    <glyph glyph-name="uni1E0A" unicode="&#x1e0a;" horiz-adv-x="545" 
d="M519 457q0 -127 -34 -229.5t-109 -165t-193 -62.5h-144l97 689h141q242 0 242 -232zM216 616l-77 -544h62q82 0 132.5 56.5t72 143.5t21.5 185q0 90 -37.5 124.5t-107.5 34.5h-66zM307 797.5q-14 14.5 -14 38.5q0 30 18.5 48.5t45.5 18.5q25 0 39 -14.5t14 -38.5
q0 -30 -18.5 -48.5t-45.5 -18.5q-25 0 -39 14.5z" />
    <glyph glyph-name="uni1E0C" unicode="&#x1e0c;" horiz-adv-x="545" 
d="M519 457q0 -127 -34 -229.5t-109 -165t-193 -62.5h-144l97 689h141q242 0 242 -232zM216 616l-77 -544h62q82 0 132.5 56.5t72 143.5t21.5 185q0 90 -37.5 124.5t-107.5 34.5h-66zM237 -90.5q14 -14.5 14 -38.5q0 -30 -18.5 -48.5t-45.5 -18.5q-25 0 -39 14.5t-14 38.5
q0 30 18.5 48.5t45.5 18.5q25 0 39 -14.5z" />
    <glyph glyph-name="uni018A" unicode="&#x18a;" horiz-adv-x="622" 
d="M596 457q0 -127 -34 -229.5t-109 -165t-193 -62.5h-144l87 617h-22q-54 0 -54 -63q0 -32 12 -65l-65 -26q-24 42 -24 93q0 60 34.5 96.5t98.5 36.5h171q242 0 242 -232zM410.5 128.5q50.5 56.5 72 143.5t21.5 185q0 90 -37.5 124.5t-107.5 34.5h-66l-77 -544h62
q82 0 132.5 56.5z" />
    <glyph glyph-name="uni1E0E" unicode="&#x1e0e;" horiz-adv-x="545" 
d="M519 457q0 -127 -34 -229.5t-109 -165t-193 -62.5h-144l97 689h141q242 0 242 -232zM216 616l-77 -544h62q82 0 132.5 56.5t72 143.5t21.5 185q0 90 -37.5 124.5t-107.5 34.5h-66zM90 -105h226l-10 -66h-226z" />
    <glyph glyph-name="uni018B" unicode="&#x18b;" horiz-adv-x="475" 
d="M362 0h-136q-103 0 -158 46.5t-55 143.5q0 112 66.5 175.5t180.5 63.5h72l26 185h-223l10 75h314zM282 73l40 284h-68q-73 0 -109.5 -43t-36.5 -124q0 -59 28.5 -88t94.5 -29h51z" />
    <glyph glyph-name="uni01F2" unicode="&#x1f2;" horiz-adv-x="895" 
d="M519 457q0 -127 -34 -229.5t-109 -165t-193 -62.5h-144l97 689h141q242 0 242 -232zM216 616l-77 -544h62q82 0 132.5 56.5t72 143.5t21.5 185q0 90 -37.5 124.5t-107.5 34.5h-66zM906 527l-10 -68l-270 -385h220l-20 -74h-310l10 66l270 386h-199l12 75h297z" />
    <glyph glyph-name="uni01C5" unicode="&#x1c5;" horiz-adv-x="895" 
d="M519 457q0 -127 -34 -229.5t-109 -165t-193 -62.5h-144l97 689h141q242 0 242 -232zM216 616l-77 -544h62q82 0 132.5 56.5t72 143.5t21.5 185q0 90 -37.5 124.5t-107.5 34.5h-66zM906 527l-10 -68l-270 -385h220l-20 -74h-310l10 66l270 386h-199l12 75h297zM891 779
l33 -39l-128 -112h-55l-97 112l38 39l91 -80z" />
    <glyph glyph-name="E" unicode="E" horiz-adv-x="433" 
d="M448 689l-21 -73h-211l-32 -229h185l-11 -73h-184l-35 -241h229l-12 -73h-317l97 689h312z" />
    <glyph glyph-name="Eacute" unicode="&#xc9;" horiz-adv-x="433" 
d="M448 689l-21 -73h-211l-32 -229h185l-11 -73h-184l-35 -241h229l-12 -73h-317l97 689h312zM382 902l37 -71l-187 -76l-23 45z" />
    <glyph glyph-name="Ebreve" unicode="&#x114;" horiz-adv-x="433" 
d="M448 689l-21 -73h-211l-32 -229h185l-11 -73h-184l-35 -241h229l-12 -73h-317l97 689h312zM218 793q-29 34 -26 89l53 8q4 -32 18 -48t42 -16q57 0 84 68l53 -18q-13 -54 -50 -85.5t-90 -31.5q-55 0 -84 34z" />
    <glyph glyph-name="Ecaron" unicode="&#x11a;" horiz-adv-x="433" 
d="M448 689l-21 -73h-211l-32 -229h185l-11 -73h-184l-35 -241h229l-12 -73h-317l97 689h312zM425 907l36 -40l-129 -113h-55l-96 117l37 36l94 -81z" />
    <glyph glyph-name="uni0228" unicode="&#x228;" horiz-adv-x="433" 
d="M216 616l-32 -229h185l-11 -73h-184l-35 -241h229l-12 -73h-131l-9 -60q34 -4 50.5 -23.5t16.5 -50.5q0 -43 -30 -74t-86 -31q-47 0 -76 26l29 45q23 -14 47 -14q21 0 34.5 11.5t13.5 32.5q0 22 -14 30.5t-53 8.5l22 99h-131l97 689h312l-21 -73h-211z" />
    <glyph glyph-name="Ecircumflex" unicode="&#xca;" horiz-adv-x="433" 
d="M448 689l-21 -73h-211l-32 -229h185l-11 -73h-184l-35 -241h229l-12 -73h-317l97 689h312zM200 759l-36 40l129 113h55l96 -117l-37 -36l-94 81z" />
    <glyph glyph-name="uni1EBE" unicode="&#x1ebe;" horiz-adv-x="433" 
d="M510 1015l48 -47l-134 -131l-33 29zM195 717l-36 40l129 113h55l96 -117l-37 -36l-94 81zM448 689l-21 -73h-211l-32 -229h185l-11 -73h-184l-35 -241h229l-12 -73h-317l97 689h312z" />
    <glyph glyph-name="uni1EC6" unicode="&#x1ec6;" horiz-adv-x="433" 
d="M448 689l-21 -73h-211l-32 -229h185l-11 -73h-184l-35 -241h229l-12 -73h-317l97 689h312zM200 759l-36 40l129 113h55l96 -117l-37 -36l-94 81zM223 -90.5q14 -14.5 14 -38.5q0 -30 -18.5 -48.5t-45.5 -18.5q-25 0 -39 14.5t-14 38.5q0 30 18.5 48.5t45.5 18.5
q25 0 39 -14.5z" />
    <glyph glyph-name="uni1EC0" unicode="&#x1ec0;" horiz-adv-x="433" 
d="M160 1013l78 -150l-38 -26l-99 134zM193 717l-36 40l129 113h55l96 -117l-37 -36l-94 81zM448 689l-21 -73h-211l-32 -229h185l-11 -73h-184l-35 -241h229l-12 -73h-317l97 689h312z" />
    <glyph glyph-name="uni1EC2" unicode="&#x1ec2;" horiz-adv-x="433" 
d="M448 689l-21 -73h-211l-32 -229h185l-11 -73h-184l-35 -241h229l-12 -73h-317l97 689h312zM194 717l-36 40l129 113h55l96 -117l-37 -36l-94 81zM416 898q32 5 48.5 16t16.5 36q0 29 -28 29q-13 0 -23 -3t-24 -10l-16 51q18 11 35.5 16t40.5 5q39 0 62 -23.5t23 -60.5
q0 -41 -20 -62.5t-58 -28.5l-7 -48h-60z" />
    <glyph glyph-name="uni1EC4" unicode="&#x1ec4;" horiz-adv-x="433" 
d="M346.5 908.5q-13.5 7.5 -28.5 20.5q-12 10 -20 15t-17 5q-12 0 -23 -11t-26 -33l-45 27q46 84 97 84q18 0 30.5 -7t28.5 -21q11 -10 19 -15t17 -5q12 0 22.5 10t25.5 33l46 -27q-42 -83 -96 -83q-17 0 -30.5 7.5zM196 717l-36 40l129 113h55l96 -117l-37 -36l-94 81z
M448 689l-21 -73h-211l-32 -229h185l-11 -73h-184l-35 -241h229l-12 -73h-317l97 689h312z" />
    <glyph glyph-name="uni0204" unicode="&#x204;" horiz-adv-x="433" 
d="M448 689l-21 -73h-211l-32 -229h185l-11 -73h-184l-35 -241h229l-12 -73h-317l97 689h312zM225 956l51 -175l-57 -20l-72 162zM352 955l43 -169l-57 -20l-65 157z" />
    <glyph glyph-name="Edieresis" unicode="&#xcb;" horiz-adv-x="433" 
d="M448 689l-21 -73h-211l-32 -229h185l-11 -73h-184l-35 -241h229l-12 -73h-317l97 689h312zM189 795.5q-13 13.5 -13 33.5q0 26 17.5 43.5t40.5 17.5q21 0 34 -13.5t13 -33.5q0 -27 -17 -44t-41 -17q-21 0 -34 13.5zM363 795.5q-13 13.5 -13 33.5q0 26 17.5 43.5
t40.5 17.5q21 0 34 -13.5t13 -33.5q0 -26 -17 -43.5t-41 -17.5q-21 0 -34 13.5z" />
    <glyph glyph-name="Edotaccent" unicode="&#x116;" horiz-adv-x="433" 
d="M448 689l-21 -73h-211l-32 -229h185l-11 -73h-184l-35 -241h229l-12 -73h-317l97 689h312zM272 797.5q-14 14.5 -14 38.5q0 30 18.5 48.5t45.5 18.5q25 0 39 -14.5t14 -38.5q0 -30 -18.5 -48.5t-45.5 -18.5q-25 0 -39 14.5z" />
    <glyph glyph-name="uni1EB8" unicode="&#x1eb8;" horiz-adv-x="433" 
d="M448 689l-21 -73h-211l-32 -229h185l-11 -73h-184l-35 -241h229l-12 -73h-317l97 689h312zM223 -90.5q14 -14.5 14 -38.5q0 -30 -18.5 -48.5t-45.5 -18.5q-25 0 -39 14.5t-14 38.5q0 30 18.5 48.5t45.5 18.5q25 0 39 -14.5z" />
    <glyph glyph-name="Egrave" unicode="&#xc8;" horiz-adv-x="433" 
d="M448 689l-21 -73h-211l-32 -229h185l-11 -73h-184l-35 -241h229l-12 -73h-317l97 689h312zM265 901l150 -101l-29 -44l-165 76z" />
    <glyph glyph-name="uni1EBA" unicode="&#x1eba;" horiz-adv-x="433" 
d="M448 689l-21 -73h-211l-32 -229h185l-11 -73h-184l-35 -241h229l-12 -73h-317l97 689h312zM286 847q32 5 48.5 16t16.5 36q0 29 -28 29q-13 0 -23 -3t-24 -10l-16 51q18 11 35.5 16t40.5 5q39 0 62 -23.5t23 -60.5q0 -41 -20 -62.5t-58 -28.5l-7 -48h-60z" />
    <glyph glyph-name="uni0206" unicode="&#x206;" horiz-adv-x="433" 
d="M448 689l-21 -73h-211l-32 -229h185l-11 -73h-184l-35 -241h229l-12 -73h-317l97 689h312zM181 792q17 62 55 95t89 33q53 0 82 -35.5t27 -97.5l-54 -8q-6 74 -61 74q-58 0 -85 -78z" />
    <glyph glyph-name="Emacron" unicode="&#x112;" horiz-adv-x="433" 
d="M448 689l-21 -73h-211l-32 -229h185l-11 -73h-184l-35 -241h229l-12 -73h-317l97 689h312zM422 794h-226l10 66h226z" />
    <glyph glyph-name="Eogonek" unicode="&#x118;" horiz-adv-x="433" 
d="M216 616l-32 -229h185l-11 -73h-184l-35 -241h229l-12 -73h-31q-70 -36 -93.5 -65.5t-23.5 -61.5q0 -36 39 -36q21 0 49 5l-14 -65q-25 -6 -52 -6q-43 0 -68.5 25.5t-25.5 67.5q0 40 22.5 74t74.5 62h-194l97 689h312l-21 -73h-211z" />
    <glyph glyph-name="uni0190" unicode="&#x190;" horiz-adv-x="434" 
d="M401 678.5q40 -21.5 72 -64.5l-55 -49q-28 31 -54.5 46t-58.5 15q-53 0 -83.5 -39t-30.5 -96q0 -43 24 -66t65 -23h50l-22 -75h-42q-71 0 -109 -41.5t-38 -119.5q0 -49 23.5 -75t67.5 -26q72 0 139 65l47 -51q-82 -91 -195 -91q-80 0 -128.5 48t-48.5 127q0 86 48 142
t128 65q-47 11 -73 42.5t-26 81.5q0 59 27.5 106t75 73.5t103.5 26.5q54 0 94 -21.5z" />
    <glyph glyph-name="uni018E" unicode="&#x18e;" horiz-adv-x="431" 
d="M101 689h314l-97 -689h-317l10 73h227l35 241h-187l10 73h186l33 229h-224z" />
    <glyph glyph-name="uni01A9" unicode="&#x1a9;" horiz-adv-x="421" 
d="M444 689l-10 -75h-253l125 -250l-6 -58l-187 -231h246l-10 -75h-350l10 74l218 269l-142 272l10 74h349z" />
    <glyph glyph-name="uni0246" unicode="&#x246;" horiz-adv-x="433" 
d="M427 616h-36l-83 -229h61l-11 -73h-76l-87 -241h173l-12 -73h-188l-25 -70l-39 12l21 58h-86l97 689h238l22 60l39 -12l-17 -48h30zM265 387l83 229h-132l-32 -229h81zM151 73l88 241h-65l-35 -241h12z" />
    <glyph glyph-name="uni1EBC" unicode="&#x1ebc;" horiz-adv-x="433" 
d="M448 689l-21 -73h-211l-32 -229h185l-11 -73h-184l-35 -241h229l-12 -73h-317l97 689h312zM331.5 790.5q-13.5 7.5 -28.5 20.5q-12 10 -20 15t-17 5q-12 0 -23 -11t-26 -33l-45 27q45 84 97 84q18 0 30.5 -7t28.5 -21q11 -10 19 -15t17 -5q12 0 22.5 10t25.5 33l46 -27
q-42 -83 -96 -83q-17 0 -30.5 7.5z" />
    <glyph glyph-name="uni01B7" unicode="&#x1b7;" horiz-adv-x="423" 
d="M420 615l-200 -219q168 -9 168 -164q0 -71 -31 -126.5t-84 -86.5t-119 -31q-61 0 -102 23t-68 69l57 45q24 -34 49.5 -48t64.5 -14q63 0 101 45.5t38 121.5q0 54 -25.5 76.5t-79.5 22.5h-76l1 1l9 65l194 219h-233l11 75h336z" />
    <glyph glyph-name="uni01EE" unicode="&#x1ee;" horiz-adv-x="423" 
d="M420 615l-200 -219q168 -9 168 -164q0 -71 -31 -126.5t-84 -86.5t-119 -31q-61 0 -102 23t-68 69l57 45q24 -34 49.5 -48t64.5 -14q63 0 101 45.5t38 121.5q0 54 -25.5 76.5t-79.5 22.5h-76l1 1l9 65l194 219h-233l11 75h336zM393 907l36 -40l-129 -113h-55l-96 117
l37 36l94 -81z" />
    <glyph glyph-name="uni01B8" unicode="&#x1b8;" horiz-adv-x="424" 
d="M434 614h-244l144 -220l-9 -65h-72q-69 0 -106 -43t-37 -118q0 -51 23 -78t69 -27q41 0 74 15.5t65 47.5l47 -50q-39 -44 -85 -66t-105 -22q-84 0 -132.5 48.5t-48.5 130.5q0 68 28.5 120t79 80.5t115.5 28.5h8l-148 219l11 74h335z" />
    <glyph glyph-name="F" unicode="F" horiz-adv-x="396" 
d="M441 689l-21 -73h-204l-34 -239h179l-11 -72h-178l-43 -305h-90l97 689h305z" />
    <glyph glyph-name="uni1E1E" unicode="&#x1e1e;" horiz-adv-x="396" 
d="M441 689l-21 -73h-204l-34 -239h179l-11 -72h-178l-43 -305h-90l97 689h305zM266 797.5q-14 14.5 -14 38.5q0 30 18.5 48.5t45.5 18.5q25 0 39 -14.5t14 -38.5q0 -30 -18.5 -48.5t-45.5 -18.5q-25 0 -39 14.5z" />
    <glyph glyph-name="uni0191" unicode="&#x191;" horiz-adv-x="396" 
d="M216 616l-34 -239h179l-11 -72h-178l-43 -305l-11 -71q-10 -69 -49 -105t-96 -36q-34 0 -56.5 10.5t-42.5 28.5l38 54q16 -11 27.5 -15.5t27.5 -4.5q25 0 42 18t21 50l9 71l97 689h305l-21 -73h-204z" />
    <glyph glyph-name="G" unicode="G" horiz-adv-x="527" 
d="M456.5 680.5q39.5 -19.5 71.5 -57.5l-57 -49q-26 28 -50.5 40t-59.5 12q-74 0 -124 -60.5t-73.5 -153t-23.5 -190.5q0 -159 108 -159q55 0 110 32l29 212h-92l2 74h190l-46 -328q-102 -65 -200 -65q-94 0 -144 61.5t-50 180.5q0 115 35.5 223t107 177.5t174.5 69.5
q53 0 92.5 -19.5z" />
    <glyph glyph-name="uni01F4" unicode="&#x1f4;" horiz-adv-x="527" 
d="M456.5 680.5q39.5 -19.5 71.5 -57.5l-57 -49q-26 28 -50.5 40t-59.5 12q-74 0 -124 -60.5t-73.5 -153t-23.5 -190.5q0 -159 108 -159q55 0 110 32l29 212h-92l2 74h190l-46 -328q-102 -65 -200 -65q-94 0 -144 61.5t-50 180.5q0 115 35.5 223t107 177.5t174.5 69.5
q53 0 92.5 -19.5zM447 902l37 -71l-187 -76l-23 45z" />
    <glyph glyph-name="uni0194" unicode="&#x194;" horiz-adv-x="467" 
d="M257 67q15 -50 22 -84t7 -68q0 -60 -31.5 -93.5t-85.5 -33.5q-44 0 -67 24.5t-23 64.5q0 38 18 80.5t60 110.5l-89 621h92l56 -557l209 557h94zM199 10q-44 -80 -44 -125q0 -12 5.5 -19.5t15.5 -7.5q34 0 34 56q0 43 -11 96z" />
    <glyph glyph-name="Gbreve" unicode="&#x11e;" horiz-adv-x="527" 
d="M456.5 680.5q39.5 -19.5 71.5 -57.5l-57 -49q-26 28 -50.5 40t-59.5 12q-74 0 -124 -60.5t-73.5 -153t-23.5 -190.5q0 -159 108 -159q55 0 110 32l29 212h-92l2 74h190l-46 -328q-102 -65 -200 -65q-94 0 -144 61.5t-50 180.5q0 115 35.5 223t107 177.5t174.5 69.5
q53 0 92.5 -19.5zM283 793q-29 34 -26 89l53 8q4 -32 18 -48t42 -16q57 0 84 68l53 -18q-13 -54 -50 -85.5t-90 -31.5q-55 0 -84 34z" />
    <glyph glyph-name="Gcaron" unicode="&#x1e6;" horiz-adv-x="527" 
d="M456.5 680.5q39.5 -19.5 71.5 -57.5l-57 -49q-26 28 -50.5 40t-59.5 12q-74 0 -124 -60.5t-73.5 -153t-23.5 -190.5q0 -159 108 -159q55 0 110 32l29 212h-92l2 74h190l-46 -328q-102 -65 -200 -65q-94 0 -144 61.5t-50 180.5q0 115 35.5 223t107 177.5t174.5 69.5
q53 0 92.5 -19.5zM490 907l36 -40l-129 -113h-55l-96 117l37 36l94 -81z" />
    <glyph glyph-name="Gcircumflex" unicode="&#x11c;" horiz-adv-x="527" 
d="M456.5 680.5q39.5 -19.5 71.5 -57.5l-57 -49q-26 28 -50.5 40t-59.5 12q-74 0 -124 -60.5t-73.5 -153t-23.5 -190.5q0 -159 108 -159q55 0 110 32l29 212h-92l2 74h190l-46 -328q-102 -65 -200 -65q-94 0 -144 61.5t-50 180.5q0 115 35.5 223t107 177.5t174.5 69.5
q53 0 92.5 -19.5zM265 759l-36 40l129 113h55l96 -117l-37 -36l-94 81z" />
    <glyph glyph-name="Gcommaaccent" unicode="&#x122;" horiz-adv-x="527" 
d="M456.5 680.5q39.5 -19.5 71.5 -57.5l-57 -49q-26 28 -50.5 40t-59.5 12q-74 0 -124 -60.5t-73.5 -153t-23.5 -190.5q0 -159 108 -159q55 0 110 32l29 212h-92l2 74h190l-46 -328q-102 -65 -200 -65q-94 0 -144 61.5t-50 180.5q0 115 35.5 223t107 177.5t174.5 69.5
q53 0 92.5 -19.5zM257.5 -92.5q12.5 -14.5 12.5 -33.5q0 -18 -6.5 -34t-26.5 -52l-46 -82h-48l42 118q-9 7 -14 17.5t-5 22.5q0 25 16.5 41.5t39.5 16.5t35.5 -14.5z" />
    <glyph glyph-name="Gdotaccent" unicode="&#x120;" horiz-adv-x="527" 
d="M456.5 680.5q39.5 -19.5 71.5 -57.5l-57 -49q-26 28 -50.5 40t-59.5 12q-74 0 -124 -60.5t-73.5 -153t-23.5 -190.5q0 -159 108 -159q55 0 110 32l29 212h-92l2 74h190l-46 -328q-102 -65 -200 -65q-94 0 -144 61.5t-50 180.5q0 115 35.5 223t107 177.5t174.5 69.5
q53 0 92.5 -19.5zM337 797.5q-14 14.5 -14 38.5q0 30 18.5 48.5t45.5 18.5q25 0 39 -14.5t14 -38.5q0 -30 -18.5 -48.5t-45.5 -18.5q-25 0 -39 14.5z" />
    <glyph glyph-name="uni0193" unicode="&#x193;" horiz-adv-x="484" 
d="M690 792l-37 -51q-14 10 -26.5 14.5t-29.5 4.5q-24 0 -39.5 -17.5t-19.5 -50.5l-9 -69l-51 -45q-32 26 -57 37t-59 11q-74 0 -124 -60.5t-73.5 -153t-23.5 -190.5q0 -159 108 -159q55 0 110 32l29 212h-92l2 74h190l-46 -328q-102 -65 -200 -65q-94 0 -144 61.5
t-50 180.5q0 115 34.5 223t104.5 177.5t172 69.5q54 0 93 -25l6 36q9 55 43.5 87.5t91.5 32.5q56 0 97 -39z" />
    <glyph glyph-name="uni0241" unicode="&#x241;" horiz-adv-x="390" 
d="M132 318l55 19q63 21 94.5 65.5t31.5 117.5q0 51 -21 78.5t-62 27.5q-32 0 -64 -16.5t-68 -47.5l-40 55q85 83 179 83q79 0 125 -48t46 -129q0 -98 -43.5 -155.5t-126.5 -85.5l-23 -8l-38 -274h-90z" />
    <glyph glyph-name="uni01E4" unicode="&#x1e4;" horiz-adv-x="529" 
d="M468 246h58l-10 -74h-58l-17 -119q-102 -65 -200 -65q-94 0 -144 61.5t-50 180.5q0 115 35.5 223t107 177.5t174.5 69.5q53 0 92.5 -19.5t71.5 -57.5l-57 -49q-26 28 -50.5 40t-59.5 12q-74 0 -124 -60.5t-73.5 -153t-23.5 -190.5q0 -159 108 -159q57 0 110 35l10 74h-89
l10 74h90l8 61h-92l2 74h190z" />
    <glyph glyph-name="uni021C" unicode="&#x21c;" horiz-adv-x="406" 
d="M360.5 658.5q41.5 -41.5 41.5 -109.5q0 -76 -38.5 -124t-112.5 -67q113 -21 113 -127q0 -131 -106.5 -214t-272.5 -118l3 74q132 37 206 96.5t74 158.5q0 45 -24.5 67t-74.5 22h-56l23 75h45q53 0 89.5 39t36.5 104q0 44 -16 67.5t-55 23.5q-34 0 -67 -16t-72 -48l-37 55
q90 83 187 83q72 0 113.5 -41.5z" />
    <glyph glyph-name="H" unicode="H" horiz-adv-x="552" 
d="M129 0h-90l97 689h90l-41 -290h220l41 290h90l-97 -689h-90l46 324h-220z" />
    <glyph glyph-name="Hbar" unicode="&#x126;" horiz-adv-x="552" 
d="M572 575l-10 -66h-51l-72 -509h-90l46 324h-220l-46 -324h-90l72 509h-53l9 66h53l16 114h90l-16 -114h220l16 114h90l-16 -114h52zM405 399l16 110h-220l-16 -110h220z" />
    <glyph glyph-name="uni021E" unicode="&#x21e;" horiz-adv-x="552" 
d="M129 0h-90l97 689h90l-41 -290h220l41 290h90l-97 -689h-90l46 324h-220zM466 907l36 -40l-129 -113h-55l-96 117l37 36l94 -81z" />
    <glyph glyph-name="Hcircumflex" unicode="&#x124;" horiz-adv-x="552" 
d="M129 0h-90l97 689h90l-41 -290h220l41 290h90l-97 -689h-90l46 324h-220zM241 759l-36 40l129 113h55l96 -117l-37 -36l-94 81z" />
    <glyph glyph-name="uni1E24" unicode="&#x1e24;" horiz-adv-x="552" 
d="M129 0h-90l97 689h90l-41 -290h220l41 290h90l-97 -689h-90l46 324h-220zM268 -90.5q14 -14.5 14 -38.5q0 -30 -18.5 -48.5t-45.5 -18.5q-25 0 -39 14.5t-14 38.5q0 30 18.5 48.5t45.5 18.5q25 0 39 -14.5z" />
    <glyph glyph-name="uniA7AA" unicode="&#xa7aa;" horiz-adv-x="629" 
d="M613 689l-97 -689h-90l46 324h-220l-46 -324h-90l87 617h-22q-54 0 -54 -63q0 -32 12 -65l-65 -26q-24 42 -24 93q0 60 34.5 96.5t98.5 36.5h120l-41 -290h220l41 290h90z" />
    <glyph glyph-name="uniA78D" unicode="&#xa78d;" horiz-adv-x="505" 
d="M489 689l-97 -689h-90l39 278q-35 -31 -68.5 -45.5t-74.5 -14.5q-67 0 -106 43t-39 112q0 22 2 33l40 283h88l-39 -282q-2 -20 -2 -27q0 -42 21 -63.5t61 -21.5q69 0 128 63l47 331h90z" />
    <glyph glyph-name="uni01F6" unicode="&#x1f6;" horiz-adv-x="788" 
d="M405.5 28q-35.5 40 -35.5 97q0 16 1 23l24 176h-220l-46 -324h-90l97 689h90l-41 -290h220l41 290h90l-75 -542q-2 -16 -2 -22q0 -31 14 -48.5t42 -17.5q85 0 114.5 113t29.5 251q0 68 -4 104h83q6 -49 6 -103q0 -193 -54.5 -314.5t-179.5 -121.5q-69 0 -104.5 40z" />
    <glyph glyph-name="I" unicode="I" horiz-adv-x="242" 
d="M226 689l-97 -689h-90l97 689h90z" />
    <glyph glyph-name="IJ" unicode="&#x132;" horiz-adv-x="498" 
d="M226 689l-97 -689h-90l97 689h90zM401 88q-10 -68 -34 -111t-60 -68t-90 -45l-20 63q42 21 64 42.5t33 50t18 77.5l84 592h90z" />
    <glyph glyph-name="Iacute" unicode="&#xcd;" horiz-adv-x="242" 
d="M226 689l-97 -689h-90l97 689h90zM268 902l37 -71l-187 -76l-23 45z" />
    <glyph glyph-name="Ibreve" unicode="&#x12c;" horiz-adv-x="242" 
d="M226 689l-97 -689h-90l97 689h90zM104 793q-29 34 -26 89l53 8q4 -32 18 -48t42 -16q57 0 84 68l53 -18q-13 -54 -50 -85.5t-90 -31.5q-55 0 -84 34z" />
    <glyph glyph-name="uni01CF" unicode="&#x1cf;" horiz-adv-x="242" 
d="M226 689l-97 -689h-90l97 689h90zM311 907l36 -40l-129 -113h-55l-96 117l37 36l94 -81z" />
    <glyph glyph-name="Icircumflex" unicode="&#xce;" horiz-adv-x="242" 
d="M226 689l-97 -689h-90l97 689h90zM86 759l-36 40l129 113h55l96 -117l-37 -36l-94 81z" />
    <glyph glyph-name="uni0208" unicode="&#x208;" horiz-adv-x="242" 
d="M226 689l-97 -689h-90l97 689h90zM111 956l51 -175l-57 -20l-72 162zM238 955l43 -169l-57 -20l-65 157z" />
    <glyph glyph-name="Idieresis" unicode="&#xcf;" horiz-adv-x="242" 
d="M226 689l-97 -689h-90l97 689h90zM75 795.5q-13 13.5 -13 33.5q0 26 17.5 43.5t40.5 17.5q21 0 34 -13.5t13 -33.5q0 -27 -17 -44t-41 -17q-21 0 -34 13.5zM249 795.5q-13 13.5 -13 33.5q0 26 17.5 43.5t40.5 17.5q21 0 34 -13.5t13 -33.5q0 -26 -17 -43.5t-41 -17.5
q-21 0 -34 13.5z" />
    <glyph glyph-name="uni1E2E" unicode="&#x1e2e;" horiz-adv-x="242" 
d="M226 689l-97 -689h-90l97 689h90zM287 1010l48 -47l-134 -131l-33 29zM68 761.5q-13 13.5 -13 33.5q0 26 17.5 43.5t40.5 17.5q21 0 34 -13.5t13 -33.5q0 -27 -17 -44t-41 -17q-21 0 -34 13.5zM242 761.5q-13 13.5 -13 33.5q0 26 17.5 43.5t40.5 17.5q21 0 34 -13.5
t13 -33.5q0 -26 -17 -43.5t-41 -17.5q-21 0 -34 13.5z" />
    <glyph glyph-name="Idotaccent" unicode="&#x130;" horiz-adv-x="242" 
d="M226 689l-97 -689h-90l97 689h90zM158 797.5q-14 14.5 -14 38.5q0 30 18.5 48.5t45.5 18.5q25 0 39 -14.5t14 -38.5q0 -30 -18.5 -48.5t-45.5 -18.5q-25 0 -39 14.5z" />
    <glyph glyph-name="uni1ECA" unicode="&#x1eca;" horiz-adv-x="242" 
d="M226 689l-97 -689h-90l97 689h90zM109 -90.5q14 -14.5 14 -38.5q0 -30 -18.5 -48.5t-45.5 -18.5q-25 0 -39 14.5t-14 38.5q0 30 18.5 48.5t45.5 18.5q25 0 39 -14.5z" />
    <glyph glyph-name="Igrave" unicode="&#xcc;" horiz-adv-x="242" 
d="M226 689l-97 -689h-90l97 689h90zM151 901l150 -101l-29 -44l-165 76z" />
    <glyph glyph-name="uni1EC8" unicode="&#x1ec8;" horiz-adv-x="242" 
d="M226 689l-97 -689h-90l97 689h90zM172 847q32 5 48.5 16t16.5 36q0 29 -28 29q-13 0 -23 -3t-24 -10l-16 51q18 11 35.5 16t40.5 5q39 0 62 -23.5t23 -60.5q0 -41 -20 -62.5t-58 -28.5l-7 -48h-60z" />
    <glyph glyph-name="uni020A" unicode="&#x20a;" horiz-adv-x="242" 
d="M226 689l-97 -689h-90l97 689h90zM67 792q17 62 55 95t89 33q53 0 82 -35.5t27 -97.5l-54 -8q-6 74 -61 74q-58 0 -85 -78z" />
    <glyph glyph-name="Imacron" unicode="&#x12a;" horiz-adv-x="242" 
d="M226 689l-97 -689h-90l97 689h90zM308 794h-226l10 66h226z" />
    <glyph glyph-name="Iogonek" unicode="&#x12e;" horiz-adv-x="242" 
d="M226 689l-97 -689h-20q-70 -36 -93.5 -65.5t-23.5 -61.5q0 -36 39 -36q21 0 49 5l-14 -65q-25 -6 -52 -6q-43 0 -68.5 25.5t-25.5 67.5q0 44 27.5 81t93.5 67l95 677h90z" />
    <glyph glyph-name="uni0196" unicode="&#x196;" horiz-adv-x="296" 
d="M262 24q-45 -36 -101 -36q-54 0 -84.5 30t-30.5 85q0 8 2 30l9 67l70 489h89l-69 -489l-10 -77q-1 -6 -1 -17q0 -45 38 -45q17 0 29 4t30 15z" />
    <glyph glyph-name="uni0197" unicode="&#x197;" horiz-adv-x="258" 
d="M266 394l-10 -70h-71l-46 -324h-90l46 324h-76l10 70h75l42 295h90l-42 -295h72z" />
    <glyph glyph-name="Itilde" unicode="&#x128;" horiz-adv-x="242" 
d="M226 689l-97 -689h-90l97 689h90zM217.5 790.5q-13.5 7.5 -28.5 20.5q-12 10 -20 15t-17 5q-12 0 -23 -11t-26 -33l-45 27q45 84 97 84q18 0 30.5 -7t28.5 -21q11 -10 19 -15t17 -5q12 0 22.5 10t25.5 33l46 -27q-42 -83 -96 -83q-17 0 -30.5 7.5z" />
    <glyph glyph-name="J" unicode="J" horiz-adv-x="256" 
d="M159 88q-10 -68 -34 -111t-60 -68t-90 -45l-20 63q42 21 64 42.5t33 50t18 77.5l84 592h90z" />
    <glyph glyph-name="Jcircumflex" unicode="&#x134;" horiz-adv-x="256" 
d="M159 88q-10 -68 -34 -111t-60 -68t-90 -45l-20 63q42 21 64 42.5t33 50t18 77.5l84 592h90zM104 759l-36 40l129 113h55l96 -117l-37 -36l-94 81z" />
    <glyph glyph-name="uniA7B2" unicode="&#xa7b2;" horiz-adv-x="279" 
d="M169 -11q38 -11 83 -39l-28 -47q-27 16 -64 30q-30 -145 -166 -145q-50 0 -78 26.5t-28 71.5q0 57 39 91t98 34q38 0 55 -4l96 682h90zM47.5 -125q17.5 26 24.5 77q-18 3 -49 3q-32 0 -49.5 -18t-17.5 -46q0 -42 39 -42q35 0 52.5 26z" />
    <glyph glyph-name="uni0248" unicode="&#x248;" horiz-adv-x="268" 
d="M264 305h-71l-31 -217q-10 -68 -34 -111t-60 -68t-90 -45l-20 63q42 21 64 42.5t33 50t18 77.5l30 208h-76l10 74h76l44 310h90l-44 -310h71z" />
    <glyph glyph-name="K" unicode="K" horiz-adv-x="494" 
d="M39 0l97 689h90l-97 -689h-90zM352 0l-167 368l252 321h98l-254 -324l171 -365h-100z" />
    <glyph glyph-name="uni01E8" unicode="&#x1e8;" horiz-adv-x="494" 
d="M39 0l97 689h90l-97 -689h-90zM352 0l-167 368l252 321h98l-254 -324l171 -365h-100zM456 907l36 -40l-129 -113h-55l-96 117l37 36l94 -81z" />
    <glyph glyph-name="Kcommaaccent" unicode="&#x136;" horiz-adv-x="494" 
d="M39 0l97 689h90l-97 -689h-90zM352 0l-167 368l252 321h98l-254 -324l171 -365h-100zM243.5 -92.5q12.5 -14.5 12.5 -33.5q0 -18 -6.5 -34t-26.5 -52l-46 -82h-48l42 118q-9 7 -14 17.5t-5 22.5q0 25 16.5 41.5t39.5 16.5t35.5 -14.5z" />
    <glyph glyph-name="uni0198" unicode="&#x198;" horiz-adv-x="521" 
d="M185 368l182 258q28 39 55 56.5t66 17.5q28 0 47.5 -10t36.5 -29l-47 -48q-9 8 -17 11t-18 3q-16 0 -28.5 -10t-30.5 -37l-150 -215l171 -365h-100zM39 0l97 689h90l-97 -689h-90z" />
    <glyph glyph-name="L" unicode="L" horiz-adv-x="400" 
d="M226 689l-86 -609h228l-22 -80h-307l97 689h90z" />
    <glyph glyph-name="uni01C7" unicode="&#x1c7;" horiz-adv-x="637" 
d="M226 689l-86 -609h228l-22 -80h-307l97 689h90zM540 88q-10 -68 -34 -111t-60 -68t-90 -45l-20 63q42 21 64 42.5t33 50t18 77.5l84 592h90z" />
    <glyph glyph-name="Lacute" unicode="&#x139;" horiz-adv-x="400" 
d="M226 689l-86 -609h228l-22 -80h-307l97 689h90zM268 902l37 -71l-187 -76l-23 45z" />
    <glyph glyph-name="uni023D" unicode="&#x23d;" horiz-adv-x="405" 
d="M145 80h228l-22 -80h-307l46 326h-71l10 74h71l41 289h90l-41 -289h76l-10 -74h-76z" />
    <glyph glyph-name="uniA7AD" unicode="&#xa7ad;" horiz-adv-x="451" 
d="M419 80l-22 -80h-307l37 260q-53 3 -80 29.5t-27 72.5q0 52 30 83t77 31q19 0 30 -4l30 217h90l-51 -364q28 1 56 6t34 6l5 -60q-51 -12 -104 -15l-26 -182h228zM136 325l12 89q-9 3 -20 3q-19 0 -30 -13.5t-11 -38.5q0 -40 49 -40z" />
    <glyph glyph-name="Lcaron" unicode="&#x13d;" horiz-adv-x="400" 
d="M226 689l-86 -609h228l-22 -80h-307l97 689h90zM284 698l72 -10l-64 -181l-47 8z" />
    <glyph glyph-name="uni1E3C" unicode="&#x1e3c;" horiz-adv-x="400" 
d="M226 689l-86 -609h228l-22 -80h-307l97 689h90zM65 -221l-36 40l129 113h55l96 -117l-39 -36l-91 81z" />
    <glyph glyph-name="Lcommaaccent" unicode="&#x13b;" horiz-adv-x="400" 
d="M226 689l-86 -609h228l-22 -80h-307l97 689h90zM214.5 -92.5q12.5 -14.5 12.5 -33.5q0 -18 -6.5 -34t-26.5 -52l-46 -82h-48l42 118q-9 7 -14 17.5t-5 22.5q0 25 16.5 41.5t39.5 16.5t35.5 -14.5z" />
    <glyph glyph-name="Ldot" unicode="&#x13f;" horiz-adv-x="400" 
d="M226 689l-86 -609h228l-22 -80h-307l97 689h90zM289 340.5q-14 14.5 -14 38.5q0 30 18.5 48.5t45.5 18.5q25 0 39 -14.5t14 -38.5q0 -30 -18.5 -48.5t-45.5 -18.5q-25 0 -39 14.5z" />
    <glyph glyph-name="uni1E36" unicode="&#x1e36;" horiz-adv-x="400" 
d="M226 689l-86 -609h228l-22 -80h-307l97 689h90zM218 -90.5q14 -14.5 14 -38.5q0 -30 -18.5 -48.5t-45.5 -18.5q-25 0 -39 14.5t-14 38.5q0 30 18.5 48.5t45.5 18.5q25 0 39 -14.5z" />
    <glyph glyph-name="uni01C8" unicode="&#x1c8;" horiz-adv-x="619" 
d="M226 689l-86 -609h228l-22 -80h-307l97 689h90zM315 -146q35 17 55 34.5t34.5 50t22.5 89.5l70 499h87l-72 -509q-10 -72 -32 -113.5t-54 -65.5t-89 -51zM518 671.5q-14 14.5 -14 38.5q0 30 18.5 48.5t45.5 18.5q25 0 39 -14.5t14 -38.5q0 -30 -18.5 -48.5t-45.5 -18.5
q-25 0 -39 14.5z" />
    <glyph glyph-name="Lslash" unicode="&#x141;" horiz-adv-x="418" 
d="M158 80h228l-22 -80h-307l36 257l-45 -33l-30 53l86 58l50 354h90l-41 -288l136 91l30 -53l-177 -117z" />
    <glyph glyph-name="M" unicode="M" horiz-adv-x="655" 
d="M563 0h-87l24 306q10 131 29 288l-182 -516h-90l-46 516q-18 -133 -47 -290l-58 -304h-88l143 689h114l42 -504l173 504h123z" />
    <glyph glyph-name="uni1E3E" unicode="&#x1e3e;" horiz-adv-x="655" 
d="M563 0h-87l24 306q10 131 29 288l-182 -516h-90l-46 516q-18 -133 -47 -290l-58 -304h-88l143 689h114l42 -504l173 504h123zM469 902l37 -71l-187 -76l-23 45z" />
    <glyph glyph-name="uni1E40" unicode="&#x1e40;" horiz-adv-x="655" 
d="M563 0h-87l24 306q10 131 29 288l-182 -516h-90l-46 516q-18 -133 -47 -290l-58 -304h-88l143 689h114l42 -504l173 504h123zM359 797.5q-14 14.5 -14 38.5q0 30 18.5 48.5t45.5 18.5q25 0 39 -14.5t14 -38.5q0 -30 -18.5 -48.5t-45.5 -18.5q-25 0 -39 14.5z" />
    <glyph glyph-name="uni019C" unicode="&#x19c;" horiz-adv-x="755" 
d="M739 689l-97 -689h-78l3 70q-61 -82 -137 -82q-44 0 -72.5 25.5t-39.5 68.5q-64 -94 -148 -94q-58 0 -89 41t-31 101q0 11 2 31l75 528h90l-75 -532q-2 -18 -2 -24q0 -32 14 -51t40 -19q33 0 60 22.5t59 72.5l2 13l73 518h90l-73 -522q-2 -11 -2 -30q0 -35 13.5 -54.5
t39.5 -19.5q32 0 58.5 22t59.5 73l75 531h90z" />
    <glyph glyph-name="N" unicode="N" horiz-adv-x="553" 
d="M440 0h-118l-131 610q-3 -123 -25 -289l-44 -321h-83l97 689h118l132 -611q2 68 5.5 119.5t12.5 113.5l51 378h82z" />
    <glyph glyph-name="uni01CA" unicode="&#x1ca;" horiz-adv-x="809" 
d="M440 0h-118l-131 610q-3 -123 -25 -289l-44 -321h-83l97 689h118l132 -611q2 68 5.5 119.5t12.5 113.5l51 378h82zM712 88q-10 -68 -34 -111t-60 -68t-90 -45l-20 63q42 21 64 42.5t33 50t18 77.5l84 592h90z" />
    <glyph glyph-name="Nacute" unicode="&#x143;" horiz-adv-x="553" 
d="M440 0h-118l-131 610q-3 -123 -25 -289l-44 -321h-83l97 689h118l132 -611q2 68 5.5 119.5t12.5 113.5l51 378h82zM431 902l37 -71l-187 -76l-23 45z" />
    <glyph glyph-name="Ncaron" unicode="&#x147;" horiz-adv-x="553" 
d="M440 0h-118l-131 610q-3 -123 -25 -289l-44 -321h-83l97 689h118l132 -611q2 68 5.5 119.5t12.5 113.5l51 378h82zM474 907l36 -40l-129 -113h-55l-96 117l37 36l94 -81z" />
    <glyph glyph-name="uni1E4A" unicode="&#x1e4a;" horiz-adv-x="553" 
d="M440 0h-118l-131 610q-3 -123 -25 -289l-44 -321h-83l97 689h118l132 -611q2 68 5.5 119.5t12.5 113.5l51 378h82zM112 -221l-36 40l129 113h55l96 -117l-39 -36l-91 81z" />
    <glyph glyph-name="Ncommaaccent" unicode="&#x145;" horiz-adv-x="553" 
d="M440 0h-118l-131 610q-3 -123 -25 -289l-44 -321h-83l97 689h118l132 -611q2 68 5.5 119.5t12.5 113.5l51 378h82zM261.5 -92.5q12.5 -14.5 12.5 -33.5q0 -18 -6.5 -34t-26.5 -52l-46 -82h-48l42 118q-9 7 -14 17.5t-5 22.5q0 25 16.5 41.5t39.5 16.5t35.5 -14.5z" />
    <glyph glyph-name="uni1E44" unicode="&#x1e44;" horiz-adv-x="553" 
d="M440 0h-118l-131 610q-3 -123 -25 -289l-44 -321h-83l97 689h118l132 -611q2 68 5.5 119.5t12.5 113.5l51 378h82zM321 797.5q-14 14.5 -14 38.5q0 30 18.5 48.5t45.5 18.5q25 0 39 -14.5t14 -38.5q0 -30 -18.5 -48.5t-45.5 -18.5q-25 0 -39 14.5z" />
    <glyph glyph-name="uni1E46" unicode="&#x1e46;" horiz-adv-x="553" 
d="M440 0h-118l-131 610q-3 -123 -25 -289l-44 -321h-83l97 689h118l132 -611q2 68 5.5 119.5t12.5 113.5l51 378h82zM265 -90.5q14 -14.5 14 -38.5q0 -30 -18.5 -48.5t-45.5 -18.5q-25 0 -39 14.5t-14 38.5q0 30 18.5 48.5t45.5 18.5q25 0 39 -14.5z" />
    <glyph glyph-name="uni01F8" unicode="&#x1f8;" horiz-adv-x="553" 
d="M440 0h-118l-131 610q-3 -123 -25 -289l-44 -321h-83l97 689h118l132 -611q2 68 5.5 119.5t12.5 113.5l51 378h82zM314 901l150 -101l-29 -44l-165 76z" />
    <glyph glyph-name="Eng" unicode="&#x14a;" horiz-adv-x="553" 
d="M537 689l-97 -689l-11 -71q-10 -69 -49 -105t-96 -36q-34 0 -56.5 10.5t-42.5 28.5l38 54q16 -11 27.5 -15.5t27.5 -4.5q25 0 42 18t21 50l9 71h-28l-131 610q-3 -123 -25 -289l-44 -321h-83l97 689h118l132 -611q2 68 5.5 119.5t12.5 113.5l51 378h82z" />
    <glyph glyph-name="uni019D" unicode="&#x19d;" horiz-adv-x="553" 
d="M537 689l-97 -689h-118l-131 610q-3 -123 -25 -289l-44 -321l-12 -77q-10 -65 -48 -100t-93 -35q-31 0 -53.5 10.5t-41.5 28.5l38 52q16 -11 27.5 -15.5t27.5 -4.5q25 0 42 18.5t21 51.5l9 71l97 689h118l132 -611q2 68 5.5 119.5t12.5 113.5l51 378h82z" />
    <glyph glyph-name="uni01CB" unicode="&#x1cb;" horiz-adv-x="787" 
d="M440 0h-118l-131 610q-3 -123 -25 -289l-44 -321h-83l97 689h118l132 -611q2 68 5.5 119.5t12.5 113.5l51 378h82zM483 -146q35 17 55 34.5t34.5 50t22.5 89.5l70 499h87l-72 -509q-10 -72 -32 -113.5t-54 -65.5t-89 -51zM686 671.5q-14 14.5 -14 38.5q0 30 18.5 48.5
t45.5 18.5q25 0 39 -14.5t14 -38.5q0 -30 -18.5 -48.5t-45.5 -18.5q-25 0 -39 14.5z" />
    <glyph glyph-name="uni0220" unicode="&#x220;" horiz-adv-x="544" 
d="M475.5 658q36.5 -42 36.5 -105q0 -10 -2 -30l-101 -725h-89l100 725q2 20 2 28q0 75 -67 75q-38 0 -72 -21.5t-77 -63.5l-77 -541h-90l97 689h78l-3 -69q38 38 77.5 59t83.5 21q67 0 103.5 -42z" />
    <glyph glyph-name="Ntilde" unicode="&#xd1;" horiz-adv-x="553" 
d="M440 0h-118l-131 610q-3 -123 -25 -289l-44 -321h-83l97 689h118l132 -611q2 68 5.5 119.5t12.5 113.5l51 378h82zM380.5 790.5q-13.5 7.5 -28.5 20.5q-12 10 -20 15t-17 5q-12 0 -23 -11t-26 -33l-45 27q45 84 97 84q18 0 30.5 -7t28.5 -21q11 -10 19 -15t17 -5
q12 0 22.5 10t25.5 33l46 -27q-42 -83 -96 -83q-17 0 -30.5 7.5z" />
    <glyph glyph-name="O" unicode="O" horiz-adv-x="574" 
d="M496.5 635q51.5 -65 51.5 -185q0 -109 -31.5 -215t-100 -176.5t-173.5 -70.5q-91 0 -143 65t-52 183q0 107 32 213.5t100.5 178.5t173.5 72q91 0 142.5 -65zM227 562q-46 -64 -66 -154.5t-20 -174.5q0 -170 108 -170q75 0 121 64.5t65.5 155t19.5 175.5q0 87 -27 127.5
t-81 40.5q-74 0 -120 -64z" />
    <glyph glyph-name="uni0222" unicode="&#x222;" horiz-adv-x="537" 
d="M459 435.5q-25 -33.5 -69 -50.5q45 -20 70 -58.5t25 -92.5q0 -67 -31 -123t-88.5 -89.5t-134.5 -33.5q-93 0 -144.5 52.5t-51.5 134.5q0 74 39 129.5t106 81.5q-64 29 -64 109q0 22 2 34l22 160h91l-24 -161q-2 -11 -2 -31q0 -40 20 -59t63 -19q53 0 80 32t35 83l22 155
h91l-24 -165q-8 -55 -33 -88.5zM349.5 108.5q40.5 45.5 40.5 123.5q0 54 -27 83t-82 29q-70 0 -111 -45.5t-41 -122.5q0 -113 109 -113q71 0 111.5 45.5z" />
    <glyph glyph-name="Oacute" unicode="&#xd3;" horiz-adv-x="574" 
d="M496.5 635q51.5 -65 51.5 -185q0 -109 -31.5 -215t-100 -176.5t-173.5 -70.5q-91 0 -143 65t-52 183q0 107 32 213.5t100.5 178.5t173.5 72q91 0 142.5 -65zM227 562q-46 -64 -66 -154.5t-20 -174.5q0 -170 108 -170q75 0 121 64.5t65.5 155t19.5 175.5q0 87 -27 127.5
t-81 40.5q-74 0 -120 -64zM440 902l37 -71l-187 -76l-23 45z" />
    <glyph glyph-name="Obreve" unicode="&#x14e;" horiz-adv-x="574" 
d="M496.5 635q51.5 -65 51.5 -185q0 -109 -31.5 -215t-100 -176.5t-173.5 -70.5q-91 0 -143 65t-52 183q0 107 32 213.5t100.5 178.5t173.5 72q91 0 142.5 -65zM227 562q-46 -64 -66 -154.5t-20 -174.5q0 -170 108 -170q75 0 121 64.5t65.5 155t19.5 175.5q0 87 -27 127.5
t-81 40.5q-74 0 -120 -64zM276 793q-29 34 -26 89l53 8q4 -32 18 -48t42 -16q57 0 84 68l53 -18q-13 -54 -50 -85.5t-90 -31.5q-55 0 -84 34z" />
    <glyph glyph-name="uni01D1" unicode="&#x1d1;" horiz-adv-x="574" 
d="M496.5 635q51.5 -65 51.5 -185q0 -109 -31.5 -215t-100 -176.5t-173.5 -70.5q-91 0 -143 65t-52 183q0 107 32 213.5t100.5 178.5t173.5 72q91 0 142.5 -65zM227 562q-46 -64 -66 -154.5t-20 -174.5q0 -170 108 -170q75 0 121 64.5t65.5 155t19.5 175.5q0 87 -27 127.5
t-81 40.5q-74 0 -120 -64zM483 907l36 -40l-129 -113h-55l-96 117l37 36l94 -81z" />
    <glyph glyph-name="uni019F" unicode="&#x19f;" horiz-adv-x="574" 
d="M496.5 635q51.5 -65 51.5 -185q0 -109 -31.5 -215t-100 -176.5t-173.5 -70.5q-91 0 -143 65t-52 183q0 107 31 213.5t100 178.5t175 72q91 0 142.5 -65zM222.5 557.5q-47.5 -68.5 -69.5 -172.5h302q3 39 3 73q0 87 -27.5 127.5t-83.5 40.5q-77 0 -124.5 -68.5zM378 135.5
q48 72.5 67 181.5h-302q-5 -37 -5 -84q0 -170 111 -170q81 0 129 72.5z" />
    <glyph glyph-name="Ocircumflex" unicode="&#xd4;" horiz-adv-x="574" 
d="M496.5 635q51.5 -65 51.5 -185q0 -109 -31.5 -215t-100 -176.5t-173.5 -70.5q-91 0 -143 65t-52 183q0 107 32 213.5t100.5 178.5t173.5 72q91 0 142.5 -65zM227 562q-46 -64 -66 -154.5t-20 -174.5q0 -170 108 -170q75 0 121 64.5t65.5 155t19.5 175.5q0 87 -27 127.5
t-81 40.5q-74 0 -120 -64zM258 759l-36 40l129 113h55l96 -117l-37 -36l-94 81z" />
    <glyph glyph-name="uni1ED0" unicode="&#x1ed0;" horiz-adv-x="574" 
d="M568 1015l48 -47l-134 -131l-33 29zM253 717l-36 40l129 113h55l96 -117l-37 -36l-94 81zM496.5 635q51.5 -65 51.5 -185q0 -109 -31.5 -215t-100 -176.5t-173.5 -70.5q-91 0 -143 65t-52 183q0 107 32 213.5t100.5 178.5t173.5 72q91 0 142.5 -65zM227 562
q-46 -64 -66 -154.5t-20 -174.5q0 -170 108 -170q75 0 121 64.5t65.5 155t19.5 175.5q0 87 -27 127.5t-81 40.5q-74 0 -120 -64z" />
    <glyph glyph-name="uni1ED8" unicode="&#x1ed8;" horiz-adv-x="574" 
d="M496.5 635q51.5 -65 51.5 -185q0 -109 -31.5 -215t-100 -176.5t-173.5 -70.5q-91 0 -143 65t-52 183q0 107 32 213.5t100.5 178.5t173.5 72q91 0 142.5 -65zM227 562q-46 -64 -66 -154.5t-20 -174.5q0 -170 108 -170q75 0 121 64.5t65.5 155t19.5 175.5q0 87 -27 127.5
t-81 40.5q-74 0 -120 -64zM258 759l-36 40l129 113h55l96 -117l-37 -36l-94 81zM269 -90.5q14 -14.5 14 -38.5q0 -30 -18.5 -48.5t-45.5 -18.5q-25 0 -39 14.5t-14 38.5q0 30 18.5 48.5t45.5 18.5q25 0 39 -14.5z" />
    <glyph glyph-name="uni1ED2" unicode="&#x1ed2;" horiz-adv-x="574" 
d="M218 1013l78 -150l-38 -26l-99 134zM251 717l-36 40l129 113h55l96 -117l-37 -36l-94 81zM496.5 635q51.5 -65 51.5 -185q0 -109 -31.5 -215t-100 -176.5t-173.5 -70.5q-91 0 -143 65t-52 183q0 107 32 213.5t100.5 178.5t173.5 72q91 0 142.5 -65zM227 562
q-46 -64 -66 -154.5t-20 -174.5q0 -170 108 -170q75 0 121 64.5t65.5 155t19.5 175.5q0 87 -27 127.5t-81 40.5q-74 0 -120 -64z" />
    <glyph glyph-name="uni1ED4" unicode="&#x1ed4;" horiz-adv-x="574" 
d="M496.5 635q51.5 -65 51.5 -185q0 -109 -31.5 -215t-100 -176.5t-173.5 -70.5q-91 0 -143 65t-52 183q0 107 32 213.5t100.5 178.5t173.5 72q91 0 142.5 -65zM227 562q-46 -64 -66 -154.5t-20 -174.5q0 -170 108 -170q75 0 121 64.5t65.5 155t19.5 175.5q0 87 -27 127.5
t-81 40.5q-74 0 -120 -64zM252 717l-36 40l129 113h55l96 -117l-37 -36l-94 81zM474 898q32 5 48.5 16t16.5 36q0 29 -28 29q-13 0 -23 -3t-24 -10l-16 51q18 11 35.5 16t40.5 5q39 0 62 -23.5t23 -60.5q0 -41 -20 -62.5t-58 -28.5l-7 -48h-60z" />
    <glyph glyph-name="uni1ED6" unicode="&#x1ed6;" horiz-adv-x="574" 
d="M404.5 908.5q-13.5 7.5 -28.5 20.5q-12 10 -20 15t-17 5q-12 0 -23 -11t-26 -33l-45 27q46 84 97 84q18 0 30.5 -7t28.5 -21q11 -10 19 -15t17 -5q12 0 22.5 10t25.5 33l46 -27q-42 -83 -96 -83q-17 0 -30.5 7.5zM254 717l-36 40l129 113h55l96 -117l-37 -36l-94 81z
M496.5 635q51.5 -65 51.5 -185q0 -109 -31.5 -215t-100 -176.5t-173.5 -70.5q-91 0 -143 65t-52 183q0 107 32 213.5t100.5 178.5t173.5 72q91 0 142.5 -65zM227 562q-46 -64 -66 -154.5t-20 -174.5q0 -170 108 -170q75 0 121 64.5t65.5 155t19.5 175.5q0 87 -27 127.5
t-81 40.5q-74 0 -120 -64z" />
    <glyph glyph-name="uni020C" unicode="&#x20c;" horiz-adv-x="574" 
d="M496.5 635q51.5 -65 51.5 -185q0 -109 -31.5 -215t-100 -176.5t-173.5 -70.5q-91 0 -143 65t-52 183q0 107 32 213.5t100.5 178.5t173.5 72q91 0 142.5 -65zM227 562q-46 -64 -66 -154.5t-20 -174.5q0 -170 108 -170q75 0 121 64.5t65.5 155t19.5 175.5q0 87 -27 127.5
t-81 40.5q-74 0 -120 -64zM283 956l51 -175l-57 -20l-72 162zM410 955l43 -169l-57 -20l-65 157z" />
    <glyph glyph-name="Odieresis" unicode="&#xd6;" horiz-adv-x="574" 
d="M496.5 635q51.5 -65 51.5 -185q0 -109 -31.5 -215t-100 -176.5t-173.5 -70.5q-91 0 -143 65t-52 183q0 107 32 213.5t100.5 178.5t173.5 72q91 0 142.5 -65zM227 562q-46 -64 -66 -154.5t-20 -174.5q0 -170 108 -170q75 0 121 64.5t65.5 155t19.5 175.5q0 87 -27 127.5
t-81 40.5q-74 0 -120 -64zM247 795.5q-13 13.5 -13 33.5q0 26 17.5 43.5t40.5 17.5q21 0 34 -13.5t13 -33.5q0 -27 -17 -44t-41 -17q-21 0 -34 13.5zM421 795.5q-13 13.5 -13 33.5q0 26 17.5 43.5t40.5 17.5q21 0 34 -13.5t13 -33.5q0 -26 -17 -43.5t-41 -17.5
q-21 0 -34 13.5z" />
    <glyph glyph-name="uni022A" unicode="&#x22a;" horiz-adv-x="574" 
d="M496.5 635q51.5 -65 51.5 -185q0 -109 -31.5 -215t-100 -176.5t-173.5 -70.5q-91 0 -143 65t-52 183q0 107 32 213.5t100.5 178.5t173.5 72q91 0 142.5 -65zM227 562q-46 -64 -66 -154.5t-20 -174.5q0 -170 108 -170q75 0 121 64.5t65.5 155t19.5 175.5q0 87 -27 127.5
t-81 40.5q-74 0 -120 -64zM236 760.5q-13 13.5 -13 33.5q0 26 17.5 43.5t40.5 17.5q21 0 34 -13.5t13 -33.5q0 -27 -17 -44t-41 -17q-21 0 -34 13.5zM410 760.5q-13 13.5 -13 33.5q0 26 17.5 43.5t40.5 17.5q21 0 34 -13.5t13 -33.5q0 -26 -17 -43.5t-41 -17.5
q-21 0 -34 13.5zM488 904h-226l10 66h226z" />
    <glyph glyph-name="uni022E" unicode="&#x22e;" horiz-adv-x="574" 
d="M496.5 635q51.5 -65 51.5 -185q0 -109 -31.5 -215t-100 -176.5t-173.5 -70.5q-91 0 -143 65t-52 183q0 107 32 213.5t100.5 178.5t173.5 72q91 0 142.5 -65zM227 562q-46 -64 -66 -154.5t-20 -174.5q0 -170 108 -170q75 0 121 64.5t65.5 155t19.5 175.5q0 87 -27 127.5
t-81 40.5q-74 0 -120 -64zM330 797.5q-14 14.5 -14 38.5q0 30 18.5 48.5t45.5 18.5q25 0 39 -14.5t14 -38.5q0 -30 -18.5 -48.5t-45.5 -18.5q-25 0 -39 14.5z" />
    <glyph glyph-name="uni0230" unicode="&#x230;" horiz-adv-x="574" 
d="M496.5 635q51.5 -65 51.5 -185q0 -109 -31.5 -215t-100 -176.5t-173.5 -70.5q-91 0 -143 65t-52 183q0 107 32 213.5t100.5 178.5t173.5 72q91 0 142.5 -65zM227 562q-46 -64 -66 -154.5t-20 -174.5q0 -170 108 -170q75 0 121 64.5t65.5 155t19.5 175.5q0 87 -27 127.5
t-81 40.5q-74 0 -120 -64zM321 756.5q-14 14.5 -14 38.5q0 30 18.5 48.5t45.5 18.5q25 0 39 -14.5t14 -38.5q0 -30 -18.5 -48.5t-45.5 -18.5q-25 0 -39 14.5zM489 905h-226l10 66h226z" />
    <glyph glyph-name="uni1ECC" unicode="&#x1ecc;" horiz-adv-x="574" 
d="M496.5 635q51.5 -65 51.5 -185q0 -109 -31.5 -215t-100 -176.5t-173.5 -70.5q-91 0 -143 65t-52 183q0 107 32 213.5t100.5 178.5t173.5 72q91 0 142.5 -65zM227 562q-46 -64 -66 -154.5t-20 -174.5q0 -170 108 -170q75 0 121 64.5t65.5 155t19.5 175.5q0 87 -27 127.5
t-81 40.5q-74 0 -120 -64zM269 -90.5q14 -14.5 14 -38.5q0 -30 -18.5 -48.5t-45.5 -18.5q-25 0 -39 14.5t-14 38.5q0 30 18.5 48.5t45.5 18.5q25 0 39 -14.5z" />
    <glyph glyph-name="Ograve" unicode="&#xd2;" horiz-adv-x="574" 
d="M496.5 635q51.5 -65 51.5 -185q0 -109 -31.5 -215t-100 -176.5t-173.5 -70.5q-91 0 -143 65t-52 183q0 107 32 213.5t100.5 178.5t173.5 72q91 0 142.5 -65zM227 562q-46 -64 -66 -154.5t-20 -174.5q0 -170 108 -170q75 0 121 64.5t65.5 155t19.5 175.5q0 87 -27 127.5
t-81 40.5q-74 0 -120 -64zM323 901l150 -101l-29 -44l-165 76z" />
    <glyph glyph-name="uni1ECE" unicode="&#x1ece;" horiz-adv-x="574" 
d="M496.5 635q51.5 -65 51.5 -185q0 -109 -31.5 -215t-100 -176.5t-173.5 -70.5q-91 0 -143 65t-52 183q0 107 32 213.5t100.5 178.5t173.5 72q91 0 142.5 -65zM227 562q-46 -64 -66 -154.5t-20 -174.5q0 -170 108 -170q75 0 121 64.5t65.5 155t19.5 175.5q0 87 -27 127.5
t-81 40.5q-74 0 -120 -64zM344 847q32 5 48.5 16t16.5 36q0 29 -28 29q-13 0 -23 -3t-24 -10l-16 51q18 11 35.5 16t40.5 5q39 0 62 -23.5t23 -60.5q0 -41 -20 -62.5t-58 -28.5l-7 -48h-60z" />
    <glyph glyph-name="Ohorn" unicode="&#x1a0;" horiz-adv-x="596" 
d="M593.5 630q-23.5 -32 -69.5 -42q24 -55 24 -138q0 -109 -31.5 -215t-100 -176.5t-173.5 -70.5q-91 0 -143 65t-52 183q0 107 32 213.5t100.5 178.5t173.5 72q90 0 140 -62q30 3 43.5 22t13.5 55q0 21 -4 45l63 11q7 -23 7 -57q0 -52 -23.5 -84zM370 127.5
q46 64.5 65.5 155t19.5 175.5q0 87 -27 127.5t-81 40.5q-74 0 -120 -64t-66 -154.5t-20 -174.5q0 -170 108 -170q75 0 121 64.5z" />
    <glyph glyph-name="uni1EDA" unicode="&#x1eda;" horiz-adv-x="596" 
d="M477 831l-187 -76l-23 45l173 102zM593.5 630q-23.5 -32 -69.5 -42q24 -55 24 -138q0 -109 -31.5 -215t-100 -176.5t-173.5 -70.5q-91 0 -143 65t-52 183q0 107 32 213.5t100.5 178.5t173.5 72q90 0 140 -62q30 3 43.5 22t13.5 55q0 21 -4 45l63 11q7 -23 7 -57
q0 -52 -23.5 -84zM370 127.5q46 64.5 65.5 155t19.5 175.5q0 87 -27 127.5t-81 40.5q-74 0 -120 -64t-66 -154.5t-20 -174.5q0 -170 108 -170q75 0 121 64.5z" />
    <glyph glyph-name="uni1EE2" unicode="&#x1ee2;" horiz-adv-x="596" 
d="M593.5 630q-23.5 -32 -69.5 -42q24 -55 24 -138q0 -109 -31.5 -215t-100 -176.5t-173.5 -70.5q-91 0 -143 65t-52 183q0 107 32 213.5t100.5 178.5t173.5 72q90 0 140 -62q30 3 43.5 22t13.5 55q0 21 -4 45l63 11q7 -23 7 -57q0 -52 -23.5 -84zM370 127.5
q46 64.5 65.5 155t19.5 175.5q0 87 -27 127.5t-81 40.5q-74 0 -120 -64t-66 -154.5t-20 -174.5q0 -170 108 -170q75 0 121 64.5zM269 -90.5q14 -14.5 14 -38.5q0 -30 -18.5 -48.5t-45.5 -18.5q-25 0 -39 14.5t-14 38.5q0 30 18.5 48.5t45.5 18.5q25 0 39 -14.5z" />
    <glyph glyph-name="uni1EDC" unicode="&#x1edc;" horiz-adv-x="596" 
d="M473 800l-29 -44l-165 76l44 69zM593.5 630q-23.5 -32 -69.5 -42q24 -55 24 -138q0 -109 -31.5 -215t-100 -176.5t-173.5 -70.5q-91 0 -143 65t-52 183q0 107 32 213.5t100.5 178.5t173.5 72q90 0 140 -62q30 3 43.5 22t13.5 55q0 21 -4 45l63 11q7 -23 7 -57
q0 -52 -23.5 -84zM370 127.5q46 64.5 65.5 155t19.5 175.5q0 87 -27 127.5t-81 40.5q-74 0 -120 -64t-66 -154.5t-20 -174.5q0 -170 108 -170q75 0 121 64.5z" />
    <glyph glyph-name="uni1EDE" unicode="&#x1ede;" horiz-adv-x="596" 
d="M358 925q-10 -3 -24 -10l-16 51q18 11 35.5 16t40.5 5q39 0 62 -23.5t23 -60.5q0 -41 -20 -62.5t-58 -28.5l-7 -48h-60l10 83q32 5 48.5 16t16.5 36q0 29 -28 29q-13 0 -23 -3zM593.5 630q-23.5 -32 -69.5 -42q24 -55 24 -138q0 -109 -31.5 -215t-100 -176.5
t-173.5 -70.5q-91 0 -143 65t-52 183q0 107 32 213.5t100.5 178.5t173.5 72q90 0 140 -62q30 3 43.5 22t13.5 55q0 21 -4 45l63 11q7 -23 7 -57q0 -52 -23.5 -84zM370 127.5q46 64.5 65.5 155t19.5 175.5q0 87 -27 127.5t-81 40.5q-74 0 -120 -64t-66 -154.5t-20 -174.5
q0 -170 108 -170q75 0 121 64.5z" />
    <glyph glyph-name="uni1EE0" unicode="&#x1ee0;" horiz-adv-x="596" 
d="M301 820q-11 -11 -26 -33l-45 27q46 84 97 84q18 0 30.5 -7t28.5 -21q11 -10 19 -15t17 -5q12 0 22.5 10t25.5 33l46 -27q-42 -83 -96 -83q-17 0 -30.5 7.5t-28.5 20.5q-12 10 -20 15t-17 5q-12 0 -23 -11zM593.5 630q-23.5 -32 -69.5 -42q24 -55 24 -138
q0 -109 -31.5 -215t-100 -176.5t-173.5 -70.5q-91 0 -143 65t-52 183q0 107 32 213.5t100.5 178.5t173.5 72q90 0 140 -62q30 3 43.5 22t13.5 55q0 21 -4 45l63 11q7 -23 7 -57q0 -52 -23.5 -84zM370 127.5q46 64.5 65.5 155t19.5 175.5q0 87 -27 127.5t-81 40.5
q-74 0 -120 -64t-66 -154.5t-20 -174.5q0 -170 108 -170q75 0 121 64.5z" />
    <glyph glyph-name="Ohungarumlaut" unicode="&#x150;" horiz-adv-x="574" 
d="M496.5 635q51.5 -65 51.5 -185q0 -109 -31.5 -215t-100 -176.5t-173.5 -70.5q-91 0 -143 65t-52 183q0 107 32 213.5t100.5 178.5t173.5 72q91 0 142.5 -65zM227 562q-46 -64 -66 -154.5t-20 -174.5q0 -170 108 -170q75 0 121 64.5t65.5 155t19.5 175.5q0 87 -27 127.5
t-81 40.5q-74 0 -120 -64zM485 956l63 -40l-110 -155l-48 24zM359 955l62 -39l-102 -150l-48 24z" />
    <glyph glyph-name="uni01A2" unicode="&#x1a2;" horiz-adv-x="766" 
d="M701.5 669.5q31.5 -32.5 31.5 -86.5q0 -8 -2 -28l-107 -757h-89l106 760q2 16 2 23q0 50 -51 50q-39 0 -77 -28q33 -61 33 -153q0 -109 -31.5 -215t-100 -176.5t-173.5 -70.5q-91 0 -143 65t-52 183q0 107 32 213.5t100.5 178.5t173.5 72q74 0 124 -47q62 49 132 49
q60 0 91.5 -32.5zM370 127.5q46 64.5 65.5 155t19.5 175.5q0 87 -27 127.5t-81 40.5q-74 0 -120 -64t-66 -154.5t-20 -174.5q0 -170 108 -170q75 0 121 64.5z" />
    <glyph glyph-name="uni020E" unicode="&#x20e;" horiz-adv-x="574" 
d="M496.5 635q51.5 -65 51.5 -185q0 -109 -31.5 -215t-100 -176.5t-173.5 -70.5q-91 0 -143 65t-52 183q0 107 32 213.5t100.5 178.5t173.5 72q91 0 142.5 -65zM227 562q-46 -64 -66 -154.5t-20 -174.5q0 -170 108 -170q75 0 121 64.5t65.5 155t19.5 175.5q0 87 -27 127.5
t-81 40.5q-74 0 -120 -64zM239 792q17 62 55 95t89 33q53 0 82 -35.5t27 -97.5l-54 -8q-6 74 -61 74q-58 0 -85 -78z" />
    <glyph glyph-name="Omacron" unicode="&#x14c;" horiz-adv-x="574" 
d="M496.5 635q51.5 -65 51.5 -185q0 -109 -31.5 -215t-100 -176.5t-173.5 -70.5q-91 0 -143 65t-52 183q0 107 32 213.5t100.5 178.5t173.5 72q91 0 142.5 -65zM227 562q-46 -64 -66 -154.5t-20 -174.5q0 -170 108 -170q75 0 121 64.5t65.5 155t19.5 175.5q0 87 -27 127.5
t-81 40.5q-74 0 -120 -64zM480 794h-226l10 66h226z" />
    <glyph glyph-name="uni1E52" unicode="&#x1e52;" horiz-adv-x="574" 
d="M496.5 635q51.5 -65 51.5 -185q0 -109 -31.5 -215t-100 -176.5t-173.5 -70.5q-91 0 -143 65t-52 183q0 107 32 213.5t100.5 178.5t173.5 72q91 0 142.5 -65zM227 562q-46 -64 -66 -154.5t-20 -174.5q0 -170 108 -170q75 0 121 64.5t65.5 155t19.5 175.5q0 87 -27 127.5
t-81 40.5q-74 0 -120 -64zM477 759h-226l10 66h226zM454 1021l37 -71l-187 -76l-23 45z" />
    <glyph glyph-name="uni1E50" unicode="&#x1e50;" horiz-adv-x="574" 
d="M496.5 635q51.5 -65 51.5 -185q0 -109 -31.5 -215t-100 -176.5t-173.5 -70.5q-91 0 -143 65t-52 183q0 107 32 213.5t100.5 178.5t173.5 72q91 0 142.5 -65zM227 562q-46 -64 -66 -154.5t-20 -174.5q0 -170 108 -170q75 0 121 64.5t65.5 155t19.5 175.5q0 87 -27 127.5
t-81 40.5q-74 0 -120 -64zM477 759h-226l10 66h226zM335 1020l150 -101l-29 -44l-165 76z" />
    <glyph glyph-name="uniA7B6" unicode="&#xa7b6;" horiz-adv-x="707" 
d="M51 187q0 118 34.5 251.5t91.5 250.5h86q-55 -116 -89.5 -256.5t-34.5 -250.5q0 -64 15.5 -91.5t49.5 -27.5q35 0 58.5 25.5t30.5 77.5l33 232h88l-33 -238q-2 -16 -2 -25q0 -33 15 -53t46 -20q80 0 111 125t31 293q0 97 -19 209h86q21 -94 21 -213q0 -216 -52.5 -352
t-175.5 -136q-52 0 -81 30t-32 82q-41 -112 -136 -112q-142 0 -142 199z" />
    <glyph glyph-name="uni01EA" unicode="&#x1ea;" horiz-adv-x="574" 
d="M227.5 -65.5q-23.5 -29.5 -23.5 -61.5q0 -36 39 -36q21 0 49 5l-14 -65q-25 -6 -52 -6q-43 0 -68.5 25.5t-25.5 67.5q0 36 18.5 67.5t61.5 58.5q-78 11 -121 74.5t-43 171.5q0 107 32 213.5t100.5 178.5t173.5 72q91 0 142.5 -65t51.5 -185q0 -94 -23.5 -187.5
t-75 -165.5t-129.5 -97q-69 -36 -92.5 -65.5zM249 63q75 0 121 64.5t65.5 155t19.5 175.5q0 87 -27 127.5t-81 40.5q-74 0 -120 -64t-66 -154.5t-20 -174.5q0 -170 108 -170z" />
    <glyph glyph-name="uni01EC" unicode="&#x1ec;" horiz-adv-x="574" 
d="M490 860l-10 -66h-226l10 66h226zM227.5 -65.5q-23.5 -29.5 -23.5 -61.5q0 -36 39 -36q21 0 49 5l-14 -65q-25 -6 -52 -6q-43 0 -68.5 25.5t-25.5 67.5q0 36 18.5 67.5t61.5 58.5q-78 11 -121 74.5t-43 171.5q0 107 32 213.5t100.5 178.5t173.5 72q91 0 142.5 -65
t51.5 -185q0 -94 -23.5 -187.5t-75 -165.5t-129.5 -97q-69 -36 -92.5 -65.5zM249 63q75 0 121 64.5t65.5 155t19.5 175.5q0 87 -27 127.5t-81 40.5q-74 0 -120 -64t-66 -154.5t-20 -174.5q0 -170 108 -170z" />
    <glyph glyph-name="uni0186" unicode="&#x186;" horiz-adv-x="473" 
d="M399 636.5q48 -63.5 48 -183.5q0 -126 -37 -232.5t-106 -169.5t-162 -63q-94 0 -156 78l52 52q28 -26 51 -39.5t56 -13.5q67 0 114.5 57t71 146t23.5 186q0 172 -101 172q-31 0 -61 -12t-64 -37l-37 58q41 33 81.5 49t89.5 16q89 0 137 -63.5z" />
    <glyph glyph-name="Oslash" unicode="&#xd8;" horiz-adv-x="574" 
d="M525.5 580.5q22.5 -55.5 22.5 -130.5q0 -109 -31.5 -215t-100 -176.5t-173.5 -70.5q-20 0 -43 5l-45 -119l-70 20l50 128q-42 31 -64.5 86t-22.5 128q0 107 32 213.5t100.5 178.5t173.5 72q25 0 42 -4l47 122l70 -20l-51 -132q41 -30 63.5 -85.5zM227 562
q-46 -64 -66 -154.5t-20 -174.5q0 -103 37 -142l197 532q-13 3 -28 3q-74 0 -120 -64zM370 127.5q46 64.5 65.5 155t19.5 175.5q0 100 -35 140l-197 -532q12 -3 26 -3q75 0 121 64.5z" />
    <glyph glyph-name="Oslashacute" unicode="&#x1fe;" horiz-adv-x="574" 
d="M525.5 580.5q22.5 -55.5 22.5 -130.5q0 -109 -31.5 -215t-100 -176.5t-173.5 -70.5q-20 0 -43 5l-45 -119l-70 20l50 128q-42 31 -64.5 86t-22.5 128q0 107 32 213.5t100.5 178.5t173.5 72q25 0 42 -4l47 122l70 -20l-51 -132q41 -30 63.5 -85.5zM227 562
q-46 -64 -66 -154.5t-20 -174.5q0 -103 37 -142l197 532q-13 3 -28 3q-74 0 -120 -64zM370 127.5q46 64.5 65.5 155t19.5 175.5q0 100 -35 140l-197 -532q12 -3 26 -3q75 0 121 64.5zM433 916l37 -71l-187 -76l-23 45z" />
    <glyph glyph-name="Otilde" unicode="&#xd5;" horiz-adv-x="574" 
d="M496.5 635q51.5 -65 51.5 -185q0 -109 -31.5 -215t-100 -176.5t-173.5 -70.5q-91 0 -143 65t-52 183q0 107 32 213.5t100.5 178.5t173.5 72q91 0 142.5 -65zM227 562q-46 -64 -66 -154.5t-20 -174.5q0 -170 108 -170q75 0 121 64.5t65.5 155t19.5 175.5q0 87 -27 127.5
t-81 40.5q-74 0 -120 -64zM389.5 790.5q-13.5 7.5 -28.5 20.5q-12 10 -20 15t-17 5q-12 0 -23 -11t-26 -33l-45 27q45 84 97 84q18 0 30.5 -7t28.5 -21q11 -10 19 -15t17 -5q12 0 22.5 10t25.5 33l46 -27q-42 -83 -96 -83q-17 0 -30.5 7.5z" />
    <glyph glyph-name="uni1E4C" unicode="&#x1e4c;" horiz-adv-x="574" 
d="M496.5 635q51.5 -65 51.5 -185q0 -109 -31.5 -215t-100 -176.5t-173.5 -70.5q-91 0 -143 65t-52 183q0 107 32 213.5t100.5 178.5t173.5 72q91 0 142.5 -65zM227 562q-46 -64 -66 -154.5t-20 -174.5q0 -170 108 -170q75 0 121 64.5t65.5 155t19.5 175.5q0 87 -27 127.5
t-81 40.5q-74 0 -120 -64zM389.5 765.5q-13.5 7.5 -28.5 20.5q-12 10 -20 15t-17 5q-12 0 -23 -11t-26 -33l-45 27q46 84 97 84q18 0 30.5 -7t28.5 -21q11 -10 19 -15t17 -5q12 0 22.5 10t25.5 33l46 -27q-42 -83 -96 -83q-17 0 -30.5 7.5zM458 1049l37 -71l-187 -76l-23 45
z" />
    <glyph glyph-name="uni022C" unicode="&#x22c;" horiz-adv-x="574" 
d="M494 912h-226l10 66h226zM383.5 765.5q-13.5 7.5 -28.5 20.5q-12 10 -20 15t-17 5q-12 0 -23 -11t-26 -33l-45 27q46 84 97 84q18 0 30.5 -7t28.5 -21q11 -10 19 -15t17 -5q12 0 22.5 10t25.5 33l46 -27q-42 -83 -96 -83q-17 0 -30.5 7.5zM496.5 635q51.5 -65 51.5 -185
q0 -109 -31.5 -215t-100 -176.5t-173.5 -70.5q-91 0 -143 65t-52 183q0 107 32 213.5t100.5 178.5t173.5 72q91 0 142.5 -65zM227 562q-46 -64 -66 -154.5t-20 -174.5q0 -170 108 -170q75 0 121 64.5t65.5 155t19.5 175.5q0 87 -27 127.5t-81 40.5q-74 0 -120 -64z" />
    <glyph glyph-name="OE" unicode="&#x152;" horiz-adv-x="732" 
d="M726 616h-243q45 -60 45 -166q0 -31 -3 -63h142l-10 -73h-142q-13 -72 -40.5 -134.5t-70.5 -106.5h263l-12 -73h-353q-28 -12 -66 -12q-87 0 -137.5 65t-50.5 183q0 106 30.5 213t96 179t162.5 72q34 0 62 -11h348zM353.5 127.5q43.5 64.5 62.5 155.5t19 175
q0 168 -100 168q-68 0 -111.5 -64t-63 -155t-19.5 -174q0 -88 26.5 -129t73.5 -41q69 0 112.5 64.5z" />
    <glyph glyph-name="P" unicode="P" horiz-adv-x="464" 
d="M428.5 642.5q50.5 -46.5 50.5 -133.5q0 -66 -26 -123.5t-84 -94t-149 -36.5h-55l-36 -255h-90l97 689h149q93 0 143.5 -46.5zM350.5 380q35.5 53 35.5 130q0 57 -27.5 82t-86.5 25h-56l-41 -290h50q90 0 125.5 53z" />
    <glyph glyph-name="uni1E54" unicode="&#x1e54;" horiz-adv-x="464" 
d="M428.5 642.5q50.5 -46.5 50.5 -133.5q0 -66 -26 -123.5t-84 -94t-149 -36.5h-55l-36 -255h-90l97 689h149q93 0 143.5 -46.5zM350.5 380q35.5 53 35.5 130q0 57 -27.5 82t-86.5 25h-56l-41 -290h50q90 0 125.5 53zM387 902l37 -71l-187 -76l-23 45z" />
    <glyph glyph-name="uni1E56" unicode="&#x1e56;" horiz-adv-x="464" 
d="M428.5 642.5q50.5 -46.5 50.5 -133.5q0 -66 -26 -123.5t-84 -94t-149 -36.5h-55l-36 -255h-90l97 689h149q93 0 143.5 -46.5zM350.5 380q35.5 53 35.5 130q0 57 -27.5 82t-86.5 25h-56l-41 -290h50q90 0 125.5 53zM277 797.5q-14 14.5 -14 38.5q0 30 18.5 48.5t45.5 18.5
q25 0 39 -14.5t14 -38.5q0 -30 -18.5 -48.5t-45.5 -18.5q-25 0 -39 14.5z" />
    <glyph glyph-name="uni01A4" unicode="&#x1a4;" horiz-adv-x="541" 
d="M505.5 642.5q50.5 -46.5 50.5 -133.5q0 -66 -26 -123.5t-84 -94t-149 -36.5h-55l-36 -255h-90l87 617h-22q-54 0 -54 -63q0 -32 12 -65l-65 -26q-24 42 -24 93q0 60 34.5 96.5t98.5 36.5h179q93 0 143.5 -46.5zM427.5 380q35.5 53 35.5 130q0 57 -27.5 82t-86.5 25h-56
l-41 -290h50q90 0 125.5 53z" />
    <glyph glyph-name="Thorn" unicode="&#xde;" horiz-adv-x="470" 
d="M417.5 521.5q50.5 -47.5 50.5 -136.5q0 -67 -26 -125.5t-84 -95t-149 -36.5h-62l-18 -128h-90l97 689h90l-17 -120h65q93 0 143.5 -47.5zM339.5 253.5q35.5 53.5 35.5 132.5q0 60 -27 85.5t-87 25.5h-62l-42 -297h57q90 0 125.5 53.5z" />
    <glyph glyph-name="Q" unicode="Q" horiz-adv-x="575" 
d="M510 -33l-72 -69q-36 52 -77.5 71t-117.5 19q-91 0 -143 65t-52 183q0 107 32 213.5t100.5 178.5t173.5 72q91 0 142.5 -65t51.5 -185q0 -84 -19.5 -167t-62 -150t-108.5 -98q90 -4 152 -68zM249 63q75 0 121 64.5t65.5 155t19.5 175.5q0 87 -27 127.5t-81 40.5
q-74 0 -120 -64t-66 -154.5t-20 -174.5q0 -170 108 -170z" />
    <glyph glyph-name="uni024A" unicode="&#x24a;" horiz-adv-x="565" 
d="M564 -176q-45 -36 -101 -36q-54 0 -84.5 30t-30.5 85q0 8 2 30l9 67l7 48q-54 -60 -124 -60q-56 0 -99 29.5t-67.5 88t-24.5 141.5q0 128 36.5 231.5t100.5 162.5t145 59q71 0 115 -68l18 57h78l-95 -689l-10 -77q-1 -6 -1 -17q0 -45 38 -45q17 0 29 4t30 15zM320 82.5
q29 19.5 58 59.5l56 411q-20 36 -42 54.5t-55 18.5q-58 0 -102 -51t-67.5 -138t-23.5 -192q0 -94 31 -138t81 -44q35 0 64 19.5z" />
    <glyph glyph-name="R" unicode="R" horiz-adv-x="498" 
d="M441.5 400q-35.5 -58 -103.5 -87l105 -313h-94l-94 293h-85l-41 -293h-90l97 689h145q96 0 146 -43.5t50 -119.5q0 -68 -35.5 -126zM236 364q80 0 114 46t34 112q0 50 -25 72.5t-79 22.5h-64l-36 -253h56z" />
    <glyph glyph-name="Racute" unicode="&#x154;" horiz-adv-x="498" 
d="M441.5 400q-35.5 -58 -103.5 -87l105 -313h-94l-94 293h-85l-41 -293h-90l97 689h145q96 0 146 -43.5t50 -119.5q0 -68 -35.5 -126zM236 364q80 0 114 46t34 112q0 50 -25 72.5t-79 22.5h-64l-36 -253h56zM383 902l37 -71l-187 -76l-23 45z" />
    <glyph glyph-name="Rcaron" unicode="&#x158;" horiz-adv-x="498" 
d="M441.5 400q-35.5 -58 -103.5 -87l105 -313h-94l-94 293h-85l-41 -293h-90l97 689h145q96 0 146 -43.5t50 -119.5q0 -68 -35.5 -126zM236 364q80 0 114 46t34 112q0 50 -25 72.5t-79 22.5h-64l-36 -253h56zM426 907l36 -40l-129 -113h-55l-96 117l37 36l94 -81z" />
    <glyph glyph-name="Rcommaaccent" unicode="&#x156;" horiz-adv-x="498" 
d="M441.5 400q-35.5 -58 -103.5 -87l105 -313h-94l-94 293h-85l-41 -293h-90l97 689h145q96 0 146 -43.5t50 -119.5q0 -68 -35.5 -126zM236 364q80 0 114 46t34 112q0 50 -25 72.5t-79 22.5h-64l-36 -253h56zM254.5 -92.5q12.5 -14.5 12.5 -33.5q0 -18 -6.5 -34t-26.5 -52
l-46 -82h-48l42 118q-9 7 -14 17.5t-5 22.5q0 25 16.5 41.5t39.5 16.5t35.5 -14.5z" />
    <glyph glyph-name="uni0210" unicode="&#x210;" horiz-adv-x="498" 
d="M441.5 400q-35.5 -58 -103.5 -87l105 -313h-94l-94 293h-85l-41 -293h-90l97 689h145q96 0 146 -43.5t50 -119.5q0 -68 -35.5 -126zM236 364q80 0 114 46t34 112q0 50 -25 72.5t-79 22.5h-64l-36 -253h56zM226 956l51 -175l-57 -20l-72 162zM353 955l43 -169l-57 -20
l-65 157z" />
    <glyph glyph-name="uni1E5A" unicode="&#x1e5a;" horiz-adv-x="498" 
d="M441.5 400q-35.5 -58 -103.5 -87l105 -313h-94l-94 293h-85l-41 -293h-90l97 689h145q96 0 146 -43.5t50 -119.5q0 -68 -35.5 -126zM236 364q80 0 114 46t34 112q0 50 -25 72.5t-79 22.5h-64l-36 -253h56zM258 -90.5q14 -14.5 14 -38.5q0 -30 -18.5 -48.5t-45.5 -18.5
q-25 0 -39 14.5t-14 38.5q0 30 18.5 48.5t45.5 18.5q25 0 39 -14.5z" />
    <glyph glyph-name="uni0212" unicode="&#x212;" horiz-adv-x="498" 
d="M441.5 400q-35.5 -58 -103.5 -87l105 -313h-94l-94 293h-85l-41 -293h-90l97 689h145q96 0 146 -43.5t50 -119.5q0 -68 -35.5 -126zM236 364q80 0 114 46t34 112q0 50 -25 72.5t-79 22.5h-64l-36 -253h56zM182 792q17 62 55 95t89 33q53 0 82 -35.5t27 -97.5l-54 -8
q-6 74 -61 74q-58 0 -85 -78z" />
    <glyph glyph-name="uni024C" unicode="&#x24c;" horiz-adv-x="507" 
d="M450.5 400q-35.5 -58 -103.5 -87l105 -313h-94l-94 293h-85l-41 -293h-90l41 294h-70l10 70h70l46 325h145q96 0 146 -43.5t50 -119.5q0 -68 -35.5 -126zM359 410q34 46 34 112q0 50 -25 72.5t-79 22.5h-64l-36 -253h56q80 0 114 46z" />
    <glyph glyph-name="uni2C64" unicode="&#x2c64;" horiz-adv-x="498" 
d="M441.5 400q-35.5 -58 -103.5 -87l105 -313h-94l-94 293h-85l-41 -293l-10 -77q-1 -6 -1 -17q0 -45 38 -45q17 0 29 4t30 15l29 -56q-45 -36 -101 -36q-54 0 -84.5 30t-30.5 85q0 8 2 30l9 67l97 689h145q96 0 146 -43.5t50 -119.5q0 -68 -35.5 -126zM236 364q80 0 114 46
t34 112q0 50 -25 72.5t-79 22.5h-64l-36 -253h56z" />
    <glyph glyph-name="S" unicode="S" horiz-adv-x="449" 
d="M460 618l-54 -49q-28 29 -55.5 43t-61.5 14q-51 0 -83.5 -34t-32.5 -88q0 -39 19.5 -61t75.5 -48q71 -33 105 -73t34 -107q0 -61 -29.5 -113t-83.5 -83t-123 -31q-59 0 -104.5 23.5t-82.5 68.5l56 49q30 -34 60.5 -50t73.5 -16q62 0 101 40t39 109q0 44 -21 68.5
t-80 52.5q-72 34 -102 70.5t-30 96.5q0 50 26.5 96t75 75t109.5 29q102 0 168 -82z" />
    <glyph glyph-name="Sacute" unicode="&#x15a;" horiz-adv-x="449" 
d="M460 618l-54 -49q-28 29 -55.5 43t-61.5 14q-51 0 -83.5 -34t-32.5 -88q0 -39 19.5 -61t75.5 -48q71 -33 105 -73t34 -107q0 -61 -29.5 -113t-83.5 -83t-123 -31q-59 0 -104.5 23.5t-82.5 68.5l56 49q30 -34 60.5 -50t73.5 -16q62 0 101 40t39 109q0 44 -21 68.5
t-80 52.5q-72 34 -102 70.5t-30 96.5q0 50 26.5 96t75 75t109.5 29q102 0 168 -82zM377 902l37 -71l-187 -76l-23 45z" />
    <glyph glyph-name="uniA78B" unicode="&#xa78b;" horiz-adv-x="195" 
d="M76 348l36 341h91l-62 -341h-65z" />
    <glyph glyph-name="Scaron" unicode="&#x160;" horiz-adv-x="449" 
d="M460 618l-54 -49q-28 29 -55.5 43t-61.5 14q-51 0 -83.5 -34t-32.5 -88q0 -39 19.5 -61t75.5 -48q71 -33 105 -73t34 -107q0 -61 -29.5 -113t-83.5 -83t-123 -31q-59 0 -104.5 23.5t-82.5 68.5l56 49q30 -34 60.5 -50t73.5 -16q62 0 101 40t39 109q0 44 -21 68.5
t-80 52.5q-72 34 -102 70.5t-30 96.5q0 50 26.5 96t75 75t109.5 29q102 0 168 -82zM420 907l36 -40l-129 -113h-55l-96 117l37 36l94 -81z" />
    <glyph glyph-name="Scedilla" unicode="&#x15e;" horiz-adv-x="449" 
d="M373 322q34 -40 34 -107q0 -54 -23 -101t-65.5 -79.5t-98.5 -42.5l-8 -52q34 -4 50.5 -23.5t16.5 -50.5q0 -43 -30 -74t-86 -31q-47 0 -76 26l29 45q23 -14 47 -14q21 0 34.5 11.5t13.5 32.5q0 22 -14 30.5t-53 8.5l20 87q-56 1 -99.5 25t-80.5 67l56 49q30 -34 60.5 -50
t73.5 -16q62 0 101 40t39 109q0 44 -21 68.5t-80 52.5q-72 34 -102 70.5t-30 96.5q0 50 26.5 96t75 75t109.5 29q102 0 168 -82l-54 -49q-28 29 -55.5 43t-61.5 14q-51 0 -83.5 -34t-32.5 -88q0 -39 19.5 -61t75.5 -48q71 -33 105 -73z" />
    <glyph glyph-name="Scircumflex" unicode="&#x15c;" horiz-adv-x="449" 
d="M460 618l-54 -49q-28 29 -55.5 43t-61.5 14q-51 0 -83.5 -34t-32.5 -88q0 -39 19.5 -61t75.5 -48q71 -33 105 -73t34 -107q0 -61 -29.5 -113t-83.5 -83t-123 -31q-59 0 -104.5 23.5t-82.5 68.5l56 49q30 -34 60.5 -50t73.5 -16q62 0 101 40t39 109q0 44 -21 68.5
t-80 52.5q-72 34 -102 70.5t-30 96.5q0 50 26.5 96t75 75t109.5 29q102 0 168 -82zM195 759l-36 40l129 113h55l96 -117l-37 -36l-94 81z" />
    <glyph glyph-name="Scommaaccent" unicode="&#x218;" horiz-adv-x="449" 
d="M460 618l-54 -49q-28 29 -55.5 43t-61.5 14q-51 0 -83.5 -34t-32.5 -88q0 -39 19.5 -61t75.5 -48q71 -33 105 -73t34 -107q0 -61 -29.5 -113t-83.5 -83t-123 -31q-59 0 -104.5 23.5t-82.5 68.5l56 49q30 -34 60.5 -50t73.5 -16q62 0 101 40t39 109q0 44 -21 68.5
t-80 52.5q-72 34 -102 70.5t-30 96.5q0 50 26.5 96t75 75t109.5 29q102 0 168 -82zM215.5 -92.5q12.5 -14.5 12.5 -33.5q0 -18 -6.5 -34t-26.5 -52l-46 -82h-48l42 118q-9 7 -14 17.5t-5 22.5q0 25 16.5 41.5t39.5 16.5t35.5 -14.5z" />
    <glyph glyph-name="uni1E60" unicode="&#x1e60;" horiz-adv-x="449" 
d="M460 618l-54 -49q-28 29 -55.5 43t-61.5 14q-51 0 -83.5 -34t-32.5 -88q0 -39 19.5 -61t75.5 -48q71 -33 105 -73t34 -107q0 -61 -29.5 -113t-83.5 -83t-123 -31q-59 0 -104.5 23.5t-82.5 68.5l56 49q30 -34 60.5 -50t73.5 -16q62 0 101 40t39 109q0 44 -21 68.5
t-80 52.5q-72 34 -102 70.5t-30 96.5q0 50 26.5 96t75 75t109.5 29q102 0 168 -82zM267 797.5q-14 14.5 -14 38.5q0 30 18.5 48.5t45.5 18.5q25 0 39 -14.5t14 -38.5q0 -30 -18.5 -48.5t-45.5 -18.5q-25 0 -39 14.5z" />
    <glyph glyph-name="uni1E62" unicode="&#x1e62;" horiz-adv-x="449" 
d="M460 618l-54 -49q-28 29 -55.5 43t-61.5 14q-51 0 -83.5 -34t-32.5 -88q0 -39 19.5 -61t75.5 -48q71 -33 105 -73t34 -107q0 -61 -29.5 -113t-83.5 -83t-123 -31q-59 0 -104.5 23.5t-82.5 68.5l56 49q30 -34 60.5 -50t73.5 -16q62 0 101 40t39 109q0 44 -21 68.5
t-80 52.5q-72 34 -102 70.5t-30 96.5q0 50 26.5 96t75 75t109.5 29q102 0 168 -82zM219 -90.5q14 -14.5 14 -38.5q0 -30 -18.5 -48.5t-45.5 -18.5q-25 0 -39 14.5t-14 38.5q0 30 18.5 48.5t45.5 18.5q25 0 39 -14.5z" />
    <glyph glyph-name="uni1E9E" unicode="&#x1e9e;" horiz-adv-x="541" 
d="M425.5 682.5q54.5 -17.5 98.5 -45.5l-6 -61l-176 -193q74 -10 114.5 -50.5t40.5 -111.5q0 -69 -27.5 -122t-76.5 -82t-110 -29q-62 0 -96 24l35 63q24 -12 59 -12q56 0 89 44t33 113q0 56 -35.5 81t-108.5 26l9 72l176 201q-62 26 -130 26q-98 0 -114 -120l-71 -506h-90
l72 512q13 92 65.5 140t139.5 48q55 0 109.5 -17.5z" />
    <glyph glyph-name="uni018F" unicode="&#x18f;" horiz-adv-x="535" 
d="M462.5 646.5q48.5 -53.5 48.5 -166.5q0 -126 -32.5 -238.5t-100 -183t-166.5 -70.5q-86 0 -131 59.5t-45 167.5q0 47 5 86t15 86h359q5 49 5 95q0 80 -25.5 112t-77.5 32q-41 0 -77.5 -17t-75.5 -47l-40 56q50 42 98.5 62t103.5 20q88 0 136.5 -53.5zM326.5 116
q46.5 55 75.5 194h-277q-8 -54 -8 -95q0 -78 23 -116t74 -38q66 0 112.5 55z" />
    <glyph glyph-name="T" unicode="T" horiz-adv-x="427" 
d="M479 689l-20 -78h-152l-86 -611h-90l86 611h-157l11 78h408z" />
    <glyph glyph-name="Tbar" unicode="&#x166;" horiz-adv-x="427" 
d="M459 611h-152l-31 -222h98l-10 -68h-98l-45 -321h-90l45 321h-98l9 68h99l31 222h-157l11 78h408z" />
    <glyph glyph-name="Tcaron" unicode="&#x164;" horiz-adv-x="427" 
d="M479 689l-20 -78h-152l-86 -611h-90l86 611h-157l11 78h408zM403 907l36 -40l-129 -113h-55l-96 117l37 36l94 -81z" />
    <glyph glyph-name="uni0162" unicode="&#x162;" horiz-adv-x="427" 
d="M479 689l-20 -78h-152l-86 -611l-9 -57q33 -4 50 -24t17 -49q0 -44 -29.5 -76.5t-86.5 -32.5q-48 0 -76 26l29 47q23 -16 46 -16q20 0 34.5 13t14.5 35q0 19 -15 27t-52 8l22 99h-35l86 611h-157l11 78h408z" />
    <glyph glyph-name="uni1E70" unicode="&#x1e70;" horiz-adv-x="427" 
d="M479 689l-20 -78h-152l-86 -611h-90l86 611h-157l11 78h408zM48 -221l-36 40l129 113h55l96 -117l-39 -36l-91 81z" />
    <glyph glyph-name="uni021A" unicode="&#x21a;" horiz-adv-x="427" 
d="M479 689l-20 -78h-152l-86 -611h-90l86 611h-157l11 78h408zM197.5 -92.5q12.5 -14.5 12.5 -33.5q0 -18 -6.5 -34t-26.5 -52l-46 -82h-48l42 118q-9 7 -14 17.5t-5 22.5q0 25 16.5 41.5t39.5 16.5t35.5 -14.5z" />
    <glyph glyph-name="uni023E" unicode="&#x23e;" horiz-adv-x="427" 
d="M459 611h-75l-113 -253l-50 -358h-90l9 64l-60 -134l-35 16l114 256l58 409h-157l11 78h306l27 60l35 -16l-20 -44h60zM291 496l51 115h-35z" />
    <glyph glyph-name="uni1E6A" unicode="&#x1e6a;" horiz-adv-x="427" 
d="M479 689l-20 -78h-152l-86 -611h-90l86 611h-157l11 78h408zM250 797.5q-14 14.5 -14 38.5q0 30 18.5 48.5t45.5 18.5q25 0 39 -14.5t14 -38.5q0 -30 -18.5 -48.5t-45.5 -18.5q-25 0 -39 14.5z" />
    <glyph glyph-name="uni1E6C" unicode="&#x1e6c;" horiz-adv-x="427" 
d="M479 689l-20 -78h-152l-86 -611h-90l86 611h-157l11 78h408zM201 -90.5q14 -14.5 14 -38.5q0 -30 -18.5 -48.5t-45.5 -18.5q-25 0 -39 14.5t-14 38.5q0 30 18.5 48.5t45.5 18.5q25 0 39 -14.5z" />
    <glyph glyph-name="uni01AC" unicode="&#x1ac;" horiz-adv-x="461" 
d="M493 611h-152l-86 -611h-90l86 611h-70q-27 0 -40.5 -15t-13.5 -42q0 -32 12 -65l-65 -26q-24 42 -24 93q0 61 35.5 97t102.5 36h325z" />
    <glyph glyph-name="uni1E6E" unicode="&#x1e6e;" horiz-adv-x="427" 
d="M479 689l-20 -78h-152l-86 -611h-90l86 611h-157l11 78h408zM54 -105h226l-10 -66h-226z" />
    <glyph glyph-name="uni01BC" unicode="&#x1bc;" horiz-adv-x="431" 
d="M-5 75l57 46q21 -32 46.5 -46.5t59.5 -14.5q52 0 84.5 33t47 81.5t14.5 97.5q0 95 -74 95q-42 0 -95 -24h-67l49 346h310l-22 -70h-215l-30 -212q49 28 101 28q63 0 97.5 -42t34.5 -120q0 -69 -25 -134.5t-79 -108t-138 -42.5q-102 0 -156 87z" />
    <glyph glyph-name="uni0184" unicode="&#x184;" horiz-adv-x="476" 
d="M403 386.5q53 -47.5 53 -135.5q0 -67 -24.5 -123.5t-80.5 -92t-144 -35.5h-162l73 527l-50 41q48 46 86 121h78l-36 -255h58q96 0 149 -47.5zM328.5 123.5q32.5 50.5 32.5 126.5q0 59 -26.5 86t-78.5 27h-70l-41 -290h72q79 0 111.5 50.5z" />
    <glyph glyph-name="uni01A7" unicode="&#x1a7;" horiz-adv-x="434" 
d="M420 661q42 -39 42 -108q0 -61 -22.5 -102t-66.5 -70t-116 -56q-56 -21 -87 -43.5t-44 -53t-13 -75.5q0 -44 23.5 -67t63.5 -23q75 0 153 67l44 -55q-87 -87 -204 -87q-79 0 -126 45.5t-47 117.5q0 93 50.5 151t152.5 94q54 19 85 37.5t46.5 46.5t15.5 71q0 75 -73 75
q-38 0 -71 -13.5t-70 -43.5l-40 54q46 39 91.5 58t99.5 19q71 0 113 -39z" />
    <glyph glyph-name="uni01AE" unicode="&#x1ae;" horiz-adv-x="427" 
d="M211 -77q-1 -6 -1 -17q0 -45 38 -45q17 0 29 4t30 15l29 -56q-45 -36 -101 -36q-54 0 -84.5 30t-30.5 85q0 8 2 30l9 67l86 611h-157l11 78h408l-20 -78h-152l-86 -611z" />
    <glyph glyph-name="U" unicode="U" horiz-adv-x="534" 
d="M456 181q-8 -53 -37 -97t-77.5 -70t-111.5 -26q-57 0 -97 23t-60 62t-20 85q0 10 2 30l72 501h89l-70 -505q-2 -18 -2 -26q0 -43 23.5 -68t69.5 -25q56 0 89.5 35t41.5 90l69 499h90z" />
    <glyph glyph-name="Uacute" unicode="&#xda;" horiz-adv-x="534" 
d="M456 181q-8 -53 -37 -97t-77.5 -70t-111.5 -26q-57 0 -97 23t-60 62t-20 85q0 10 2 30l72 501h89l-70 -505q-2 -18 -2 -26q0 -43 23.5 -68t69.5 -25q56 0 89.5 35t41.5 90l69 499h90zM413 902l37 -71l-187 -76l-23 45z" />
    <glyph glyph-name="uni0244" unicode="&#x244;" horiz-adv-x="554" 
d="M564 509h-52l-46 -328q-8 -53 -37 -97t-77.5 -70t-111.5 -26q-57 0 -97 23t-60 62t-20 85q0 10 2 30l46 321h-53l10 66h53l16 114h89l-16 -114h221l16 114h90l-16 -114h53zM422 509h-221l-45 -325q-2 -18 -2 -26q0 -43 23.5 -68t69.5 -25q56 0 89.5 35t41.5 90z" />
    <glyph glyph-name="Ubreve" unicode="&#x16c;" horiz-adv-x="534" 
d="M456 181q-8 -53 -37 -97t-77.5 -70t-111.5 -26q-57 0 -97 23t-60 62t-20 85q0 10 2 30l72 501h89l-70 -505q-2 -18 -2 -26q0 -43 23.5 -68t69.5 -25q56 0 89.5 35t41.5 90l69 499h90zM249 793q-29 34 -26 89l53 8q4 -32 18 -48t42 -16q57 0 84 68l53 -18
q-13 -54 -50 -85.5t-90 -31.5q-55 0 -84 34z" />
    <glyph glyph-name="uni01D3" unicode="&#x1d3;" horiz-adv-x="534" 
d="M456 181q-8 -53 -37 -97t-77.5 -70t-111.5 -26q-57 0 -97 23t-60 62t-20 85q0 10 2 30l72 501h89l-70 -505q-2 -18 -2 -26q0 -43 23.5 -68t69.5 -25q56 0 89.5 35t41.5 90l69 499h90zM456 907l36 -40l-129 -113h-55l-96 117l37 36l94 -81z" />
    <glyph glyph-name="Ucircumflex" unicode="&#xdb;" horiz-adv-x="534" 
d="M456 181q-8 -53 -37 -97t-77.5 -70t-111.5 -26q-57 0 -97 23t-60 62t-20 85q0 10 2 30l72 501h89l-70 -505q-2 -18 -2 -26q0 -43 23.5 -68t69.5 -25q56 0 89.5 35t41.5 90l69 499h90zM231 759l-36 40l129 113h55l96 -117l-37 -36l-94 81z" />
    <glyph glyph-name="uni0214" unicode="&#x214;" horiz-adv-x="534" 
d="M456 181q-8 -53 -37 -97t-77.5 -70t-111.5 -26q-57 0 -97 23t-60 62t-20 85q0 10 2 30l72 501h89l-70 -505q-2 -18 -2 -26q0 -43 23.5 -68t69.5 -25q56 0 89.5 35t41.5 90l69 499h90zM256 956l51 -175l-57 -20l-72 162zM383 955l43 -169l-57 -20l-65 157z" />
    <glyph glyph-name="Udieresis" unicode="&#xdc;" horiz-adv-x="534" 
d="M456 181q-8 -53 -37 -97t-77.5 -70t-111.5 -26q-57 0 -97 23t-60 62t-20 85q0 10 2 30l72 501h89l-70 -505q-2 -18 -2 -26q0 -43 23.5 -68t69.5 -25q56 0 89.5 35t41.5 90l69 499h90zM220 795.5q-13 13.5 -13 33.5q0 26 17.5 43.5t40.5 17.5q21 0 34 -13.5t13 -33.5
q0 -27 -17 -44t-41 -17q-21 0 -34 13.5zM394 795.5q-13 13.5 -13 33.5q0 26 17.5 43.5t40.5 17.5q21 0 34 -13.5t13 -33.5q0 -26 -17 -43.5t-41 -17.5q-21 0 -34 13.5z" />
    <glyph glyph-name="uni01D7" unicode="&#x1d7;" horiz-adv-x="534" 
d="M456 181q-8 -53 -37 -97t-77.5 -70t-111.5 -26q-57 0 -97 23t-60 62t-20 85q0 10 2 30l72 501h89l-70 -505q-2 -18 -2 -26q0 -43 23.5 -68t69.5 -25q56 0 89.5 35t41.5 90l69 499h90zM432 1010l48 -47l-134 -131l-33 29zM213 761.5q-13 13.5 -13 33.5q0 26 17.5 43.5
t40.5 17.5q21 0 34 -13.5t13 -33.5q0 -27 -17 -44t-41 -17q-21 0 -34 13.5zM387 761.5q-13 13.5 -13 33.5q0 26 17.5 43.5t40.5 17.5q21 0 34 -13.5t13 -33.5q0 -26 -17 -43.5t-41 -17.5q-21 0 -34 13.5z" />
    <glyph glyph-name="uni01D9" unicode="&#x1d9;" horiz-adv-x="534" 
d="M456 181q-8 -53 -37 -97t-77.5 -70t-111.5 -26q-57 0 -97 23t-60 62t-20 85q0 10 2 30l72 501h89l-70 -505q-2 -18 -2 -26q0 -43 23.5 -68t69.5 -25q56 0 89.5 35t41.5 90l69 499h90zM465 1014l36 -40l-129 -113h-55l-96 117l37 36l94 -81zM213 761.5q-13 13.5 -13 33.5
q0 26 17.5 43.5t40.5 17.5q21 0 34 -13.5t13 -33.5q0 -27 -17 -44t-41 -17q-21 0 -34 13.5zM387 761.5q-13 13.5 -13 33.5q0 26 17.5 43.5t40.5 17.5q21 0 34 -13.5t13 -33.5q0 -26 -17 -43.5t-41 -17.5q-21 0 -34 13.5z" />
    <glyph glyph-name="uni01DB" unicode="&#x1db;" horiz-adv-x="534" 
d="M456 181q-8 -53 -37 -97t-77.5 -70t-111.5 -26q-57 0 -97 23t-60 62t-20 85q0 10 2 30l72 501h89l-70 -505q-2 -18 -2 -26q0 -43 23.5 -68t69.5 -25q56 0 89.5 35t41.5 90l69 499h90zM299 1008l78 -150l-38 -26l-99 134zM211 761.5q-13 13.5 -13 33.5q0 26 17.5 43.5
t40.5 17.5q21 0 34 -13.5t13 -33.5q0 -27 -17 -44t-41 -17q-21 0 -34 13.5zM385 761.5q-13 13.5 -13 33.5q0 26 17.5 43.5t40.5 17.5q21 0 34 -13.5t13 -33.5q0 -26 -17 -43.5t-41 -17.5q-21 0 -34 13.5z" />
    <glyph glyph-name="uni01D5" unicode="&#x1d5;" horiz-adv-x="534" 
d="M456 181q-8 -53 -37 -97t-77.5 -70t-111.5 -26q-57 0 -97 23t-60 62t-20 85q0 10 2 30l72 501h89l-70 -505q-2 -18 -2 -26q0 -43 23.5 -68t69.5 -25q56 0 89.5 35t41.5 90l69 499h90zM209 760.5q-13 13.5 -13 33.5q0 26 17.5 43.5t40.5 17.5q21 0 34 -13.5t13 -33.5
q0 -27 -17 -44t-41 -17q-21 0 -34 13.5zM383 760.5q-13 13.5 -13 33.5q0 26 17.5 43.5t40.5 17.5q21 0 34 -13.5t13 -33.5q0 -26 -17 -43.5t-41 -17.5q-21 0 -34 13.5zM461 904h-226l10 66h226z" />
    <glyph glyph-name="uni1EE4" unicode="&#x1ee4;" horiz-adv-x="534" 
d="M456 181q-8 -53 -37 -97t-77.5 -70t-111.5 -26q-57 0 -97 23t-60 62t-20 85q0 10 2 30l72 501h89l-70 -505q-2 -18 -2 -26q0 -43 23.5 -68t69.5 -25q56 0 89.5 35t41.5 90l69 499h90zM254 -90.5q14 -14.5 14 -38.5q0 -30 -18.5 -48.5t-45.5 -18.5q-25 0 -39 14.5
t-14 38.5q0 30 18.5 48.5t45.5 18.5q25 0 39 -14.5z" />
    <glyph glyph-name="Ugrave" unicode="&#xd9;" horiz-adv-x="534" 
d="M456 181q-8 -53 -37 -97t-77.5 -70t-111.5 -26q-57 0 -97 23t-60 62t-20 85q0 10 2 30l72 501h89l-70 -505q-2 -18 -2 -26q0 -43 23.5 -68t69.5 -25q56 0 89.5 35t41.5 90l69 499h90zM296 901l150 -101l-29 -44l-165 76z" />
    <glyph glyph-name="uni1EE6" unicode="&#x1ee6;" horiz-adv-x="534" 
d="M456 181q-8 -53 -37 -97t-77.5 -70t-111.5 -26q-57 0 -97 23t-60 62t-20 85q0 10 2 30l72 501h89l-70 -505q-2 -18 -2 -26q0 -43 23.5 -68t69.5 -25q56 0 89.5 35t41.5 90l69 499h90zM317 847q32 5 48.5 16t16.5 36q0 29 -28 29q-13 0 -23 -3t-24 -10l-16 51
q18 11 35.5 16t40.5 5q39 0 62 -23.5t23 -60.5q0 -41 -20 -62.5t-58 -28.5l-7 -48h-60z" />
    <glyph glyph-name="Uhorn" unicode="&#x1af;" horiz-adv-x="559" 
d="M600 622q-30 -33 -88 -38l-56 -403q-8 -53 -37 -97t-77.5 -70t-111.5 -26q-57 0 -97 23t-60 62t-20 85q0 10 2 30l72 501h89l-70 -505q-2 -18 -2 -26q0 -43 23.5 -68t69.5 -25q56 0 89.5 35t41.5 90l69 499h90l-7 -49q23 6 33.5 24.5t10.5 50.5q0 21 -4 45l63 11
q7 -23 7 -57q0 -59 -30 -92z" />
    <glyph glyph-name="uni1EE8" unicode="&#x1ee8;" horiz-adv-x="559" 
d="M450 831l-187 -76l-23 45l173 102zM600 622q-30 -33 -88 -38l-56 -403q-8 -53 -37 -97t-77.5 -70t-111.5 -26q-57 0 -97 23t-60 62t-20 85q0 10 2 30l72 501h89l-70 -505q-2 -18 -2 -26q0 -43 23.5 -68t69.5 -25q56 0 89.5 35t41.5 90l69 499h90l-7 -49q23 6 33.5 24.5
t10.5 50.5q0 21 -4 45l63 11q7 -23 7 -57q0 -59 -30 -92z" />
    <glyph glyph-name="uni1EF0" unicode="&#x1ef0;" horiz-adv-x="559" 
d="M600 622q-30 -33 -88 -38l-56 -403q-8 -53 -37 -97t-77.5 -70t-111.5 -26q-57 0 -97 23t-60 62t-20 85q0 10 2 30l72 501h89l-70 -505q-2 -18 -2 -26q0 -43 23.5 -68t69.5 -25q56 0 89.5 35t41.5 90l69 499h90l-7 -49q23 6 33.5 24.5t10.5 50.5q0 21 -4 45l63 11
q7 -23 7 -57q0 -59 -30 -92zM254 -90.5q14 -14.5 14 -38.5q0 -30 -18.5 -48.5t-45.5 -18.5q-25 0 -39 14.5t-14 38.5q0 30 18.5 48.5t45.5 18.5q25 0 39 -14.5z" />
    <glyph glyph-name="uni1EEA" unicode="&#x1eea;" horiz-adv-x="559" 
d="M446 800l-29 -44l-165 76l44 69zM600 622q-30 -33 -88 -38l-56 -403q-8 -53 -37 -97t-77.5 -70t-111.5 -26q-57 0 -97 23t-60 62t-20 85q0 10 2 30l72 501h89l-70 -505q-2 -18 -2 -26q0 -43 23.5 -68t69.5 -25q56 0 89.5 35t41.5 90l69 499h90l-7 -49q23 6 33.5 24.5
t10.5 50.5q0 21 -4 45l63 11q7 -23 7 -57q0 -59 -30 -92z" />
    <glyph glyph-name="uni1EEC" unicode="&#x1eec;" horiz-adv-x="559" 
d="M331 925q-10 -3 -24 -10l-16 51q18 11 35.5 16t40.5 5q39 0 62 -23.5t23 -60.5q0 -41 -20 -62.5t-58 -28.5l-7 -48h-60l10 83q32 5 48.5 16t16.5 36q0 29 -28 29q-13 0 -23 -3zM600 622q-30 -33 -88 -38l-56 -403q-8 -53 -37 -97t-77.5 -70t-111.5 -26q-57 0 -97 23
t-60 62t-20 85q0 10 2 30l72 501h89l-70 -505q-2 -18 -2 -26q0 -43 23.5 -68t69.5 -25q56 0 89.5 35t41.5 90l69 499h90l-7 -49q23 6 33.5 24.5t10.5 50.5q0 21 -4 45l63 11q7 -23 7 -57q0 -59 -30 -92z" />
    <glyph glyph-name="uni1EEE" unicode="&#x1eee;" horiz-adv-x="559" 
d="M274 820q-11 -11 -26 -33l-45 27q46 84 97 84q18 0 30.5 -7t28.5 -21q11 -10 19 -15t17 -5q12 0 22.5 10t25.5 33l46 -27q-42 -83 -96 -83q-17 0 -30.5 7.5t-28.5 20.5q-12 10 -20 15t-17 5q-12 0 -23 -11zM600 622q-30 -33 -88 -38l-56 -403q-8 -53 -37 -97t-77.5 -70
t-111.5 -26q-57 0 -97 23t-60 62t-20 85q0 10 2 30l72 501h89l-70 -505q-2 -18 -2 -26q0 -43 23.5 -68t69.5 -25q56 0 89.5 35t41.5 90l69 499h90l-7 -49q23 6 33.5 24.5t10.5 50.5q0 21 -4 45l63 11q7 -23 7 -57q0 -59 -30 -92z" />
    <glyph glyph-name="Uhungarumlaut" unicode="&#x170;" horiz-adv-x="534" 
d="M456 181q-8 -53 -37 -97t-77.5 -70t-111.5 -26q-57 0 -97 23t-60 62t-20 85q0 10 2 30l72 501h89l-70 -505q-2 -18 -2 -26q0 -43 23.5 -68t69.5 -25q56 0 89.5 35t41.5 90l69 499h90zM458 956l63 -40l-110 -155l-48 24zM332 955l62 -39l-102 -150l-48 24z" />
    <glyph glyph-name="uni0216" unicode="&#x216;" horiz-adv-x="534" 
d="M456 181q-8 -53 -37 -97t-77.5 -70t-111.5 -26q-57 0 -97 23t-60 62t-20 85q0 10 2 30l72 501h89l-70 -505q-2 -18 -2 -26q0 -43 23.5 -68t69.5 -25q56 0 89.5 35t41.5 90l69 499h90zM212 792q17 62 55 95t89 33q53 0 82 -35.5t27 -97.5l-54 -8q-6 74 -61 74
q-58 0 -85 -78z" />
    <glyph glyph-name="Umacron" unicode="&#x16a;" horiz-adv-x="534" 
d="M456 181q-8 -53 -37 -97t-77.5 -70t-111.5 -26q-57 0 -97 23t-60 62t-20 85q0 10 2 30l72 501h89l-70 -505q-2 -18 -2 -26q0 -43 23.5 -68t69.5 -25q56 0 89.5 35t41.5 90l69 499h90zM453 794h-226l10 66h226z" />
    <glyph glyph-name="Uogonek" unicode="&#x172;" horiz-adv-x="534" 
d="M527 689l-71 -508q-9 -64 -50 -114t-105 -69q-58 -31 -79.5 -58t-21.5 -58q0 -45 44 -45q23 0 50 7l-11 -67q-30 -7 -53 -7q-46 0 -74 26.5t-28 67.5q0 39 23 70.5t66 53.5q-79 4 -121.5 52.5t-42.5 117.5q0 10 2 30l72 501h89l-70 -505q-2 -18 -2 -26q0 -43 23.5 -68
t69.5 -25q56 0 89.5 35t41.5 90l69 499h90z" />
    <glyph glyph-name="uni01B1" unicode="&#x1b1;" horiz-adv-x="585" 
d="M106.5 53.5q-52.5 64.5 -52.5 180.5q0 124 34.5 223.5t130.5 157.5h-94l10 74h182l-10 -75q-91 -40 -126.5 -150.5t-35.5 -229.5q0 -86 28 -129t81 -43q76 0 123 60.5t66.5 148t19.5 175.5q0 69 -17.5 106t-57.5 64l10 73h182l-10 -74h-98q44 -33 63 -72.5t19 -99.5
q0 -105 -31.5 -209.5t-100 -174.5t-172.5 -70q-91 0 -143.5 64.5z" />
    <glyph glyph-name="Uring" unicode="&#x16e;" horiz-adv-x="534" 
d="M456 181q-8 -53 -37 -97t-77.5 -70t-111.5 -26q-57 0 -97 23t-60 62t-20 85q0 10 2 30l72 501h89l-70 -505q-2 -18 -2 -26q0 -43 23.5 -68t69.5 -25q56 0 89.5 35t41.5 90l69 499h90zM423 933q24 -26 24 -67q0 -49 -30.5 -81.5t-77.5 -32.5q-39 0 -63 26t-24 67
q0 49 30.5 81.5t77.5 32.5q39 0 63 -26zM320.5 894q-13.5 -19 -13.5 -48q0 -22 9 -35t26 -13q23 0 36.5 19t13.5 48q0 23 -9 35.5t-26 12.5q-23 0 -36.5 -19z" />
    <glyph glyph-name="Utilde" unicode="&#x168;" horiz-adv-x="534" 
d="M456 181q-8 -53 -37 -97t-77.5 -70t-111.5 -26q-57 0 -97 23t-60 62t-20 85q0 10 2 30l72 501h89l-70 -505q-2 -18 -2 -26q0 -43 23.5 -68t69.5 -25q56 0 89.5 35t41.5 90l69 499h90zM362.5 790.5q-13.5 7.5 -28.5 20.5q-12 10 -20 15t-17 5q-12 0 -23 -11t-26 -33
l-45 27q45 84 97 84q18 0 30.5 -7t28.5 -21q11 -10 19 -15t17 -5q12 0 22.5 10t25.5 33l46 -27q-42 -83 -96 -83q-17 0 -30.5 7.5z" />
    <glyph glyph-name="uni1E78" unicode="&#x1e78;" horiz-adv-x="534" 
d="M456 181q-8 -53 -37 -97t-77.5 -70t-111.5 -26q-57 0 -97 23t-60 62t-20 85q0 10 2 30l72 501h89l-70 -505q-2 -18 -2 -26q0 -43 23.5 -68t69.5 -25q56 0 89.5 35t41.5 90l69 499h90zM362.5 765.5q-13.5 7.5 -28.5 20.5q-12 10 -20 15t-17 5q-12 0 -23 -11t-26 -33
l-45 27q46 84 97 84q18 0 30.5 -7t28.5 -21q11 -10 19 -15t17 -5q12 0 22.5 10t25.5 33l46 -27q-42 -83 -96 -83q-17 0 -30.5 7.5zM431 1049l37 -71l-187 -76l-23 45z" />
    <glyph glyph-name="V" unicode="V" horiz-adv-x="467" 
d="M519 689l-268 -689h-106l-77 689h92l51 -591l214 591h94z" />
    <glyph glyph-name="uni01B2" unicode="&#x1b2;" horiz-adv-x="529" 
d="M490.5 675q23.5 -25 23.5 -70q0 -8 -2 -26l-43 -313q-12 -85 -47 -148t-87.5 -96.5t-117.5 -33.5q-77 0 -120.5 47.5t-43.5 121.5q0 17 3 35l70 497h90l-69 -498q-2 -12 -2 -33q0 -45 20 -69t58 -24q61 0 102 55t55 159l41 310q1 5 1 12q0 14 -5 20t-17 6q-14 0 -29 -6
l-12 62q29 17 65 17q43 0 66.5 -25z" />
    <glyph glyph-name="uni0245" unicode="&#x245;" horiz-adv-x="482" 
d="M358 689l79 -689h-91l-55 615l-225 -615h-95l274 689h113z" />
    <glyph glyph-name="W" unicode="W" horiz-adv-x="683" 
d="M721 689l-206 -689h-115l-15 584l-176 -584h-115l-12 689h85l-1 -607l185 607h99l16 -607l172 607h83z" />
    <glyph glyph-name="Wacute" unicode="&#x1e82;" horiz-adv-x="683" 
d="M721 689l-206 -689h-115l-15 584l-176 -584h-115l-12 689h85l-1 -607l185 607h99l16 -607l172 607h83zM489 902l37 -71l-187 -76l-23 45z" />
    <glyph glyph-name="Wcircumflex" unicode="&#x174;" horiz-adv-x="683" 
d="M721 689l-206 -689h-115l-15 584l-176 -584h-115l-12 689h85l-1 -607l185 607h99l16 -607l172 607h83zM307 759l-36 40l129 113h55l96 -117l-37 -36l-94 81z" />
    <glyph glyph-name="Wdieresis" unicode="&#x1e84;" horiz-adv-x="683" 
d="M721 689l-206 -689h-115l-15 584l-176 -584h-115l-12 689h85l-1 -607l185 607h99l16 -607l172 607h83zM296 795.5q-13 13.5 -13 33.5q0 26 17.5 43.5t40.5 17.5q21 0 34 -13.5t13 -33.5q0 -27 -17 -44t-41 -17q-21 0 -34 13.5zM470 795.5q-13 13.5 -13 33.5
q0 26 17.5 43.5t40.5 17.5q21 0 34 -13.5t13 -33.5q0 -26 -17 -43.5t-41 -17.5q-21 0 -34 13.5z" />
    <glyph glyph-name="Wgrave" unicode="&#x1e80;" horiz-adv-x="683" 
d="M721 689l-206 -689h-115l-15 584l-176 -584h-115l-12 689h85l-1 -607l185 607h99l16 -607l172 607h83zM372 901l150 -101l-29 -44l-165 76z" />
    <glyph glyph-name="uni2C72" unicode="&#x2c72;" horiz-adv-x="706" 
d="M209 0l176 584l15 -584h114l162 580q7 26 19 37.5t30 11.5q12 0 21.5 -4t21.5 -13l43 45q-36 43 -91 43q-93 0 -120 -104l-135 -516l-15 609h-99l-185 -607l1 607h-85l12 -689h115z" />
    <glyph glyph-name="uni01F7" unicode="&#x1f7;" horiz-adv-x="469" 
d="M450 657.5q39 -42.5 39 -118.5q0 -111 -67 -180t-189 -123l-75 -33l-29 -203h-90l97 689h90l-6 -46q57 57 131 57q60 0 99 -42.5zM352.5 404.5q42.5 53.5 42.5 131.5q0 90 -71 90q-61 0 -115 -59l-41 -289l64 33q78 40 120.5 93.5z" />
    <glyph glyph-name="X" unicode="X" horiz-adv-x="444" 
d="M485 689l-197 -318l117 -371h-95l-80 308l-166 -308h-99l217 367l-105 322h95l69 -265l146 265h98z" />
    <glyph glyph-name="Y" unicode="Y" horiz-adv-x="454" 
d="M512 689l-240 -424l-37 -265h-91l37 264l-119 425h94l80 -346l177 346h99z" />
    <glyph glyph-name="Yacute" unicode="&#xdd;" horiz-adv-x="454" 
d="M512 689l-240 -424l-37 -265h-91l37 264l-119 425h94l80 -346l177 346h99zM372 902l37 -71l-187 -76l-23 45z" />
    <glyph glyph-name="Ycircumflex" unicode="&#x176;" horiz-adv-x="454" 
d="M512 689l-240 -424l-37 -265h-91l37 264l-119 425h94l80 -346l177 346h99zM190 759l-36 40l129 113h55l96 -117l-37 -36l-94 81z" />
    <glyph glyph-name="Ydieresis" unicode="&#x178;" horiz-adv-x="454" 
d="M512 689l-240 -424l-37 -265h-91l37 264l-119 425h94l80 -346l177 346h99zM179 795.5q-13 13.5 -13 33.5q0 26 17.5 43.5t40.5 17.5q21 0 34 -13.5t13 -33.5q0 -27 -17 -44t-41 -17q-21 0 -34 13.5zM353 795.5q-13 13.5 -13 33.5q0 26 17.5 43.5t40.5 17.5q21 0 34 -13.5
t13 -33.5q0 -26 -17 -43.5t-41 -17.5q-21 0 -34 13.5z" />
    <glyph glyph-name="uni1EF4" unicode="&#x1ef4;" horiz-adv-x="454" 
d="M512 689l-240 -424l-37 -265h-91l37 264l-119 425h94l80 -346l177 346h99zM215 -90.5q14 -14.5 14 -38.5q0 -30 -18.5 -48.5t-45.5 -18.5q-25 0 -39 14.5t-14 38.5q0 30 18.5 48.5t45.5 18.5q25 0 39 -14.5z" />
    <glyph glyph-name="Ygrave" unicode="&#x1ef2;" horiz-adv-x="454" 
d="M512 689l-240 -424l-37 -265h-91l37 264l-119 425h94l80 -346l177 346h99zM255 901l150 -101l-29 -44l-165 76z" />
    <glyph glyph-name="uni01B3" unicode="&#x1b3;" horiz-adv-x="472" 
d="M181 264l-119 425h94l80 -346l125 258q26 53 54.5 76t70.5 23q55 0 91 -43l-43 -45q-12 9 -21.5 13t-21.5 4q-18 0 -30 -10.5t-26 -38.5l-162 -314l-38 -266h-91z" />
    <glyph glyph-name="uni1EF6" unicode="&#x1ef6;" horiz-adv-x="454" 
d="M512 689l-240 -424l-37 -265h-91l37 264l-119 425h94l80 -346l177 346h99zM276 847q32 5 48.5 16t16.5 36q0 29 -28 29q-13 0 -23 -3t-24 -10l-16 51q18 11 35.5 16t40.5 5q39 0 62 -23.5t23 -60.5q0 -41 -20 -62.5t-58 -28.5l-7 -48h-60z" />
    <glyph glyph-name="uni0232" unicode="&#x232;" horiz-adv-x="454" 
d="M512 689l-240 -424l-37 -265h-91l37 264l-119 425h94l80 -346l177 346h99zM412 794h-226l10 66h226z" />
    <glyph glyph-name="uni01A6" unicode="&#x1a6;" horiz-adv-x="504" 
d="M430.5 277q-35.5 -58 -103.5 -87l105 -313h-94l-94 293h-91l-24 -170h-90l97 689h90l-17 -123h61q96 0 146 -43.5t50 -119.5q0 -68 -35.5 -126zM225 241q80 0 114 46t34 112q0 50 -25 72.5t-79 22.5h-70l-36 -253h62z" />
    <glyph glyph-name="uni024E" unicode="&#x24e;" horiz-adv-x="454" 
d="M463 603h36l-10 -66h-63l-154 -272l-37 -265h-91l37 264l-76 273h-63l10 66h34l-24 86h92l21 -86h197l45 86h95zM237 343l101 194h-148z" />
    <glyph glyph-name="uni1EF8" unicode="&#x1ef8;" horiz-adv-x="454" 
d="M512 689l-240 -424l-37 -265h-91l37 264l-119 425h94l80 -346l177 346h99zM321.5 790.5q-13.5 7.5 -28.5 20.5q-12 10 -20 15t-17 5q-12 0 -23 -11t-26 -33l-45 27q45 84 97 84q18 0 30.5 -7t28.5 -21q11 -10 19 -15t17 -5q12 0 22.5 10t25.5 33l46 -27q-42 -83 -96 -83
q-17 0 -30.5 7.5z" />
    <glyph glyph-name="Z" unicode="Z" horiz-adv-x="425" 
d="M-15 0l11 73l351 539h-249l12 77h345l-12 -74l-351 -538l279 1l-23 -78h-363z" />
    <glyph glyph-name="Zacute" unicode="&#x179;" horiz-adv-x="425" 
d="M-15 0l11 73l351 539h-249l12 77h345l-12 -74l-351 -538l279 1l-23 -78h-363zM370 902l37 -71l-187 -76l-23 45z" />
    <glyph glyph-name="Zcaron" unicode="&#x17d;" horiz-adv-x="425" 
d="M-15 0l11 73l351 539h-249l12 77h345l-12 -74l-351 -538l279 1l-23 -78h-363zM413 907l36 -40l-129 -113h-55l-96 117l37 36l94 -81z" />
    <glyph glyph-name="Zdotaccent" unicode="&#x17b;" horiz-adv-x="425" 
d="M-15 0l11 73l351 539h-249l12 77h345l-12 -74l-351 -538l279 1l-23 -78h-363zM260 797.5q-14 14.5 -14 38.5q0 30 18.5 48.5t45.5 18.5q25 0 39 -14.5t14 -38.5q0 -30 -18.5 -48.5t-45.5 -18.5q-25 0 -39 14.5z" />
    <glyph glyph-name="uni1E92" unicode="&#x1e92;" horiz-adv-x="425" 
d="M-15 0l11 73l351 539h-249l12 77h345l-12 -74l-351 -538l279 1l-23 -78h-363zM192 -90.5q14 -14.5 14 -38.5q0 -30 -18.5 -48.5t-45.5 -18.5q-25 0 -39 14.5t-14 38.5q0 30 18.5 48.5t45.5 18.5q25 0 39 -14.5z" />
    <glyph glyph-name="uni0224" unicode="&#x224;" horiz-adv-x="423" 
d="M443 615l-351 -538l272 1l-11 -78l-12 -71q-12 -69 -49 -105t-92 -36q-34 0 -56.5 10.5t-42.5 28.5l37 54q17 -11 28.5 -16t27.5 -5q25 0 41.5 18t20.5 51l10 71h-281l11 73l351 539h-249l12 77h345z" />
    <glyph glyph-name="uni01B5" unicode="&#x1b5;" horiz-adv-x="425" 
d="M455 689l-12 -74l-153 -234h75l-10 -70h-110l-153 -234l279 1l-23 -78h-363l11 73l155 238h-81l10 70h117l150 231h-249l12 77h345z" />
    <glyph glyph-name="Cacute.loclPLK" horiz-adv-x="467" 
d="M439 682.5q36 -17.5 66 -52.5l-52 -50q-25 24 -48.5 35t-52.5 11q-72 0 -119 -60.5t-68.5 -150.5t-21.5 -181q0 -86 29 -127.5t79 -41.5q35 0 62 13.5t65 41.5l36 -59q-79 -73 -174 -73q-86 0 -138.5 66t-52.5 185q0 111 33 217t101.5 175t169.5 69q50 0 86 -17.5z
M413 924l60 -45l-128 -145l-38 27z" />
    <glyph glyph-name="Nacute.loclPLK" horiz-adv-x="553" 
d="M440 0h-118l-131 610q-3 -123 -25 -289l-44 -321h-83l97 689h118l132 -611q2 68 5.5 119.5t12.5 113.5l51 378h82zM405 924l60 -45l-128 -145l-38 27z" />
    <glyph glyph-name="Oacute.loclPLK" horiz-adv-x="574" 
d="M496.5 635q51.5 -65 51.5 -185q0 -109 -31.5 -215t-100 -176.5t-173.5 -70.5q-91 0 -143 65t-52 183q0 107 32 213.5t100.5 178.5t173.5 72q91 0 142.5 -65zM227 562q-46 -64 -66 -154.5t-20 -174.5q0 -170 108 -170q75 0 121 64.5t65.5 155t19.5 175.5q0 87 -27 127.5
t-81 40.5q-74 0 -120 -64zM414 924l60 -45l-128 -145l-38 27z" />
    <glyph glyph-name="Sacute.loclPLK" horiz-adv-x="449" 
d="M460 618l-54 -49q-28 29 -55.5 43t-61.5 14q-51 0 -83.5 -34t-32.5 -88q0 -39 19.5 -61t75.5 -48q71 -33 105 -73t34 -107q0 -61 -29.5 -113t-83.5 -83t-123 -31q-59 0 -104.5 23.5t-82.5 68.5l56 49q30 -34 60.5 -50t73.5 -16q62 0 101 40t39 109q0 44 -21 68.5
t-80 52.5q-72 34 -102 70.5t-30 96.5q0 50 26.5 96t75 75t109.5 29q102 0 168 -82zM351 924l60 -45l-128 -145l-38 27z" />
    <glyph glyph-name="Zacute.loclPLK" horiz-adv-x="425" 
d="M-15 0l11 73l351 539h-249l12 77h345l-12 -74l-351 -538l279 1l-23 -78h-363zM344 924l60 -45l-128 -145l-38 27z" />
    <glyph glyph-name="Eng.ss01" horiz-adv-x="545" 
d="M475.5 658q36.5 -42 36.5 -105q0 -10 -2 -30l-72 -523l-11 -71q-10 -69 -49 -105t-96 -36q-34 0 -56.5 10.5t-42.5 28.5l38 54q16 -11 27.5 -15.5t27.5 -4.5q25 0 42 18t21 50l9 71l72 523q2 20 2 28q0 75 -67 75q-38 0 -72 -21.5t-77 -63.5l-77 -541h-90l97 689h78
l-3 -69q38 38 77 59t84 21q67 0 103.5 -42z" />
    <glyph glyph-name="uni019D.ss01" horiz-adv-x="545" 
d="M475.5 658q36.5 -42 36.5 -105q0 -10 -2 -30l-72 -523h-90l72 523q2 20 2 28q0 75 -67 75q-38 0 -72 -21.5t-77 -63.5l-77 -541l-11 -71q-10 -69 -49 -105t-96 -36q-34 0 -56.5 10.5t-42.5 28.5l38 54q16 -11 27.5 -15.5t27.5 -4.5q25 0 42 18t21 50l9 71l97 689h78
l-3 -69q38 38 77 59t84 21q67 0 103.5 -42z" />
    <glyph glyph-name="uni2C64.ss01" horiz-adv-x="342" 
d="M402 690l-27 -87q-24 8 -45 8q-50 0 -81.5 -37.5t-56.5 -118.5l-63 -455l-10 -77q-1 -6 -1 -17q0 -45 38 -45q17 0 29 4t30 15l29 -56q-45 -36 -101 -36q-54 0 -84.5 30t-30.5 85q0 8 2 30l9 67l97 689h78l-5 -87q25 50 58 74t81 24q32 0 54 -10z" />
    <glyph glyph-name="uni0181.ss02" horiz-adv-x="475" 
d="M397.5 381q52.5 -47 52.5 -133q0 -65 -25 -121t-80.5 -91.5t-143.5 -35.5h-162l97 689h315l-22 -75h-214l-26 -186h60q96 0 148.5 -47zM322.5 123q32.5 50 32.5 124q0 57 -26.5 83.5t-78.5 26.5h-71l-40 -284h72q79 0 111.5 50z" />
    <glyph glyph-name="uniA78D.ss02" horiz-adv-x="496" 
d="M383 0h-90l38 268h-288l60 421h90l-49 -346h197l49 346h90z" />
    <glyph glyph-name="uni0299" unicode="&#x299;" horiz-adv-x="440" 
d="M385.5 329.5q-28.5 -31.5 -86.5 -44.5q102 -10 102 -101q0 -87 -59 -135.5t-156 -48.5h-151l73 521q80 17 145 17q75 0 118 -33.5t43 -90.5q0 -53 -28.5 -84.5zM299.5 337q26.5 25 26.5 72q0 32 -18.5 46.5t-56.5 14.5q-33 0 -64 -6l-21 -152h58q49 0 75.5 25zM291 233
q-21 13 -68 13h-66l-25 -177h52q57 0 92.5 26t35.5 88q0 37 -21 50z" />
    <glyph glyph-name="uni0262" unicode="&#x262;" horiz-adv-x="462" 
d="M367 522q34 -17 63 -49l-52 -51q-22 23 -44 33.5t-51 10.5q-50 0 -84.5 -40.5t-51.5 -106t-17 -141.5q0 -62 21.5 -90.5t63.5 -28.5q40 0 82 22l20 146h-75l1 69h167l-36 -255q-81 -52 -165 -52q-83 0 -126.5 50t-43.5 143q0 104 31.5 185t87.5 126.5t128 45.5
q47 0 81 -17z" />
    <glyph glyph-name="uni029B" unicode="&#x29b;" horiz-adv-x="457" 
d="M601 710l-38 -52q-14 10 -26.5 15t-29.5 5q-49 0 -59 -72l-18 -133l-46 -45q-28 20 -50.5 29t-50.5 9q-50 0 -84.5 -40.5t-51.5 -106t-17 -141.5q0 -62 21.5 -90.5t63.5 -28.5q40 0 82 22l20 146h-75l1 69h167l-36 -255q-81 -52 -165 -52q-83 0 -126.5 50t-43.5 143
q0 104 31 185t87 126.5t127 45.5q42 0 71 -15l12 85q10 70 45 105t92 35q56 0 97 -39z" />
    <glyph glyph-name="uni029C" unicode="&#x29c;" horiz-adv-x="482" 
d="M286 0l33 234h-164l-33 -234h-87l74 527h87l-31 -222h164l31 222h87l-74 -527h-87z" />
    <glyph glyph-name="uni026A" unicode="&#x26a;" horiz-adv-x="264" 
d="M275 459h-73l-55 -392h74l-9 -67h-234l10 67h72l55 392h-73l10 68h233z" />
    <glyph glyph-name="uni029F" unicode="&#x29f;" horiz-adv-x="351" 
d="M196 527l-62 -452h187l-22 -75h-264l74 527h87z" />
    <glyph glyph-name="uni0274" unicode="&#x274;" horiz-adv-x="484" 
d="M375 0h-108l-105 439q-2 -107 -19 -227l-30 -212h-78l74 527h107l105 -439q0 91 12 174l37 265h79z" />
    <glyph glyph-name="uni0276" unicode="&#x276;" horiz-adv-x="609" 
d="M608 458h-196q31 -46 31 -115q0 -13 -2 -41h123l-10 -68h-122q-24 -109 -84 -166h219l-10 -68h-294q-28 -12 -64 -12q-76 0 -118.5 52.5t-42.5 143.5q0 82 25.5 163.5t80.5 136t138 54.5q35 0 58 -11h288zM291.5 106.5q33.5 47.5 48 115t14.5 129.5q0 116 -76 116
q-55 0 -88.5 -47t-47.5 -114t-14 -130q0 -117 76 -117q54 0 87.5 47.5z" />
    <glyph glyph-name="uni0280" unicode="&#x280;" horiz-adv-x="431" 
d="M365.5 282.5q-29.5 -41.5 -82.5 -61.5l86 -221h-87l-75 204h-59l-28 -204h-85l74 527h120q79 0 122.5 -36.5t43.5 -104.5q0 -62 -29.5 -103.5zM158 271h47q51 0 77 28.5t26 84.5q0 40 -20 57.5t-63 17.5h-41z" />
    <glyph glyph-name="uni0281" unicode="&#x281;" horiz-adv-x="433" 
d="M366 186q0 -91 -55 -138.5t-148 -47.5h-128l74 527h85l-29 -206h60l131 206h89l-150 -225q71 -35 71 -116zM249.5 97q28.5 30 28.5 86q0 39 -19 56t-56 17h-47l-27 -189h40q52 0 80.5 30z" />
    <glyph glyph-name="uni028F" unicode="&#x28f;" horiz-adv-x="402" 
d="M429 527l-194 -328l-28 -199h-87l28 198l-101 329h91l62 -263l135 263h94z" />
    <glyph glyph-name="a" unicode="a" horiz-adv-x="480" 
d="M443 499l-55 -380q-3 -18 -3 -31q0 -15 5 -24t19 -15l-29 -61q-69 11 -76 81q-29 -40 -59 -60.5t-71 -20.5q-64 0 -101 49t-37 132q0 88 27.5 172.5t86.5 140.5t147 56q70 0 146 -39zM200 423.5q-38 -44.5 -56.5 -113.5t-18.5 -141q0 -58 17 -84.5t51 -26.5q31 0 57 23.5
t56 68.5l43 308q-27 10 -54 10q-57 0 -95 -44.5z" />
    <glyph glyph-name="aacute" unicode="&#xe1;" horiz-adv-x="480" 
d="M443 499l-55 -380q-3 -18 -3 -31q0 -15 5 -24t19 -15l-29 -61q-69 11 -76 81q-29 -40 -59 -60.5t-71 -20.5q-64 0 -101 49t-37 132q0 88 27.5 172.5t86.5 140.5t147 56q70 0 146 -39zM200 423.5q-38 -44.5 -56.5 -113.5t-18.5 -141q0 -58 17 -84.5t51 -26.5q31 0 57 23.5
t56 68.5l43 308q-27 10 -54 10q-57 0 -95 -44.5zM393 796l37 -71l-187 -86l-25 45z" />
    <glyph glyph-name="abreve" unicode="&#x103;" horiz-adv-x="480" 
d="M443 499l-55 -380q-3 -18 -3 -31q0 -15 5 -24t19 -15l-29 -61q-69 11 -76 81q-29 -40 -59 -60.5t-71 -20.5q-64 0 -101 49t-37 132q0 88 27.5 172.5t86.5 140.5t147 56q70 0 146 -39zM200 423.5q-38 -44.5 -56.5 -113.5t-18.5 -141q0 -58 17 -84.5t51 -26.5q31 0 57 23.5
t56 68.5l43 308q-27 10 -54 10q-57 0 -95 -44.5zM232.5 680q-30.5 36 -26.5 97l55 8q3 -38 16.5 -55.5t41.5 -17.5q29 0 51 20t35 57l52 -17q-13 -61 -50.5 -94.5t-89.5 -33.5q-54 0 -84.5 36z" />
    <glyph glyph-name="uni1EAF" unicode="&#x1eaf;" horiz-adv-x="480" 
d="M414 911l48 -47l-134 -131l-33 29zM228 632q-29 34 -26 89l53 8q4 -32 18 -48t42 -16q57 0 84 68l53 -18q-13 -54 -50 -85.5t-90 -31.5q-55 0 -84 34zM443 499l-55 -380q-3 -18 -3 -31q0 -15 5 -24t19 -15l-29 -61q-69 11 -76 81q-29 -40 -59 -60.5t-71 -20.5
q-64 0 -101 49t-37 132q0 88 27.5 172.5t86.5 140.5t147 56q70 0 146 -39zM200 423.5q-38 -44.5 -56.5 -113.5t-18.5 -141q0 -58 17 -84.5t51 -26.5q31 0 57 23.5t56 68.5l43 308q-27 10 -54 10q-57 0 -95 -44.5z" />
    <glyph glyph-name="uni1EB7" unicode="&#x1eb7;" horiz-adv-x="480" 
d="M443 499l-55 -380q-3 -18 -3 -31q0 -15 5 -24t19 -15l-29 -61q-69 11 -76 81q-29 -40 -59 -60.5t-71 -20.5q-64 0 -101 49t-37 132q0 88 27.5 172.5t86.5 140.5t147 56q70 0 146 -39zM200 423.5q-38 -44.5 -56.5 -113.5t-18.5 -141q0 -58 17 -84.5t51 -26.5q31 0 57 23.5
t56 68.5l43 308q-27 10 -54 10q-57 0 -95 -44.5zM232.5 680q-30.5 36 -26.5 97l55 8q3 -38 16.5 -55.5t41.5 -17.5q29 0 51 20t35 57l52 -17q-13 -61 -50.5 -94.5t-89.5 -33.5q-54 0 -84.5 36zM246 -90.5q14 -14.5 14 -38.5q0 -30 -18.5 -48.5t-45.5 -18.5q-25 0 -39 14.5
t-14 38.5q0 30 18.5 48.5t45.5 18.5q25 0 39 -14.5z" />
    <glyph glyph-name="uni1EB1" unicode="&#x1eb1;" horiz-adv-x="480" 
d="M277 909l78 -150l-38 -26l-99 134zM228 632q-29 34 -26 89l53 8q4 -32 18 -48t42 -16q57 0 84 68l53 -18q-13 -54 -50 -85.5t-90 -31.5q-55 0 -84 34zM443 499l-55 -380q-3 -18 -3 -31q0 -15 5 -24t19 -15l-29 -61q-69 11 -76 81q-29 -40 -59 -60.5t-71 -20.5
q-64 0 -101 49t-37 132q0 88 27.5 172.5t86.5 140.5t147 56q70 0 146 -39zM200 423.5q-38 -44.5 -56.5 -113.5t-18.5 -141q0 -58 17 -84.5t51 -26.5q31 0 57 23.5t56 68.5l43 308q-27 10 -54 10q-57 0 -95 -44.5z" />
    <glyph glyph-name="uni1EB3" unicode="&#x1eb3;" horiz-adv-x="480" 
d="M443 499l-55 -380q-3 -18 -3 -31q0 -15 5 -24t19 -15l-29 -61q-69 11 -76 81q-29 -40 -59 -60.5t-71 -20.5q-64 0 -101 49t-37 132q0 88 27.5 172.5t86.5 140.5t147 56q70 0 146 -39zM200 423.5q-38 -44.5 -56.5 -113.5t-18.5 -141q0 -58 17 -84.5t51 -26.5q31 0 57 23.5
t56 68.5l43 308q-27 10 -54 10q-57 0 -95 -44.5zM230 632q-29 34 -26 89l53 8q4 -32 18 -48t42 -16q57 0 84 68l53 -18q-13 -54 -50 -85.5t-90 -31.5q-55 0 -84 34zM308 813q32 5 48.5 16t16.5 36q0 29 -28 29q-13 0 -23 -3t-24 -10l-16 51q18 11 35.5 16t40.5 5
q39 0 62 -23.5t23 -60.5q0 -41 -20 -62.5t-58 -28.5l-9 -57h-60z" />
    <glyph glyph-name="uni1EB5" unicode="&#x1eb5;" horiz-adv-x="480" 
d="M346.5 773.5q-13.5 7.5 -28.5 20.5q-12 10 -20 15t-17 5q-12 0 -23 -11t-26 -33l-45 27q45 84 97 84q18 0 30.5 -7t28.5 -21q11 -10 19 -15t17 -5q12 0 22.5 10t25.5 33l46 -27q-42 -83 -96 -83q-17 0 -30.5 7.5zM220 632q-29 34 -26 89l53 8q4 -32 18 -48t42 -16
q57 0 84 68l53 -18q-13 -54 -50 -85.5t-90 -31.5q-55 0 -84 34zM443 499l-55 -380q-3 -18 -3 -31q0 -15 5 -24t19 -15l-29 -61q-69 11 -76 81q-29 -40 -59 -60.5t-71 -20.5q-64 0 -101 49t-37 132q0 88 27.5 172.5t86.5 140.5t147 56q70 0 146 -39zM200 423.5
q-38 -44.5 -56.5 -113.5t-18.5 -141q0 -58 17 -84.5t51 -26.5q31 0 57 23.5t56 68.5l43 308q-27 10 -54 10q-57 0 -95 -44.5z" />
    <glyph glyph-name="uni01CE" unicode="&#x1ce;" horiz-adv-x="480" 
d="M443 499l-55 -380q-3 -18 -3 -31q0 -15 5 -24t19 -15l-29 -61q-69 11 -76 81q-29 -40 -59 -60.5t-71 -20.5q-64 0 -101 49t-37 132q0 88 27.5 172.5t86.5 140.5t147 56q70 0 146 -39zM200 423.5q-38 -44.5 -56.5 -113.5t-18.5 -141q0 -58 17 -84.5t51 -26.5q31 0 57 23.5
t56 68.5l43 308q-27 10 -54 10q-57 0 -95 -44.5zM434 779l33 -39l-128 -112h-55l-97 112l38 39l91 -80z" />
    <glyph glyph-name="acircumflex" unicode="&#xe2;" horiz-adv-x="480" 
d="M443 499l-55 -380q-3 -18 -3 -31q0 -15 5 -24t19 -15l-29 -61q-69 11 -76 81q-29 -40 -59 -60.5t-71 -20.5q-64 0 -101 49t-37 132q0 88 27.5 172.5t86.5 140.5t147 56q70 0 146 -39zM200 423.5q-38 -44.5 -56.5 -113.5t-18.5 -141q0 -58 17 -84.5t51 -26.5q31 0 57 23.5
t56 68.5l43 308q-27 10 -54 10q-57 0 -95 -44.5zM214 638l-35 40l129 113h55l96 -117l-40 -36l-91 81z" />
    <glyph glyph-name="uni1EA5" unicode="&#x1ea5;" horiz-adv-x="480" 
d="M519 886l48 -47l-134 -131l-33 29zM204 588l-36 40l129 113h55l96 -117l-37 -36l-94 81zM443 499l-55 -380q-3 -18 -3 -31q0 -15 5 -24t19 -15l-29 -61q-69 11 -76 81q-29 -40 -59 -60.5t-71 -20.5q-64 0 -101 49t-37 132q0 88 27.5 172.5t86.5 140.5t147 56
q70 0 146 -39zM200 423.5q-38 -44.5 -56.5 -113.5t-18.5 -141q0 -58 17 -84.5t51 -26.5q31 0 57 23.5t56 68.5l43 308q-27 10 -54 10q-57 0 -95 -44.5z" />
    <glyph glyph-name="uni1EAD" unicode="&#x1ead;" horiz-adv-x="480" 
d="M443 499l-55 -380q-3 -18 -3 -31q0 -15 5 -24t19 -15l-29 -61q-69 11 -76 81q-29 -40 -59 -60.5t-71 -20.5q-64 0 -101 49t-37 132q0 88 27.5 172.5t86.5 140.5t147 56q70 0 146 -39zM200 423.5q-38 -44.5 -56.5 -113.5t-18.5 -141q0 -58 17 -84.5t51 -26.5q31 0 57 23.5
t56 68.5l43 308q-27 10 -54 10q-57 0 -95 -44.5zM214 638l-35 40l129 113h55l96 -117l-40 -36l-91 81zM246 -90.5q14 -14.5 14 -38.5q0 -30 -18.5 -48.5t-45.5 -18.5q-25 0 -39 14.5t-14 38.5q0 30 18.5 48.5t45.5 18.5q25 0 39 -14.5z" />
    <glyph glyph-name="uni1EA7" unicode="&#x1ea7;" horiz-adv-x="480" 
d="M167 884l78 -150l-38 -26l-99 134zM200 588l-36 40l129 113h55l96 -117l-37 -36l-94 81zM443 499l-55 -380q-3 -18 -3 -31q0 -15 5 -24t19 -15l-29 -61q-69 11 -76 81q-29 -40 -59 -60.5t-71 -20.5q-64 0 -101 49t-37 132q0 88 27.5 172.5t86.5 140.5t147 56
q70 0 146 -39zM200 423.5q-38 -44.5 -56.5 -113.5t-18.5 -141q0 -58 17 -84.5t51 -26.5q31 0 57 23.5t56 68.5l43 308q-27 10 -54 10q-57 0 -95 -44.5z" />
    <glyph glyph-name="uni1EA9" unicode="&#x1ea9;" horiz-adv-x="480" 
d="M443 499l-55 -380q-3 -18 -3 -31q0 -15 5 -24t19 -15l-29 -61q-69 11 -76 81q-29 -40 -59 -60.5t-71 -20.5q-64 0 -101 49t-37 132q0 88 27.5 172.5t86.5 140.5t147 56q70 0 146 -39zM200 423.5q-38 -44.5 -56.5 -113.5t-18.5 -141q0 -58 17 -84.5t51 -26.5q31 0 57 23.5
t56 68.5l43 308q-27 10 -54 10q-57 0 -95 -44.5zM200 588l-36 40l129 113h55l96 -117l-37 -36l-94 81zM420 804q32 5 48.5 16t16.5 36q0 29 -28 29q-13 0 -23 -3t-24 -10l-16 51q18 11 35.5 16t40.5 5q39 0 62 -23.5t23 -60.5q0 -41 -20 -62.5t-58 -28.5l-9 -57h-60z" />
    <glyph glyph-name="uni1EAB" unicode="&#x1eab;" horiz-adv-x="480" 
d="M356.5 771.5q-13.5 7.5 -28.5 20.5q-12 10 -20 15t-17 5q-12 0 -23 -11t-26 -33l-45 27q46 84 97 84q18 0 30.5 -7t28.5 -21q11 -10 19 -15t17 -5q12 0 22.5 10t25.5 33l46 -27q-42 -83 -96 -83q-17 0 -30.5 7.5zM205 578l-36 40l129 113h55l96 -117l-37 -36l-94 81z
M443 499l-55 -380q-3 -18 -3 -31q0 -15 5 -24t19 -15l-29 -61q-69 11 -76 81q-29 -40 -59 -60.5t-71 -20.5q-64 0 -101 49t-37 132q0 88 27.5 172.5t86.5 140.5t147 56q70 0 146 -39zM200 423.5q-38 -44.5 -56.5 -113.5t-18.5 -141q0 -58 17 -84.5t51 -26.5q31 0 57 23.5
t56 68.5l43 308q-27 10 -54 10q-57 0 -95 -44.5z" />
    <glyph glyph-name="uni0201" unicode="&#x201;" horiz-adv-x="480" 
d="M443 499l-55 -380q-3 -18 -3 -31q0 -15 5 -24t19 -15l-29 -61q-69 11 -76 81q-29 -40 -59 -60.5t-71 -20.5q-64 0 -101 49t-37 132q0 88 27.5 172.5t86.5 140.5t147 56q70 0 146 -39zM200 423.5q-38 -44.5 -56.5 -113.5t-18.5 -141q0 -58 17 -84.5t51 -26.5q31 0 57 23.5
t56 68.5l43 308q-27 10 -54 10q-57 0 -95 -44.5zM237 830l51 -175l-57 -20l-72 162zM364 829l43 -169l-57 -20l-65 157z" />
    <glyph glyph-name="adieresis" unicode="&#xe4;" horiz-adv-x="480" 
d="M443 499l-55 -380q-3 -18 -3 -31q0 -15 5 -24t19 -15l-29 -61q-69 11 -76 81q-29 -40 -59 -60.5t-71 -20.5q-64 0 -101 49t-37 132q0 88 27.5 172.5t86.5 140.5t147 56q70 0 146 -39zM200 423.5q-38 -44.5 -56.5 -113.5t-18.5 -141q0 -58 17 -84.5t51 -26.5q31 0 57 23.5
t56 68.5l43 308q-27 10 -54 10q-57 0 -95 -44.5zM199 669.5q-13 13.5 -13 33.5q0 26 17.5 43.5t40.5 17.5q21 0 34 -13.5t13 -33.5q0 -27 -17 -44t-41 -17q-21 0 -34 13.5zM373 669.5q-13 13.5 -13 33.5q0 26 17.5 43.5t40.5 17.5q21 0 34 -13.5t13 -33.5q0 -26 -17 -43.5
t-41 -17.5q-21 0 -34 13.5z" />
    <glyph glyph-name="uni01DF" unicode="&#x1df;" horiz-adv-x="480" 
d="M443 499l-55 -380q-3 -18 -3 -31q0 -15 5 -24t19 -15l-29 -61q-69 11 -76 81q-29 -40 -59 -60.5t-71 -20.5q-64 0 -101 49t-37 132q0 88 27.5 172.5t86.5 140.5t147 56q70 0 146 -39zM200 423.5q-38 -44.5 -56.5 -113.5t-18.5 -141q0 -58 17 -84.5t51 -26.5q31 0 57 23.5
t56 68.5l43 308q-27 10 -54 10q-57 0 -95 -44.5zM189 639.5q-13 13.5 -13 33.5q0 26 17.5 43.5t40.5 17.5q21 0 34 -13.5t13 -33.5q0 -27 -17 -44t-41 -17q-21 0 -34 13.5zM363 639.5q-13 13.5 -13 33.5q0 26 17.5 43.5t40.5 17.5q21 0 34 -13.5t13 -33.5q0 -26 -17 -43.5
t-41 -17.5q-21 0 -34 13.5zM439 792h-226l10 66h226z" />
    <glyph glyph-name="uni0227" unicode="&#x227;" horiz-adv-x="480" 
d="M443 499l-55 -380q-3 -18 -3 -31q0 -15 5 -24t19 -15l-29 -61q-69 11 -76 81q-29 -40 -59 -60.5t-71 -20.5q-64 0 -101 49t-37 132q0 88 27.5 172.5t86.5 140.5t147 56q70 0 146 -39zM200 423.5q-38 -44.5 -56.5 -113.5t-18.5 -141q0 -58 17 -84.5t51 -26.5q31 0 57 23.5
t56 68.5l43 308q-27 10 -54 10q-57 0 -95 -44.5zM277 671.5q-14 14.5 -14 38.5q0 30 18.5 48.5t45.5 18.5q25 0 39 -14.5t14 -38.5q0 -30 -18.5 -48.5t-45.5 -18.5q-25 0 -39 14.5z" />
    <glyph glyph-name="uni1EA1" unicode="&#x1ea1;" horiz-adv-x="480" 
d="M443 499l-55 -380q-3 -18 -3 -31q0 -15 5 -24t19 -15l-29 -61q-69 11 -76 81q-29 -40 -59 -60.5t-71 -20.5q-64 0 -101 49t-37 132q0 88 27.5 172.5t86.5 140.5t147 56q70 0 146 -39zM200 423.5q-38 -44.5 -56.5 -113.5t-18.5 -141q0 -58 17 -84.5t51 -26.5q31 0 57 23.5
t56 68.5l43 308q-27 10 -54 10q-57 0 -95 -44.5zM246 -90.5q14 -14.5 14 -38.5q0 -30 -18.5 -48.5t-45.5 -18.5q-25 0 -39 14.5t-14 38.5q0 30 18.5 48.5t45.5 18.5q25 0 39 -14.5z" />
    <glyph glyph-name="uni01E1" unicode="&#x1e1;" horiz-adv-x="480" 
d="M443 499l-55 -380q-3 -18 -3 -31q0 -15 5 -24t19 -15l-29 -61q-69 11 -76 81q-29 -40 -59 -60.5t-71 -20.5q-64 0 -101 49t-37 132q0 88 27.5 172.5t86.5 140.5t147 56q70 0 146 -39zM200 423.5q-38 -44.5 -56.5 -113.5t-18.5 -141q0 -58 17 -84.5t51 -26.5q31 0 57 23.5
t56 68.5l43 308q-27 10 -54 10q-57 0 -95 -44.5zM274 621.5q-14 14.5 -14 38.5q0 30 18.5 48.5t45.5 18.5q25 0 39 -14.5t14 -38.5q0 -30 -18.5 -48.5t-45.5 -18.5q-25 0 -39 14.5zM447 769h-226l10 66h226z" />
    <glyph glyph-name="agrave" unicode="&#xe0;" horiz-adv-x="480" 
d="M443 499l-55 -380q-3 -18 -3 -31q0 -15 5 -24t19 -15l-29 -61q-69 11 -76 81q-29 -40 -59 -60.5t-71 -20.5q-64 0 -101 49t-37 132q0 88 27.5 172.5t86.5 140.5t147 56q70 0 146 -39zM200 423.5q-38 -44.5 -56.5 -113.5t-18.5 -141q0 -58 17 -84.5t51 -26.5q31 0 57 23.5
t56 68.5l43 308q-27 10 -54 10q-57 0 -95 -44.5zM281 794l150 -111l-29 -44l-165 86z" />
    <glyph glyph-name="uni1EA3" unicode="&#x1ea3;" horiz-adv-x="480" 
d="M443 499l-55 -380q-3 -18 -3 -31q0 -15 5 -24t19 -15l-29 -61q-69 11 -76 81q-29 -40 -59 -60.5t-71 -20.5q-64 0 -101 49t-37 132q0 88 27.5 172.5t86.5 140.5t147 56q70 0 146 -39zM200 423.5q-38 -44.5 -56.5 -113.5t-18.5 -141q0 -58 17 -84.5t51 -26.5q31 0 57 23.5
t56 68.5l43 308q-27 10 -54 10q-57 0 -95 -44.5zM291 704q32 5 48.5 16t16.5 36q0 29 -28 29q-13 0 -23 -3t-24 -10l-16 51q18 11 35.5 16t40.5 5q39 0 62 -23.5t23 -60.5q0 -41 -20 -62.5t-58 -28.5l-9 -57h-60z" />
    <glyph glyph-name="uni0203" unicode="&#x203;" horiz-adv-x="480" 
d="M443 499l-55 -380q-3 -18 -3 -31q0 -15 5 -24t19 -15l-29 -61q-69 11 -76 81q-29 -40 -59 -60.5t-71 -20.5q-64 0 -101 49t-37 132q0 88 27.5 172.5t86.5 140.5t147 56q70 0 146 -39zM200 423.5q-38 -44.5 -56.5 -113.5t-18.5 -141q0 -58 17 -84.5t51 -26.5q31 0 57 23.5
t56 68.5l43 308q-27 10 -54 10q-57 0 -95 -44.5zM186 630q17 62 55 95t89 33q53 0 82 -35.5t27 -97.5l-54 -8q-6 74 -61 74q-58 0 -85 -78z" />
    <glyph glyph-name="uni0251" unicode="&#x251;" horiz-adv-x="480" 
d="M385 88q0 -15 5 -24t19 -15l-29 -61q-69 11 -76 81q-29 -40 -59 -60.5t-71 -20.5q-64 0 -101 49t-37 132q0 85 26 170.5t76.5 142t120.5 56.5q35 0 60 -15.5t43 -49.5l19 54h66l-59 -408q-3 -18 -3 -31zM341 393q-14 42 -33.5 58.5t-47.5 16.5q-39 0 -70 -45t-48 -115
t-17 -139q0 -58 17 -84.5t51 -26.5q31 0 57 23.5t56 68.5z" />
    <glyph glyph-name="uni0252" unicode="&#x252;" horiz-adv-x="480" 
d="M407 490q37 -49 37 -132q0 -85 -26 -170.5t-76.5 -142t-120.5 -56.5q-35 0 -60 15.5t-43 49.5l-19 -54h-66l59 408q3 18 3 31q0 15 -5 24t-19 15l29 61q69 -11 76 -81q29 40 59 60.5t71 20.5q64 0 101 -49zM290 104q31 45 48 115t17 139q0 58 -17 84.5t-51 26.5
q-31 0 -57 -23.5t-56 -68.5l-35 -243q14 -42 33.5 -58.5t47.5 -16.5q39 0 70 45z" />
    <glyph glyph-name="amacron" unicode="&#x101;" horiz-adv-x="480" 
d="M443 499l-55 -380q-3 -18 -3 -31q0 -15 5 -24t19 -15l-29 -61q-69 11 -76 81q-29 -40 -59 -60.5t-71 -20.5q-64 0 -101 49t-37 132q0 88 27.5 172.5t86.5 140.5t147 56q70 0 146 -39zM200 423.5q-38 -44.5 -56.5 -113.5t-18.5 -141q0 -58 17 -84.5t51 -26.5q31 0 57 23.5
t56 68.5l43 308q-27 10 -54 10q-57 0 -95 -44.5zM433 668h-226l10 66h226z" />
    <glyph glyph-name="aogonek" unicode="&#x105;" horiz-adv-x="480" 
d="M385 88q0 -15 5 -24t19 -15l-29 -61q-70 -36 -93.5 -65.5t-23.5 -61.5q0 -36 39 -36q21 0 49 5l-14 -65q-25 -6 -52 -6q-43 0 -68.5 25.5t-25.5 67.5q0 47 32 86t109 70q-24 21 -28 61q-29 -40 -59 -60.5t-71 -20.5q-64 0 -101 49t-37 132q0 88 27.5 172.5t86.5 140.5
t147 56q70 0 146 -39l-55 -380q-3 -18 -3 -31zM349 458q-27 10 -54 10q-57 0 -95 -44.5t-56.5 -113.5t-18.5 -141q0 -58 17 -84.5t51 -26.5q31 0 57 23.5t56 68.5z" />
    <glyph glyph-name="aring" unicode="&#xe5;" horiz-adv-x="480" 
d="M443 499l-55 -380q-3 -18 -3 -31q0 -15 5 -24t19 -15l-29 -61q-69 11 -76 81q-29 -40 -59 -60.5t-71 -20.5q-64 0 -101 49t-37 132q0 88 27.5 172.5t86.5 140.5t147 56q70 0 146 -39zM200 423.5q-38 -44.5 -56.5 -113.5t-18.5 -141q0 -58 17 -84.5t51 -26.5q31 0 57 23.5
t56 68.5l43 308q-27 10 -54 10q-57 0 -95 -44.5zM398 807q24 -26 24 -67q0 -49 -30.5 -81.5t-77.5 -32.5q-39 0 -63 26t-24 67q0 49 30.5 81.5t77.5 32.5q39 0 63 -26zM295.5 768q-13.5 -19 -13.5 -48q0 -22 9 -35t26 -13q23 0 36.5 19t13.5 48q0 23 -9 35.5t-26 12.5
q-23 0 -36.5 -19z" />
    <glyph glyph-name="aringacute" unicode="&#x1fb;" horiz-adv-x="480" 
d="M443 499l-55 -380q-3 -18 -3 -31q0 -15 5 -24t19 -15l-29 -61q-69 11 -76 81q-29 -40 -59 -60.5t-71 -20.5q-64 0 -101 49t-37 132q0 88 27.5 172.5t86.5 140.5t147 56q70 0 146 -39zM200 423.5q-38 -44.5 -56.5 -113.5t-18.5 -141q0 -58 17 -84.5t51 -26.5q31 0 57 23.5
t56 68.5l43 308q-27 10 -54 10q-57 0 -95 -44.5zM395 766q24 -26 24 -67q0 -49 -30.5 -81.5t-77.5 -32.5q-39 0 -63 26t-24 67q0 49 30.5 81.5t77.5 32.5q39 0 63 -26zM292.5 727q-13.5 -19 -13.5 -48q0 -22 9 -35t26 -13q23 0 36.5 19t13.5 48q0 23 -9 35.5t-26 12.5
q-23 0 -36.5 -19zM403 949l37 -71l-187 -76l-23 45z" />
    <glyph glyph-name="uni2C65" unicode="&#x2c65;" horiz-adv-x="480" 
d="M385 88q0 -15 5 -24t19 -15l-29 -61q-69 11 -76 81q-29 -40 -59 -60.5t-71 -20.5q-9 0 -23 2l-22 -60l-36 11l22 61q-38 19 -58.5 62.5t-20.5 104.5q0 88 27.5 172.5t86.5 140.5t147 56h14l21 57l36 -11l-19 -51q45 -10 94 -34l-55 -380q-3 -18 -3 -31zM144 81l141 387
q-53 -4 -89 -49.5t-53.5 -112.5t-17.5 -137q0 -62 19 -88zM349 458q-8 3 -24 7l-149 -405q12 -2 17 -2q31 0 57 23.5t56 68.5z" />
    <glyph glyph-name="atilde" unicode="&#xe3;" horiz-adv-x="480" 
d="M443 499l-55 -380q-3 -18 -3 -31q0 -15 5 -24t19 -15l-29 -61q-69 11 -76 81q-29 -40 -59 -60.5t-71 -20.5q-64 0 -101 49t-37 132q0 88 27.5 172.5t86.5 140.5t147 56q70 0 146 -39zM200 423.5q-38 -44.5 -56.5 -113.5t-18.5 -141q0 -58 17 -84.5t51 -26.5q31 0 57 23.5
t56 68.5l43 308q-27 10 -54 10q-57 0 -95 -44.5zM342.5 664.5q-13.5 7.5 -28.5 20.5q-12 10 -20 15t-17 5q-12 0 -23 -11t-26 -33l-45 27q46 84 97 84q18 0 30.5 -7t28.5 -21q11 -10 19 -15t17 -5q12 0 22.5 10t25.5 33l46 -27q-42 -83 -96 -83q-17 0 -30.5 7.5z" />
    <glyph glyph-name="uni0250" unicode="&#x250;" horiz-adv-x="448" 
d="M144 143q-2 -16 -2 -22q0 -31 17 -46t56 -15q48 0 111 26l21 -63q-73 -35 -147 -35q-72 0 -109 34.5t-37 94.5q0 9 2 27l36 263q3 18 3 31q0 15 -5 24t-19 15l29 61q31 -5 50 -22t25 -49q50 71 130 71q58 0 91.5 -36.5t33.5 -99.5q0 -96 -59.5 -146t-156.5 -50h-62z
M177 390l-17 -125h50q62 0 95.5 35t33.5 102q0 35 -14 52.5t-41 17.5q-61 0 -107 -82z" />
    <glyph glyph-name="ae" unicode="&#xe6;" horiz-adv-x="688" 
d="M319.5 519q30.5 -19 52.5 -58q62 77 159 77q67 0 103.5 -37t36.5 -93q0 -101 -78.5 -147t-216.5 -64q0 -71 18.5 -103t62.5 -32q30 0 57 11t58 35l36 -57q-77 -63 -161 -63q-51 0 -86.5 22.5t-54.5 64.5q-36 -47 -74.5 -67t-81.5 -20q-63 0 -98 36.5t-35 97.5
q0 80 51 132.5t167 52.5h65q9 39 24 75q-9 40 -34 62.5t-63 22.5q-27 0 -52 -6.5t-62 -20.5l-14 66q74 32 142 32q48 0 78.5 -19zM429 409.5q-35 -58.5 -47 -145.5q105 13 153 44t48 97q0 63 -58 63q-61 0 -96 -58.5zM238 247q-63 0 -95 -30t-32 -95q0 -68 56 -68
q30 0 58.5 21.5t62.5 70.5q-2 26 -2 42q0 27 4 59h-52z" />
    <glyph glyph-name="aeacute" unicode="&#x1fd;" horiz-adv-x="688" 
d="M319.5 519q30.5 -19 52.5 -58q62 77 159 77q67 0 103.5 -37t36.5 -93q0 -101 -78.5 -147t-216.5 -64q0 -71 18.5 -103t62.5 -32q30 0 57 11t58 35l36 -57q-77 -63 -161 -63q-51 0 -86.5 22.5t-54.5 64.5q-36 -47 -74.5 -67t-81.5 -20q-63 0 -98 36.5t-35 97.5
q0 80 51 132.5t167 52.5h65q9 39 24 75q-9 40 -34 62.5t-63 22.5q-27 0 -52 -6.5t-62 -20.5l-14 66q74 32 142 32q48 0 78.5 -19zM429 409.5q-35 -58.5 -47 -145.5q105 13 153 44t48 97q0 63 -58 63q-61 0 -96 -58.5zM238 247q-63 0 -95 -30t-32 -95q0 -68 56 -68
q30 0 58.5 21.5t62.5 70.5q-2 26 -2 42q0 27 4 59h-52zM474 796l37 -71l-187 -86l-25 45z" />
    <glyph glyph-name="uni01E3" unicode="&#x1e3;" horiz-adv-x="688" 
d="M319.5 519q30.5 -19 52.5 -58q62 77 159 77q67 0 103.5 -37t36.5 -93q0 -101 -78.5 -147t-216.5 -64q0 -71 18.5 -103t62.5 -32q30 0 57 11t58 35l36 -57q-77 -63 -161 -63q-51 0 -86.5 22.5t-54.5 64.5q-36 -47 -74.5 -67t-81.5 -20q-63 0 -98 36.5t-35 97.5
q0 80 51 132.5t167 52.5h65q9 39 24 75q-9 40 -34 62.5t-63 22.5q-27 0 -52 -6.5t-62 -20.5l-14 66q74 32 142 32q48 0 78.5 -19zM429 409.5q-35 -58.5 -47 -145.5q105 13 153 44t48 97q0 63 -58 63q-61 0 -96 -58.5zM238 247q-63 0 -95 -30t-32 -95q0 -68 56 -68
q30 0 58.5 21.5t62.5 70.5q-2 26 -2 42q0 27 4 59h-52zM514 668h-226l10 66h226z" />
    <glyph glyph-name="b" unicode="b" horiz-adv-x="486" 
d="M413 490.5q36 -47.5 36 -133.5q0 -93 -25.5 -176.5t-83 -138t-147.5 -54.5q-75 0 -155 35l101 716l88 10l-39 -277q60 66 128 66q61 0 97 -47.5zM233 446.5q-31 -21.5 -57 -55.5l-44 -320q36 -13 70 -13q54 0 89.5 45t52 114t16.5 142q0 58 -17 83.5t-50 25.5
q-29 0 -60 -21.5z" />
    <glyph glyph-name="uni1E03" unicode="&#x1e03;" horiz-adv-x="486" 
d="M413 490.5q36 -47.5 36 -133.5q0 -93 -25.5 -176.5t-83 -138t-147.5 -54.5q-75 0 -155 35l101 716l88 10l-39 -277q60 66 128 66q61 0 97 -47.5zM233 446.5q-31 -21.5 -57 -55.5l-44 -320q36 -13 70 -13q54 0 89.5 45t52 114t16.5 142q0 58 -17 83.5t-50 25.5
q-29 0 -60 -21.5zM312 847.5q-14 14.5 -14 38.5q0 30 18.5 48.5t45.5 18.5q25 0 39 -14.5t14 -38.5q0 -30 -18.5 -48.5t-45.5 -18.5q-25 0 -39 14.5z" />
    <glyph glyph-name="uni1E05" unicode="&#x1e05;" horiz-adv-x="486" 
d="M413 490.5q36 -47.5 36 -133.5q0 -93 -25.5 -176.5t-83 -138t-147.5 -54.5q-75 0 -155 35l101 716l88 10l-39 -277q60 66 128 66q61 0 97 -47.5zM233 446.5q-31 -21.5 -57 -55.5l-44 -320q36 -13 70 -13q54 0 89.5 45t52 114t16.5 142q0 58 -17 83.5t-50 25.5
q-29 0 -60 -21.5zM226 -90.5q14 -14.5 14 -38.5q0 -30 -18.5 -48.5t-45.5 -18.5q-25 0 -39 14.5t-14 38.5q0 30 18.5 48.5t45.5 18.5q25 0 39 -14.5z" />
    <glyph glyph-name="uniA7B5" unicode="&#xa7b5;" horiz-adv-x="484" 
d="M111 544q13 97 68 151t133 54q66 0 107 -41t41 -113q0 -70 -37.5 -126t-113.5 -70q55 -6 94 -45t39 -117q0 -60 -24 -117.5t-73 -94.5t-118 -37q-61 0 -103 39l-32 -230l-87 -12zM322.5 113q31.5 54 31.5 124q0 62 -30 94.5t-89 32.5h-24l18 68h29q39 0 66 25t40 62.5
t13 73.5q0 44 -18 65.5t-51 21.5q-43 0 -72.5 -36t-39.5 -106l-62 -441q33 -38 89 -38q68 0 99.5 54z" />
    <glyph glyph-name="uni0253" unicode="&#x253;" horiz-adv-x="486" 
d="M413 490.5q36 -47.5 36 -133.5q0 -93 -25.5 -176.5t-83 -138t-147.5 -54.5q-75 0 -155 35l71 503l13 87q9 63 49.5 99.5t106.5 36.5q31 0 56 -7t50 -21l-33 -60q-34 17 -70 17q-34 0 -51.5 -20t-22.5 -60l-10 -72l-7 -53q57 65 126 65q61 0 97 -47.5zM291.5 103
q35.5 45 52 114t16.5 142q0 58 -17 83.5t-50 25.5q-29 0 -60 -21.5t-57 -55.5l-44 -320q36 -13 70 -13q54 0 89.5 45z" />
    <glyph glyph-name="uni02AD" unicode="&#x2ad;" horiz-adv-x="293" 
d="M281 400h-59l12 92h-113l-13 -92h-59l21 147h232zM225 -1h-59l12 92h-113l-13 -92h-59l21 147h232z" />
    <glyph glyph-name="uni0298" unicode="&#x298;" horiz-adv-x="658" 
d="M567.5 630q62.5 -70 62.5 -197q0 -129 -44 -230t-123.5 -158t-180.5 -57q-107 0 -169.5 70t-62.5 197q0 128 44.5 229.5t123.5 158.5t180 57q107 0 169.5 -70zM253 580.5q-58 -48.5 -88.5 -133.5t-30.5 -191q0 -100 41 -148.5t113 -48.5q81 0 139.5 48.5t88.5 133
t30 191.5q0 100 -40 148.5t-114 48.5q-81 0 -139 -48.5zM296 299.5q-14 14.5 -14 38.5q0 30 18.5 48.5t45.5 18.5q25 0 39 -14.5t14 -38.5q0 -30 -18.5 -48.5t-45.5 -18.5q-25 0 -39 14.5z" />
    <glyph glyph-name="uni02AC" unicode="&#x2ac;" horiz-adv-x="387" 
d="M413 665l-90 -265h-72l-9 197l-65 -197h-73l-18 265h59l4 -203l69 203h67l10 -204l61 204h57zM357 265l-90 -265h-72l-9 197l-65 -197h-73l-18 265h59l4 -203l69 203h67l10 -204l61 204h57z" />
    <glyph glyph-name="uni0180" unicode="&#x180;" horiz-adv-x="493" 
d="M420 490.5q36 -47.5 36 -133.5q0 -93 -25.5 -176.5t-83 -138t-147.5 -54.5q-75 0 -155 35l83 586h-59l10 67h58l9 63l88 10l-10 -73h124l-18 -67h-116l-19 -137q60 66 128 66q61 0 97 -47.5zM298.5 103q35.5 45 52 114t16.5 142q0 58 -17 83.5t-50 25.5q-29 0 -60 -21.5
t-57 -55.5l-44 -320q36 -13 70 -13q54 0 89.5 45z" />
    <glyph glyph-name="uni0183" unicode="&#x183;" horiz-adv-x="486" 
d="M413 490.5q36 -47.5 36 -133.5q0 -93 -25.5 -176.5t-83 -138t-147.5 -54.5q-75 0 -155 35l101 716h269l-21 -68h-171l-28 -199q60 66 128 66q61 0 97 -47.5zM291.5 103q35.5 45 52 114t16.5 142q0 58 -17 83.5t-50 25.5q-29 0 -60 -21.5t-57 -55.5l-44 -320
q36 -13 70 -13q54 0 89.5 45z" />
    <glyph glyph-name="c" unicode="c" horiz-adv-x="393" 
d="M350.5 524.5q30.5 -13.5 58.5 -43.5l-47 -52q-21 19 -39 28t-42 9q-54 0 -88 -45t-49 -111t-15 -132q0 -115 77 -115q26 0 47 9t49 29l34 -58q-67 -55 -139 -55q-74 0 -116.5 51.5t-42.5 142.5q0 86 26 167.5t81 135t136 53.5q39 0 69.5 -13.5z" />
    <glyph glyph-name="cacute" unicode="&#x107;" horiz-adv-x="393" 
d="M350.5 524.5q30.5 -13.5 58.5 -43.5l-47 -52q-21 19 -39 28t-42 9q-54 0 -88 -45t-49 -111t-15 -132q0 -115 77 -115q26 0 47 9t49 29l34 -58q-67 -55 -139 -55q-74 0 -116.5 51.5t-42.5 142.5q0 86 26 167.5t81 135t136 53.5q39 0 69.5 -13.5zM369 796l37 -71l-187 -86
l-25 45z" />
    <glyph glyph-name="ccaron" unicode="&#x10d;" horiz-adv-x="393" 
d="M350.5 524.5q30.5 -13.5 58.5 -43.5l-47 -52q-21 19 -39 28t-42 9q-54 0 -88 -45t-49 -111t-15 -132q0 -115 77 -115q26 0 47 9t49 29l34 -58q-67 -55 -139 -55q-74 0 -116.5 51.5t-42.5 142.5q0 86 26 167.5t81 135t136 53.5q39 0 69.5 -13.5zM410 779l33 -39l-128 -112
h-55l-97 112l38 39l91 -80z" />
    <glyph glyph-name="ccedilla" unicode="&#xe7;" horiz-adv-x="393" 
d="M193 421q-34 -45 -49 -111t-15 -132q0 -115 77 -115q26 0 47 9t49 29l34 -58q-61 -50 -127 -55l-7 -48q34 -4 50.5 -23.5t16.5 -50.5q0 -43 -30 -74t-86 -31q-47 0 -76 26l29 45q23 -14 47 -14q21 0 34.5 11.5t13.5 32.5q0 22 -14 30.5t-53 8.5l21 92q-56 14 -86.5 62.5
t-30.5 126.5q0 86 26 167.5t81 135t136 53.5q39 0 69.5 -13.5t58.5 -43.5l-47 -52q-21 19 -39 28t-42 9q-54 0 -88 -45z" />
    <glyph glyph-name="ccircumflex" unicode="&#x109;" horiz-adv-x="393" 
d="M350.5 524.5q30.5 -13.5 58.5 -43.5l-47 -52q-21 19 -39 28t-42 9q-54 0 -88 -45t-49 -111t-15 -132q0 -115 77 -115q26 0 47 9t49 29l34 -58q-67 -55 -139 -55q-74 0 -116.5 51.5t-42.5 142.5q0 86 26 167.5t81 135t136 53.5q39 0 69.5 -13.5zM190 638l-35 40l129 113
h55l96 -117l-40 -36l-91 81z" />
    <glyph glyph-name="uni0255" unicode="&#x255;" horiz-adv-x="401" 
d="M342 203q26 -26 26 -70q0 -45 -22 -78t-58 -50t-77 -17q-43 0 -68 11l-37 -73l-47 25l40 74q-29 26 -45 67t-16 90q0 86 26 167.5t81 135t136 53.5q39 0 69.5 -13.5t58.5 -43.5l-47 -52q-21 19 -39 28t-42 9q-54 0 -88 -45t-49 -110.5t-15 -131.5q0 -49 10 -74
q29 64 61.5 94t74.5 30q41 0 67 -26zM275.5 81.5q21.5 18.5 21.5 50.5q0 36 -28 36q-22 0 -43 -22.5t-48 -77.5q16 -5 41 -5q35 0 56.5 18.5z" />
    <glyph glyph-name="cdotaccent" unicode="&#x10b;" horiz-adv-x="393" 
d="M350.5 524.5q30.5 -13.5 58.5 -43.5l-47 -52q-21 19 -39 28t-42 9q-54 0 -88 -45t-49 -111t-15 -132q0 -115 77 -115q26 0 47 9t49 29l34 -58q-67 -55 -139 -55q-74 0 -116.5 51.5t-42.5 142.5q0 86 26 167.5t81 135t136 53.5q39 0 69.5 -13.5zM253 671.5
q-14 14.5 -14 38.5q0 30 18.5 48.5t45.5 18.5q25 0 39 -14.5t14 -38.5q0 -30 -18.5 -48.5t-45.5 -18.5q-25 0 -39 14.5z" />
    <glyph glyph-name="uni0188" unicode="&#x188;" horiz-adv-x="393" 
d="M579 710l-38 -52q-14 10 -26.5 15t-29.5 5q-49 0 -59 -72l-17 -125l-42 -46q-22 15 -42.5 23t-43.5 8q-54 0 -88 -45t-49 -111t-15 -132q0 -115 77 -115q25 0 46.5 9.5t49.5 28.5l34 -58q-67 -55 -139 -55q-74 0 -116.5 51.5t-42.5 142.5q0 85 26 167t79 135.5t131 53.5
q34 0 59 -13l12 84q10 70 45 105t92 35q56 0 97 -39z" />
    <glyph glyph-name="uni0297" unicode="&#x297;" horiz-adv-x="412" 
d="M369.5 524.5q30.5 -13.5 58.5 -43.5l-47 -52q-21 19 -39 28t-42 9q-55 0 -94 -63t-58.5 -162t-19.5 -206q0 -98 19 -135t58 -37q26 0 47 9t49 29l34 -58q-67 -55 -139 -55q-159 0 -159 251q0 139 30.5 252.5t90.5 180t143 66.5q38 0 68.5 -13.5z" />
    <glyph glyph-name="uni023C" unicode="&#x23c;" horiz-adv-x="393" 
d="M327 455l-143 -389q11 -3 22 -3q26 0 47 9t49 29l34 -58q-67 -55 -139 -55q-24 0 -40 4l-23 -62l-36 11l24 64q-41 22 -62.5 67t-21.5 110q0 86 26 167.5t81 135t136 53.5q19 0 35 -3l22 60l36 -11l-22 -60q31 -14 57 -43l-47 -52q-20 19 -35 26zM291 466h-10
q-54 0 -88 -45t-49 -111t-15 -132q0 -62 23 -91z" />
    <glyph glyph-name="d" unicode="d" horiz-adv-x="488" 
d="M483 738l-104 -738h-76l3 81q-53 -93 -134 -93q-64 0 -99.5 50t-35.5 135q0 83 24.5 167.5t75 141.5t123.5 57q69 0 100 -62l37 270zM188 421q-32 -48 -47 -117.5t-15 -133.5q0 -56 17.5 -84t50.5 -28q34 0 63.5 32t61.5 93l30 220q-14 33 -33 49.5t-48 16.5
q-48 0 -80 -48z" />
    <glyph glyph-name="eth" unicode="&#xf0;" horiz-adv-x="487" 
d="M418 558.5q22 -56.5 22 -148.5q0 -109 -27 -205.5t-82 -156.5t-134 -60q-76 0 -118.5 49.5t-42.5 139.5q0 74 25.5 142.5t73 111.5t110.5 43q69 0 110 -59q1 71 -12.5 111t-49.5 79l-64 -64l-53 30l73 75q-37 26 -83 38l27 64q61 -16 107 -49l76 75l40 -45l-69 -69
q49 -45 71 -101.5zM297.5 130.5q33.5 72.5 50.5 193.5q-28 81 -93 81q-68 0 -99.5 -68.5t-31.5 -159.5q0 -119 76 -119q64 0 97.5 72.5z" />
    <glyph glyph-name="uni0238" unicode="&#x238;" horiz-adv-x="705" 
d="M633.5 488q32.5 -50 32.5 -143q0 -96 -25.5 -178t-72.5 -130.5t-109 -48.5q-32 0 -55 19.5t-36 51.5l-15 -59h-66l1 68q-48 -80 -119 -80q-59 0 -94.5 53.5t-35.5 144.5q0 94 26 175t73 129t108 48q32 0 57.5 -20t37.5 -52l38 273l88 10l-39 -278q46 67 114 67
q59 0 91.5 -50zM243 80.5q26 22.5 54 71.5l33 240q-27 76 -74 76q-41 0 -69.5 -42t-42.5 -107t-14 -133q0 -128 58 -128q29 0 55 22.5zM520.5 101.5q27.5 43.5 41.5 110t14 134.5q0 122 -60 122q-29 0 -53 -21.5t-46 -56.5l-36 -257q24 -75 73 -75q39 0 66.5 43.5z" />
    <glyph glyph-name="dcaron" unicode="&#x10f;" horiz-adv-x="541" 
d="M483 738l-104 -738h-76l3 81q-53 -93 -134 -93q-64 0 -99.5 50t-35.5 135q0 83 24.5 167.5t75 141.5t123.5 57q69 0 100 -62l37 270zM188 421q-32 -48 -47 -117.5t-15 -133.5q0 -56 17.5 -84t50.5 -28q34 0 63.5 32t61.5 93l30 220q-14 33 -33 49.5t-48 16.5
q-48 0 -80 -48zM556 748l72 -10l-64 -181l-47 8z" />
    <glyph glyph-name="uni1E13" unicode="&#x1e13;" horiz-adv-x="488" 
d="M483 738l-104 -738h-76l3 81q-53 -93 -134 -93q-64 0 -99.5 50t-35.5 135q0 83 24.5 167.5t75 141.5t123.5 57q69 0 100 -62l37 270zM188 421q-32 -48 -47 -117.5t-15 -133.5q0 -56 17.5 -84t50.5 -28q34 0 63.5 32t61.5 93l30 220q-14 33 -33 49.5t-48 16.5
q-48 0 -80 -48zM73 -221l-36 40l129 113h55l96 -117l-39 -36l-91 81z" />
    <glyph glyph-name="dcroat" unicode="&#x111;" horiz-adv-x="497" 
d="M535 674l-11 -67h-59l-86 -607h-76l3 81q-53 -93 -134 -93q-64 0 -99.5 50t-35.5 135q0 83 24.5 167.5t75 141.5t123.5 57q69 0 100 -62l18 130h-119l2 67h126l10 73l86 -9l-9 -64h61zM349 403q-14 33 -33 49.5t-48 16.5q-48 0 -80 -48t-47 -117.5t-15 -133.5
q0 -56 17.5 -84t50.5 -28q34 0 63.5 32t61.5 93z" />
    <glyph glyph-name="uni0221" unicode="&#x221;" horiz-adv-x="613" 
d="M584 194.5q23 -23.5 23 -66.5q0 -66 -46 -103t-115 -37q-28 0 -49 6l-36 -68l-47 25l37 66q-30 24 -38 72q-31 -51 -65 -76t-76 -25q-64 0 -99.5 50t-35.5 135q0 83 24.5 167.5t75 141.5t123.5 57q69 0 100 -62l37 270l86 -9l-86 -610q-2 -20 -2 -26q29 63 58.5 89.5
t69.5 26.5q38 0 61 -23.5zM349 403q-14 33 -33 49.5t-48 16.5q-48 0 -80 -48t-47 -117.5t-15 -133.5q0 -56 17.5 -84t50.5 -28q34 0 63.5 32t61.5 93zM517 80.5q21 17.5 21 47.5q0 29 -25 29q-18 0 -35.5 -19t-43.5 -74q8 -1 28 -1q34 0 55 17.5z" />
    <glyph glyph-name="uni1E0B" unicode="&#x1e0b;" horiz-adv-x="488" 
d="M483 738l-104 -738h-76l3 81q-53 -93 -134 -93q-64 0 -99.5 50t-35.5 135q0 83 24.5 167.5t75 141.5t123.5 57q69 0 100 -62l37 270zM188 421q-32 -48 -47 -117.5t-15 -133.5q0 -56 17.5 -84t50.5 -28q34 0 63.5 32t61.5 93l30 220q-14 33 -33 49.5t-48 16.5
q-48 0 -80 -48zM294 847.5q-14 14.5 -14 38.5q0 30 18.5 48.5t45.5 18.5q25 0 39 -14.5t14 -38.5q0 -30 -18.5 -48.5t-45.5 -18.5q-25 0 -39 14.5z" />
    <glyph glyph-name="uni1E0D" unicode="&#x1e0d;" horiz-adv-x="488" 
d="M483 738l-104 -738h-76l3 81q-53 -93 -134 -93q-64 0 -99.5 50t-35.5 135q0 83 24.5 167.5t75 141.5t123.5 57q69 0 100 -62l37 270zM188 421q-32 -48 -47 -117.5t-15 -133.5q0 -56 17.5 -84t50.5 -28q34 0 63.5 32t61.5 93l30 220q-14 33 -33 49.5t-48 16.5
q-48 0 -80 -48zM226 -90.5q14 -14.5 14 -38.5q0 -30 -18.5 -48.5t-45.5 -18.5q-25 0 -39 14.5t-14 38.5q0 30 18.5 48.5t45.5 18.5q25 0 39 -14.5z" />
    <glyph glyph-name="uni018D" unicode="&#x18d;" horiz-adv-x="479" 
d="M74.5 -200q-33.5 15 -59.5 46l48 48q23 -22 44 -31t50 -9q42 0 63 22t21 58q0 29 -16 48t-60 44q-64 35 -93.5 80.5t-29.5 115.5q0 67 25 140t79 124.5t135 51.5q75 0 117.5 -53t42.5 -142q0 -105 -39.5 -175.5t-137.5 -119.5q33 -26 48 -52t15 -58q0 -40 -19.5 -75
t-58 -56.5t-93.5 -21.5q-48 0 -81.5 15zM300 155.5q29 40.5 39.5 86t10.5 108.5q0 54 -19 85.5t-56 31.5q-51 0 -82.5 -41t-45.5 -98t-14 -107q0 -52 17.5 -84t64.5 -60q56 38 85 78.5z" />
    <glyph glyph-name="uni02A4" unicode="&#x2a4;" horiz-adv-x="789" 
d="M771 459l-209 -256q86 -1 128 -43.5t42 -118.5q0 -74 -30 -131.5t-82 -89.5t-118 -32q-58 0 -97.5 22.5t-67.5 68.5l55 43q26 -34 51 -48t61 -14q63 0 100 51.5t37 128.5q0 55 -25 77.5t-81 22.5h-68l1 1l9 63l199 250h-233l-64 -454h-76l3 81q-53 -93 -134 -93
q-64 0 -99.5 50t-35.5 135q0 83 24.5 167.5t75 141.5t123.5 57q69 0 100 -62l37 270l86 -9l-30 -211h327zM349 403q-14 33 -33 49.5t-48 16.5q-48 0 -80 -48t-47 -117.5t-15 -133.5q0 -56 17.5 -84t50.5 -28q34 0 63.5 32t61.5 93z" />
    <glyph glyph-name="uni0257" unicode="&#x257;" horiz-adv-x="487" 
d="M617 710l-39 -51q-13 9 -25 14t-29 5q-23 0 -39 -17.5t-20 -50.5l-12 -83l-74 -527h-76l3 81q-53 -93 -134 -93q-64 0 -99.5 50t-35.5 135q0 83 24.5 167.5t75 141.5t123.5 57q69 0 100 -62l6 50l12 82q10 68 47 104t96 36q53 0 96 -39zM349 403q-14 33 -33 49.5
t-48 16.5q-48 0 -80 -48t-47 -117.5t-15 -133.5q0 -56 17.5 -84t50.5 -28q34 0 63.5 32t61.5 93z" />
    <glyph glyph-name="uni1E0F" unicode="&#x1e0f;" horiz-adv-x="488" 
d="M483 738l-104 -738h-76l3 81q-53 -93 -134 -93q-64 0 -99.5 50t-35.5 135q0 83 24.5 167.5t75 141.5t123.5 57q69 0 100 -62l37 270zM188 421q-32 -48 -47 -117.5t-15 -133.5q0 -56 17.5 -84t50.5 -28q34 0 63.5 32t61.5 93l30 220q-14 33 -33 49.5t-48 16.5
q-48 0 -80 -48zM79 -105h226l-10 -66h-226z" />
    <glyph glyph-name="uni0256" unicode="&#x256;" horiz-adv-x="488" 
d="M498 -176q-43 -36 -103 -36q-54 0 -84 30.5t-30 85.5q0 8 2 30l9 66l11 78q-26 -44 -57.5 -67t-73.5 -23q-64 0 -99.5 50t-35.5 135q0 83 24.5 167.5t75 141.5t123.5 57q69 0 100 -62l37 270l86 -9l-104 -738l-10 -79q-1 -6 -1 -17q0 -45 43 -45q15 0 27.5 4.5t28.5 14.5
zM257.5 90q29.5 32 61.5 93l30 220q-14 33 -33 49.5t-48 16.5q-48 0 -80 -48t-47 -117.5t-15 -133.5q0 -56 17.5 -84t50.5 -28q34 0 63.5 32z" />
    <glyph glyph-name="uni018C" unicode="&#x18c;" horiz-adv-x="488" 
d="M379 0h-76l3 81q-53 -93 -134 -93q-64 0 -99.5 50t-35.5 135q0 83 24.5 167.5t75 141.5t123.5 57q69 0 100 -62l27 194h-178l9 68h265zM349 403q-14 33 -33 49.5t-48 16.5q-48 0 -80 -48t-47 -117.5t-15 -133.5q0 -56 17.5 -84t50.5 -28q34 0 63.5 32t61.5 93z" />
    <glyph glyph-name="uni01F3" unicode="&#x1f3;" horiz-adv-x="848" 
d="M483 738l-104 -738h-76l3 81q-53 -93 -134 -93q-64 0 -99.5 50t-35.5 135q0 83 24.5 167.5t75 141.5t123.5 57q69 0 100 -62l37 270zM188 421q-32 -48 -47 -117.5t-15 -133.5q0 -56 17.5 -84t50.5 -28q34 0 63.5 32t61.5 93l30 220q-14 33 -33 49.5t-48 16.5
q-48 0 -80 -48zM859 527l-10 -68l-270 -385h220l-20 -74h-310l10 66l270 386h-199l12 75h297z" />
    <glyph glyph-name="uni02A3" unicode="&#x2a3;" horiz-adv-x="757" 
d="M758 459l-270 -385h220l-20 -74h-385l3 81q-53 -93 -134 -93q-64 0 -99.5 50t-35.5 135q0 83 24.5 167.5t75 141.5t123.5 57q69 0 100 -62l37 270l86 -9l-30 -211h315zM349 403q-14 33 -33 49.5t-48 16.5q-48 0 -80 -48t-47 -117.5t-15 -133.5q0 -56 17.5 -84t50.5 -28
q34 0 63.5 32t61.5 93zM388 67l270 385h-215z" />
    <glyph glyph-name="uni01C6" unicode="&#x1c6;" horiz-adv-x="848" 
d="M483 738l-104 -738h-76l3 81q-53 -93 -134 -93q-64 0 -99.5 50t-35.5 135q0 83 24.5 167.5t75 141.5t123.5 57q69 0 100 -62l37 270zM188 421q-32 -48 -47 -117.5t-15 -133.5q0 -56 17.5 -84t50.5 -28q34 0 63.5 32t61.5 93l30 220q-14 33 -33 49.5t-48 16.5
q-48 0 -80 -48zM859 527l-10 -68l-270 -385h220l-20 -74h-310l10 66l270 386h-199l12 75h297zM844 779l33 -39l-128 -112h-55l-97 112l38 39l91 -80z" />
    <glyph glyph-name="uni02A5" unicode="&#x2a5;" horiz-adv-x="779" 
d="M620 0q-12 -50 -22 -124l-59 6q9 63 20 118h-256l3 81q-53 -93 -134 -93q-64 0 -99.5 50t-35.5 135q0 83 24.5 167.5t75 141.5t123.5 57q69 0 100 -62l37 270l86 -9l-30 -211h314l-10 -66l-272 -387h92q21 72 52 104.5t75 32.5q38 0 61 -21.5t23 -61.5q0 -124 -168 -128z
M349 403q-14 33 -33 49.5t-48 16.5q-48 0 -80 -48t-47 -117.5t-15 -133.5q0 -56 17.5 -84t50.5 -28q34 0 63.5 32t61.5 93zM443 452l-54 -384l268 384h-214zM700.5 87.5q20.5 11.5 20.5 41.5q0 25 -24 25q-18 0 -32.5 -18.5t-27.5 -61.5q43 2 63.5 13.5z" />
    <glyph glyph-name="e" unicode="e" horiz-adv-x="440" 
d="M344.5 261q-78.5 -46 -216.5 -64v-14q0 -65 21 -93t60 -28q30 0 57 11t58 35l36 -57q-77 -63 -161 -63q-77 0 -119 51t-42 142q0 86 26 168t81.5 135.5t137.5 53.5q67 0 103.5 -37t36.5 -93q0 -101 -78.5 -147zM181 409.5q-35 -58.5 -47 -145.5q105 13 153 44t48 97
q0 63 -58 63q-61 0 -96 -58.5z" />
    <glyph glyph-name="eacute" unicode="&#xe9;" horiz-adv-x="440" 
d="M344.5 261q-78.5 -46 -216.5 -64v-14q0 -65 21 -93t60 -28q30 0 57 11t58 35l36 -57q-77 -63 -161 -63q-77 0 -119 51t-42 142q0 86 26 168t81.5 135.5t137.5 53.5q67 0 103.5 -37t36.5 -93q0 -101 -78.5 -147zM181 409.5q-35 -58.5 -47 -145.5q105 13 153 44t48 97
q0 63 -58 63q-61 0 -96 -58.5zM372 796l37 -71l-187 -86l-25 45z" />
    <glyph glyph-name="ebreve" unicode="&#x115;" horiz-adv-x="440" 
d="M344.5 261q-78.5 -46 -216.5 -64v-14q0 -65 21 -93t60 -28q30 0 57 11t58 35l36 -57q-77 -63 -161 -63q-77 0 -119 51t-42 142q0 86 26 168t81.5 135.5t137.5 53.5q67 0 103.5 -37t36.5 -93q0 -101 -78.5 -147zM181 409.5q-35 -58.5 -47 -145.5q105 13 153 44t48 97
q0 63 -58 63q-61 0 -96 -58.5zM211.5 680q-30.5 36 -26.5 97l55 8q3 -38 16.5 -55.5t41.5 -17.5q29 0 51 20t35 57l52 -17q-13 -61 -50.5 -94.5t-89.5 -33.5q-54 0 -84.5 36z" />
    <glyph glyph-name="ecaron" unicode="&#x11b;" horiz-adv-x="440" 
d="M344.5 261q-78.5 -46 -216.5 -64v-14q0 -65 21 -93t60 -28q30 0 57 11t58 35l36 -57q-77 -63 -161 -63q-77 0 -119 51t-42 142q0 86 26 168t81.5 135.5t137.5 53.5q67 0 103.5 -37t36.5 -93q0 -101 -78.5 -147zM181 409.5q-35 -58.5 -47 -145.5q105 13 153 44t48 97
q0 63 -58 63q-61 0 -96 -58.5zM413 779l33 -39l-128 -112h-55l-97 112l38 39l91 -80z" />
    <glyph glyph-name="uni0229" unicode="&#x229;" horiz-adv-x="440" 
d="M344.5 261q-78.5 -46 -216.5 -64v-14q0 -65 21 -93t60 -28q30 0 57 11t58 35l36 -57q-69 -56 -142 -62l-7 -49q34 -4 50.5 -23.5t16.5 -50.5q0 -43 -30 -74t-86 -31q-47 0 -76 26l29 45q23 -14 47 -14q21 0 34.5 11.5t13.5 32.5q0 22 -14 30.5t-53 8.5l20 90
q-60 11 -92.5 61t-32.5 129q0 86 26 168t81.5 135.5t137.5 53.5q67 0 103.5 -37t36.5 -93q0 -101 -78.5 -147zM181 409.5q-35 -58.5 -47 -145.5q105 13 153 44t48 97q0 63 -58 63q-61 0 -96 -58.5z" />
    <glyph glyph-name="ecircumflex" unicode="&#xea;" horiz-adv-x="440" 
d="M344.5 261q-78.5 -46 -216.5 -64v-14q0 -65 21 -93t60 -28q30 0 57 11t58 35l36 -57q-77 -63 -161 -63q-77 0 -119 51t-42 142q0 86 26 168t81.5 135.5t137.5 53.5q67 0 103.5 -37t36.5 -93q0 -101 -78.5 -147zM181 409.5q-35 -58.5 -47 -145.5q105 13 153 44t48 97
q0 63 -58 63q-61 0 -96 -58.5zM193 638l-35 40l129 113h55l96 -117l-40 -36l-91 81z" />
    <glyph glyph-name="uni1EBF" unicode="&#x1ebf;" horiz-adv-x="440" 
d="M546 839l-134 -131l-33 29l119 149zM276 741h55l96 -117l-37 -36l-94 81l-113 -81l-36 40zM386.5 501q36.5 -37 36.5 -93q0 -101 -78.5 -147t-216.5 -64v-14q0 -65 21 -93t60 -28q30 0 57 11t58 35l36 -57q-77 -63 -161 -63q-77 0 -119 51t-42 142q0 86 26 168
t81.5 135.5t137.5 53.5q67 0 103.5 -37zM287 308q48 31 48 97q0 63 -58 63q-61 0 -96 -58.5t-47 -145.5q105 13 153 44z" />
    <glyph glyph-name="uni1EC7" unicode="&#x1ec7;" horiz-adv-x="440" 
d="M344.5 261q-78.5 -46 -216.5 -64v-14q0 -65 21 -93t60 -28q30 0 57 11t58 35l36 -57q-77 -63 -161 -63q-77 0 -119 51t-42 142q0 86 26 168t81.5 135.5t137.5 53.5q67 0 103.5 -37t36.5 -93q0 -101 -78.5 -147zM181 409.5q-35 -58.5 -47 -145.5q105 13 153 44t48 97
q0 63 -58 63q-61 0 -96 -58.5zM193 638l-35 40l129 113h55l96 -117l-40 -36l-91 81zM222 -90.5q14 -14.5 14 -38.5q0 -30 -18.5 -48.5t-45.5 -18.5q-25 0 -39 14.5t-14 38.5q0 30 18.5 48.5t45.5 18.5q25 0 39 -14.5z" />
    <glyph glyph-name="uni1EC1" unicode="&#x1ec1;" horiz-adv-x="440" 
d="M224 734l-38 -26l-99 134l59 42zM179 588l-36 40l129 113h55l96 -117l-37 -36l-94 81zM386.5 501q36.5 -37 36.5 -93q0 -101 -78.5 -147t-216.5 -64v-14q0 -65 21 -93t60 -28q30 0 57 11t58 35l36 -57q-77 -63 -161 -63q-77 0 -119 51t-42 142q0 86 26 168t81.5 135.5
t137.5 53.5q67 0 103.5 -37zM287 308q48 31 48 97q0 63 -58 63q-61 0 -96 -58.5t-47 -145.5q105 13 153 44z" />
    <glyph glyph-name="uni1EC3" unicode="&#x1ec3;" horiz-adv-x="440" 
d="M344.5 261q-78.5 -46 -216.5 -64v-14q0 -65 21 -93t60 -28q30 0 57 11t58 35l36 -57q-77 -63 -161 -63q-77 0 -119 51t-42 142q0 86 26 168t81.5 135.5t137.5 53.5q67 0 103.5 -37t36.5 -93q0 -101 -78.5 -147zM181 409.5q-35 -58.5 -47 -145.5q105 13 153 44t48 97
q0 63 -58 63q-61 0 -96 -58.5zM179 588l-36 40l129 113h55l96 -117l-37 -36l-94 81zM399 804q32 5 48.5 16t16.5 36q0 29 -28 29q-13 0 -23 -3t-24 -10l-16 51q18 11 35.5 16t40.5 5q39 0 62 -23.5t23 -60.5q0 -41 -20 -62.5t-58 -28.5l-9 -57h-60z" />
    <glyph glyph-name="uni1EC5" unicode="&#x1ec5;" horiz-adv-x="440" 
d="M247 801q-11 -11 -26 -33l-45 27q46 84 97 84q18 0 30.5 -7t28.5 -21q11 -10 19 -15t17 -5q12 0 22.5 10t25.5 33l46 -27q-42 -83 -96 -83q-17 0 -30.5 7.5t-28.5 20.5q-12 10 -20 15t-17 5q-12 0 -23 -11zM277 731h55l96 -117l-37 -36l-94 81l-113 -81l-36 40z
M386.5 501q36.5 -37 36.5 -93q0 -101 -78.5 -147t-216.5 -64v-14q0 -65 21 -93t60 -28q30 0 57 11t58 35l36 -57q-77 -63 -161 -63q-77 0 -119 51t-42 142q0 86 26 168t81.5 135.5t137.5 53.5q67 0 103.5 -37zM287 308q48 31 48 97q0 63 -58 63q-61 0 -96 -58.5t-47 -145.5
q105 13 153 44z" />
    <glyph glyph-name="uni0205" unicode="&#x205;" horiz-adv-x="440" 
d="M344.5 261q-78.5 -46 -216.5 -64v-14q0 -65 21 -93t60 -28q30 0 57 11t58 35l36 -57q-77 -63 -161 -63q-77 0 -119 51t-42 142q0 86 26 168t81.5 135.5t137.5 53.5q67 0 103.5 -37t36.5 -93q0 -101 -78.5 -147zM181 409.5q-35 -58.5 -47 -145.5q105 13 153 44t48 97
q0 63 -58 63q-61 0 -96 -58.5zM216 830l51 -175l-57 -20l-72 162zM343 829l43 -169l-57 -20l-65 157z" />
    <glyph glyph-name="edieresis" unicode="&#xeb;" horiz-adv-x="440" 
d="M344.5 261q-78.5 -46 -216.5 -64v-14q0 -65 21 -93t60 -28q30 0 57 11t58 35l36 -57q-77 -63 -161 -63q-77 0 -119 51t-42 142q0 86 26 168t81.5 135.5t137.5 53.5q67 0 103.5 -37t36.5 -93q0 -101 -78.5 -147zM181 409.5q-35 -58.5 -47 -145.5q105 13 153 44t48 97
q0 63 -58 63q-61 0 -96 -58.5zM178 669.5q-13 13.5 -13 33.5q0 26 17.5 43.5t40.5 17.5q21 0 34 -13.5t13 -33.5q0 -27 -17 -44t-41 -17q-21 0 -34 13.5zM352 669.5q-13 13.5 -13 33.5q0 26 17.5 43.5t40.5 17.5q21 0 34 -13.5t13 -33.5q0 -26 -17 -43.5t-41 -17.5
q-21 0 -34 13.5z" />
    <glyph glyph-name="edotaccent" unicode="&#x117;" horiz-adv-x="440" 
d="M344.5 261q-78.5 -46 -216.5 -64v-14q0 -65 21 -93t60 -28q30 0 57 11t58 35l36 -57q-77 -63 -161 -63q-77 0 -119 51t-42 142q0 86 26 168t81.5 135.5t137.5 53.5q67 0 103.5 -37t36.5 -93q0 -101 -78.5 -147zM181 409.5q-35 -58.5 -47 -145.5q105 13 153 44t48 97
q0 63 -58 63q-61 0 -96 -58.5zM256 671.5q-14 14.5 -14 38.5q0 30 18.5 48.5t45.5 18.5q25 0 39 -14.5t14 -38.5q0 -30 -18.5 -48.5t-45.5 -18.5q-25 0 -39 14.5z" />
    <glyph glyph-name="uni1EB9" unicode="&#x1eb9;" horiz-adv-x="440" 
d="M344.5 261q-78.5 -46 -216.5 -64v-14q0 -65 21 -93t60 -28q30 0 57 11t58 35l36 -57q-77 -63 -161 -63q-77 0 -119 51t-42 142q0 86 26 168t81.5 135.5t137.5 53.5q67 0 103.5 -37t36.5 -93q0 -101 -78.5 -147zM181 409.5q-35 -58.5 -47 -145.5q105 13 153 44t48 97
q0 63 -58 63q-61 0 -96 -58.5zM222 -90.5q14 -14.5 14 -38.5q0 -30 -18.5 -48.5t-45.5 -18.5q-25 0 -39 14.5t-14 38.5q0 30 18.5 48.5t45.5 18.5q25 0 39 -14.5z" />
    <glyph glyph-name="egrave" unicode="&#xe8;" horiz-adv-x="440" 
d="M344.5 261q-78.5 -46 -216.5 -64v-14q0 -65 21 -93t60 -28q30 0 57 11t58 35l36 -57q-77 -63 -161 -63q-77 0 -119 51t-42 142q0 86 26 168t81.5 135.5t137.5 53.5q67 0 103.5 -37t36.5 -93q0 -101 -78.5 -147zM181 409.5q-35 -58.5 -47 -145.5q105 13 153 44t48 97
q0 63 -58 63q-61 0 -96 -58.5zM260 794l150 -111l-29 -44l-165 86z" />
    <glyph glyph-name="uni1EBB" unicode="&#x1ebb;" horiz-adv-x="440" 
d="M344.5 261q-78.5 -46 -216.5 -64v-14q0 -65 21 -93t60 -28q30 0 57 11t58 35l36 -57q-77 -63 -161 -63q-77 0 -119 51t-42 142q0 86 26 168t81.5 135.5t137.5 53.5q67 0 103.5 -37t36.5 -93q0 -101 -78.5 -147zM181 409.5q-35 -58.5 -47 -145.5q105 13 153 44t48 97
q0 63 -58 63q-61 0 -96 -58.5zM270 704q32 5 48.5 16t16.5 36q0 29 -28 29q-13 0 -23 -3t-24 -10l-16 51q18 11 35.5 16t40.5 5q39 0 62 -23.5t23 -60.5q0 -41 -20 -62.5t-58 -28.5l-9 -57h-60z" />
    <glyph glyph-name="uni0207" unicode="&#x207;" horiz-adv-x="440" 
d="M344.5 261q-78.5 -46 -216.5 -64v-14q0 -65 21 -93t60 -28q30 0 57 11t58 35l36 -57q-77 -63 -161 -63q-77 0 -119 51t-42 142q0 86 26 168t81.5 135.5t137.5 53.5q67 0 103.5 -37t36.5 -93q0 -101 -78.5 -147zM181 409.5q-35 -58.5 -47 -145.5q105 13 153 44t48 97
q0 63 -58 63q-61 0 -96 -58.5zM165 630q17 62 55 95t89 33q53 0 82 -35.5t27 -97.5l-54 -8q-6 74 -61 74q-58 0 -85 -78z" />
    <glyph glyph-name="emacron" unicode="&#x113;" horiz-adv-x="440" 
d="M344.5 261q-78.5 -46 -216.5 -64v-14q0 -65 21 -93t60 -28q30 0 57 11t58 35l36 -57q-77 -63 -161 -63q-77 0 -119 51t-42 142q0 86 26 168t81.5 135.5t137.5 53.5q67 0 103.5 -37t36.5 -93q0 -101 -78.5 -147zM181 409.5q-35 -58.5 -47 -145.5q105 13 153 44t48 97
q0 63 -58 63q-61 0 -96 -58.5zM412 668h-226l10 66h226z" />
    <glyph glyph-name="eogonek" unicode="&#x119;" horiz-adv-x="440" 
d="M344.5 261q-78.5 -46 -216.5 -64v-14q0 -65 21 -93t60 -28q30 0 57 11t58 35l36 -57q-42 -34 -82 -49q-57 -30 -77.5 -56.5t-20.5 -57.5q0 -45 44 -45q23 0 50 7l-11 -67q-30 -7 -53 -7q-46 0 -74 26.5t-28 67.5q0 36 20.5 66.5t57.5 51.5q-71 4 -109.5 55t-38.5 138
q0 86 26 168t81.5 135.5t137.5 53.5q67 0 103.5 -37t36.5 -93q0 -101 -78.5 -147zM181 409.5q-35 -58.5 -47 -145.5q105 13 153 44t48 97q0 63 -58 63q-61 0 -96 -58.5z" />
    <glyph glyph-name="uni025B" unicode="&#x25b;" horiz-adv-x="405" 
d="M71.5 28.5q-44.5 40.5 -44.5 104.5q0 56 34 97t106 52q-43 12 -64.5 36.5t-21.5 65.5q0 38 19 73t57.5 58t94.5 23q83 0 139 -54l-43 -49q-24 17 -45 25.5t-49 8.5q-42 0 -64.5 -24.5t-22.5 -61.5t20.5 -55.5t58.5 -18.5h42l-21 -69h-34q-59 0 -87 -28.5t-28 -76.5
q0 -36 19.5 -56t57.5 -20q32 0 58 11t59 34l38 -53q-71 -63 -163 -63q-71 0 -115.5 40.5z" />
    <glyph glyph-name="uni029A" unicode="&#x29a;" horiz-adv-x="475" 
d="M102 6.5q-36 18.5 -55.5 50.5t-19.5 71q0 58 35.5 100.5t109.5 53.5q-78 23 -78 97q0 39 20.5 76t59.5 60t92 23q81 0 125 -54t44 -147q0 -104 -29.5 -183t-86 -122.5t-135.5 -43.5q-46 0 -82 18.5zM308.5 136.5q38.5 77.5 38.5 203.5q0 66 -21 97.5t-62 31.5
q-42 0 -64 -25t-22 -66q0 -34 17 -51.5t54 -17.5h25l-21 -69h-25q-60 0 -85 -31t-25 -78q0 -72 71 -72q81 0 119.5 77.5z" />
    <glyph glyph-name="uni025C" unicode="&#x25c;" horiz-adv-x="413" 
d="M339 504.5q39 -33.5 39 -91.5q0 -50 -30.5 -85t-91.5 -48q102 -19 102 -109q0 -46 -22.5 -88t-69 -68.5t-113.5 -26.5q-96 0 -158 65l49 53q50 -47 112 -47q56 0 83 32t27 78q0 39 -24.5 55t-68.5 16h-55l18 69h39q54 0 83.5 28.5t29.5 69.5q0 32 -16.5 47t-45.5 15
q-33 0 -59 -10.5t-59 -31.5l-33 53q76 58 164 58q61 0 100 -33.5z" />
    <glyph glyph-name="uni025E" unicode="&#x25e;" horiz-adv-x="461" 
d="M80 39q-42 51 -42 142q0 103 31 184t87.5 127t132.5 46q59 0 98.5 -34t39.5 -90q0 -50 -30.5 -84.5t-91.5 -48.5q51 -9 76 -36t25 -74q0 -46 -22 -88t-67.5 -68.5t-112.5 -26.5q-82 0 -124 51zM290 91.5q27 32.5 27 78.5q0 39 -23 54.5t-67 15.5h-27l21 69h18
q48 0 74 27.5t26 70.5q0 30 -15 46t-44 16q-51 0 -85.5 -42t-51.5 -109t-17 -142q0 -61 20 -89t63 -28q54 0 81 32.5z" />
    <glyph glyph-name="uni025D" unicode="&#x25d;" horiz-adv-x="592" 
d="M626 349q-47 -35 -97 -35t-78.5 28.5t-28.5 73.5q0 11 1 17l2 18l-47 -29v-9q0 -50 -30.5 -85t-91.5 -48q102 -19 102 -109q0 -46 -22.5 -88t-69 -68.5t-113.5 -26.5q-96 0 -158 65l49 53q50 -47 112 -47q56 0 83 32t27 78q0 39 -24.5 55t-68.5 16h-55l18 69h39
q54 0 83.5 28.5t29.5 69.5q0 32 -16.5 47t-45.5 15q-33 0 -59 -10.5t-59 -31.5l-33 53q76 58 164 58q39 0 70.5 -14.5t49.5 -42.5l75 46h78l-13 -96q-3 -24 7.5 -36t31.5 -12q16 0 30 4.5t31 13.5z" />
    <glyph glyph-name="uni0258" unicode="&#x258;" horiz-adv-x="439" 
d="M357.5 482q41.5 -56 41.5 -149q0 -99 -30 -177.5t-86 -123t-130 -44.5q-49 0 -84.5 17t-62.5 49l49 50q25 -22 47.5 -32t55.5 -10q50 0 84 36t51 98q-116 7 -175.5 45.5t-59.5 117.5q0 53 23 93.5t63 63t89 22.5q83 0 124.5 -56zM311 337q0 60 -19.5 95.5t-61.5 35.5
q-37 0 -59.5 -28t-22.5 -75q0 -51 37 -74t122 -28q4 32 4 74z" />
    <glyph glyph-name="uni0283" unicode="&#x283;" horiz-adv-x="231" 
d="M360 710l-39 -51q-13 9 -25 14t-29 5q-23 0 -39 -17.5t-20 -50.5l-12 -83l-74 -527l-10 -73q-9 -69 -49 -104t-99 -35q-31 0 -53.5 10.5t-41.5 28.5l41 52q15 -11 26.5 -15.5t28.5 -4.5q24 0 40 16.5t20 49.5l10 75l74 527l12 82q10 68 47 104t96 36q53 0 96 -39z" />
    <glyph glyph-name="uni0286" unicode="&#x286;" horiz-adv-x="263" 
d="M392 710l-39 -51q-13 9 -25 14t-29 5q-23 0 -39 -17.5t-20 -50.5l-12 -83l-76 -541q48 -15 82 -36l-25 -44q-29 15 -66 26q-15 -67 -54.5 -105t-101.5 -38q-47 0 -74.5 26.5t-27.5 73.5q0 56 36.5 87.5t92.5 31.5q37 0 54 -4l73 523l12 82q10 68 47 104t96 36
q53 0 96 -39zM60 -49q-17 4 -47 4t-47 -17.5t-17 -46.5q0 -20 10 -31t29 -11q57 0 72 102z" />
    <glyph glyph-name="uni01AA" unicode="&#x1aa;" horiz-adv-x="281" 
d="M289 -176q-43 -36 -103 -36q-54 0 -84 30.5t-30 85.5q0 8 2 30l9 66l68 491q-23 -12 -49 -12q-40 0 -67 31t-27 82q0 71 39 114t101 43q49 0 78.5 -30.5t29.5 -83.5q0 -10 -2 -30l-84 -605l-10 -79q-1 -6 -1 -17q0 -45 43 -45q15 0 27.5 4.5t28.5 14.5zM160 556l10 69
q1 7 1 19q0 36 -29 36q-25 0 -38.5 -25.5t-13.5 -65.5q0 -41 33 -41q16 0 37 8z" />
    <glyph glyph-name="uni0285" unicode="&#x285;" horiz-adv-x="365" 
d="M336 25q-43 -36 -103 -36q-54 0 -84 30.5t-30 85.5q0 8 2 30l9 66l18 125l10 79q1 6 1 17q0 45 -43 45q-15 0 -27.5 -4.5t-28.5 -14.5l-31 54q43 36 103 36q54 0 84 -30.5t30 -85.5q0 -8 -2 -30l-9 -66l-18 -126l-10 -78q-1 -6 -1 -17q0 -45 43 -45q15 0 27.5 4.5
t28.5 14.5z" />
    <glyph glyph-name="uni0247" unicode="&#x247;" horiz-adv-x="440" 
d="M370.5 281q-52.5 -45 -146.5 -67l-53 -144q15 -8 38 -8q30 0 57 11t58 35l36 -57q-77 -63 -161 -63q-28 0 -55 8l-24 -66l-36 11l26 71q-35 23 -53.5 66.5t-18.5 102.5q0 86 26 168t81.5 135.5t137.5 53.5q13 0 19 -1l21 58l36 -11l-20 -55q41 -14 62.5 -46.5t21.5 -74.5
q0 -82 -52.5 -127zM181 409.5q-35 -58.5 -47 -145.5q40 4 73 12l70 192q-61 0 -96 -58.5zM313 458l-61 -168q42 17 62.5 44.5t20.5 70.5q0 38 -22 53zM181 205l-53 -8v-14q0 -52 14 -82z" />
    <glyph glyph-name="uni1EBD" unicode="&#x1ebd;" horiz-adv-x="440" 
d="M344.5 261q-78.5 -46 -216.5 -64v-14q0 -65 21 -93t60 -28q30 0 57 11t58 35l36 -57q-77 -63 -161 -63q-77 0 -119 51t-42 142q0 86 26 168t81.5 135.5t137.5 53.5q67 0 103.5 -37t36.5 -93q0 -101 -78.5 -147zM181 409.5q-35 -58.5 -47 -145.5q105 13 153 44t48 97
q0 63 -58 63q-61 0 -96 -58.5zM321.5 664.5q-13.5 7.5 -28.5 20.5q-12 10 -20 15t-17 5q-12 0 -23 -11t-26 -33l-45 27q46 84 97 84q18 0 30.5 -7t28.5 -21q11 -10 19 -15t17 -5q12 0 22.5 10t25.5 33l46 -27q-42 -83 -96 -83q-17 0 -30.5 7.5z" />
    <glyph glyph-name="uni01DD" unicode="&#x1dd;" horiz-adv-x="440" 
d="M360 488q42 -51 42 -142q0 -86 -26 -168t-81.5 -135.5t-137.5 -53.5q-67 0 -103.5 37t-36.5 93q0 101 78.5 147t216.5 64v14q0 65 -21 93t-60 28q-30 0 -57 -11t-58 -35l-36 57q77 63 161 63q77 0 119 -51zM259 117.5q35 58.5 47 145.5q-105 -13 -153 -44t-48 -97
q0 -63 58 -63q61 0 96 58.5z" />
    <glyph glyph-name="uni0259" unicode="&#x259;" horiz-adv-x="440" 
d="M360 488q42 -51 42 -142q0 -86 -26 -168t-81.5 -135.5t-137.5 -53.5q-67 0 -103.5 37t-36.5 93q0 101 78.5 147t216.5 64v14q0 65 -21 93t-60 28q-30 0 -57 -11t-58 -35l-36 57q77 63 161 63q77 0 119 -51zM259 117.5q35 58.5 47 145.5q-105 -13 -153 -44t-48 -97
q0 -63 58 -63q61 0 96 58.5z" />
    <glyph glyph-name="uni025A" unicode="&#x25a;" horiz-adv-x="626" 
d="M660 349q-47 -35 -97 -35t-78.5 28.5t-28.5 73.5q0 11 1 17l2 18l-64 -39q7 -28 7 -66q0 -86 -26 -168t-81.5 -135.5t-137.5 -53.5q-67 0 -103.5 37t-36.5 93q0 101 78.5 147t216.5 64v14q0 65 -21 93t-60 28q-30 0 -57 -11t-58 -35l-36 57q77 63 161 63q45 0 78.5 -18
t53.5 -52l95 58h78l-13 -96q-3 -24 7.5 -36t31.5 -12q16 0 30 4.5t31 13.5zM259 117.5q35 58.5 47 145.5q-105 -13 -153 -44t-48 -97q0 -63 58 -63q61 0 96 58.5z" />
    <glyph glyph-name="uni0292" unicode="&#x292;" horiz-adv-x="398" 
d="M380 459l-209 -256q86 -1 128 -43.5t42 -118.5q0 -74 -30 -131.5t-82 -89.5t-118 -32q-58 0 -97.5 22.5t-67.5 68.5l55 43q26 -34 51 -48t61 -14q63 0 100 51.5t37 128.5q0 55 -25 77.5t-81 22.5h-68l1 1l9 63l199 250h-234l10 73h328z" />
    <glyph glyph-name="uni01EF" unicode="&#x1ef;" horiz-adv-x="398" 
d="M380 459l-209 -256q86 -1 128 -43.5t42 -118.5q0 -74 -30 -131.5t-82 -89.5t-118 -32q-58 0 -97.5 22.5t-67.5 68.5l55 43q26 -34 51 -48t61 -14q63 0 100 51.5t37 128.5q0 55 -25 77.5t-81 22.5h-68l1 1l9 63l199 250h-234l10 73h328zM360 779l33 -39l-128 -112h-55
l-97 112l38 39l91 -80z" />
    <glyph glyph-name="uni0293" unicode="&#x293;" horiz-adv-x="394" 
d="M378 459l-209 -256q86 -1 127.5 -43.5t41.5 -118.5q0 -87 -45 -150t-122 -88l16 -61l-58 -19l-15 67q-26 -2 -39 -2q-72 0 -110.5 31.5t-38.5 87.5q0 51 31.5 84t76.5 33q48 0 75.5 -33.5t43.5 -117.5q48 20 71.5 64t23.5 104q0 54 -25.5 76.5t-80.5 22.5h-68l1 1l9 63
l199 250h-234l10 73h328zM14.5 -126.5q19.5 -13.5 63.5 -13.5q13 0 18 1q-12 61 -25.5 82.5t-36.5 21.5q-18 0 -28.5 -14.5t-10.5 -35.5q0 -28 19.5 -41.5z" />
    <glyph glyph-name="uni01B9" unicode="&#x1b9;" horiz-adv-x="399" 
d="M398 454h-239l135 -250l-9 -64l-2 1l1 -1h-63q-70 0 -107.5 -44.5t-37.5 -123.5q0 -55 23 -83.5t67 -28.5q38 0 69 15.5t64 48.5l46 -48q-39 -45 -83.5 -66.5t-99.5 -21.5q-84 0 -131 49.5t-47 133.5q0 69 28.5 122t80.5 82.5t120 29.5l-140 254l9 68h327z" />
    <glyph glyph-name="uni01BA" unicode="&#x1ba;" horiz-adv-x="381" 
d="M-29 -92q0 39 17 63t50 39t90 30q48 12 74.5 24t40.5 32t14 54q0 30 -14.5 43t-44.5 13h-120l9 65l173 183h-218l10 73h325l-9 -68l-183 -187h25q67 0 102.5 -30.5t35.5 -89.5q0 -74 -47.5 -116t-135.5 -63q-46 -11 -69.5 -20.5t-32 -20t-8.5 -26.5t11 -30.5t33 -31.5
l-33 -57q-95 53 -95 121z" />
    <glyph glyph-name="f" unicode="f" horiz-adv-x="269" 
d="M243.5 659q-17.5 -20 -23.5 -61l-10 -71h105l-20 -69h-95l-61 -440q-10 -72 -32 -113.5t-54 -65.5t-89 -51l-22 66q35 17 55.5 34.5t34.5 50t22 89.5l60 430h-73l10 69h72l11 76q9 68 49.5 107.5t105.5 39.5q58 0 108 -38l-33 -55q-36 22 -71 22q-32 0 -49.5 -20z" />
    <glyph glyph-name="uni1E1F" unicode="&#x1e1f;" horiz-adv-x="269" 
d="M243.5 659q-17.5 -20 -23.5 -61l-10 -71h105l-20 -69h-95l-61 -440q-10 -72 -32 -113.5t-54 -65.5t-89 -51l-22 66q35 17 55.5 34.5t34.5 50t22 89.5l60 430h-73l10 69h72l11 76q9 68 49.5 107.5t105.5 39.5q58 0 108 -38l-33 -55q-36 22 -71 22q-32 0 -49.5 -20z
M254 847.5q-14 14.5 -14 38.5q0 30 18.5 48.5t45.5 18.5q25 0 39 -14.5t14 -38.5q0 -30 -18.5 -48.5t-45.5 -18.5q-25 0 -39 14.5z" />
    <glyph glyph-name="uni02A9" unicode="&#x2a9;" horiz-adv-x="719" 
d="M641.5 505q29.5 -34 29.5 -91q0 -15 -3 -33l-54 -381l-10 -73q-9 -69 -49 -104t-99 -35q-31 0 -53.5 10.5t-41.5 28.5l41 52q15 -11 26.5 -15.5t28.5 -4.5q24 0 40 16.5t20 49.5l10 75l53 380q2 20 2 27q0 58 -42 58q-57 0 -130 -140l-45 -325h-87l64 458h-142l-61 -440
q-10 -72 -32 -113.5t-54 -65.5t-89 -51l-22 66q35 17 55.5 34.5t34.5 50t22 89.5l60 430h-73l10 69h72l11 76q9 68 49.5 107.5t105.5 39.5q58 0 108 -38l-33 -55q-36 22 -71 22q-32 0 -49.5 -20t-23.5 -61l-10 -71h217l-8 -95q33 52 67 79.5t78 27.5q48 0 77.5 -34z" />
    <glyph glyph-name="g" unicode="g" horiz-adv-x="478" 
d="M443 499l-70 -498q-17 -114 -70 -165t-140 -51q-39 0 -79 13.5t-72 36.5l36 63q24 -16 54 -26.5t60 -10.5q49 0 82 30t44 111l9 70q-29 -36 -56 -54t-66 -18q-63 0 -100.5 48.5t-37.5 127.5q0 84 27.5 167.5t86.5 139t147 55.5q69 0 145 -39zM201.5 424
q-38.5 -44 -57 -111.5t-18.5 -136.5q0 -106 68 -106q31 0 57.5 24t56.5 68l42 296q-27 10 -54 10q-56 0 -94.5 -44z" />
    <glyph glyph-name="uni01F5" unicode="&#x1f5;" horiz-adv-x="478" 
d="M443 499l-70 -498q-17 -114 -70 -165t-140 -51q-39 0 -79 13.5t-72 36.5l36 63q24 -16 54 -26.5t60 -10.5q49 0 82 30t44 111l9 70q-29 -36 -56 -54t-66 -18q-63 0 -100.5 48.5t-37.5 127.5q0 84 27.5 167.5t86.5 139t147 55.5q69 0 145 -39zM201.5 424
q-38.5 -44 -57 -111.5t-18.5 -136.5q0 -106 68 -106q31 0 57.5 24t56.5 68l42 296q-27 10 -54 10q-56 0 -94.5 -44zM387 796l37 -71l-187 -86l-25 45z" />
    <glyph glyph-name="uni0263" unicode="&#x263;" horiz-adv-x="412" 
d="M223 61q15 -46 23 -81.5t8 -67.5q0 -62 -29.5 -93t-81.5 -31q-41 0 -64 24t-23 63q0 37 19.5 82t59.5 107l-88 463h93l48 -404l158 404h93zM171 3q-18 -32 -31 -66.5t-13 -55.5q0 -27 22 -27q34 0 34 59q0 37 -12 90z" />
    <glyph glyph-name="gbreve" unicode="&#x11f;" horiz-adv-x="478" 
d="M443 499l-70 -498q-17 -114 -70 -165t-140 -51q-39 0 -79 13.5t-72 36.5l36 63q24 -16 54 -26.5t60 -10.5q49 0 82 30t44 111l9 70q-29 -36 -56 -54t-66 -18q-63 0 -100.5 48.5t-37.5 127.5q0 84 27.5 167.5t86.5 139t147 55.5q69 0 145 -39zM201.5 424
q-38.5 -44 -57 -111.5t-18.5 -136.5q0 -106 68 -106q31 0 57.5 24t56.5 68l42 296q-27 10 -54 10q-56 0 -94.5 -44zM226.5 680q-30.5 36 -26.5 97l55 8q3 -38 16.5 -55.5t41.5 -17.5q29 0 51 20t35 57l52 -17q-13 -61 -50.5 -94.5t-89.5 -33.5q-54 0 -84.5 36z" />
    <glyph glyph-name="gcaron" unicode="&#x1e7;" horiz-adv-x="478" 
d="M443 499l-70 -498q-17 -114 -70 -165t-140 -51q-39 0 -79 13.5t-72 36.5l36 63q24 -16 54 -26.5t60 -10.5q49 0 82 30t44 111l9 70q-29 -36 -56 -54t-66 -18q-63 0 -100.5 48.5t-37.5 127.5q0 84 27.5 167.5t86.5 139t147 55.5q69 0 145 -39zM201.5 424
q-38.5 -44 -57 -111.5t-18.5 -136.5q0 -106 68 -106q31 0 57.5 24t56.5 68l42 296q-27 10 -54 10q-56 0 -94.5 -44zM428 779l33 -39l-128 -112h-55l-97 112l38 39l91 -80z" />
    <glyph glyph-name="gcircumflex" unicode="&#x11d;" horiz-adv-x="478" 
d="M443 499l-70 -498q-17 -114 -70 -165t-140 -51q-39 0 -79 13.5t-72 36.5l36 63q24 -16 54 -26.5t60 -10.5q49 0 82 30t44 111l9 70q-29 -36 -56 -54t-66 -18q-63 0 -100.5 48.5t-37.5 127.5q0 84 27.5 167.5t86.5 139t147 55.5q69 0 145 -39zM201.5 424
q-38.5 -44 -57 -111.5t-18.5 -136.5q0 -106 68 -106q31 0 57.5 24t56.5 68l42 296q-27 10 -54 10q-56 0 -94.5 -44zM208 638l-35 40l129 113h55l96 -117l-40 -36l-91 81z" />
    <glyph glyph-name="gcommaaccent" unicode="&#x123;" horiz-adv-x="478" 
d="M443 499l-70 -498q-17 -114 -70 -165t-140 -51q-39 0 -79 13.5t-72 36.5l36 63q24 -16 54 -26.5t60 -10.5q49 0 82 30t44 111l9 70q-29 -36 -56 -54t-66 -18q-63 0 -100.5 48.5t-37.5 127.5q0 84 27.5 167.5t86.5 139t147 55.5q69 0 145 -39zM201.5 424
q-38.5 -44 -57 -111.5t-18.5 -136.5q0 -106 68 -106q31 0 57.5 24t56.5 68l42 296q-27 10 -54 10q-56 0 -94.5 -44zM272.5 598.5q-12.5 14.5 -12.5 33.5q0 18 6.5 34t26.5 52l46 82h48l-42 -118q9 -7 14 -17.5t5 -22.5q0 -25 -16.5 -41.5t-39.5 -16.5t-35.5 14.5z" />
    <glyph glyph-name="gdotaccent" unicode="&#x121;" horiz-adv-x="478" 
d="M443 499l-70 -498q-17 -114 -70 -165t-140 -51q-39 0 -79 13.5t-72 36.5l36 63q24 -16 54 -26.5t60 -10.5q49 0 82 30t44 111l9 70q-29 -36 -56 -54t-66 -18q-63 0 -100.5 48.5t-37.5 127.5q0 84 27.5 167.5t86.5 139t147 55.5q69 0 145 -39zM201.5 424
q-38.5 -44 -57 -111.5t-18.5 -136.5q0 -106 68 -106q31 0 57.5 24t56.5 68l42 296q-27 10 -54 10q-56 0 -94.5 -44zM271 671.5q-14 14.5 -14 38.5q0 30 18.5 48.5t45.5 18.5q25 0 39 -14.5t14 -38.5q0 -30 -18.5 -48.5t-45.5 -18.5q-25 0 -39 14.5z" />
    <glyph glyph-name="uni0260" unicode="&#x260;" horiz-adv-x="481" 
d="M611 710l-39 -51q-13 9 -25 14t-29 5q-23 0 -39 -17.5t-20 -50.5l-12 -83l-74 -526q-16 -114 -69.5 -165t-140.5 -51q-39 0 -79 13.5t-72 36.5l36 63q24 -16 54 -26.5t60 -10.5q49 0 82.5 30t43.5 111l9 70q-29 -36 -56 -54t-66 -18q-63 0 -100.5 48.5t-37.5 127.5
q0 84 27.5 167.5t86 139t145.5 55.5q29 0 64 -11l12 82q10 68 47 104t96 36q53 0 96 -39zM251.5 94q26.5 24 56.5 68l42 297q-21 9 -54 9q-56 0 -94.5 -44t-57 -111.5t-18.5 -136.5q0 -106 68 -106q31 0 57.5 24z" />
    <glyph glyph-name="uni01BE" unicode="&#x1be;" horiz-adv-x="415" 
d="M334.5 368q31.5 -42 31.5 -116q0 -75 -28.5 -135t-78.5 -94t-113 -34q-50 0 -88 22t-69 65l53 42q25 -30 49 -44t55 -14q61 0 95.5 53.5t34.5 137.5q0 55 -20 83.5t-62 41.5l-53 16l22 154h-54l10 68h53l18 124l87 9l-19 -133h97l-10 -68h-96l-16 -113l22 -7
q48 -16 79.5 -58z" />
    <glyph glyph-name="uni0294" unicode="&#x294;" horiz-adv-x="368" 
d="M119 348l47 18q69 27 99 72.5t30 129.5q0 53 -21 81.5t-63 28.5q-33 0 -60.5 -15t-62.5 -45l-41 49q44 43 84.5 62.5t89.5 19.5q78 0 122 -49t44 -131q0 -106 -41 -163t-128 -93l-19 -8l-42 -305h-87z" />
    <glyph glyph-name="uni0296" unicode="&#x296;" horiz-adv-x="415" 
d="M277 747l-44 -314l22 -7q48 -16 79.5 -58t31.5 -116q0 -75 -28.5 -135t-78.5 -94t-113 -34q-50 0 -88 22t-69 65l53 42q25 -30 49 -44t55 -14q61 0 95.5 53.5t34.5 137.5q0 55 -20 83.5t-62 41.5l-53 16l49 346z" />
    <glyph glyph-name="uni0295" unicode="&#x295;" horiz-adv-x="364" 
d="M134 0l43 302l-14 6q-50 22 -80 60.5t-30 113.5t28.5 136t79 96t114.5 35q50 0 87 -21.5t68 -64.5l-51 -43q-27 31 -50 44.5t-54 13.5q-60 0 -96 -56t-36 -139q0 -52 21.5 -81t61.5 -43l42 -14l-47 -345h-87z" />
    <glyph glyph-name="uni0242" unicode="&#x242;" horiz-adv-x="361" 
d="M86 196l55 19q60 21 86 57.5t26 97.5q0 44 -19 69t-54 25q-30 0 -54 -13t-57 -40l-41 55q36 36 75.5 54t86.5 18q70 0 111.5 -46.5t41.5 -119.5q0 -157 -149 -210l-28 -10l-21 -152h-87z" />
    <glyph glyph-name="uni02A1" unicode="&#x2a1;" horiz-adv-x="368" 
d="M199 305l-13 -91h89l-10 -67h-88l-20 -147h-87l21 147h-56l10 67h55l19 134l47 18q69 27 99 72.5t30 129.5q0 53 -21 81.5t-63 28.5q-33 0 -60.5 -15t-62.5 -45l-41 49q44 43 84.5 62.5t89.5 19.5q78 0 122 -49t44 -131q0 -106 -41 -163t-128 -93z" />
    <glyph glyph-name="uni02A2" unicode="&#x2a2;" horiz-adv-x="364" 
d="M362 727.5q37 -21.5 68 -64.5l-51 -43q-27 31 -50 44.5t-54 13.5q-60 0 -96 -56t-36 -139q0 -52 21.5 -81t61.5 -43l42 -14l-18 -131h57l-10 -67h-56l-20 -147h-87l21 147h-88l10 67h87l13 88l-14 6q-50 22 -80 60.5t-30 113.5t28.5 136t79 96t114.5 35q50 0 87 -21.5z
" />
    <glyph glyph-name="uni0261" unicode="&#x261;" horiz-adv-x="478" 
d="M443 499l-70 -498q-17 -114 -70 -165t-140 -51q-39 0 -79 13.5t-72 36.5l36 63q24 -16 54 -26.5t60 -10.5q49 0 82 30t44 111l9 70q-29 -36 -56 -54t-66 -18q-63 0 -100.5 48.5t-37.5 127.5q0 84 27.5 167.5t86.5 139t147 55.5q69 0 145 -39zM201.5 424
q-38.5 -44 -57 -111.5t-18.5 -136.5q0 -106 68 -106q31 0 57.5 24t56.5 68l42 296q-27 10 -54 10q-56 0 -94.5 -44z" />
    <glyph glyph-name="uni01E5" unicode="&#x1e5;" horiz-adv-x="477" 
d="M368 -25h53l-8 -61h-62q-26 -68 -73.5 -98.5t-115.5 -30.5q-39 0 -79 13.5t-72 36.5l36 63q24 -16 54 -26.5t60 -10.5q69 0 100 53h-100l8 61h114q2 7 4 23l11 84q-29 -36 -56 -54t-66 -18q-64 0 -101 49t-37 132q0 78 27 158.5t85.5 134.5t146.5 54q69 0 145 -39
l-70 -498zM252.5 104q26.5 24 56.5 68l40 286q-27 10 -54 10q-56 0 -94 -43t-56 -107t-18 -127q0 -58 17 -84.5t51 -26.5q31 0 57.5 24z" />
    <glyph glyph-name="uni021D" unicode="&#x21d;" horiz-adv-x="403" 
d="M320 502q40 -36 40 -98q0 -54 -29.5 -85t-87.5 -48q53 -1 79.5 -25t26.5 -69q0 -105 -93 -175t-237 -104l-3 66q123 42 182.5 91t59.5 119q0 32 -18 44t-57 12h-70l16 69h35q47 0 77 26.5t30 76.5q0 67 -65 67q-31 0 -58 -10.5t-57 -30.5l-35 53q38 29 77 43t83 14
q64 0 104 -36z" />
    <glyph glyph-name="h" unicode="h" horiz-adv-x="475" 
d="M397.5 505q29.5 -34 29.5 -91q0 -15 -3 -33l-54 -381h-87l53 380q2 20 2 27q0 58 -42 58q-57 0 -130 -140l-44 -325h-87l104 738l88 9l-44 -309q29 48 61.5 74.5t75.5 26.5q48 0 77.5 -34z" />
    <glyph glyph-name="hbar" unicode="&#x127;" horiz-adv-x="482" 
d="M404.5 505q29.5 -34 29.5 -91q0 -15 -3 -33l-54 -381h-87l53 380q2 20 2 27q0 58 -42 58q-57 0 -130 -140l-44 -325h-87l86 607h-60l10 67h59l9 64l88 9l-10 -73h123l-18 -67h-115l-24 -169q29 48 61.5 74.5t75.5 26.5q48 0 77.5 -34z" />
    <glyph glyph-name="uni021F" unicode="&#x21f;" horiz-adv-x="475" 
d="M397.5 505q29.5 -34 29.5 -91q0 -15 -3 -33l-54 -381h-87l53 380q2 20 2 27q0 58 -42 58q-57 0 -130 -140l-44 -325h-87l104 738l88 9l-44 -309q29 48 61.5 74.5t75.5 26.5q48 0 77.5 -34zM435 957l36 -40l-129 -113h-55l-96 117l37 36l94 -81z" />
    <glyph glyph-name="hcircumflex" unicode="&#x125;" horiz-adv-x="475" 
d="M397.5 505q29.5 -34 29.5 -91q0 -15 -3 -33l-54 -381h-87l53 380q2 20 2 27q0 58 -42 58q-57 0 -130 -140l-44 -325h-87l104 738l88 9l-44 -309q29 48 61.5 74.5t75.5 26.5q48 0 77.5 -34zM210 809l-36 40l129 113h55l96 -117l-37 -36l-94 81z" />
    <glyph glyph-name="uni1E25" unicode="&#x1e25;" horiz-adv-x="475" 
d="M397.5 505q29.5 -34 29.5 -91q0 -15 -3 -33l-54 -381h-87l53 380q2 20 2 27q0 58 -42 58q-57 0 -130 -140l-44 -325h-87l104 738l88 9l-44 -309q29 48 61.5 74.5t75.5 26.5q48 0 77.5 -34zM229 -90.5q14 -14.5 14 -38.5q0 -30 -18.5 -48.5t-45.5 -18.5q-25 0 -39 14.5
t-14 38.5q0 30 18.5 48.5t45.5 18.5q25 0 39 -14.5z" />
    <glyph glyph-name="uni0267" unicode="&#x267;" horiz-adv-x="477" 
d="M399.5 505q29.5 -34 29.5 -91q0 -15 -3 -33l-54 -381l-10 -73q-9 -69 -49 -104t-99 -35q-31 0 -53.5 10.5t-41.5 28.5l41 52q15 -11 26.5 -15.5t28.5 -4.5q24 0 40 16.5t20 49.5l10 75l53 380q2 20 2 27q0 58 -42 58q-57 0 -130 -140l-44 -325h-87l72 526l13 87
q9 63 49.5 99.5t106.5 36.5q31 0 56 -7t50 -21l-33 -60q-34 17 -70 17q-34 0 -51.5 -20t-22.5 -60l-10 -72l-12 -88q29 48 61.5 74.5t75.5 26.5q48 0 77.5 -34z" />
    <glyph glyph-name="uni0266" unicode="&#x266;" horiz-adv-x="477" 
d="M399.5 505q29.5 -34 29.5 -91q0 -15 -3 -33l-54 -381h-87l53 380q2 20 2 27q0 58 -42 58q-57 0 -130 -140l-44 -325h-87l72 526l13 87q9 63 49.5 99.5t106.5 36.5q31 0 56 -7t50 -21l-33 -60q-34 17 -70 17q-34 0 -51.5 -20t-22.5 -60l-10 -72l-12 -88q29 48 61.5 74.5
t75.5 26.5q48 0 77.5 -34z" />
    <glyph glyph-name="uni0265" unicode="&#x265;" horiz-adv-x="471" 
d="M292 82q-31 -46 -61 -70t-75 -24q-49 0 -78.5 32t-29.5 86q0 9 2 29l55 392h87l-56 -399q-2 -16 -2 -22q0 -24 10 -36.5t29 -12.5q24 0 47 18.5t40.5 42t45.5 64.5l47 345h87l-103 -730l-87 -12z" />
    <glyph glyph-name="uni02AE" unicode="&#x2ae;" horiz-adv-x="560" 
d="M529 527l-103 -730l-87 -12l42 297q-31 -46 -61 -70t-75 -24q-49 0 -78.5 32.5t-29.5 88.5q0 8 2 26l24 191l10 79q1 6 1 17q0 45 -43 45q-15 0 -27.5 -4.5t-28.5 -14.5l-31 54q43 36 103 36q54 0 84 -30.5t30 -85.5q0 -8 -2 -30l-9 -66l-25 -198q-1 -7 -1 -21
q0 -50 38 -50q24 0 47 18.5t40.5 42t45.5 64.5l47 345h87z" />
    <glyph glyph-name="uni02AF" unicode="&#x2af;" horiz-adv-x="561" 
d="M575 -176q-43 -36 -103 -36q-54 0 -84 30.5t-30 85.5q0 8 2 30l9 66l13 82q-32 -46 -62 -70t-75 -24q-49 0 -78.5 32.5t-29.5 88.5q0 8 2 26l24 191l10 79q1 6 1 17q0 45 -43 45q-15 0 -27.5 -4.5t-28.5 -14.5l-31 54q43 36 103 36q54 0 84 -30.5t30 -85.5q0 -8 -2 -30
l-9 -66l-25 -198q-1 -7 -1 -21q0 -50 38 -50q24 0 47 18.5t40.5 42t45.5 64.5l47 345h87l-73 -527l-10 -79q-1 -6 -1 -17q0 -45 43 -45q15 0 27.5 4.5t28.5 14.5z" />
    <glyph glyph-name="uni0195" unicode="&#x195;" horiz-adv-x="718" 
d="M337 27.5q-35 39.5 -35 95.5q0 9 2 25l32 232q2 20 2 27q0 58 -42 58q-57 0 -130 -140l-44 -325h-87l104 738l88 9l-44 -309q29 48 61.5 74.5t75.5 26.5q48 0 77.5 -34t29.5 -91q0 -15 -3 -33l-33 -234q-2 -16 -2 -22q0 -31 14 -48.5t42 -17.5q85 0 114.5 113t29.5 251
q0 68 -4 104h83q6 -49 6 -103q0 -193 -54.5 -314.5t-179.5 -121.5q-68 0 -103 39.5z" />
    <glyph glyph-name="i" unicode="i" horiz-adv-x="231" 
d="M196 527l-74 -527h-87l74 527h87zM129 671.5q-14 14.5 -14 38.5q0 30 18.5 48.5t45.5 18.5q25 0 39 -14.5t14 -38.5q0 -30 -18.5 -48.5t-45.5 -18.5q-25 0 -39 14.5z" />
    <glyph glyph-name="dotlessi" unicode="&#x131;" horiz-adv-x="231" 
d="M196 527l-74 -527h-87l74 527h87z" />
    <glyph glyph-name="iacute" unicode="&#xed;" horiz-adv-x="231" 
d="M196 527l-74 -527h-87l74 527h87zM245 796l37 -71l-187 -86l-25 45z" />
    <glyph glyph-name="ibreve" unicode="&#x12d;" horiz-adv-x="231" 
d="M196 527l-74 -527h-87l74 527h87zM84.5 680q-30.5 36 -26.5 97l55 8q3 -38 16.5 -55.5t41.5 -17.5q29 0 51 20t35 57l52 -17q-13 -61 -50.5 -94.5t-89.5 -33.5q-54 0 -84.5 36z" />
    <glyph glyph-name="uni01D0" unicode="&#x1d0;" horiz-adv-x="231" 
d="M196 527l-74 -527h-87l74 527h87zM286 779l33 -39l-128 -112h-55l-97 112l38 39l91 -80z" />
    <glyph glyph-name="icircumflex" unicode="&#xee;" horiz-adv-x="231" 
d="M196 527l-74 -527h-87l74 527h87zM66 638l-35 40l129 113h55l96 -117l-40 -36l-91 81z" />
    <glyph glyph-name="uni0209" unicode="&#x209;" horiz-adv-x="231" 
d="M196 527l-74 -527h-87l74 527h87zM89 830l51 -175l-57 -20l-72 162zM216 829l43 -169l-57 -20l-65 157z" />
    <glyph glyph-name="idieresis" unicode="&#xef;" horiz-adv-x="231" 
d="M196 527l-74 -527h-87l74 527h87zM51 669.5q-13 13.5 -13 33.5q0 26 17.5 43.5t40.5 17.5q21 0 34 -13.5t13 -33.5q0 -27 -17 -44t-41 -17q-21 0 -34 13.5zM225 669.5q-13 13.5 -13 33.5q0 26 17.5 43.5t40.5 17.5q21 0 34 -13.5t13 -33.5q0 -26 -17 -43.5t-41 -17.5
q-21 0 -34 13.5z" />
    <glyph glyph-name="uni1E2F" unicode="&#x1e2f;" horiz-adv-x="231" 
d="M196 527l-74 -527h-87l74 527h87zM255 889l48 -47l-134 -131l-33 29zM41 639.5q-13 13.5 -13 33.5q0 26 17.5 43.5t40.5 17.5q21 0 34 -13.5t13 -33.5q0 -27 -17 -44t-41 -17q-21 0 -34 13.5zM215 639.5q-13 13.5 -13 33.5q0 26 17.5 43.5t40.5 17.5q21 0 34 -13.5
t13 -33.5q0 -26 -17 -43.5t-41 -17.5q-21 0 -34 13.5z" />
    <glyph glyph-name="i.loclTRK" horiz-adv-x="231" 
d="M196 527l-74 -527h-87l74 527h87zM129 671.5q-14 14.5 -14 38.5q0 30 18.5 48.5t45.5 18.5q25 0 39 -14.5t14 -38.5q0 -30 -18.5 -48.5t-45.5 -18.5q-25 0 -39 14.5z" />
    <glyph glyph-name="uni1ECB" unicode="&#x1ecb;" horiz-adv-x="231" 
d="M196 527l-74 -527h-87l74 527h87zM129 671.5q-14 14.5 -14 38.5q0 30 18.5 48.5t45.5 18.5q25 0 39 -14.5t14 -38.5q0 -30 -18.5 -48.5t-45.5 -18.5q-25 0 -39 14.5zM103 -90.5q14 -14.5 14 -38.5q0 -30 -18.5 -48.5t-45.5 -18.5q-25 0 -39 14.5t-14 38.5q0 30 18.5 48.5
t45.5 18.5q25 0 39 -14.5z" />
    <glyph glyph-name="igrave" unicode="&#xec;" horiz-adv-x="231" 
d="M196 527l-74 -527h-87l74 527h87zM133 794l150 -111l-29 -44l-165 86z" />
    <glyph glyph-name="uni1EC9" unicode="&#x1ec9;" horiz-adv-x="231" 
d="M196 527l-74 -527h-87l74 527h87zM143 704q32 5 48.5 16t16.5 36q0 29 -28 29q-13 0 -23 -3t-24 -10l-16 51q18 11 35.5 16t40.5 5q39 0 62 -23.5t23 -60.5q0 -41 -20 -62.5t-58 -28.5l-9 -57h-60z" />
    <glyph glyph-name="uni020B" unicode="&#x20b;" horiz-adv-x="231" 
d="M196 527l-74 -527h-87l74 527h87zM38 630q17 62 55 95t89 33q53 0 82 -35.5t27 -97.5l-54 -8q-6 74 -61 74q-58 0 -85 -78z" />
    <glyph glyph-name="ij" unicode="&#x133;" horiz-adv-x="465" 
d="M196 527l-74 -527h-87l74 527h87zM129 671.5q-14 14.5 -14 38.5q0 30 18.5 48.5t45.5 18.5q25 0 39 -14.5t14 -38.5q0 -30 -18.5 -48.5t-45.5 -18.5q-25 0 -39 14.5zM161 -146q35 17 55 34.5t34.5 50t22.5 89.5l70 499h87l-72 -509q-10 -72 -32 -113.5t-54 -65.5t-89 -51
zM364 671.5q-14 14.5 -14 38.5q0 30 18.5 48.5t45.5 18.5q25 0 39 -14.5t14 -38.5q0 -30 -18.5 -48.5t-45.5 -18.5q-25 0 -39 14.5z" />
    <glyph glyph-name="imacron" unicode="&#x12b;" horiz-adv-x="231" 
d="M196 527l-74 -527h-87l74 527h87zM285 668h-226l10 66h226z" />
    <glyph glyph-name="iogonek" unicode="&#x12f;" horiz-adv-x="231" 
d="M218 762.5q14 -14.5 14 -38.5q0 -30 -18.5 -48.5t-45.5 -18.5q-25 0 -39 14.5t-14 38.5q0 30 18.5 48.5t45.5 18.5q25 0 39 -14.5zM109 527h87l-74 -527h-24q-70 -36 -93.5 -65.5t-23.5 -61.5q0 -36 39 -36q21 0 49 5l-14 -65q-26 -6 -52 -6q-43 0 -68.5 25.5t-25.5 67.5
q0 45 29 82.5t99 68.5z" />
    <glyph glyph-name="uni0269" unicode="&#x269;" horiz-adv-x="242" 
d="M104 527h87l-61 -430q-1 -5 -1 -12q0 -24 21 -24q10 0 27 5l14 -61q-31 -17 -66 -17q-38 0 -60 24t-22 65q0 8 2 24z" />
    <glyph glyph-name="uni0268" unicode="&#x268;" horiz-adv-x="258" 
d="M143 671.5q-14 14.5 -14 38.5q0 30 18.5 48.5t45.5 18.5q25 0 39 -14.5t14 -38.5q0 -30 -18.5 -48.5t-45.5 -18.5q-25 0 -39 14.5zM255 315l-10 -67h-74l-35 -248h-87l35 248h-76l10 67h75l30 212h87l-30 -212h75z" />
    <glyph glyph-name="itilde" unicode="&#x129;" horiz-adv-x="231" 
d="M196 527l-74 -527h-87l74 527h87zM194.5 664.5q-13.5 7.5 -28.5 20.5q-12 10 -20 15t-17 5q-12 0 -23 -11t-26 -33l-45 27q46 84 97 84q18 0 30.5 -7t28.5 -21q11 -10 19 -15t17 -5q12 0 22.5 10t25.5 33l46 -27q-42 -83 -96 -83q-17 0 -30.5 7.5z" />
    <glyph glyph-name="j" unicode="j" horiz-adv-x="234" 
d="M-70 -146q35 17 55 34.5t34.5 50t22.5 89.5l70 499h87l-72 -509q-10 -72 -32 -113.5t-54 -65.5t-89 -51zM133 671.5q-14 14.5 -14 38.5q0 30 18.5 48.5t45.5 18.5q25 0 39 -14.5t14 -38.5q0 -30 -18.5 -48.5t-45.5 -18.5q-25 0 -39 14.5z" />
    <glyph glyph-name="uni0237" unicode="&#x237;" horiz-adv-x="234" 
d="M-70 -146q35 17 55 34.5t34.5 50t22.5 89.5l70 499h87l-72 -509q-10 -72 -32 -113.5t-54 -65.5t-89 -51z" />
    <glyph glyph-name="uni01F0" unicode="&#x1f0;" horiz-adv-x="234" 
d="M-70 -146q35 17 55 34.5t34.5 50t22.5 89.5l70 499h87l-72 -509q-10 -72 -32 -113.5t-54 -65.5t-89 -51zM290 779l33 -39l-128 -112h-55l-97 112l38 39l91 -80z" />
    <glyph glyph-name="jcircumflex" unicode="&#x135;" horiz-adv-x="234" 
d="M-70 -146q35 17 55 34.5t34.5 50t22.5 89.5l70 499h87l-72 -509q-10 -72 -32 -113.5t-54 -65.5t-89 -51zM70 638l-35 40l129 113h55l96 -117l-40 -36l-91 81z" />
    <glyph glyph-name="uni029D" unicode="&#x29d;" horiz-adv-x="307" 
d="M251 762.5q14 -14.5 14 -38.5q0 -30 -18.5 -48.5t-45.5 -18.5q-25 0 -39 14.5t-14 38.5q0 30 18.5 48.5t45.5 18.5q25 0 39 -14.5zM152 -14q48 -15 82 -36l-25 -44q-29 15 -66 26q-15 -67 -54.5 -105t-101.5 -38q-47 0 -74.5 26.5t-27.5 73.5q0 56 36.5 87.5t92.5 31.5
q37 0 54 -4l73 523h87zM60 -49q-17 4 -47 4t-47 -17.5t-17 -46.5q0 -20 10 -31t29 -11q57 0 72 102z" />
    <glyph glyph-name="uni025F" unicode="&#x25f;" horiz-adv-x="258" 
d="M242 218h-75l-28 -200q-10 -72 -32 -113.5t-54 -65.5t-89 -51l-22 66q35 17 55 34.5t34.5 50t22.5 89.5l27 190h-76l9 67h76l34 242h87l-34 -242h74z" />
    <glyph glyph-name="uni0284" unicode="&#x284;" horiz-adv-x="314" 
d="M384 710l-39 -51q-13 9 -25 14t-29 5q-23 0 -39 -17.5t-20 -50.5l-12 -83h1l-65 -460h74l-9 -67h-75q-11 -64 -33 -102.5t-53 -61t-86 -48.5l-22 66q32 15 51 30.5t33 43t23 72.5h-75l9 67h76l65 460h-1l12 82q10 68 47 104t96 36q53 0 96 -39z" />
    <glyph glyph-name="uni0249" unicode="&#x249;" horiz-adv-x="258" 
d="M242 218h-75l-28 -200q-10 -72 -32 -113.5t-54 -65.5t-89 -51l-22 66q35 17 55 34.5t34.5 50t22.5 89.5l27 190h-76l9 67h76l34 242h87l-34 -242h74zM145 671.5q-14 14.5 -14 38.5q0 30 18.5 48.5t45.5 18.5q25 0 39 -14.5t14 -38.5q0 -30 -18.5 -48.5t-45.5 -18.5
q-25 0 -39 14.5z" />
    <glyph glyph-name="k" unicode="k" horiz-adv-x="457" 
d="M183 437q60 101 146 101q50 0 81 -31.5t31 -82.5q0 -119 -143 -187l92 -237h-93l-94 257q80 24 114 62t34 97q0 26 -12 39.5t-33 13.5q-33 0 -70.5 -39t-70.5 -115l-43 -315h-87l104 739l88 10z" />
    <glyph glyph-name="uni01E9" unicode="&#x1e9;" horiz-adv-x="457" 
d="M183 437q60 101 146 101q50 0 81 -31.5t31 -82.5q0 -119 -143 -187l92 -237h-93l-94 257q80 24 114 62t34 97q0 26 -12 39.5t-33 13.5q-33 0 -70.5 -39t-70.5 -115l-43 -315h-87l104 739l88 10zM448 957l36 -40l-129 -113h-55l-96 117l37 36l94 -81z" />
    <glyph glyph-name="kcommaaccent" unicode="&#x137;" horiz-adv-x="457" 
d="M183 437q60 101 146 101q50 0 81 -31.5t31 -82.5q0 -119 -143 -187l92 -237h-93l-94 257q80 24 114 62t34 97q0 26 -12 39.5t-33 13.5q-33 0 -70.5 -39t-70.5 -115l-43 -315h-87l104 739l88 10zM230.5 -92.5q12.5 -14.5 12.5 -33.5q0 -18 -6.5 -34t-26.5 -52l-46 -82h-48
l42 118q-9 7 -14 17.5t-5 22.5q0 25 16.5 41.5t39.5 16.5t35.5 -14.5z" />
    <glyph glyph-name="kgreenlandic" unicode="&#x138;" horiz-adv-x="428" 
d="M196 527l-74 -527h-87l74 527h87zM445 527l-189 -249l130 -278h-95l-127 278l185 249h96z" />
    <glyph glyph-name="uni0199" unicode="&#x199;" horiz-adv-x="458" 
d="M299 237l92 -237h-93l-94 257q80 24 114 62t34 97q0 26 -12 39.5t-33 13.5q-34 0 -71 -39.5t-70 -114.5l-43 -315h-87l73 526l13 87q9 63 49.5 99.5t106.5 36.5q31 0 56 -7t50 -21l-33 -60q-34 17 -70 17q-34 0 -51.5 -20t-22.5 -60l-10 -72l-13 -91q61 103 145 103
q51 0 82 -31t31 -83q0 -119 -143 -187z" />
    <glyph glyph-name="uni029E" unicode="&#x29e;" horiz-adv-x="425" 
d="M-18 0l192 247l-132 280h96l125 -288l-180 -239h-101zM204 -215l104 742h86l-103 -731z" />
    <glyph glyph-name="l" unicode="l" horiz-adv-x="242" 
d="M130 97l-1 -11q0 -25 21 -25q10 0 27 5l14 -61q-31 -17 -66 -17q-38 0 -60 24t-22 65q0 8 2 24l89 638l87 10z" />
    <glyph glyph-name="lacute" unicode="&#x13a;" horiz-adv-x="242" 
d="M130 97l-1 -11q0 -25 21 -25q10 0 27 5l14 -61q-31 -17 -66 -17q-38 0 -60 24t-22 65q0 8 2 24l89 638l87 10zM263 952l37 -71l-187 -76l-23 45z" />
    <glyph glyph-name="uni019B" unicode="&#x19b;" horiz-adv-x="401" 
d="M318 247q10 -82 24.5 -131.5t39.5 -96.5l-82 -30q-35 78 -50.5 168.5t-16.5 265.5l-171 -435l-83 21l214 497l35 -7q-1 62 -14 103l-58 -65l-50 32l77 86q-24 23 -67 33l18 63q68 -21 100 -51l69 74l38 -45l-70 -78q28 -60 32 -185q5 -137 15 -219z" />
    <glyph glyph-name="uni019A" unicode="&#x19a;" horiz-adv-x="258" 
d="M149 97l-1 -11q0 -25 21 -25q10 0 27 5l14 -61q-31 -17 -66 -17q-38 0 -60 24t-22 65q0 8 2 24l33 237h-76l10 67h75l47 334l87 10l-48 -344h76l-10 -67h-75z" />
    <glyph glyph-name="uni026C" unicode="&#x26c;" horiz-adv-x="310" 
d="M230 66l14 -61q-31 -17 -66 -17q-38 0 -60 24t-22 65q0 8 2 24l21 154h-1q-51 3 -77.5 28.5t-26.5 69.5q0 48 30 78.5t75 30.5q17 0 29 -3l39 280l87 10l-61 -434h1q23 1 58 8l7 -54q-34 -10 -73 -12h-1l-22 -160l-1 -11q0 -25 21 -25q10 0 27 5zM128 315l12 90
q-9 3 -20 3q-18 0 -29.5 -13.5t-11.5 -38.5q0 -41 49 -41z" />
    <glyph glyph-name="lcaron" unicode="&#x13e;" horiz-adv-x="242" 
d="M130 97l-1 -11q0 -25 21 -25q10 0 27 5l14 -61q-31 -17 -66 -17q-38 0 -60 24t-22 65q0 8 2 24l89 638l87 10zM268 748l72 -10l-64 -181l-47 8z" />
    <glyph glyph-name="uni1E3D" unicode="&#x1e3d;" horiz-adv-x="242" 
d="M130 97l-1 -11q0 -25 21 -25q10 0 27 5l14 -61q-31 -17 -66 -17q-38 0 -60 24t-22 65q0 8 2 24l89 638l87 10zM-8 -221l-36 40l129 113h55l96 -117l-39 -36l-91 81z" />
    <glyph glyph-name="lcommaaccent" unicode="&#x13c;" horiz-adv-x="242" 
d="M130 97l-1 -11q0 -25 21 -25q10 0 27 5l14 -61q-31 -17 -66 -17q-38 0 -60 24t-22 65q0 8 2 24l89 638l87 10zM140.5 -92.5q12.5 -14.5 12.5 -33.5q0 -18 -6.5 -34t-26.5 -52l-46 -82h-48l42 118q-9 7 -14 17.5t-5 22.5q0 25 16.5 41.5t39.5 16.5t35.5 -14.5z" />
    <glyph glyph-name="uni0234" unicode="&#x234;" horiz-adv-x="348" 
d="M319 194.5q23 -23.5 23 -66.5q0 -66 -46 -103t-114 -37q-29 0 -50 6l-36 -68l-47 25l37 66q-39 32 -39 91q0 9 2 27l85 604l87 10l-88 -630q-1 -5 -1 -14q28 60 57 86.5t69 26.5q38 0 61 -23.5zM252 80.5q21 17.5 21 47.5q0 29 -25 29q-18 0 -35.5 -19t-43.5 -74
q8 -1 29 -1q33 0 54 17.5z" />
    <glyph glyph-name="ldot" unicode="&#x140;" horiz-adv-x="282" 
d="M130 97l-1 -11q0 -25 21 -25q10 0 27 5l14 -61q-31 -17 -66 -17q-38 0 -60 24t-22 65q0 8 2 24l89 638l87 10zM222 332.5q-14 14.5 -14 38.5q0 30 18.5 48.5t45.5 18.5q25 0 39 -14.5t14 -38.5q0 -30 -18.5 -48.5t-45.5 -18.5q-25 0 -39 14.5z" />
    <glyph glyph-name="uni1E37" unicode="&#x1e37;" horiz-adv-x="242" 
d="M130 97l-1 -11q0 -25 21 -25q10 0 27 5l14 -61q-31 -17 -66 -17q-38 0 -60 24t-22 65q0 8 2 24l89 638l87 10zM145 -90.5q14 -14.5 14 -38.5q0 -30 -18.5 -48.5t-45.5 -18.5q-25 0 -39 14.5t-14 38.5q0 30 18.5 48.5t45.5 18.5q25 0 39 -14.5z" />
    <glyph glyph-name="uni026E" unicode="&#x26e;" horiz-adv-x="554" 
d="M536 459l-209 -256q86 -1 128 -43.5t42 -118.5q0 -74 -30 -131.5t-82 -89.5t-118 -32q-58 0 -97.5 22.5t-67.5 68.5l55 43q26 -34 51 -48t61 -14q63 0 100 51.5t37 128.5q0 55 -25 77.5t-81 22.5h-68l1 1l9 63l199 250h-261l-50 -357l-1 -11q0 -25 21 -25q10 0 27 5
l14 -61q-31 -17 -66 -17q-38 0 -60 24t-22 65q0 8 2 24l89 638l87 10l-31 -222h355z" />
    <glyph glyph-name="uni026D" unicode="&#x26d;" horiz-adv-x="231" 
d="M241 -176q-43 -36 -103 -36q-54 0 -84 30.5t-30 85.5q0 8 2 30l9 66l105 739l87 10l-105 -749l-10 -79q-1 -6 -1 -17q0 -45 43 -45q15 0 27.5 4.5t28.5 14.5z" />
    <glyph glyph-name="uni01C9" unicode="&#x1c9;" horiz-adv-x="476" 
d="M130 97l-1 -11q0 -25 21 -25q10 0 27 5l14 -61q-31 -17 -66 -17q-38 0 -60 24t-22 65q0 8 2 24l89 638l87 10zM172 -146q35 17 55 34.5t34.5 50t22.5 89.5l70 499h87l-72 -509q-10 -72 -32 -113.5t-54 -65.5t-89 -51zM375 671.5q-14 14.5 -14 38.5q0 30 18.5 48.5
t45.5 18.5q25 0 39 -14.5t14 -38.5q0 -30 -18.5 -48.5t-45.5 -18.5q-25 0 -39 14.5z" />
    <glyph glyph-name="uni026B" unicode="&#x26b;" horiz-adv-x="319" 
d="M169 97l-1 -11q0 -25 21 -25q10 0 27 5l14 -61q-31 -17 -66 -17q-38 0 -60 24t-22 65q0 8 2 24l35 254q-10 6 -22 6q-20 0 -34.5 -13t-33.5 -38l-47 28q58 92 123 92q10 0 24 -4l44 313l87 10l-52 -375q12 -4 18 -4q35 0 67 46l47 -29q-55 -87 -121 -87q-12 0 -21 3z" />
    <glyph glyph-name="uni02AA" unicode="&#x2aa;" horiz-adv-x="554" 
d="M106 28.5q-52 40.5 -52 121.5q0 19 3 40l78 549l88 10l-79 -561q-2 -11 -2 -32q0 -52 29.5 -73.5t90.5 -21.5q77 0 114.5 26.5t37.5 74.5q0 29 -19 48.5t-67 39.5q-55 23 -80.5 54t-25.5 81q0 40 21.5 75.5t60.5 56.5t88 21q90 0 149 -64l-42 -50q-25 22 -50.5 33
t-55.5 11q-37 0 -60 -21t-23 -57q0 -28 19 -45.5t64 -36.5q55 -23 82.5 -57t27.5 -85q0 -86 -67.5 -132t-183.5 -46q-94 0 -146 40.5z" />
    <glyph glyph-name="lslash" unicode="&#x142;" horiz-adv-x="253" 
d="M183 66l14 -61q-31 -17 -66 -17q-38 0 -60 24t-22 65q0 8 2 24l28 199l-36 -23l-25 55l72 46l50 361l87 10l-43 -311l66 43l25 -55l-102 -66l-37 -263l-1 -11q0 -25 21 -25q10 0 27 5z" />
    <glyph glyph-name="uni02AB" unicode="&#x2ab;" horiz-adv-x="546" 
d="M547 459l-270 -385h220l-20 -74h-297q-30 -12 -55 -12q-38 0 -60 24t-22 65q0 8 2 24l89 638l87 10l-91 -652l-1 -11q0 -25 21 -25q10 0 27 5l270 386h-199l12 75h297z" />
    <glyph glyph-name="m" unicode="m" horiz-adv-x="696" 
d="M620 505.5q28 -33.5 28 -90.5q0 -15 -3 -33l-55 -382h-87l53 380q2 12 2 31q0 54 -35 54q-29 0 -58.5 -38t-62.5 -102l-47 -325h-87l53 380q2 12 2 31q0 54 -35 54q-29 0 -58.5 -38t-62.5 -102l-45 -325h-87l74 527h75l-8 -93q31 51 63.5 78t73.5 27q39 0 65.5 -28
t32.5 -77q31 52 63.5 78.5t73.5 26.5q44 0 72 -33.5z" />
    <glyph glyph-name="uni1E3F" unicode="&#x1e3f;" horiz-adv-x="696" 
d="M620 505.5q28 -33.5 28 -90.5q0 -15 -3 -33l-55 -382h-87l53 380q2 12 2 31q0 54 -35 54q-29 0 -58.5 -38t-62.5 -102l-47 -325h-87l53 380q2 12 2 31q0 54 -35 54q-29 0 -58.5 -38t-62.5 -102l-45 -325h-87l74 527h75l-8 -93q31 51 63.5 78t73.5 27q39 0 65.5 -28
t32.5 -77q31 52 63.5 78.5t73.5 26.5q44 0 72 -33.5zM485 796l37 -71l-187 -86l-25 45z" />
    <glyph glyph-name="uni1E41" unicode="&#x1e41;" horiz-adv-x="696" 
d="M620 505.5q28 -33.5 28 -90.5q0 -15 -3 -33l-55 -382h-87l53 380q2 12 2 31q0 54 -35 54q-29 0 -58.5 -38t-62.5 -102l-47 -325h-87l53 380q2 12 2 31q0 54 -35 54q-29 0 -58.5 -38t-62.5 -102l-45 -325h-87l74 527h75l-8 -93q31 51 63.5 78t73.5 27q39 0 65.5 -28
t32.5 -77q31 52 63.5 78.5t73.5 26.5q44 0 72 -33.5zM369 671.5q-14 14.5 -14 38.5q0 30 18.5 48.5t45.5 18.5q25 0 39 -14.5t14 -38.5q0 -30 -18.5 -48.5t-45.5 -18.5q-25 0 -39 14.5z" />
    <glyph glyph-name="uni0271" unicode="&#x271;" horiz-adv-x="696" 
d="M620 505.5q28 -33.5 28 -90.5q0 -15 -3 -33l-55 -382l-10 -73q-9 -69 -49 -104t-99 -35q-31 0 -53.5 10.5t-41.5 28.5l41 52q15 -11 26.5 -15.5t28.5 -4.5q24 0 40 16.5t20 49.5l10 75l53 380q2 12 2 31q0 54 -35 54q-29 0 -58.5 -38t-62.5 -102l-47 -325h-87l53 380
q2 12 2 31q0 54 -35 54q-29 0 -58.5 -38t-62.5 -102l-45 -325h-87l74 527h75l-8 -93q31 51 63.5 78t73.5 27q39 0 65.5 -28t32.5 -77q31 52 63.5 78.5t73.5 26.5q44 0 72 -33.5z" />
    <glyph glyph-name="uni0270" unicode="&#x270;" horiz-adv-x="692" 
d="M661 527l-103 -731l-89 -11l43 302q-52 -99 -127 -99q-40 0 -67 27.5t-33 77.5q-31 -52 -63.5 -78.5t-71.5 -26.5q-45 0 -73.5 33.5t-28.5 90.5q0 15 3 33l55 382h87l-53 -380q-2 -12 -2 -31q0 -54 35 -54q51 0 120 135v-1l48 331h87l-53 -380q-2 -12 -2 -31
q0 -54 35 -54q51 0 120 135l46 330h87z" />
    <glyph glyph-name="uni026F" unicode="&#x26f;" horiz-adv-x="696" 
d="M661 527l-74 -527h-75l8 93q-31 -51 -63.5 -78t-73.5 -27q-39 0 -65.5 28t-32.5 77q-31 -52 -63.5 -78.5t-73.5 -26.5q-44 0 -72 33.5t-28 90.5q0 15 3 33l55 382h87l-53 -380q-2 -12 -2 -31q0 -54 35 -54q29 0 58.5 38t62.5 102l47 325h87l-53 -380q-2 -12 -2 -31
q0 -54 35 -54q29 0 58.5 38t62.5 102l45 325h87z" />
    <glyph glyph-name="n" unicode="n" horiz-adv-x="476" 
d="M398.5 505q29.5 -34 29.5 -91q0 -15 -3 -33l-54 -381h-87l53 380q2 20 2 27q0 58 -42 58q-57 0 -130 -140l-45 -325h-87l74 527h75l-8 -95q33 52 67 79.5t78 27.5q48 0 77.5 -34z" />
    <glyph glyph-name="nacute" unicode="&#x144;" horiz-adv-x="476" 
d="M398.5 505q29.5 -34 29.5 -91q0 -15 -3 -33l-54 -381h-87l53 380q2 20 2 27q0 58 -42 58q-57 0 -130 -140l-45 -325h-87l74 527h75l-8 -95q33 52 67 79.5t78 27.5q48 0 77.5 -34zM369 796l37 -71l-187 -86l-25 45z" />
    <glyph glyph-name="napostrophe" unicode="&#x149;" horiz-adv-x="569" 
d="M190.5 738q12.5 -14 12.5 -34q0 -18 -6.5 -34t-26.5 -52l-46 -82h-48l42 118q-9 7 -14 17.5t-5 22.5q0 25 16.5 41.5t39.5 16.5t35.5 -14zM491.5 505q29.5 -34 29.5 -91q0 -15 -3 -33l-54 -381h-87l53 380q2 20 2 27q0 58 -42 58q-57 0 -130 -140l-45 -325h-87l74 527h75
l-8 -95q33 52 67 79.5t78 27.5q48 0 77.5 -34z" />
    <glyph glyph-name="ncaron" unicode="&#x148;" horiz-adv-x="476" 
d="M398.5 505q29.5 -34 29.5 -91q0 -15 -3 -33l-54 -381h-87l53 380q2 20 2 27q0 58 -42 58q-57 0 -130 -140l-45 -325h-87l74 527h75l-8 -95q33 52 67 79.5t78 27.5q48 0 77.5 -34zM410 779l33 -39l-128 -112h-55l-97 112l38 39l91 -80z" />
    <glyph glyph-name="uni1E4B" unicode="&#x1e4b;" horiz-adv-x="476" 
d="M398.5 505q29.5 -34 29.5 -91q0 -15 -3 -33l-54 -381h-87l53 380q2 20 2 27q0 58 -42 58q-57 0 -130 -140l-45 -325h-87l74 527h75l-8 -95q33 52 67 79.5t78 27.5q48 0 77.5 -34zM76 -221l-36 40l129 113h55l96 -117l-39 -36l-91 81z" />
    <glyph glyph-name="ncommaaccent" unicode="&#x146;" horiz-adv-x="476" 
d="M398.5 505q29.5 -34 29.5 -91q0 -15 -3 -33l-54 -381h-87l53 380q2 20 2 27q0 58 -42 58q-57 0 -130 -140l-45 -325h-87l74 527h75l-8 -95q33 52 67 79.5t78 27.5q48 0 77.5 -34zM224.5 -92.5q12.5 -14.5 12.5 -33.5q0 -18 -6.5 -34t-26.5 -52l-46 -82h-48l42 118
q-9 7 -14 17.5t-5 22.5q0 25 16.5 41.5t39.5 16.5t35.5 -14.5z" />
    <glyph glyph-name="uni0235" unicode="&#x235;" horiz-adv-x="604" 
d="M576 197q23 -24 23 -65q0 -67 -46 -105.5t-115 -38.5q-32 0 -53 7l-36 -69l-46 25l38 68q-37 31 -37 95q0 9 2 31l30 223q3 21 3 37q0 60 -42 60q-62 0 -132 -149l-43 -316h-87l74 527h75l-9 -107q69 118 154 118q46 0 72 -33t26 -92q0 -20 -3 -43l-34 -241
q-2 -12 -2 -29q29 60 59.5 90.5t69.5 30.5q36 0 59 -24zM509 80.5q21 17.5 21 47.5q0 29 -24 29q-19 0 -35.5 -19.5t-43.5 -73.5q8 -1 27 -1q34 0 55 17.5z" />
    <glyph glyph-name="uni1E45" unicode="&#x1e45;" horiz-adv-x="476" 
d="M398.5 505q29.5 -34 29.5 -91q0 -15 -3 -33l-54 -381h-87l53 380q2 20 2 27q0 58 -42 58q-57 0 -130 -140l-45 -325h-87l74 527h75l-8 -95q33 52 67 79.5t78 27.5q48 0 77.5 -34zM253 671.5q-14 14.5 -14 38.5q0 30 18.5 48.5t45.5 18.5q25 0 39 -14.5t14 -38.5
q0 -30 -18.5 -48.5t-45.5 -18.5q-25 0 -39 14.5z" />
    <glyph glyph-name="uni1E47" unicode="&#x1e47;" horiz-adv-x="476" 
d="M398.5 505q29.5 -34 29.5 -91q0 -15 -3 -33l-54 -381h-87l53 380q2 20 2 27q0 58 -42 58q-57 0 -130 -140l-45 -325h-87l74 527h75l-8 -95q33 52 67 79.5t78 27.5q48 0 77.5 -34zM229 -90.5q14 -14.5 14 -38.5q0 -30 -18.5 -48.5t-45.5 -18.5q-25 0 -39 14.5t-14 38.5
q0 30 18.5 48.5t45.5 18.5q25 0 39 -14.5z" />
    <glyph glyph-name="uni01F9" unicode="&#x1f9;" horiz-adv-x="476" 
d="M398.5 505q29.5 -34 29.5 -91q0 -15 -3 -33l-54 -381h-87l53 380q2 20 2 27q0 58 -42 58q-57 0 -130 -140l-45 -325h-87l74 527h75l-8 -95q33 52 67 79.5t78 27.5q48 0 77.5 -34zM257 794l150 -111l-29 -44l-165 86z" />
    <glyph glyph-name="eng" unicode="&#x14b;" horiz-adv-x="476" 
d="M398.5 505q29.5 -34 29.5 -91q0 -15 -3 -33l-54 -381l-10 -73q-9 -69 -49 -104t-99 -35q-31 0 -53.5 10.5t-41.5 28.5l41 52q15 -11 26.5 -15.5t28.5 -4.5q24 0 40 16.5t20 49.5l10 75l53 380q2 20 2 27q0 58 -42 58q-57 0 -130 -140l-45 -325h-87l74 527h75l-8 -95
q33 52 67 79.5t78 27.5q48 0 77.5 -34z" />
    <glyph glyph-name="uni0272" unicode="&#x272;" horiz-adv-x="476" 
d="M398.5 505q29.5 -34 29.5 -91q0 -15 -3 -33l-54 -381h-87l53 380q2 20 2 27q0 58 -42 58q-57 0 -130 -140l-45 -325l-10 -73q-9 -69 -49 -104t-99 -35q-31 0 -53.5 10.5t-41.5 28.5l41 52q15 -11 26.5 -15.5t28.5 -4.5q24 0 40 16.5t20 49.5l10 75l74 527h75l-8 -95
q33 52 67 79.5t78 27.5q48 0 77.5 -34z" />
    <glyph glyph-name="uni0273" unicode="&#x273;" horiz-adv-x="476" 
d="M490 -176q-43 -36 -103 -36q-54 0 -84 30.5t-30 85.5q0 8 2 30l9 66l53 380q2 20 2 27q0 58 -42 58q-57 0 -130 -140l-45 -325h-87l74 527h75l-8 -95q33 52 67 79.5t78 27.5q48 0 77.5 -34t29.5 -91q0 -15 -3 -33l-54 -381l-10 -79q-1 -6 -1 -17q0 -45 43 -45
q15 0 27.5 4.5t28.5 14.5z" />
    <glyph glyph-name="uni01CC" unicode="&#x1cc;" horiz-adv-x="710" 
d="M398.5 505q29.5 -34 29.5 -91q0 -15 -3 -33l-54 -381h-87l53 380q2 20 2 27q0 58 -42 58q-57 0 -130 -140l-45 -325h-87l74 527h75l-8 -95q33 52 67 79.5t78 27.5q48 0 77.5 -34zM406 -146q35 17 55 34.5t34.5 50t22.5 89.5l70 499h87l-72 -509q-10 -72 -32 -113.5
t-54 -65.5t-89 -51zM609 671.5q-14 14.5 -14 38.5q0 30 18.5 48.5t45.5 18.5q25 0 39 -14.5t14 -38.5q0 -30 -18.5 -48.5t-45.5 -18.5q-25 0 -39 14.5z" />
    <glyph glyph-name="uni019E" unicode="&#x19e;" horiz-adv-x="476" 
d="M398.5 505q29.5 -34 29.5 -91q0 -15 -3 -33l-83 -585l-89 -11l84 595q2 11 2 29q0 56 -42 56q-57 0 -130 -140l-45 -325h-87l74 527h75l-8 -95q33 52 67 79.5t78 27.5q48 0 77.5 -34z" />
    <glyph glyph-name="ntilde" unicode="&#xf1;" horiz-adv-x="476" 
d="M398.5 505q29.5 -34 29.5 -91q0 -15 -3 -33l-54 -381h-87l53 380q2 20 2 27q0 58 -42 58q-57 0 -130 -140l-45 -325h-87l74 527h75l-8 -95q33 52 67 79.5t78 27.5q48 0 77.5 -34zM318.5 664.5q-13.5 7.5 -28.5 20.5q-12 10 -20 15t-17 5q-12 0 -23 -11t-26 -33l-45 27
q46 84 97 84q18 0 30.5 -7t28.5 -21q11 -10 19 -15t17 -5q12 0 22.5 10t25.5 33l46 -27q-42 -83 -96 -83q-17 0 -30.5 7.5z" />
    <glyph glyph-name="o" unicode="o" horiz-adv-x="481" 
d="M80.5 40.5q-42.5 52.5 -42.5 143.5q0 82 25.5 163.5t80.5 136t138 54.5q77 0 119 -52t42 -143q0 -81 -25 -162.5t-79.5 -137t-138.5 -55.5q-77 0 -119.5 52.5zM291.5 106.5q33.5 47.5 48 115t14.5 129.5q0 116 -76 116q-55 0 -88.5 -47t-47.5 -114t-14 -130
q0 -117 76 -117q54 0 87.5 47.5z" />
    <glyph glyph-name="oacute" unicode="&#xf3;" horiz-adv-x="481" 
d="M80.5 40.5q-42.5 52.5 -42.5 143.5q0 82 25.5 163.5t80.5 136t138 54.5q77 0 119 -52t42 -143q0 -81 -25 -162.5t-79.5 -137t-138.5 -55.5q-77 0 -119.5 52.5zM291.5 106.5q33.5 47.5 48 115t14.5 129.5q0 116 -76 116q-55 0 -88.5 -47t-47.5 -114t-14 -130
q0 -117 76 -117q54 0 87.5 47.5zM374 796l37 -71l-187 -86l-25 45z" />
    <glyph glyph-name="uni0275" unicode="&#x275;" horiz-adv-x="481" 
d="M401 486q42 -52 42 -143q0 -81 -25 -162.5t-79.5 -137t-138.5 -55.5q-77 0 -119.5 52.5t-42.5 143.5q0 82 25.5 163.5t80.5 136t138 54.5q77 0 119 -52zM188.5 420.5q-34.5 -46.5 -50.5 -119.5h217q2 36 2 50q0 116 -79 116q-55 0 -89.5 -46.5zM295.5 108.5
q34.5 49.5 49.5 125.5h-217q-3 -31 -3 -58q0 -117 79 -117q57 0 91.5 49.5z" />
    <glyph glyph-name="obreve" unicode="&#x14f;" horiz-adv-x="481" 
d="M80.5 40.5q-42.5 52.5 -42.5 143.5q0 82 25.5 163.5t80.5 136t138 54.5q77 0 119 -52t42 -143q0 -81 -25 -162.5t-79.5 -137t-138.5 -55.5q-77 0 -119.5 52.5zM291.5 106.5q33.5 47.5 48 115t14.5 129.5q0 116 -76 116q-55 0 -88.5 -47t-47.5 -114t-14 -130
q0 -117 76 -117q54 0 87.5 47.5zM213.5 680q-30.5 36 -26.5 97l55 8q3 -38 16.5 -55.5t41.5 -17.5q29 0 51 20t35 57l52 -17q-13 -61 -50.5 -94.5t-89.5 -33.5q-54 0 -84.5 36z" />
    <glyph glyph-name="uni01D2" unicode="&#x1d2;" horiz-adv-x="481" 
d="M80.5 40.5q-42.5 52.5 -42.5 143.5q0 82 25.5 163.5t80.5 136t138 54.5q77 0 119 -52t42 -143q0 -81 -25 -162.5t-79.5 -137t-138.5 -55.5q-77 0 -119.5 52.5zM291.5 106.5q33.5 47.5 48 115t14.5 129.5q0 116 -76 116q-55 0 -88.5 -47t-47.5 -114t-14 -130
q0 -117 76 -117q54 0 87.5 47.5zM415 779l33 -39l-128 -112h-55l-97 112l38 39l91 -80z" />
    <glyph glyph-name="ocircumflex" unicode="&#xf4;" horiz-adv-x="481" 
d="M80.5 40.5q-42.5 52.5 -42.5 143.5q0 82 25.5 163.5t80.5 136t138 54.5q77 0 119 -52t42 -143q0 -81 -25 -162.5t-79.5 -137t-138.5 -55.5q-77 0 -119.5 52.5zM291.5 106.5q33.5 47.5 48 115t14.5 129.5q0 116 -76 116q-55 0 -88.5 -47t-47.5 -114t-14 -130
q0 -117 76 -117q54 0 87.5 47.5zM195 638l-35 40l129 113h55l96 -117l-40 -36l-91 81z" />
    <glyph glyph-name="uni1ED1" unicode="&#x1ed1;" horiz-adv-x="481" 
d="M500 886l48 -47l-134 -131l-33 29zM185 588l-36 40l129 113h55l96 -117l-37 -36l-94 81zM80.5 40.5q-42.5 52.5 -42.5 143.5q0 82 25.5 163.5t80.5 136t138 54.5q77 0 119 -52t42 -143q0 -81 -25 -162.5t-79.5 -137t-138.5 -55.5q-77 0 -119.5 52.5zM291.5 106.5
q33.5 47.5 48 115t14.5 129.5q0 116 -76 116q-55 0 -88.5 -47t-47.5 -114t-14 -130q0 -117 76 -117q54 0 87.5 47.5z" />
    <glyph glyph-name="uni1ED9" unicode="&#x1ed9;" horiz-adv-x="481" 
d="M80.5 40.5q-42.5 52.5 -42.5 143.5q0 82 25.5 163.5t80.5 136t138 54.5q77 0 119 -52t42 -143q0 -81 -25 -162.5t-79.5 -137t-138.5 -55.5q-77 0 -119.5 52.5zM291.5 106.5q33.5 47.5 48 115t14.5 129.5q0 116 -76 116q-55 0 -88.5 -47t-47.5 -114t-14 -130
q0 -117 76 -117q54 0 87.5 47.5zM195 638l-35 40l129 113h55l96 -117l-40 -36l-91 81zM224 -90.5q14 -14.5 14 -38.5q0 -30 -18.5 -48.5t-45.5 -18.5q-25 0 -39 14.5t-14 38.5q0 30 18.5 48.5t45.5 18.5q25 0 39 -14.5z" />
    <glyph glyph-name="uni1ED3" unicode="&#x1ed3;" horiz-adv-x="481" 
d="M148 884l78 -150l-38 -26l-99 134zM181 588l-36 40l129 113h55l96 -117l-37 -36l-94 81zM80.5 40.5q-42.5 52.5 -42.5 143.5q0 82 25.5 163.5t80.5 136t138 54.5q77 0 119 -52t42 -143q0 -81 -25 -162.5t-79.5 -137t-138.5 -55.5q-77 0 -119.5 52.5zM291.5 106.5
q33.5 47.5 48 115t14.5 129.5q0 116 -76 116q-55 0 -88.5 -47t-47.5 -114t-14 -130q0 -117 76 -117q54 0 87.5 47.5z" />
    <glyph glyph-name="uni1ED5" unicode="&#x1ed5;" horiz-adv-x="481" 
d="M80.5 40.5q-42.5 52.5 -42.5 143.5q0 82 25.5 163.5t80.5 136t138 54.5q77 0 119 -52t42 -143q0 -81 -25 -162.5t-79.5 -137t-138.5 -55.5q-77 0 -119.5 52.5zM291.5 106.5q33.5 47.5 48 115t14.5 129.5q0 116 -76 116q-55 0 -88.5 -47t-47.5 -114t-14 -130
q0 -117 76 -117q54 0 87.5 47.5zM181 588l-36 40l129 113h55l96 -117l-37 -36l-94 81zM401 804q32 5 48.5 16t16.5 36q0 29 -28 29q-13 0 -23 -3t-24 -10l-16 51q18 11 35.5 16t40.5 5q39 0 62 -23.5t23 -60.5q0 -41 -20 -62.5t-58 -28.5l-9 -57h-60z" />
    <glyph glyph-name="uni1ED7" unicode="&#x1ed7;" horiz-adv-x="481" 
d="M337.5 771.5q-13.5 7.5 -28.5 20.5q-12 10 -20 15t-17 5q-12 0 -23 -11t-26 -33l-45 27q46 84 97 84q18 0 30.5 -7t28.5 -21q11 -10 19 -15t17 -5q12 0 22.5 10t25.5 33l46 -27q-42 -83 -96 -83q-17 0 -30.5 7.5zM186 578l-36 40l129 113h55l96 -117l-37 -36l-94 81z
M80.5 40.5q-42.5 52.5 -42.5 143.5q0 82 25.5 163.5t80.5 136t138 54.5q77 0 119 -52t42 -143q0 -81 -25 -162.5t-79.5 -137t-138.5 -55.5q-77 0 -119.5 52.5zM291.5 106.5q33.5 47.5 48 115t14.5 129.5q0 116 -76 116q-55 0 -88.5 -47t-47.5 -114t-14 -130q0 -117 76 -117
q54 0 87.5 47.5z" />
    </font>
</defs>
</svg>
