<?xml version="1.0" standalone="no"?>
<!DOCTYPE svg PUBLIC "-//W3C//DTD SVG 1.1//EN" "http://www.w3.org/Graphics/SVG/1.1/DTD/svg11.dtd" >
<svg>
<metadata>
Created by FontForge 20120731 at Fri May  5 11:07:45 2017
 By www-data
Digitized data copyright 2012-2016, The Mozilla Foundation and Telefonica S.A.
</metadata>
<defs>
<font id="FiraSansExtraCondensed-ExtraLightItalic" horiz-adv-x="460" >
  <font-face 
    font-family="Fira Sans Extra Condensed ExtraLight"
    font-weight="275"
    font-style="italic"
    font-stretch="condensed"
    units-per-em="1000"
    panose-1="2 11 4 3 5 0 0 2 0 4"
    ascent="800"
    descent="-200"
    x-height="522"
    cap-height="684"
    bbox="-626 -350 1417 1050"
    underline-thickness="50"
    underline-position="-50"
    slope="-8"
    unicode-range="U+000D-FEFF"
  />
<missing-glyph horiz-adv-x="664" 
d="M653 1050l-198 -1400h-419l198 1400h419zM591 998h-310l-183 -1296h310zM422.5 425.5q23.5 -25.5 23.5 -66.5q0 -8 -2 -26q-7 -52 -33 -80t-77 -35l-7 -47q-1 -10 -9 -16t-17 -6q-11 0 -18 7.5t-6 18.5l11 82q53 3 75 21t28 59q1 7 1 20q0 22 -11 34t-39 12
q-17 0 -29 -2.5t-25 -9.5l-13 -2q-12 0 -18.5 7.5t-4.5 18.5q2 18 32 27t63 9q52 0 75.5 -25.5zM315 111q9 -9 9 -23q0 -17 -11 -28.5t-26 -11.5t-23.5 9.5t-8.5 24.5q0 16 10.5 27t26.5 11q14 0 23 -9z" />
    <glyph glyph-name="fi" unicode="fi" horiz-adv-x="469" 
d="M344 0h-45l68 484h-193l-67 -479q-9 -63 -26 -100t-43 -59t-71 -46l-12 33q35 19 54.5 37.5t33 50t20.5 86.5l66 477h-73l5 38h73l13 91q9 61 46 94.5t97 33.5q57 0 112 -41l-20 -31q-44 34 -92 34q-43 0 -67.5 -23t-31.5 -71l-12 -87h238z" />
    <glyph glyph-name="fl" unicode="fl" horiz-adv-x="488" 
d="M416 36l10 -34q-26 -13 -51 -13q-29 0 -46.5 17.5t-17.5 50.5q0 6 2 20l84 601q-28 12 -53 18t-56 6q-43 0 -66.5 -22.5t-30.5 -70.5l-12 -87h113l-12 -38h-106l-67 -479q-9 -63 -26 -100t-43 -59t-71 -46l-12 33q35 19 54.5 37.5t33 50t20.5 86.5l66 477h-74l6 38h73
l13 91q9 61 45.5 94.5t96.5 33.5q66 0 118 -27l40 5l-90 -643q-1 -5 -1 -15q0 -32 29 -32q12 0 31 7z" />
    <glyph glyph-name=".notdef" horiz-adv-x="664" 
d="M653 1050l-198 -1400h-419l198 1400h419zM591 998h-310l-183 -1296h310zM422.5 425.5q23.5 -25.5 23.5 -66.5q0 -8 -2 -26q-7 -52 -33 -80t-77 -35l-7 -47q-1 -10 -9 -16t-17 -6q-11 0 -18 7.5t-6 18.5l11 82q53 3 75 21t28 59q1 7 1 20q0 22 -11 34t-39 12
q-17 0 -29 -2.5t-25 -9.5l-13 -2q-12 0 -18.5 7.5t-4.5 18.5q2 18 32 27t63 9q52 0 75.5 -25.5zM315 111q9 -9 9 -23q0 -17 -11 -28.5t-26 -11.5t-23.5 9.5t-8.5 24.5q0 16 10.5 27t26.5 11q14 0 23 -9z" />
    <glyph glyph-name="nonmarkingreturn" unicode="&#xd;" horiz-adv-x="227" 
 />
    <glyph glyph-name="space" unicode=" " horiz-adv-x="227" 
 />
    <glyph glyph-name="A" unicode="A" horiz-adv-x="474" 
d="M368 0l-23 193h-236l-77 -193h-48l282 684h59l91 -684h-48zM125 233h215l-50 412z" />
    <glyph glyph-name="Aacute" unicode="&#xc1;" horiz-adv-x="474" 
d="M368 0l-23 193h-236l-77 -193h-48l282 684h59l91 -684h-48zM125 233h215l-50 412zM385 875l20 -41l-170 -75l-14 27z" />
    <glyph glyph-name="Abreve" unicode="&#x102;" horiz-adv-x="474" 
d="M368 0l-23 193h-236l-77 -193h-48l282 684h59l91 -684h-48zM125 233h215l-50 412zM237.5 793.5q-24.5 26.5 -24.5 67.5l29 4q8 -59 65 -59t83 61l30 -9q-11 -40 -42 -65.5t-73 -25.5q-43 0 -67.5 26.5z" />
    <glyph glyph-name="uni1EAE" unicode="&#x1eae;" horiz-adv-x="474" 
d="M432 962l-117 -120l-19 18l106 130zM389 838l30 -9q-11 -40 -42 -65.5t-73 -25.5q-43 0 -67.5 26.5t-24.5 67.5l29 4q8 -59 65 -59t83 61zM266 684h59l91 -684h-48l-23 193h-236l-77 -193h-48zM125 233h215l-50 412z" />
    <glyph glyph-name="uni1EB6" unicode="&#x1eb6;" horiz-adv-x="474" 
d="M368 0l-23 193h-236l-77 -193h-48l282 684h59l91 -684h-48zM125 233h215l-50 412zM237.5 793.5q-24.5 26.5 -24.5 67.5l29 4q8 -59 65 -59t83 61l30 -9q-11 -40 -42 -65.5t-73 -25.5q-43 0 -67.5 26.5zM209.5 -99.5q8.5 -8.5 8.5 -21.5q0 -16 -10.5 -26.5t-26.5 -10.5
q-13 0 -21.5 8t-8.5 21q0 16 10.5 27t26.5 11q13 0 21.5 -8.5z" />
    <glyph glyph-name="uni1EB0" unicode="&#x1eb0;" horiz-adv-x="474" 
d="M334 857l-24 -15l-83 124l37 23zM237.5 764.5q-24.5 26.5 -24.5 67.5l29 4q8 -59 65 -59t83 61l30 -9q-11 -40 -42 -65.5t-73 -25.5q-43 0 -67.5 26.5zM266 684h59l91 -684h-48l-23 193h-236l-77 -193h-48zM125 233h215l-50 412z" />
    <glyph glyph-name="uni1EB2" unicode="&#x1eb2;" horiz-adv-x="474" 
d="M368 0l-23 193h-236l-77 -193h-48l282 684h59l91 -684h-48zM125 233h215l-50 412zM236.5 764.5q-24.5 26.5 -24.5 67.5l29 4q8 -59 65 -59t83 61l30 -9q-11 -40 -42 -65.5t-73 -25.5q-43 0 -67.5 26.5zM298 889q30 2 47.5 14t17.5 41q0 17 -8.5 26.5t-24.5 9.5
q-21 0 -47 -13l-11 30q31 18 62 18q33 0 52 -19t19 -51q0 -34 -19.5 -54.5t-53.5 -25.5l-5 -45h-37z" />
    <glyph glyph-name="uni1EB4" unicode="&#x1eb4;" horiz-adv-x="474" 
d="M251.5 908q-10.5 -9 -26.5 -30l-24 17q38 59 76 59q13 0 23.5 -5t19 -11t11.5 -8q13 -10 22 -15t18 -5q13 0 25.5 10t26.5 32l25 -15q-35 -65 -76 -65q-15 0 -27 6.5t-29 18.5q-12 10 -20.5 15t-18.5 5q-15 0 -25.5 -9zM389 838l30 -9q-11 -40 -42 -65.5t-73 -25.5
q-43 0 -67.5 26.5t-24.5 67.5l29 4q8 -59 65 -59t83 61zM266 684h59l91 -684h-48l-23 193h-236l-77 -193h-48zM125 233h215l-50 412z" />
    <glyph glyph-name="uni01CD" unicode="&#x1cd;" horiz-adv-x="474" 
d="M368 0l-23 193h-236l-77 -193h-48l282 684h59l91 -684h-48zM125 233h215l-50 412zM420 879l20 -23l-121 -99h-27l-90 100l21 22l86 -79z" />
    <glyph glyph-name="Acircumflex" unicode="&#xc2;" horiz-adv-x="474" 
d="M368 0l-23 193h-236l-77 -193h-48l282 684h59l91 -684h-48zM125 233h215l-50 412zM205 763l-19 23l120 100h27l91 -101l-22 -22l-86 80z" />
    <glyph glyph-name="uni1EA4" unicode="&#x1ea4;" horiz-adv-x="474" 
d="M509 950l-117 -120l-19 18l106 130zM301 854h27l91 -101l-22 -22l-86 80l-111 -80l-19 23zM266 684h59l91 -684h-48l-23 193h-236l-77 -193h-48zM125 233h215l-50 412z" />
    <glyph glyph-name="uni1EAC" unicode="&#x1eac;" horiz-adv-x="474" 
d="M368 0l-23 193h-236l-77 -193h-48l282 684h59l91 -684h-48zM125 233h215l-50 412zM205 763l-19 23l120 100h27l91 -101l-22 -22l-86 80zM209.5 -99.5q8.5 -8.5 8.5 -21.5q0 -16 -10.5 -26.5t-26.5 -10.5q-13 0 -21.5 8t-8.5 21q0 16 10.5 27t26.5 11q13 0 21.5 -8.5z" />
    <glyph glyph-name="uni1EA6" unicode="&#x1ea6;" horiz-adv-x="474" 
d="M247 845l-24 -15l-83 124l37 23zM200 731l-19 23l120 100h27l91 -101l-22 -22l-86 80zM266 684h59l91 -684h-48l-23 193h-236l-77 -193h-48zM125 233h215l-50 412z" />
    <glyph glyph-name="uni1EA8" unicode="&#x1ea8;" horiz-adv-x="474" 
d="M368 0l-23 193h-236l-77 -193h-48l282 684h59l91 -684h-48zM125 233h215l-50 412zM199 731l-19 23l120 100h27l91 -101l-22 -22l-86 80zM395 880q30 2 47.5 14t17.5 41q0 17 -8.5 26.5t-24.5 9.5q-21 0 -47 -13l-11 30q31 18 62 18q33 0 52 -19t19 -51q0 -34 -19.5 -54.5
t-53.5 -25.5l-5 -45h-37z" />
    <glyph glyph-name="uni1EAA" unicode="&#x1eaa;" horiz-adv-x="474" 
d="M248.5 924q-10.5 -9 -26.5 -30l-24 17q38 59 76 59q13 0 23.5 -5t19 -11t11.5 -8q13 -10 22 -15t18 -5q13 0 25.5 10t26.5 32l25 -15q-35 -65 -76 -65q-15 0 -27 6.5t-29 18.5q-12 10 -20.5 15t-18.5 5q-15 0 -25.5 -9zM300 854h27l91 -101l-22 -22l-86 80l-111 -80
l-19 23zM266 684h59l91 -684h-48l-23 193h-236l-77 -193h-48zM125 233h215l-50 412z" />
    <glyph glyph-name="uni0200" unicode="&#x200;" horiz-adv-x="474" 
d="M368 0l-23 193h-236l-77 -193h-48l282 684h59l91 -684h-48zM125 233h215l-50 412zM227 929l44 -146l-32 -12l-57 139zM330 928l39 -141l-33 -11l-52 134z" />
    <glyph glyph-name="Adieresis" unicode="&#xc4;" horiz-adv-x="474" 
d="M368 0l-23 193h-236l-77 -193h-48l282 684h59l91 -684h-48zM125 233h215l-50 412zM215.5 801q-7.5 8 -7.5 20q0 15 10 25.5t25 10.5q13 0 20.5 -8t7.5 -20q0 -16 -10 -26t-25 -10q-13 0 -20.5 8zM368.5 801q-7.5 8 -7.5 20q0 15 10 25.5t24 10.5q13 0 20.5 -8t7.5 -20
q0 -16 -9.5 -26t-24.5 -10q-13 0 -20.5 8z" />
    <glyph glyph-name="uni01DE" unicode="&#x1de;" horiz-adv-x="474" 
d="M368 0l-23 193h-236l-77 -193h-48l282 684h59l91 -684h-48zM125 233h215l-50 412zM205.5 752q-7.5 8 -7.5 20q0 15 10 25.5t25 10.5q13 0 20.5 -8t7.5 -20q0 -16 -10 -26t-25 -10q-13 0 -20.5 8zM358.5 752q-7.5 8 -7.5 20q0 15 10 25.5t24 10.5q13 0 20.5 -8t7.5 -20
q0 -16 -9.5 -26t-24.5 -10q-13 0 -20.5 8zM411 869h-192l6 39h192z" />
    <glyph glyph-name="uni0226" unicode="&#x226;" horiz-adv-x="474" 
d="M368 0l-23 193h-236l-77 -193h-48l282 684h59l91 -684h-48zM125 233h215l-50 412zM289.5 809.5q-8.5 8.5 -8.5 21.5q0 16 10.5 26.5t26.5 10.5q13 0 21.5 -8t8.5 -21q0 -16 -10.5 -27t-26.5 -11q-13 0 -21.5 8.5z" />
    <glyph glyph-name="uni1EA0" unicode="&#x1ea0;" horiz-adv-x="474" 
d="M368 0l-23 193h-236l-77 -193h-48l282 684h59l91 -684h-48zM125 233h215l-50 412zM209.5 -99.5q8.5 -8.5 8.5 -21.5q0 -16 -10.5 -26.5t-26.5 -10.5q-13 0 -21.5 8t-8.5 21q0 16 10.5 27t26.5 11q13 0 21.5 -8.5z" />
    <glyph glyph-name="uni01E0" unicode="&#x1e0;" horiz-adv-x="474" 
d="M368 0l-23 193h-236l-77 -193h-48l282 684h59l91 -684h-48zM125 233h215l-50 412zM281.5 752.5q-8.5 8.5 -8.5 21.5q0 16 10.5 26.5t26.5 10.5q13 0 21.5 -8t8.5 -21q0 -16 -10.5 -27t-26.5 -11q-13 0 -21.5 8.5zM411 869h-192l6 39h192z" />
    <glyph glyph-name="Agrave" unicode="&#xc0;" horiz-adv-x="474" 
d="M368 0l-23 193h-236l-77 -193h-48l282 684h59l91 -684h-48zM125 233h215l-50 412zM262 874l138 -89l-18 -25l-146 74z" />
    <glyph glyph-name="uni1EA2" unicode="&#x1ea2;" horiz-adv-x="474" 
d="M368 0l-23 193h-236l-77 -193h-48l282 684h59l91 -684h-48zM125 233h215l-50 412zM299 847q30 2 47.5 14t17.5 41q0 17 -8.5 26.5t-24.5 9.5q-21 0 -47 -13l-11 30q31 18 62 18q33 0 52 -19t19 -51q0 -34 -19.5 -54.5t-53.5 -25.5l-5 -45h-37z" />
    <glyph glyph-name="uni0202" unicode="&#x202;" horiz-adv-x="474" 
d="M368 0l-23 193h-236l-77 -193h-48l282 684h59l91 -684h-48zM125 233h215l-50 412zM205 797q13 47 43.5 74t71.5 27q43 0 68.5 -28.5t24.5 -75.5l-31 -4q-6 69 -64 69t-85 -71z" />
    <glyph glyph-name="uni2C6D" unicode="&#x2c6d;" horiz-adv-x="552" 
d="M432 72q0 -35 26 -49l-13 -34q-59 16 -56 88q-62 -88 -153 -88q-80 0 -127.5 66t-47.5 192q0 118 34.5 220.5t97 164.5t143.5 62q42 0 72.5 -21t52.5 -64l15 75h41l-83 -588q-2 -16 -2 -24zM393 134l60 425q-23 49 -50 71.5t-67 22.5q-68 0 -120 -58t-79.5 -151.5
t-27.5 -197.5q0 -109 35.5 -162t95.5 -53q89 0 153 103z" />
    <glyph glyph-name="Amacron" unicode="&#x100;" horiz-adv-x="474" 
d="M368 0l-23 193h-236l-77 -193h-48l282 684h59l91 -684h-48zM125 233h215l-50 412zM408 805h-192l6 39h192z" />
    <glyph glyph-name="Aogonek" unicode="&#x104;" horiz-adv-x="474" 
d="M315.5 -61q-26.5 -29 -26.5 -68q0 -44 45 -44q16 0 48 5l-9 -38q-24 -6 -45 -6q-37 0 -59 21.5t-22 58.5q0 45 28 78t92 63l-22 184h-236l-77 -193h-48l282 684h59l91 -684h-10q-64 -32 -90.5 -61zM125 233h215l-50 412z" />
    <glyph glyph-name="Aring" unicode="&#xc5;" horiz-adv-x="474" 
d="M368 0l-23 193h-236l-77 -193h-48l282 684h59l91 -684h-48zM125 233h215l-50 412zM380.5 919.5q19.5 -21.5 19.5 -55.5q0 -45 -26 -73.5t-64 -28.5q-32 0 -51.5 21.5t-19.5 55.5q0 45 26 73.5t64 28.5q32 0 51.5 -21.5zM288 891q-15 -20 -15 -52q0 -22 10.5 -34.5
t27.5 -12.5q26 0 40.5 20t14.5 52q0 22 -10 34.5t-28 12.5q-25 0 -40 -20z" />
    <glyph glyph-name="Aringacute" unicode="&#x1fa;" horiz-adv-x="474" 
d="M368 0l-23 193h-236l-77 -193h-48l282 684h59l91 -684h-48zM125 233h215l-50 412zM370.5 884.5q19.5 -21.5 19.5 -55.5q0 -45 -26 -73.5t-64 -28.5q-32 0 -51.5 21.5t-19.5 55.5q0 45 26 73.5t64 28.5q32 0 51.5 -21.5zM278 856q-15 -20 -15 -52q0 -22 10.5 -34.5
t27.5 -12.5q26 0 40.5 20t14.5 52q0 22 -10 34.5t-28 12.5q-25 0 -40 -20zM400 1029l20 -41l-170 -75l-14 27z" />
    <glyph glyph-name="uni023A" unicode="&#x23a;" horiz-adv-x="474" 
d="M370 0l-24 193h-131l-94 -263l-27 8l92 255h-78l-78 -193h-46l282 684h59l10 -75l48 133l26 -8l-66 -185l73 -549h-46zM124 232h76l106 295l-15 119zM229 232h113l-29 234z" />
    <glyph glyph-name="Atilde" unicode="&#xc3;" horiz-adv-x="474" 
d="M368 0l-23 193h-236l-77 -193h-48l282 684h59l91 -684h-48zM125 233h215l-50 412zM337 802.5q-12 6.5 -29 18.5q-12 10 -20.5 15t-18.5 5q-15 0 -25.5 -9t-26.5 -30l-24 17q38 59 76 59q13 0 23.5 -5t19 -11t11.5 -8q13 -10 22 -15t18 -5q13 0 25.5 10t26.5 32l25 -15
q-35 -65 -76 -65q-15 0 -27 6.5z" />
    <glyph glyph-name="AE" unicode="&#xc6;" horiz-adv-x="642" 
d="M615 643h-266l18 -267h211l-6 -39h-202l20 -296h188l-7 -41h-223l-12 188h-234l-84 -188h-47l315 684h341zM120 228h214l-26 418z" />
    <glyph glyph-name="AEacute" unicode="&#x1fc;" horiz-adv-x="642" 
d="M615 643h-266l18 -267h211l-6 -39h-202l20 -296h188l-7 -41h-223l-12 188h-234l-84 -188h-47l315 684h341zM120 228h214l-26 418zM525 875l20 -41l-170 -75l-14 27z" />
    <glyph glyph-name="uni01E2" unicode="&#x1e2;" horiz-adv-x="642" 
d="M615 643h-266l18 -267h211l-6 -39h-202l20 -296h188l-7 -41h-223l-12 188h-234l-84 -188h-47l315 684h341zM120 228h214l-26 418zM548 805h-192l6 39h192z" />
    <glyph glyph-name="B" unicode="B" horiz-adv-x="502" 
d="M444 226q0 -55 -22.5 -106.5t-75 -85.5t-137.5 -34h-155l97 684h151q82 0 126.5 -37.5t44.5 -107.5q0 -71 -38 -117.5t-104 -59.5q113 -21 113 -136zM192 644l-37 -264h114q77 0 117 45t40 113q0 106 -124 106h-110zM355 96q41 55 41 129q0 60 -31 87.5t-93 27.5h-123
l-42 -299h109q98 0 139 55z" />
    <glyph glyph-name="uni1E02" unicode="&#x1e02;" horiz-adv-x="502" 
d="M444 226q0 -55 -22.5 -106.5t-75 -85.5t-137.5 -34h-155l97 684h151q82 0 126.5 -37.5t44.5 -107.5q0 -71 -38 -117.5t-104 -59.5q113 -21 113 -136zM192 644l-37 -264h114q77 0 117 45t40 113q0 106 -124 106h-110zM355 96q41 55 41 129q0 60 -31 87.5t-93 27.5h-123
l-42 -299h109q98 0 139 55zM306.5 809.5q-8.5 8.5 -8.5 21.5q0 16 10.5 26.5t26.5 10.5q13 0 21.5 -8t8.5 -21q0 -16 -10.5 -27t-26.5 -11q-13 0 -21.5 8.5z" />
    <glyph glyph-name="uni1E04" unicode="&#x1e04;" horiz-adv-x="502" 
d="M444 226q0 -55 -22.5 -106.5t-75 -85.5t-137.5 -34h-155l97 684h151q82 0 126.5 -37.5t44.5 -107.5q0 -71 -38 -117.5t-104 -59.5q113 -21 113 -136zM192 644l-37 -264h114q77 0 117 45t40 113q0 106 -124 106h-110zM355 96q41 55 41 129q0 60 -31 87.5t-93 27.5h-123
l-42 -299h109q98 0 139 55zM233.5 -99.5q8.5 -8.5 8.5 -21.5q0 -16 -10.5 -26.5t-26.5 -10.5q-13 0 -21.5 8t-8.5 21q0 16 10.5 27t26.5 11q13 0 21.5 -8.5z" />
    <glyph glyph-name="uniA7B4" unicode="&#xa7b4;" horiz-adv-x="495" 
d="M439 226q0 -53 -23.5 -105t-72 -86.5t-117.5 -34.5q-66 0 -121 26l-31 -221h-47l124 879h135q82 0 126.5 -37.5t44.5 -107.5q0 -69 -36.5 -116.5t-94.5 -60.5q113 -21 113 -136zM319 69q37 28 54.5 70.5t17.5 85.5q0 60 -31.5 87.5t-93.5 27.5h-53l11 40h40q70 0 108 45
t38 113q0 55 -31.5 80.5t-92.5 25.5h-94l-82 -579q54 -24 117 -24q55 0 92 28z" />
    <glyph glyph-name="uni0181" unicode="&#x181;" horiz-adv-x="551" 
d="M493 226q0 -55 -22.5 -106.5t-75 -85.5t-137.5 -34h-155l91 644h-21q-37 0 -55 -21.5t-18 -57.5q0 -35 14 -67l-36 -14q-20 36 -20 82q0 52 30.5 85t85.5 33h177q82 0 126.5 -37.5t44.5 -107.5q0 -71 -38 -117.5t-104 -59.5q113 -21 113 -136zM241 644l-37 -264h114
q77 0 117 45t40 113q0 106 -124 106h-110zM403.5 96q41.5 55 41.5 129q0 60 -31 87.5t-93 27.5h-123l-42 -299h109q97 0 138.5 55z" />
    <glyph glyph-name="uni0243" unicode="&#x243;" horiz-adv-x="507" 
d="M449 226q0 -55 -22.5 -106.5t-75 -85.5t-137.5 -34h-155l25 177h-73l5 38h73l67 469h151q82 0 126.5 -37.5t44.5 -107.5q0 -71 -38 -117.5t-104 -59.5q113 -21 113 -136zM197 644l-37 -264h114q77 0 117 45t40 113q0 106 -124 106h-110zM360 96q41 55 41 129
q0 60 -31 87.5t-93 27.5h-123l-17 -125h142l-5 -38h-143l-19 -136h109q98 0 139 55z" />
    <glyph glyph-name="uni0182" unicode="&#x182;" horiz-adv-x="468" 
d="M378 371q46 -42 46 -125q0 -62 -23 -118t-74.5 -92t-132.5 -36h-140l97 684h281l-13 -41h-228l-32 -230h88q85 0 131 -42zM305.5 72.5q38.5 31.5 54.5 78t16 93.5q0 129 -128 129h-95l-46 -332h97q63 0 101.5 31.5z" />
    <glyph glyph-name="C" unicode="C" horiz-adv-x="456" 
d="M431 678.5q31 -15.5 59 -46.5l-29 -28q-26 26 -49.5 37.5t-57.5 11.5q-84 0 -139.5 -65t-81.5 -162t-26 -193q0 -100 36 -150.5t98 -50.5q39 0 70 14.5t63 41.5l22 -32q-72 -67 -159 -67q-81 0 -129.5 64t-48.5 180q0 108 32 214.5t98.5 176.5t165.5 70q45 0 76 -15.5z
" />
    <glyph glyph-name="Cacute" unicode="&#x106;" horiz-adv-x="456" 
d="M431 678.5q31 -15.5 59 -46.5l-29 -28q-26 26 -49.5 37.5t-57.5 11.5q-84 0 -139.5 -65t-81.5 -162t-26 -193q0 -100 36 -150.5t98 -50.5q39 0 70 14.5t63 41.5l22 -32q-72 -67 -159 -67q-81 0 -129.5 64t-48.5 180q0 108 32 214.5t98.5 176.5t165.5 70q45 0 76 -15.5z
M439 875l20 -41l-170 -75l-14 27z" />
    <glyph glyph-name="Ccaron" unicode="&#x10c;" horiz-adv-x="456" 
d="M431 678.5q31 -15.5 59 -46.5l-29 -28q-26 26 -49.5 37.5t-57.5 11.5q-84 0 -139.5 -65t-81.5 -162t-26 -193q0 -100 36 -150.5t98 -50.5q39 0 70 14.5t63 41.5l22 -32q-72 -67 -159 -67q-81 0 -129.5 64t-48.5 180q0 108 32 214.5t98.5 176.5t165.5 70q45 0 76 -15.5z
M474 879l20 -23l-121 -99h-27l-90 100l21 22l86 -79z" />
    <glyph glyph-name="Ccedilla" unicode="&#xc7;" horiz-adv-x="456" 
d="M431 678.5q31 -15.5 59 -46.5l-29 -28q-26 26 -49.5 37.5t-57.5 11.5q-84 0 -139.5 -65t-81.5 -162t-26 -193q0 -100 36 -150.5t98 -50.5q39 0 70 14.5t63 41.5l22 -32q-68 -63 -147 -67l-10 -57q67 -7 67 -68q0 -38 -25.5 -62t-67.5 -24q-41 0 -65 21l17 28
q24 -14 48 -14t38.5 12.5t14.5 36.5q0 23 -14.5 33t-52.5 10l18 85q-73 8 -115.5 71t-42.5 172q0 108 32 214.5t98.5 176.5t165.5 70q45 0 76 -15.5z" />
    <glyph glyph-name="Ccircumflex" unicode="&#x108;" horiz-adv-x="456" 
d="M431 678.5q31 -15.5 59 -46.5l-29 -28q-26 26 -49.5 37.5t-57.5 11.5q-84 0 -139.5 -65t-81.5 -162t-26 -193q0 -100 36 -150.5t98 -50.5q39 0 70 14.5t63 41.5l22 -32q-72 -67 -159 -67q-81 0 -129.5 64t-48.5 180q0 108 32 214.5t98.5 176.5t165.5 70q45 0 76 -15.5z
M259 763l-19 23l120 100h27l91 -101l-22 -22l-86 80z" />
    <glyph glyph-name="Cdotaccent" unicode="&#x10a;" horiz-adv-x="456" 
d="M431 678.5q31 -15.5 59 -46.5l-29 -28q-26 26 -49.5 37.5t-57.5 11.5q-84 0 -139.5 -65t-81.5 -162t-26 -193q0 -100 36 -150.5t98 -50.5q39 0 70 14.5t63 41.5l22 -32q-72 -67 -159 -67q-81 0 -129.5 64t-48.5 180q0 108 32 214.5t98.5 176.5t165.5 70q45 0 76 -15.5z
M343.5 809.5q-8.5 8.5 -8.5 21.5q0 16 10.5 26.5t26.5 10.5q13 0 21.5 -8t8.5 -21q0 -16 -10.5 -27t-26.5 -11q-13 0 -21.5 8.5z" />
    <glyph glyph-name="uniA7B3" unicode="&#xa7b3;" horiz-adv-x="411" 
d="M439 684l-201 -367l113 -426h-49l-94 393l-202 -393h-49l227 426l-99 367h49l81 -336l173 336h51z" />
    <glyph glyph-name="uni0187" unicode="&#x187;" horiz-adv-x="444" 
d="M647 788l-22 -28q-14 12 -27 17.5t-31 5.5q-27 0 -45 -19t-22 -57l-10 -75l-27 -24q-27 24 -51.5 34.5t-57.5 10.5q-84 0 -139.5 -65t-81.5 -162t-26 -193q0 -100 36 -150.5t98 -50.5q39 0 70 14.5t63 41.5l22 -32q-72 -67 -159 -67q-81 0 -129.5 64t-48.5 180
q0 108 32 214.5t98.5 176.5t164.5 70q55 0 95 -30l7 50q8 50 37 78.5t73 28.5q46 0 81 -33z" />
    <glyph glyph-name="uni023B" unicode="&#x23b;" horiz-adv-x="456" 
d="M490 632l-29 -28q-33 33 -61 42l-216 -601q25 -13 57 -13q39 0 70 14.5t63 41.5l22 -32q-72 -67 -159 -67q-35 0 -68 14l-26 -73l-26 8l28 78q-41 28 -63.5 83.5t-22.5 133.5q0 108 32 214.5t98.5 176.5t165.5 70q12 0 32 -2l18 50l26 -8l-17 -49q42 -14 76 -53zM373 652
q-6 1 -19 1q-84 0 -139.5 -65t-81.5 -162t-26 -193q0 -121 54 -172z" />
    <glyph glyph-name="D" unicode="D" horiz-adv-x="532" 
d="M436 631.5q59 -52.5 59 -177.5q0 -121 -32.5 -223.5t-104 -166.5t-183.5 -64h-121l97 684h130q96 0 155 -52.5zM192 643l-85 -603h76q94 0 153.5 60.5t85.5 154.5t26 199q0 106 -45 147.5t-121 41.5h-90z" />
    <glyph glyph-name="uni01F1" unicode="&#x1f1;" horiz-adv-x="926" 
d="M436 631.5q59 -52.5 59 -177.5q0 -121 -32.5 -223.5t-104 -166.5t-183.5 -64h-121l97 684h130q96 0 155 -52.5zM192 643l-85 -603h76q94 0 153.5 60.5t85.5 154.5t26 199q0 106 -45 147.5t-121 41.5h-90zM498 0l6 40l388 602h-274l6 42h324l-6 -40l-387 -602l298 1
l-13 -43h-342z" />
    <glyph glyph-name="uni01C4" unicode="&#x1c4;" horiz-adv-x="926" 
d="M436 631.5q59 -52.5 59 -177.5q0 -121 -32.5 -223.5t-104 -166.5t-183.5 -64h-121l97 684h130q96 0 155 -52.5zM192 643l-85 -603h76q94 0 153.5 60.5t85.5 154.5t26 199q0 106 -45 147.5t-121 41.5h-90zM498 0l6 40l388 602h-274l6 42h324l-6 -40l-387 -602l298 1
l-13 -43h-342zM903 879l20 -23l-121 -99h-27l-90 100l21 22l86 -79z" />
    <glyph glyph-name="uni0189" unicode="&#x189;" horiz-adv-x="537" 
d="M440 631.5q59 -52.5 59 -177.5q0 -121 -32.5 -223.5t-104 -166.5t-183.5 -64h-121l47 334h-72l5 38h73l44 312h130q96 0 155 -52.5zM340.5 100.5q59.5 60.5 85.5 154.5t26 199q0 106 -45 147.5t-121 41.5h-90l-38 -271h145l-6 -38h-145l-41 -294h76q94 0 153.5 60.5z" />
    <glyph glyph-name="Eth" unicode="&#xd0;" horiz-adv-x="537" 
d="M440 631.5q59 -52.5 59 -177.5q0 -121 -32.5 -223.5t-104 -166.5t-183.5 -64h-121l47 334h-72l5 38h73l44 312h130q96 0 155 -52.5zM340.5 100.5q59.5 60.5 85.5 154.5t26 199q0 106 -45 147.5t-121 41.5h-90l-38 -271h145l-6 -38h-145l-41 -294h76q94 0 153.5 60.5z" />
    <glyph glyph-name="Dcaron" unicode="&#x10e;" horiz-adv-x="532" 
d="M436 631.5q59 -52.5 59 -177.5q0 -121 -32.5 -223.5t-104 -166.5t-183.5 -64h-121l97 684h130q96 0 155 -52.5zM192 643l-85 -603h76q94 0 153.5 60.5t85.5 154.5t26 199q0 106 -45 147.5t-121 41.5h-90zM452 879l20 -23l-121 -99h-27l-90 100l21 22l86 -79z" />
    <glyph glyph-name="uni1E12" unicode="&#x1e12;" horiz-adv-x="532" 
d="M436 631.5q59 -52.5 59 -177.5q0 -121 -32.5 -223.5t-104 -166.5t-183.5 -64h-121l97 684h130q96 0 155 -52.5zM192 643l-85 -603h76q94 0 153.5 60.5t85.5 154.5t26 199q0 106 -45 147.5t-121 41.5h-90zM90 -197l-20 23l121 104h27l90 -105l-21 -22l-88 84z" />
    <glyph glyph-name="Dcroat" unicode="&#x110;" horiz-adv-x="537" 
d="M440 631.5q59 -52.5 59 -177.5q0 -121 -32.5 -223.5t-104 -166.5t-183.5 -64h-121l47 334h-72l5 38h73l44 312h130q96 0 155 -52.5zM340.5 100.5q59.5 60.5 85.5 154.5t26 199q0 106 -45 147.5t-121 41.5h-90l-38 -271h145l-6 -38h-145l-41 -294h76q94 0 153.5 60.5z" />
    <glyph glyph-name="uni1E0A" unicode="&#x1e0a;" horiz-adv-x="532" 
d="M436 631.5q59 -52.5 59 -177.5q0 -121 -32.5 -223.5t-104 -166.5t-183.5 -64h-121l97 684h130q96 0 155 -52.5zM192 643l-85 -603h76q94 0 153.5 60.5t85.5 154.5t26 199q0 106 -45 147.5t-121 41.5h-90zM321.5 809.5q-8.5 8.5 -8.5 21.5q0 16 10.5 26.5t26.5 10.5
q13 0 21.5 -8t8.5 -21q0 -16 -10.5 -27t-26.5 -11q-13 0 -21.5 8.5z" />
    <glyph glyph-name="uni1E0C" unicode="&#x1e0c;" horiz-adv-x="532" 
d="M436 631.5q59 -52.5 59 -177.5q0 -121 -32.5 -223.5t-104 -166.5t-183.5 -64h-121l97 684h130q96 0 155 -52.5zM192 643l-85 -603h76q94 0 153.5 60.5t85.5 154.5t26 199q0 106 -45 147.5t-121 41.5h-90zM220.5 -99.5q8.5 -8.5 8.5 -21.5q0 -16 -10.5 -26.5t-26.5 -10.5
q-13 0 -21.5 8t-8.5 21q0 16 10.5 27t26.5 11q13 0 21.5 -8.5z" />
    <glyph glyph-name="uni018A" unicode="&#x18a;" horiz-adv-x="581" 
d="M485 631.5q59 -52.5 59 -177.5q0 -121 -32.5 -223.5t-104 -166.5t-183.5 -64h-121l91 644h-21q-37 0 -55 -21.5t-18 -57.5q0 -35 14 -67l-36 -14q-20 36 -20 82q0 52 30.5 85t85.5 33h156q96 0 155 -52.5zM385.5 100.5q59.5 60.5 85.5 154.5t26 199q0 106 -45 147.5
t-121 41.5h-90l-85 -603h76q94 0 153.5 60.5z" />
    <glyph glyph-name="uni1E0E" unicode="&#x1e0e;" horiz-adv-x="532" 
d="M436 631.5q59 -52.5 59 -177.5q0 -121 -32.5 -223.5t-104 -166.5t-183.5 -64h-121l97 684h130q96 0 155 -52.5zM192 643l-85 -603h76q94 0 153.5 60.5t85.5 154.5t26 199q0 106 -45 147.5t-121 41.5h-90zM104 -115h192l-6 -39h-192z" />
    <glyph glyph-name="uni018B" unicode="&#x18b;" horiz-adv-x="468" 
d="M340 0h-119q-93 0 -142 43.5t-49 132.5q0 112 62.5 175t168.5 63h91l32 229h-233l6 41h279zM346 373h-89q-85 0 -132 -51.5t-47 -145.5q0 -70 35.5 -102.5t109.5 -32.5h76z" />
    <glyph glyph-name="uni01F2" unicode="&#x1f2;" horiz-adv-x="866" 
d="M436 631.5q59 -52.5 59 -177.5q0 -121 -32.5 -223.5t-104 -166.5t-183.5 -64h-121l97 684h130q96 0 155 -52.5zM192 643l-85 -603h76q94 0 153.5 60.5t85.5 154.5t26 199q0 106 -45 147.5t-121 41.5h-90zM875 522l-6 -36l-304 -446h240l-11 -40h-287l6 36l304 445h-222
l6 41h274z" />
    <glyph glyph-name="uni01C5" unicode="&#x1c5;" horiz-adv-x="866" 
d="M436 631.5q59 -52.5 59 -177.5q0 -121 -32.5 -223.5t-104 -166.5t-183.5 -64h-121l97 684h130q96 0 155 -52.5zM192 643l-85 -603h76q94 0 153.5 60.5t85.5 154.5t26 199q0 106 -45 147.5t-121 41.5h-90zM875 522l-6 -36l-304 -446h240l-11 -40h-287l6 36l304 445h-222
l6 41h274zM867 762l20 -23l-120 -104h-27l-91 104l23 23l84 -84z" />
    <glyph glyph-name="E" unicode="E" horiz-adv-x="413" 
d="M433 684l-12 -41h-229l-37 -266h199l-6 -40h-200l-41 -296h242l-7 -41h-288l97 684h282z" />
    <glyph glyph-name="Eacute" unicode="&#xc9;" horiz-adv-x="413" 
d="M433 684l-12 -41h-229l-37 -266h199l-6 -40h-200l-41 -296h242l-7 -41h-288l97 684h282zM385 875l20 -41l-170 -75l-14 27z" />
    <glyph glyph-name="Ebreve" unicode="&#x114;" horiz-adv-x="413" 
d="M433 684l-12 -41h-229l-37 -266h199l-6 -40h-200l-41 -296h242l-7 -41h-288l97 684h282zM237.5 793.5q-24.5 26.5 -24.5 67.5l29 4q8 -59 65 -59t83 61l30 -9q-11 -40 -42 -65.5t-73 -25.5q-43 0 -67.5 26.5z" />
    <glyph glyph-name="Ecaron" unicode="&#x11a;" horiz-adv-x="413" 
d="M433 684l-12 -41h-229l-37 -266h199l-6 -40h-200l-41 -296h242l-7 -41h-288l97 684h282zM420 879l20 -23l-121 -99h-27l-90 100l21 22l86 -79z" />
    <glyph glyph-name="uni0228" unicode="&#x228;" horiz-adv-x="413" 
d="M192 643l-37 -266h199l-6 -40h-200l-41 -296h242l-7 -41h-130l-11 -68q67 -7 67 -68q0 -38 -25.5 -62t-67.5 -24q-40 0 -65 21l17 28q24 -14 48 -14t38.5 12.5t14.5 36.5q0 23 -14.5 33t-52.5 10l20 95h-127l97 684h282l-12 -41h-229z" />
    <glyph glyph-name="Ecircumflex" unicode="&#xca;" horiz-adv-x="413" 
d="M433 684l-12 -41h-229l-37 -266h199l-6 -40h-200l-41 -296h242l-7 -41h-288l97 684h282zM205 763l-19 23l120 100h27l91 -101l-22 -22l-86 80z" />
    <glyph glyph-name="uni1EBE" unicode="&#x1ebe;" horiz-adv-x="413" 
d="M479 978l30 -28l-117 -120l-19 18zM200 731l-19 23l120 100h27l91 -101l-22 -22l-86 80zM433 684l-12 -41h-229l-37 -266h199l-6 -40h-200l-41 -296h242l-7 -41h-288l97 684h282z" />
    <glyph glyph-name="uni1EC6" unicode="&#x1ec6;" horiz-adv-x="413" 
d="M433 684l-12 -41h-229l-37 -266h199l-6 -40h-200l-41 -296h242l-7 -41h-288l97 684h282zM205 763l-19 23l120 100h27l91 -101l-22 -22l-86 80zM206.5 -99.5q8.5 -8.5 8.5 -21.5q0 -16 -10.5 -26.5t-26.5 -10.5q-13 0 -21.5 8t-8.5 21q0 16 10.5 27t26.5 11
q13 0 21.5 -8.5z" />
    <glyph glyph-name="uni1EC0" unicode="&#x1ec0;" horiz-adv-x="413" 
d="M177 977l70 -132l-24 -15l-83 124zM200 731l-19 23l120 100h27l91 -101l-22 -22l-86 80zM433 684l-12 -41h-229l-37 -266h199l-6 -40h-200l-41 -296h242l-7 -41h-288l97 684h282z" />
    <glyph glyph-name="uni1EC2" unicode="&#x1ec2;" horiz-adv-x="413" 
d="M433 684l-12 -41h-229l-37 -266h199l-6 -40h-200l-41 -296h242l-7 -41h-288l97 684h282zM199 731l-19 23l120 100h27l91 -101l-22 -22l-86 80zM395 880q30 2 47.5 14t17.5 41q0 17 -8.5 26.5t-24.5 9.5q-21 0 -47 -13l-11 30q31 18 62 18q33 0 52 -19t19 -51
q0 -34 -19.5 -54.5t-53.5 -25.5l-5 -45h-37z" />
    <glyph glyph-name="uni1EC4" unicode="&#x1ec4;" horiz-adv-x="413" 
d="M342 894.5q-12 6.5 -29 18.5q-12 10 -20.5 15t-18.5 5q-15 0 -25.5 -9t-26.5 -30l-24 17q38 59 76 59q13 0 23.5 -5t19 -11t11.5 -8q13 -10 22 -15t18 -5q13 0 25.5 10t26.5 32l25 -15q-35 -65 -76 -65q-15 0 -27 6.5zM199 731l-19 23l120 100h27l91 -101l-22 -22l-86 80
zM433 684l-12 -41h-229l-37 -266h199l-6 -40h-200l-41 -296h242l-7 -41h-288l97 684h282z" />
    <glyph glyph-name="uni0204" unicode="&#x204;" horiz-adv-x="413" 
d="M433 684l-12 -41h-229l-37 -266h199l-6 -40h-200l-41 -296h242l-7 -41h-288l97 684h282zM227 929l44 -146l-32 -12l-57 139zM330 928l39 -141l-33 -11l-52 134z" />
    <glyph glyph-name="Edieresis" unicode="&#xcb;" horiz-adv-x="413" 
d="M433 684l-12 -41h-229l-37 -266h199l-6 -40h-200l-41 -296h242l-7 -41h-288l97 684h282zM215.5 801q-7.5 8 -7.5 20q0 15 10 25.5t25 10.5q13 0 20.5 -8t7.5 -20q0 -16 -10 -26t-25 -10q-13 0 -20.5 8zM368.5 801q-7.5 8 -7.5 20q0 15 10 25.5t24 10.5q13 0 20.5 -8
t7.5 -20q0 -16 -9.5 -26t-24.5 -10q-13 0 -20.5 8z" />
    <glyph glyph-name="Edotaccent" unicode="&#x116;" horiz-adv-x="413" 
d="M433 684l-12 -41h-229l-37 -266h199l-6 -40h-200l-41 -296h242l-7 -41h-288l97 684h282zM289.5 809.5q-8.5 8.5 -8.5 21.5q0 16 10.5 26.5t26.5 10.5q13 0 21.5 -8t8.5 -21q0 -16 -10.5 -27t-26.5 -11q-13 0 -21.5 8.5z" />
    <glyph glyph-name="uni1EB8" unicode="&#x1eb8;" horiz-adv-x="413" 
d="M433 684l-12 -41h-229l-37 -266h199l-6 -40h-200l-41 -296h242l-7 -41h-288l97 684h282zM206.5 -99.5q8.5 -8.5 8.5 -21.5q0 -16 -10.5 -26.5t-26.5 -10.5q-13 0 -21.5 8t-8.5 21q0 16 10.5 27t26.5 11q13 0 21.5 -8.5z" />
    <glyph glyph-name="Egrave" unicode="&#xc8;" horiz-adv-x="413" 
d="M433 684l-12 -41h-229l-37 -266h199l-6 -40h-200l-41 -296h242l-7 -41h-288l97 684h282zM262 874l138 -89l-18 -25l-146 74z" />
    <glyph glyph-name="uni1EBA" unicode="&#x1eba;" horiz-adv-x="413" 
d="M433 684l-12 -41h-229l-37 -266h199l-6 -40h-200l-41 -296h242l-7 -41h-288l97 684h282zM299 847q30 2 47.5 14t17.5 41q0 17 -8.5 26.5t-24.5 9.5q-21 0 -47 -13l-11 30q31 18 62 18q33 0 52 -19t19 -51q0 -34 -19.5 -54.5t-53.5 -25.5l-5 -45h-37z" />
    <glyph glyph-name="uni0206" unicode="&#x206;" horiz-adv-x="413" 
d="M433 684l-12 -41h-229l-37 -266h199l-6 -40h-200l-41 -296h242l-7 -41h-288l97 684h282zM205 797q13 47 43.5 74t71.5 27q43 0 68.5 -28.5t24.5 -75.5l-31 -4q-6 69 -64 69t-85 -71z" />
    <glyph glyph-name="Emacron" unicode="&#x112;" horiz-adv-x="413" 
d="M433 684l-12 -41h-229l-37 -266h199l-6 -40h-200l-41 -296h242l-7 -41h-288l97 684h282zM408 805h-192l6 39h192z" />
    <glyph glyph-name="Eogonek" unicode="&#x118;" horiz-adv-x="413" 
d="M192 643l-37 -266h199l-6 -40h-200l-41 -296h242l-7 -41h-24q-64 -32 -90.5 -61t-26.5 -68q0 -44 45 -44q16 0 48 5l-9 -38q-24 -6 -45 -6q-37 0 -59 21.5t-22 58.5q0 41 24 73t78 59h-207l97 684h282l-12 -41h-229z" />
    <glyph glyph-name="uni0190" unicode="&#x190;" horiz-adv-x="433" 
d="M393 673q37 -21 68 -63l-31 -27q-25 34 -56 52t-73 18q-62 0 -100.5 -44.5t-38.5 -113.5q0 -51 29.5 -79t84.5 -28h40l-12 -41l-37 1q-84 1 -132 -50.5t-48 -138.5q0 -62 30 -95t83 -33q43 0 81.5 20t77.5 58l27 -29q-90 -91 -189 -91q-72 0 -115.5 45.5t-43.5 122.5
q0 90 47.5 147.5t122.5 65.5q-45 11 -69.5 42t-24.5 81q0 58 24.5 104t67.5 71.5t97 25.5q53 0 90 -21z" />
    <glyph glyph-name="uni018E" unicode="&#x18e;" horiz-adv-x="413" 
d="M98 684h283l-96 -684h-288l6 41h241l42 296h-200l6 40h200l37 266h-237z" />
    <glyph glyph-name="uni01A9" unicode="&#x1a9;" horiz-adv-x="413" 
d="M429 684l-5 -41h-272l136 -295l-3 -24l-213 -283h267l-5 -41h-328l4 31l235 310l-147 312l4 31h327z" />
    <glyph glyph-name="uni0246" unicode="&#x246;" horiz-adv-x="413" 
d="M421 643h-38l-95 -266h66l-6 -40h-74l-106 -296h181l-7 -41h-189l-25 -70l-27 8l22 62h-69l97 684h217l21 58l27 -8l-18 -50h35zM258 377l96 266h-162l-37 -266h103zM138 41l106 296h-96l-41 -296h31z" />
    <glyph glyph-name="uni1EBC" unicode="&#x1ebc;" horiz-adv-x="413" 
d="M433 684l-12 -41h-229l-37 -266h199l-6 -40h-200l-41 -296h242l-7 -41h-288l97 684h282zM337 802.5q-12 6.5 -29 18.5q-12 10 -20.5 15t-18.5 5q-15 0 -25.5 -9t-26.5 -30l-24 17q38 59 76 59q13 0 23.5 -5t19 -11t11.5 -8q13 -10 22 -15t18 -5q13 0 25.5 10t26.5 32
l25 -15q-35 -65 -76 -65q-15 0 -27 6.5z" />
    <glyph glyph-name="uni01B7" unicode="&#x1b7;" horiz-adv-x="397" 
d="M392 645l-225 -263h17q84 0 126.5 -40.5t42.5 -115.5q0 -68 -27 -122t-75 -84.5t-107 -30.5q-56 0 -94 22t-66 65l32 24q27 -37 55.5 -53t72.5 -16q72 0 116 53.5t44 140.5q0 118 -122 118h-70l5 39l218 261h-254l6 41h310z" />
    <glyph glyph-name="uni01EE" unicode="&#x1ee;" horiz-adv-x="397" 
d="M392 645l-225 -263h17q84 0 126.5 -40.5t42.5 -115.5q0 -68 -27 -122t-75 -84.5t-107 -30.5q-56 0 -94 22t-66 65l32 24q27 -37 55.5 -53t72.5 -16q72 0 116 53.5t44 140.5q0 118 -122 118h-70l5 39l218 261h-254l6 41h310zM366 879l20 -23l-121 -99h-27l-90 100l21 22
l86 -79z" />
    <glyph glyph-name="uni01B8" unicode="&#x1b8;" horiz-adv-x="397" 
d="M422 643h-259l150 -261l-6 -39h-67q-79 0 -123.5 -50t-44.5 -135q0 -60 29.5 -93.5t83.5 -33.5q44 0 78.5 16.5t71.5 52.5l26 -27q-39 -42 -81 -63t-97 -21q-72 0 -115 46t-43 122q0 68 26.5 119t75 78.5t111.5 27.5h31l-156 263l5 39h310z" />
    <glyph glyph-name="F" unicode="F" horiz-adv-x="389" 
d="M428 684l-12 -41h-224l-39 -279h195l-6 -40h-195l-46 -324h-47l97 684h277z" />
    <glyph glyph-name="uni1E1E" unicode="&#x1e1e;" horiz-adv-x="389" 
d="M428 684l-12 -41h-224l-39 -279h195l-6 -40h-195l-46 -324h-47l97 684h277zM283.5 809.5q-8.5 8.5 -8.5 21.5q0 16 10.5 26.5t26.5 10.5q13 0 21.5 -8t8.5 -21q0 -16 -10.5 -27t-26.5 -11q-13 0 -21.5 8.5z" />
    <glyph glyph-name="uni0191" unicode="&#x191;" horiz-adv-x="389" 
d="M192 643l-39 -279h195l-6 -40h-195l-46 -324l-13 -87q-8 -56 -39.5 -85.5t-75.5 -29.5q-45 0 -80 33l23 29q14 -12 26 -17.5t30 -5.5q26 0 45 19.5t25 59.5l12 84l97 684h277l-12 -41h-224z" />
    <glyph glyph-name="G" unicode="G" horiz-adv-x="509" 
d="M439 678q35 -16 66 -49l-31 -28q-27 28 -53.5 40t-63.5 12q-80 0 -136.5 -60t-84.5 -157t-28 -208q0 -197 141 -197q65 0 128 37l36 256h-109v41h161l-45 -321q-41 -26 -86.5 -40.5t-88.5 -14.5q-89 0 -137 61.5t-48 180.5q0 122 34.5 228t102.5 170.5t162 64.5
q45 0 80 -16z" />
    <glyph glyph-name="uni01F4" unicode="&#x1f4;" horiz-adv-x="509" 
d="M439 678q35 -16 66 -49l-31 -28q-27 28 -53.5 40t-63.5 12q-80 0 -136.5 -60t-84.5 -157t-28 -208q0 -197 141 -197q65 0 128 37l36 256h-109v41h161l-45 -321q-41 -26 -86.5 -40.5t-88.5 -14.5q-89 0 -137 61.5t-48 180.5q0 122 34.5 228t102.5 170.5t162 64.5
q45 0 80 -16zM445 875l20 -41l-170 -75l-14 27z" />
    <glyph glyph-name="uni0194" unicode="&#x194;" horiz-adv-x="458" 
d="M226 56q15 -55 21 -87t6 -64q0 -49 -24 -78t-63 -29q-32 0 -49 19t-17 53q0 36 17 78t57 112l-94 624h47l78 -590l243 590h49zM207.5 -44q-3.5 25 -12.5 69q-26 -49 -39.5 -86.5t-13.5 -66.5q0 -35 26 -35q21 0 32 18t11 50q0 26 -3.5 51z" />
    <glyph glyph-name="Gbreve" unicode="&#x11e;" horiz-adv-x="509" 
d="M439 678q35 -16 66 -49l-31 -28q-27 28 -53.5 40t-63.5 12q-80 0 -136.5 -60t-84.5 -157t-28 -208q0 -197 141 -197q65 0 128 37l36 256h-109v41h161l-45 -321q-41 -26 -86.5 -40.5t-88.5 -14.5q-89 0 -137 61.5t-48 180.5q0 122 34.5 228t102.5 170.5t162 64.5
q45 0 80 -16zM297.5 793.5q-24.5 26.5 -24.5 67.5l29 4q8 -59 65 -59t83 61l30 -9q-11 -40 -42 -65.5t-73 -25.5q-43 0 -67.5 26.5z" />
    <glyph glyph-name="Gcaron" unicode="&#x1e6;" horiz-adv-x="509" 
d="M439 678q35 -16 66 -49l-31 -28q-27 28 -53.5 40t-63.5 12q-80 0 -136.5 -60t-84.5 -157t-28 -208q0 -197 141 -197q65 0 128 37l36 256h-109v41h161l-45 -321q-41 -26 -86.5 -40.5t-88.5 -14.5q-89 0 -137 61.5t-48 180.5q0 122 34.5 228t102.5 170.5t162 64.5
q45 0 80 -16zM480 879l20 -23l-121 -99h-27l-90 100l21 22l86 -79z" />
    <glyph glyph-name="Gcircumflex" unicode="&#x11c;" horiz-adv-x="509" 
d="M439 678q35 -16 66 -49l-31 -28q-27 28 -53.5 40t-63.5 12q-80 0 -136.5 -60t-84.5 -157t-28 -208q0 -197 141 -197q65 0 128 37l36 256h-109v41h161l-45 -321q-41 -26 -86.5 -40.5t-88.5 -14.5q-89 0 -137 61.5t-48 180.5q0 122 34.5 228t102.5 170.5t162 64.5
q45 0 80 -16zM265 763l-19 23l120 100h27l91 -101l-22 -22l-86 80z" />
    <glyph glyph-name="Gcommaaccent" unicode="&#x122;" horiz-adv-x="509" 
d="M439 678q35 -16 66 -49l-31 -28q-27 28 -53.5 40t-63.5 12q-80 0 -136.5 -60t-84.5 -157t-28 -208q0 -197 141 -197q65 0 128 37l36 256h-109v41h161l-45 -321q-41 -26 -86.5 -40.5t-88.5 -14.5q-89 0 -137 61.5t-48 180.5q0 122 34.5 228t102.5 170.5t162 64.5
q45 0 80 -16zM257 -97.5q9 -9.5 9 -23.5q0 -12 -4.5 -23t-17.5 -33l-51 -96h-27l43 115q-16 11 -16 30q0 17 11 28.5t28 11.5q16 0 25 -9.5z" />
    <glyph glyph-name="Gdotaccent" unicode="&#x120;" horiz-adv-x="509" 
d="M439 678q35 -16 66 -49l-31 -28q-27 28 -53.5 40t-63.5 12q-80 0 -136.5 -60t-84.5 -157t-28 -208q0 -197 141 -197q65 0 128 37l36 256h-109v41h161l-45 -321q-41 -26 -86.5 -40.5t-88.5 -14.5q-89 0 -137 61.5t-48 180.5q0 122 34.5 228t102.5 170.5t162 64.5
q45 0 80 -16zM349.5 809.5q-8.5 8.5 -8.5 21.5q0 16 10.5 26.5t26.5 10.5q13 0 21.5 -8t8.5 -21q0 -16 -10.5 -27t-26.5 -11q-13 0 -21.5 8.5z" />
    <glyph glyph-name="uni0193" unicode="&#x193;" 
d="M664 788l-21 -28q-14 11 -27 17t-31 6q-27 0 -45.5 -20.5t-24.5 -65.5l-10 -68l-27 -25q-30 26 -57 37.5t-64 11.5q-80 0 -136.5 -60t-84.5 -157t-28 -208q0 -197 141 -197q65 0 128 37l36 256h-109l1 41h160l-44 -321q-42 -26 -87.5 -40.5t-87.5 -14.5
q-89 0 -137.5 61.5t-48.5 180.5q0 122 34.5 227.5t102 170.5t161.5 65q65 0 107 -35l7 45q8 57 37 87t74 30q46 0 81 -33z" />
    <glyph glyph-name="uni0241" unicode="&#x241;" horiz-adv-x="380" 
d="M136 300l56 16q74 22 110 72.5t36 134.5q0 62 -27.5 96t-79.5 34q-38 0 -72.5 -18t-72.5 -53l-24 30q43 41 85 61.5t89 20.5q70 0 110.5 -46.5t40.5 -123.5q0 -99 -44.5 -157t-130.5 -84l-34 -10l-38 -273h-46z" />
    <glyph glyph-name="uni01E4" unicode="&#x1e4;" horiz-adv-x="510" 
d="M501 199h-59l-22 -155q-41 -26 -86.5 -40.5t-88.5 -14.5q-89 0 -137 61.5t-48 180.5q0 122 34.5 228t102.5 170.5t162 64.5q45 0 80 -16t66 -49l-31 -28q-27 28 -53.5 40t-63.5 12q-80 0 -136.5 -60t-84.5 -157t-28 -208q0 -197 141 -197q66 0 128 38l18 130h-109l6 40
h109l12 85h-109v41h161l-18 -126h60z" />
    <glyph glyph-name="uni021C" unicode="&#x21c;" horiz-adv-x="405" 
d="M349.5 655.5q37.5 -38.5 37.5 -104.5q0 -152 -145 -192q107 -15 107 -124q0 -132 -97 -206t-266 -115v41q149 40 231.5 103t82.5 175q0 54 -30 80t-93 25l-49 -1l12 41h40q70 0 114.5 47t44.5 122q0 51 -24.5 78.5t-70.5 27.5q-40 0 -76 -18t-75 -52l-23 29
q45 42 87.5 62t90.5 20q64 0 101.5 -38.5z" />
    <glyph glyph-name="H" unicode="H" horiz-adv-x="547" 
d="M101 0h-47l97 684h46l-42 -304h271l42 304h47l-97 -684h-46l48 339h-271z" />
    <glyph glyph-name="Hbar" unicode="&#x126;" horiz-adv-x="547" 
d="M548 551l-5 -35h-52l-73 -516h-46l48 339h-271l-48 -339h-47l73 516h-52l5 35h52l19 133h46l-18 -133h271l18 133h47l-19 -133h52zM426 380l19 136h-271l-19 -136h271z" />
    <glyph glyph-name="uni021E" unicode="&#x21e;" horiz-adv-x="547" 
d="M101 0h-47l97 684h46l-42 -304h271l42 304h47l-97 -684h-46l48 339h-271zM456 879l20 -23l-121 -99h-27l-90 100l21 22l86 -79z" />
    <glyph glyph-name="Hcircumflex" unicode="&#x124;" horiz-adv-x="547" 
d="M101 0h-47l97 684h46l-42 -304h271l42 304h47l-97 -684h-46l48 339h-271zM241 763l-19 23l120 100h27l91 -101l-22 -22l-86 80z" />
    <glyph glyph-name="uni1E24" unicode="&#x1e24;" horiz-adv-x="547" 
d="M101 0h-47l97 684h46l-42 -304h271l42 304h47l-97 -684h-46l48 339h-271zM244.5 -99.5q8.5 -8.5 8.5 -21.5q0 -16 -10.5 -26.5t-26.5 -10.5q-13 0 -21.5 8t-8.5 21q0 16 10.5 27t26.5 11q13 0 21.5 -8.5z" />
    <glyph glyph-name="uniA7AA" unicode="&#xa7aa;" horiz-adv-x="596" 
d="M564 684l-97 -684h-46l48 339h-271l-48 -339h-47l91 644h-21q-37 0 -55 -21.5t-18 -57.5q0 -35 14 -67l-36 -14q-20 36 -20 82q0 52 30.5 85t85.5 33h72l-42 -304h271l42 304h47z" />
    <glyph glyph-name="uniA78D" unicode="&#xa78d;" horiz-adv-x="489" 
d="M457 684l-97 -684h-46l42 298q-73 -73 -157 -73q-64 0 -101.5 40t-37.5 105q0 9 2 31l40 283h46l-39 -283q-2 -20 -2 -27q0 -50 26 -78.5t74 -28.5q44 0 85 22t71 60l47 335h47z" />
    <glyph glyph-name="uni01F6" unicode="&#x1f6;" horiz-adv-x="790" 
d="M422.5 23q-32.5 34 -32.5 89q0 8 2 28l28 199h-271l-48 -339h-47l97 684h46l-42 -304h271l42 304h47l-77 -544q-2 -18 -2 -26q0 -41 21 -63t59 -22q98 0 135 122.5t37 292.5q0 39 -3 78h43q4 -54 4 -78q0 -196 -48.5 -325.5t-171.5 -129.5q-57 0 -89.5 34z" />
    <glyph glyph-name="I" unicode="I" horiz-adv-x="229" 
d="M197 684l-96 -684h-47l97 684h46z" />
    <glyph glyph-name="IJ" unicode="&#x132;" horiz-adv-x="472" 
d="M197 684l-96 -684h-47l97 684h46zM360 88q-8 -58 -25 -93.5t-46 -58.5t-81 -48l-13 32q43 23 66 44t34.5 50.5t18.5 78.5l84 591h46z" />
    <glyph glyph-name="Iacute" unicode="&#xcd;" horiz-adv-x="229" 
d="M197 684l-96 -684h-47l97 684h46zM263 875l20 -41l-170 -75l-14 27z" />
    <glyph glyph-name="Ibreve" unicode="&#x12c;" horiz-adv-x="229" 
d="M197 684l-96 -684h-47l97 684h46zM115.5 793.5q-24.5 26.5 -24.5 67.5l29 4q8 -59 65 -59t83 61l30 -9q-11 -40 -42 -65.5t-73 -25.5q-43 0 -67.5 26.5z" />
    <glyph glyph-name="uni01CF" unicode="&#x1cf;" horiz-adv-x="229" 
d="M197 684l-96 -684h-47l97 684h46zM298 879l20 -23l-121 -99h-27l-90 100l21 22l86 -79z" />
    <glyph glyph-name="Icircumflex" unicode="&#xce;" horiz-adv-x="229" 
d="M197 684l-96 -684h-47l97 684h46zM83 763l-19 23l120 100h27l91 -101l-22 -22l-86 80z" />
    <glyph glyph-name="uni0208" unicode="&#x208;" horiz-adv-x="229" 
d="M197 684l-96 -684h-47l97 684h46zM105 929l44 -146l-32 -12l-57 139zM208 928l39 -141l-33 -11l-52 134z" />
    <glyph glyph-name="Idieresis" unicode="&#xcf;" horiz-adv-x="229" 
d="M197 684l-96 -684h-47l97 684h46zM93.5 801q-7.5 8 -7.5 20q0 15 10 25.5t25 10.5q13 0 20.5 -8t7.5 -20q0 -16 -10 -26t-25 -10q-13 0 -20.5 8zM246.5 801q-7.5 8 -7.5 20q0 15 10 25.5t24 10.5q13 0 20.5 -8t7.5 -20q0 -16 -9.5 -26t-24.5 -10q-13 0 -20.5 8z" />
    <glyph glyph-name="uni1E2E" unicode="&#x1e2e;" horiz-adv-x="229" 
d="M197 684l-96 -684h-47l97 684h46zM274 955l30 -28l-117 -120l-19 18zM83.5 753q-7.5 8 -7.5 20q0 15 10 25.5t24 10.5q13 0 20.5 -8t7.5 -20q0 -16 -9.5 -26t-24.5 -10q-13 0 -20.5 8zM236.5 753q-7.5 8 -7.5 20q0 15 9.5 25.5t24.5 10.5q13 0 20.5 -8t7.5 -20
q0 -16 -10 -26t-24 -10q-13 0 -20.5 8z" />
    <glyph glyph-name="Idotaccent" unicode="&#x130;" horiz-adv-x="229" 
d="M197 684l-96 -684h-47l97 684h46zM167.5 809.5q-8.5 8.5 -8.5 21.5q0 16 10.5 26.5t26.5 10.5q13 0 21.5 -8t8.5 -21q0 -16 -10.5 -27t-26.5 -11q-13 0 -21.5 8.5z" />
    <glyph glyph-name="uni1ECA" unicode="&#x1eca;" horiz-adv-x="229" 
d="M197 684l-96 -684h-47l97 684h46zM87.5 -99.5q8.5 -8.5 8.5 -21.5q0 -16 -10.5 -26.5t-26.5 -10.5q-13 0 -21.5 8t-8.5 21q0 16 10.5 27t26.5 11q13 0 21.5 -8.5z" />
    <glyph glyph-name="Igrave" unicode="&#xcc;" horiz-adv-x="229" 
d="M197 684l-96 -684h-47l97 684h46zM140 874l138 -89l-18 -25l-146 74z" />
    <glyph glyph-name="uni1EC8" unicode="&#x1ec8;" horiz-adv-x="229" 
d="M197 684l-96 -684h-47l97 684h46zM177 847q30 2 47.5 14t17.5 41q0 17 -8.5 26.5t-24.5 9.5q-21 0 -47 -13l-11 30q31 18 62 18q33 0 52 -19t19 -51q0 -34 -19.5 -54.5t-53.5 -25.5l-5 -45h-37z" />
    <glyph glyph-name="uni020A" unicode="&#x20a;" horiz-adv-x="229" 
d="M197 684l-96 -684h-47l97 684h46zM83 797q13 47 43.5 74t71.5 27q43 0 68.5 -28.5t24.5 -75.5l-31 -4q-6 69 -64 69t-85 -71z" />
    <glyph glyph-name="Imacron" unicode="&#x12a;" horiz-adv-x="229" 
d="M197 684l-96 -684h-47l97 684h46zM286 805h-192l6 39h192z" />
    <glyph glyph-name="Iogonek" unicode="&#x12e;" horiz-adv-x="229" 
d="M197 684l-96 -684h-5q-64 -32 -90.5 -61t-26.5 -68q0 -44 45 -44q16 0 48 5l-9 -38q-24 -6 -45 -6q-37 0 -59 21.5t-22 58.5q0 44 27.5 77t90.5 63l96 676h46z" />
    <glyph glyph-name="uni0196" unicode="&#x196;" horiz-adv-x="268" 
d="M230 21q-16 -13 -38 -22t-47 -9q-41 0 -64 24t-23 68q0 6 2 24l12 86l69 492h46l-69 -492l-12 -90q-1 -7 -1 -20q0 -53 44 -53q20 0 33 5.5t30 16.5z" />
    <glyph glyph-name="uni0197" unicode="&#x197;" horiz-adv-x="257" 
d="M253 380l-6 -40h-81l-48 -340h-47l48 340h-86l5 40h87l43 304h46l-43 -304h82z" />
    <glyph glyph-name="Itilde" unicode="&#x128;" horiz-adv-x="229" 
d="M197 684l-96 -684h-47l97 684h46zM215 802.5q-12 6.5 -29 18.5q-12 10 -20.5 15t-18.5 5q-15 0 -25.5 -9t-26.5 -30l-24 17q38 59 76 59q13 0 23.5 -5t19 -11t11.5 -8q13 -10 22 -15t18 -5q13 0 25.5 10t26.5 32l25 -15q-35 -65 -76 -65q-15 0 -27 6.5z" />
    <glyph glyph-name="J" unicode="J" horiz-adv-x="243" 
d="M131 88q-8 -58 -25 -93.5t-46 -58.5t-81 -48l-13 32q43 23 66 44t34.5 50.5t18.5 78.5l84 591h46z" />
    <glyph glyph-name="Jcircumflex" unicode="&#x134;" horiz-adv-x="243" 
d="M131 88q-8 -58 -25 -93.5t-46 -58.5t-81 -48l-13 32q43 23 66 44t34.5 50.5t18.5 78.5l84 591h46zM100 763l-19 23l120 100h27l91 -101l-22 -22l-86 80z" />
    <glyph glyph-name="uniA7B2" unicode="&#xa7b2;" horiz-adv-x="254" 
d="M127 -21q40 -11 80 -36l-17 -29q-36 22 -68 31q-11 -68 -46 -107.5t-95 -39.5q-43 0 -67 23.5t-24 63.5q0 50 34.5 80t89.5 30q39 0 69 -7l97 696h47zM46.5 -135.5q21.5 30.5 31.5 89.5q-29 6 -65 6q-41 0 -62.5 -19.5t-21.5 -54.5q0 -25 13.5 -38.5t39.5 -13.5
q43 0 64.5 30.5z" />
    <glyph glyph-name="uni0248" unicode="&#x248;" horiz-adv-x="266" 
d="M253 323h-85l-33 -235q-8 -58 -25 -93.5t-46 -58.5t-81 -48l-13 32q43 23 66 44t34.5 50.5t18.5 78.5l33 230h-83l5 40h83l46 321h46l-45 -321h85z" />
    <glyph glyph-name="K" unicode="K" horiz-adv-x="451" 
d="M54 0l97 684h46l-96 -684h-47zM354 0l-198 367l282 317h51l-283 -319l200 -365h-52z" />
    <glyph glyph-name="uni01E8" unicode="&#x1e8;" horiz-adv-x="451" 
d="M54 0l97 684h46l-96 -684h-47zM354 0l-198 367l282 317h51l-283 -319l200 -365h-52zM431 879l20 -23l-121 -99h-27l-90 100l21 22l86 -79z" />
    <glyph glyph-name="Kcommaaccent" unicode="&#x136;" horiz-adv-x="451" 
d="M54 0l97 684h46l-96 -684h-47zM354 0l-198 367l282 317h51l-283 -319l200 -365h-52zM227 -97.5q9 -9.5 9 -23.5q0 -12 -4.5 -23t-17.5 -33l-51 -96h-27l43 115q-16 11 -16 30q0 17 11 28.5t28 11.5q16 0 25 -9.5z" />
    <glyph glyph-name="uni0198" unicode="&#x198;" horiz-adv-x="478" 
d="M156 367l190 255q31 41 54 56.5t54 15.5q24 0 40 -9t32 -26l-26 -26q-13 11 -22.5 16t-23.5 5q-19 0 -34.5 -11.5t-43.5 -48.5l-169 -228l199 -366h-52zM54 0l97 684h46l-96 -684h-47z" />
    <glyph glyph-name="L" unicode="L" horiz-adv-x="379" 
d="M197 684l-90 -641h235l-14 -43h-274l97 684h46z" />
    <glyph glyph-name="uni01C7" unicode="&#x1c7;" horiz-adv-x="606" 
d="M197 684l-90 -641h235l-14 -43h-274l97 684h46zM494 88q-8 -58 -25 -93.5t-46 -58.5t-81 -48l-13 32q43 23 66 44t34.5 50.5t18.5 78.5l84 591h46z" />
    <glyph glyph-name="Lacute" unicode="&#x139;" horiz-adv-x="379" 
d="M197 684l-90 -641h235l-14 -43h-274l97 684h46zM263 875l20 -41l-170 -75l-14 27z" />
    <glyph glyph-name="uni023D" unicode="&#x23d;" horiz-adv-x="392" 
d="M120 43h235l-14 -43h-274l49 343h-83l5 40h83l43 301h46l-42 -301h85l-6 -40h-85z" />
    <glyph glyph-name="uniA7AD" unicode="&#xa7ad;" horiz-adv-x="411" 
d="M375 43l-14 -43h-274l39 272q-44 1 -69.5 23t-25.5 63q0 45 27 71t68 26q8 0 15 -1.5t10 -1.5l33 232h46l-53 -375q34 1 92 12l4 -34q-49 -12 -101 -15l-32 -229h235zM86 321q15 -12 45 -12l15 109q-10 2 -21 2q-25 0 -39.5 -16t-14.5 -45q0 -26 15 -38z" />
    <glyph glyph-name="Lcaron" unicode="&#x13d;" horiz-adv-x="379" 
d="M197 684l-90 -641h235l-14 -43h-274l97 684h46zM271 688l41 -5l-51 -156l-27 4z" />
    <glyph glyph-name="uni1E3C" unicode="&#x1e3c;" horiz-adv-x="379" 
d="M197 684l-90 -641h235l-14 -43h-274l97 684h46zM71 -197l-20 23l121 104h27l90 -105l-21 -22l-88 84z" />
    <glyph glyph-name="Lcommaaccent" unicode="&#x13b;" horiz-adv-x="379" 
d="M197 684l-90 -641h235l-14 -43h-274l97 684h46zM206 -97.5q9 -9.5 9 -23.5q0 -12 -4.5 -23t-17.5 -33l-51 -96h-27l43 115q-16 11 -16 30q0 17 11 28.5t28 11.5q16 0 25 -9.5z" />
    <glyph glyph-name="Ldot" unicode="&#x13f;" horiz-adv-x="379" 
d="M197 684l-90 -641h235l-14 -43h-274l97 684h46zM286.5 337.5q-8.5 8.5 -8.5 21.5q0 16 10.5 26.5t26.5 10.5q13 0 21.5 -8t8.5 -21q0 -16 -10.5 -27t-26.5 -11q-13 0 -21.5 8.5z" />
    <glyph glyph-name="uni1E36" unicode="&#x1e36;" horiz-adv-x="379" 
d="M197 684l-90 -641h235l-14 -43h-274l97 684h46zM201.5 -99.5q8.5 -8.5 8.5 -21.5q0 -16 -10.5 -26.5t-26.5 -10.5q-13 0 -21.5 8t-8.5 21q0 16 10.5 27t26.5 11q13 0 21.5 -8.5z" />
    <glyph glyph-name="uni01C8" unicode="&#x1c8;" horiz-adv-x="585" 
d="M197 684l-90 -641h235l-14 -43h-274l97 684h46zM308 -167q34 19 54 37.5t33 50t21 86.5l73 515h45l-73 -517q-9 -63 -26 -100t-43 -59t-72 -46zM511.5 683.5q-8.5 8.5 -8.5 21.5q0 16 10.5 26.5t26.5 10.5q13 0 21.5 -8t8.5 -21q0 -16 -10.5 -27t-26.5 -11
q-13 0 -21.5 8.5z" />
    <glyph glyph-name="Lslash" unicode="&#x141;" horiz-adv-x="396" 
d="M124 43h235l-14 -43h-274l41 288l-58 -40l-18 30l82 56l50 350h46l-44 -315l162 110l17 -30l-186 -126z" />
    <glyph glyph-name="M" unicode="M" horiz-adv-x="637" 
d="M539 0h-44l20 333q14 230 21 308l-219 -559h-47l-69 558q-6 -36 -49 -246l-12 -56l-72 -338h-45l151 684h61l66 -548l212 548h68z" />
    <glyph glyph-name="uni1E3E" unicode="&#x1e3e;" horiz-adv-x="637" 
d="M539 0h-44l20 333q14 230 21 308l-219 -559h-47l-69 558q-6 -36 -49 -246l-12 -56l-72 -338h-45l151 684h61l66 -548l212 548h68zM464 875l20 -41l-170 -75l-14 27z" />
    <glyph glyph-name="uni1E40" unicode="&#x1e40;" horiz-adv-x="637" 
d="M539 0h-44l20 333q14 230 21 308l-219 -559h-47l-69 558q-6 -36 -49 -246l-12 -56l-72 -338h-45l151 684h61l66 -548l212 548h68zM368.5 809.5q-8.5 8.5 -8.5 21.5q0 16 10.5 26.5t26.5 10.5q13 0 21.5 -8t8.5 -21q0 -16 -10.5 -27t-26.5 -11q-13 0 -21.5 8.5z" />
    <glyph glyph-name="uni019C" unicode="&#x19c;" horiz-adv-x="756" 
d="M724 684l-96 -684h-40l9 92q-32 -48 -70.5 -75.5t-81.5 -27.5q-48 0 -77 28.5t-34 79.5q-34 -51 -74 -79.5t-84 -28.5q-54 0 -83 35t-29 97q0 19 3 40l74 523h47l-75 -529q-3 -19 -3 -35q0 -44 19 -66.5t55 -22.5q42 0 78.5 31t71.5 88l2 14l73 520h47l-74 -527
q-3 -19 -3 -37q0 -44 18.5 -66.5t54.5 -22.5q79 0 151 120l75 533h46z" />
    <glyph glyph-name="N" unicode="N" horiz-adv-x="549" 
d="M419 0h-59l-180 640q-4 -79 -26 -234l-56 -406h-44l97 684h60l180 -638q7 98 23 208l59 430h43z" />
    <glyph glyph-name="uni01CA" unicode="&#x1ca;" horiz-adv-x="792" 
d="M419 0h-59l-180 640q-4 -79 -26 -234l-56 -406h-44l97 684h60l180 -638q7 98 23 208l59 430h43zM680 88q-8 -58 -25 -93.5t-46 -58.5t-81 -48l-13 32q43 23 66 44t34.5 50.5t18.5 78.5l84 591h46z" />
    <glyph glyph-name="Nacute" unicode="&#x143;" horiz-adv-x="549" 
d="M419 0h-59l-180 640q-4 -79 -26 -234l-56 -406h-44l97 684h60l180 -638q7 98 23 208l59 430h43zM429 875l20 -41l-170 -75l-14 27z" />
    <glyph glyph-name="Ncaron" unicode="&#x147;" horiz-adv-x="549" 
d="M419 0h-59l-180 640q-4 -79 -26 -234l-56 -406h-44l97 684h60l180 -638q7 98 23 208l59 430h43zM464 879l20 -23l-121 -99h-27l-90 100l21 22l86 -79z" />
    <glyph glyph-name="uni1E4A" unicode="&#x1e4a;" horiz-adv-x="549" 
d="M419 0h-59l-180 640q-4 -79 -26 -234l-56 -406h-44l97 684h60l180 -638q7 98 23 208l59 430h43zM116 -197l-20 23l121 104h27l90 -105l-21 -22l-88 84z" />
    <glyph glyph-name="Ncommaaccent" unicode="&#x145;" horiz-adv-x="549" 
d="M419 0h-59l-180 640q-4 -79 -26 -234l-56 -406h-44l97 684h60l180 -638q7 98 23 208l59 430h43zM251 -97.5q9 -9.5 9 -23.5q0 -12 -4.5 -23t-17.5 -33l-51 -96h-27l43 115q-16 11 -16 30q0 17 11 28.5t28 11.5q16 0 25 -9.5z" />
    <glyph glyph-name="uni1E44" unicode="&#x1e44;" horiz-adv-x="549" 
d="M419 0h-59l-180 640q-4 -79 -26 -234l-56 -406h-44l97 684h60l180 -638q7 98 23 208l59 430h43zM333.5 809.5q-8.5 8.5 -8.5 21.5q0 16 10.5 26.5t26.5 10.5q13 0 21.5 -8t8.5 -21q0 -16 -10.5 -27t-26.5 -11q-13 0 -21.5 8.5z" />
    <glyph glyph-name="uni1E46" unicode="&#x1e46;" horiz-adv-x="549" 
d="M419 0h-59l-180 640q-4 -79 -26 -234l-56 -406h-44l97 684h60l180 -638q7 98 23 208l59 430h43zM246.5 -99.5q8.5 -8.5 8.5 -21.5q0 -16 -10.5 -26.5t-26.5 -10.5q-13 0 -21.5 8t-8.5 21q0 16 10.5 27t26.5 11q13 0 21.5 -8.5z" />
    <glyph glyph-name="uni01F8" unicode="&#x1f8;" horiz-adv-x="549" 
d="M419 0h-59l-180 640q-4 -79 -26 -234l-56 -406h-44l97 684h60l180 -638q7 98 23 208l59 430h43zM306 874l138 -89l-18 -25l-146 74z" />
    <glyph glyph-name="Eng" unicode="&#x14a;" horiz-adv-x="549" 
d="M419 0h1l-13 -87q-8 -56 -39.5 -85.5t-75.5 -29.5q-45 0 -80 33l23 29q14 -12 26 -17.5t30 -5.5q26 0 45 19.5t25 59.5l12 84h-13l-180 640q-4 -79 -26 -234l-56 -406h-44l97 684h60l180 -638q7 98 23 208l59 430h43z" />
    <glyph glyph-name="uni019D" unicode="&#x19d;" horiz-adv-x="549" 
d="M516 684l-97 -684h-59l-180 640q-4 -79 -26 -234l-56 -406l-12 -89q-8 -55 -39 -84t-74 -29q-44 0 -79 33l22 28q15 -11 27 -16.5t30 -5.5q26 0 45 19.5t25 59.5l11 84l97 684h60l180 -638q7 98 23 208l59 430h43z" />
    <glyph glyph-name="uni01CB" unicode="&#x1cb;" horiz-adv-x="770" 
d="M419 0h-59l-180 640q-4 -79 -26 -234l-56 -406h-44l97 684h60l180 -638q7 98 23 208l59 430h43zM493 -167q34 19 54 37.5t33 50t21 86.5l73 515h45l-73 -517q-9 -63 -26 -100t-43 -59t-72 -46zM696.5 683.5q-8.5 8.5 -8.5 21.5q0 16 10.5 26.5t26.5 10.5q13 0 21.5 -8
t8.5 -21q0 -16 -10.5 -27t-26.5 -11q-13 0 -21.5 8.5z" />
    <glyph glyph-name="uni0220" unicode="&#x220;" horiz-adv-x="540" 
d="M458.5 656q33.5 -38 33.5 -104q0 -18 -3 -39l-100 -708h-46l99 707q3 21 3 39q0 50 -23 76t-66 26q-50 0 -93 -30t-85 -81l-77 -542h-47l97 684h40l-8 -88q85 98 179 98q63 0 96.5 -38z" />
    <glyph glyph-name="Ntilde" unicode="&#xd1;" horiz-adv-x="549" 
d="M419 0h-59l-180 640q-4 -79 -26 -234l-56 -406h-44l97 684h60l180 -638q7 98 23 208l59 430h43zM381 802.5q-12 6.5 -29 18.5q-12 10 -20.5 15t-18.5 5q-15 0 -25.5 -9t-26.5 -30l-24 17q38 59 76 59q13 0 23.5 -5t19 -11t11.5 -8q13 -10 22 -15t18 -5q13 0 25.5 10
t26.5 32l25 -15q-35 -65 -76 -65q-15 0 -27 6.5z" />
    <glyph glyph-name="O" unicode="O" horiz-adv-x="572" 
d="M487.5 632q47.5 -62 47.5 -179q0 -106 -30.5 -213t-96.5 -179t-167 -72q-85 0 -133.5 63.5t-48.5 179.5q0 104 31 210.5t97.5 179t166.5 72.5q86 0 133.5 -62zM212 585.5q-55 -68.5 -80 -166t-25 -188.5q0 -99 35.5 -149.5t99.5 -50.5q88 0 143 69t78.5 167t23.5 189
q0 99 -34.5 148.5t-100.5 49.5q-85 0 -140 -68.5z" />
    <glyph glyph-name="uni0222" unicode="&#x222;" horiz-adv-x="524" 
d="M358 380q50 -17 76 -56.5t26 -96.5q0 -70 -29.5 -124t-82.5 -84t-123 -30q-88 0 -134 47.5t-46 125.5q0 82 41.5 139.5t112.5 79.5q-69 26 -69 111q0 19 3 41l21 151h46l-22 -152q-3 -21 -3 -37q0 -51 25.5 -74t79.5 -23q68 0 101 36t42 101l21 149h47l-22 -153
q-15 -119 -111 -151zM378 324q-33 34 -101 34q-84 0 -134 -53.5t-50 -142.5q0 -63 33 -97t102 -34q85 0 134 52t49 144q0 63 -33 97z" />
    <glyph glyph-name="Oacute" unicode="&#xd3;" horiz-adv-x="572" 
d="M487.5 632q47.5 -62 47.5 -179q0 -106 -30.5 -213t-96.5 -179t-167 -72q-85 0 -133.5 63.5t-48.5 179.5q0 104 31 210.5t97.5 179t166.5 72.5q86 0 133.5 -62zM212 585.5q-55 -68.5 -80 -166t-25 -188.5q0 -99 35.5 -149.5t99.5 -50.5q88 0 143 69t78.5 167t23.5 189
q0 99 -34.5 148.5t-100.5 49.5q-85 0 -140 -68.5zM443 875l20 -41l-170 -75l-14 27z" />
    <glyph glyph-name="Obreve" unicode="&#x14e;" horiz-adv-x="572" 
d="M487.5 632q47.5 -62 47.5 -179q0 -106 -30.5 -213t-96.5 -179t-167 -72q-85 0 -133.5 63.5t-48.5 179.5q0 104 31 210.5t97.5 179t166.5 72.5q86 0 133.5 -62zM212 585.5q-55 -68.5 -80 -166t-25 -188.5q0 -99 35.5 -149.5t99.5 -50.5q88 0 143 69t78.5 167t23.5 189
q0 99 -34.5 148.5t-100.5 49.5q-85 0 -140 -68.5zM295.5 793.5q-24.5 26.5 -24.5 67.5l29 4q8 -59 65 -59t83 61l30 -9q-11 -40 -42 -65.5t-73 -25.5q-43 0 -67.5 26.5z" />
    <glyph glyph-name="uni01D1" unicode="&#x1d1;" horiz-adv-x="572" 
d="M487.5 632q47.5 -62 47.5 -179q0 -106 -30.5 -213t-96.5 -179t-167 -72q-85 0 -133.5 63.5t-48.5 179.5q0 104 31 210.5t97.5 179t166.5 72.5q86 0 133.5 -62zM212 585.5q-55 -68.5 -80 -166t-25 -188.5q0 -99 35.5 -149.5t99.5 -50.5q88 0 143 69t78.5 167t23.5 189
q0 99 -34.5 148.5t-100.5 49.5q-85 0 -140 -68.5zM478 879l20 -23l-121 -99h-27l-90 100l21 22l86 -79z" />
    <glyph glyph-name="uni019F" unicode="&#x19f;" horiz-adv-x="572" 
d="M487.5 632q47.5 -62 47.5 -179q0 -106 -30.5 -213t-96.5 -179t-167 -72q-85 0 -133.5 63.5t-48.5 179.5q0 104 31 210.5t97.5 179t166.5 72.5q86 0 133.5 -62zM200 572q-58 -82 -81 -203h364q5 52 5 87q0 99 -35 148.5t-101 49.5q-94 0 -152 -82zM399.5 118
q57.5 87 77.5 212h-364q-7 -49 -7 -99q0 -99 36 -149.5t100 -50.5q100 0 157.5 87z" />
    <glyph glyph-name="Ocircumflex" unicode="&#xd4;" horiz-adv-x="572" 
d="M487.5 632q47.5 -62 47.5 -179q0 -106 -30.5 -213t-96.5 -179t-167 -72q-85 0 -133.5 63.5t-48.5 179.5q0 104 31 210.5t97.5 179t166.5 72.5q86 0 133.5 -62zM212 585.5q-55 -68.5 -80 -166t-25 -188.5q0 -99 35.5 -149.5t99.5 -50.5q88 0 143 69t78.5 167t23.5 189
q0 99 -34.5 148.5t-100.5 49.5q-85 0 -140 -68.5zM263 763l-19 23l120 100h27l91 -101l-22 -22l-86 80z" />
    <glyph glyph-name="uni1ED0" unicode="&#x1ed0;" horiz-adv-x="572" 
d="M537 978l30 -28l-117 -120l-19 18zM258 731l-19 23l120 100h27l91 -101l-22 -22l-86 80zM487.5 632q47.5 -62 47.5 -179q0 -106 -30.5 -213t-96.5 -179t-167 -72q-85 0 -133.5 63.5t-48.5 179.5q0 104 31 210.5t97.5 179t166.5 72.5q86 0 133.5 -62zM212 585.5
q-55 -68.5 -80 -166t-25 -188.5q0 -99 35.5 -149.5t99.5 -50.5q88 0 143 69t78.5 167t23.5 189q0 99 -34.5 148.5t-100.5 49.5q-85 0 -140 -68.5z" />
    <glyph glyph-name="uni1ED8" unicode="&#x1ed8;" horiz-adv-x="572" 
d="M487.5 632q47.5 -62 47.5 -179q0 -106 -30.5 -213t-96.5 -179t-167 -72q-85 0 -133.5 63.5t-48.5 179.5q0 104 31 210.5t97.5 179t166.5 72.5q86 0 133.5 -62zM212 585.5q-55 -68.5 -80 -166t-25 -188.5q0 -99 35.5 -149.5t99.5 -50.5q88 0 143 69t78.5 167t23.5 189
q0 99 -34.5 148.5t-100.5 49.5q-85 0 -140 -68.5zM263 763l-19 23l120 100h27l91 -101l-22 -22l-86 80zM250.5 -99.5q8.5 -8.5 8.5 -21.5q0 -16 -10.5 -26.5t-26.5 -10.5q-13 0 -21.5 8t-8.5 21q0 16 10.5 27t26.5 11q13 0 21.5 -8.5z" />
    <glyph glyph-name="uni1ED2" unicode="&#x1ed2;" horiz-adv-x="572" 
d="M235 977l70 -132l-24 -15l-83 124zM258 731l-19 23l120 100h27l91 -101l-22 -22l-86 80zM487.5 632q47.5 -62 47.5 -179q0 -106 -30.5 -213t-96.5 -179t-167 -72q-85 0 -133.5 63.5t-48.5 179.5q0 104 31 210.5t97.5 179t166.5 72.5q86 0 133.5 -62zM212 585.5
q-55 -68.5 -80 -166t-25 -188.5q0 -99 35.5 -149.5t99.5 -50.5q88 0 143 69t78.5 167t23.5 189q0 99 -34.5 148.5t-100.5 49.5q-85 0 -140 -68.5z" />
    <glyph glyph-name="uni1ED4" unicode="&#x1ed4;" horiz-adv-x="572" 
d="M487.5 632q47.5 -62 47.5 -179q0 -106 -30.5 -213t-96.5 -179t-167 -72q-85 0 -133.5 63.5t-48.5 179.5q0 104 31 210.5t97.5 179t166.5 72.5q86 0 133.5 -62zM212 585.5q-55 -68.5 -80 -166t-25 -188.5q0 -99 35.5 -149.5t99.5 -50.5q88 0 143 69t78.5 167t23.5 189
q0 99 -34.5 148.5t-100.5 49.5q-85 0 -140 -68.5zM257 731l-19 23l120 100h27l91 -101l-22 -22l-86 80zM453 880q30 2 47.5 14t17.5 41q0 17 -8.5 26.5t-24.5 9.5q-21 0 -47 -13l-11 30q31 18 62 18q33 0 52 -19t19 -51q0 -34 -19.5 -54.5t-53.5 -25.5l-5 -45h-37z" />
    <glyph glyph-name="uni1ED6" unicode="&#x1ed6;" horiz-adv-x="572" 
d="M400 894.5q-12 6.5 -29 18.5q-12 10 -20.5 15t-18.5 5q-15 0 -25.5 -8.5t-26.5 -30.5l-24 17q38 59 76 59q13 0 23.5 -5t19 -11t11.5 -8q13 -10 22 -15t18 -5q13 0 25.5 10t26.5 32l25 -15q-35 -65 -76 -65q-15 0 -27 6.5zM257 731l-19 23l120 100h27l91 -101l-22 -22
l-86 80zM487.5 632q47.5 -62 47.5 -179q0 -106 -30.5 -213t-96.5 -179t-167 -72q-85 0 -133.5 63.5t-48.5 179.5q0 104 31 210.5t97.5 179t166.5 72.5q86 0 133.5 -62zM212 585.5q-55 -68.5 -80 -166t-25 -188.5q0 -99 35.5 -149.5t99.5 -50.5q88 0 143 69t78.5 167
t23.5 189q0 99 -34.5 148.5t-100.5 49.5q-85 0 -140 -68.5z" />
    <glyph glyph-name="uni020C" unicode="&#x20c;" horiz-adv-x="572" 
d="M487.5 632q47.5 -62 47.5 -179q0 -106 -30.5 -213t-96.5 -179t-167 -72q-85 0 -133.5 63.5t-48.5 179.5q0 104 31 210.5t97.5 179t166.5 72.5q86 0 133.5 -62zM212 585.5q-55 -68.5 -80 -166t-25 -188.5q0 -99 35.5 -149.5t99.5 -50.5q88 0 143 69t78.5 167t23.5 189
q0 99 -34.5 148.5t-100.5 49.5q-85 0 -140 -68.5zM285 929l44 -146l-32 -12l-57 139zM388 928l39 -141l-33 -11l-52 134z" />
    <glyph glyph-name="Odieresis" unicode="&#xd6;" horiz-adv-x="572" 
d="M487.5 632q47.5 -62 47.5 -179q0 -106 -30.5 -213t-96.5 -179t-167 -72q-85 0 -133.5 63.5t-48.5 179.5q0 104 31 210.5t97.5 179t166.5 72.5q86 0 133.5 -62zM212 585.5q-55 -68.5 -80 -166t-25 -188.5q0 -99 35.5 -149.5t99.5 -50.5q88 0 143 69t78.5 167t23.5 189
q0 99 -34.5 148.5t-100.5 49.5q-85 0 -140 -68.5zM273.5 801q-7.5 8 -7.5 20q0 15 10 25.5t25 10.5q13 0 20.5 -8t7.5 -20q0 -16 -10 -26t-25 -10q-13 0 -20.5 8zM426.5 801q-7.5 8 -7.5 20q0 15 10 25.5t24 10.5q13 0 20.5 -8t7.5 -20q0 -16 -9.5 -26t-24.5 -10
q-13 0 -20.5 8z" />
    <glyph glyph-name="uni022A" unicode="&#x22a;" horiz-adv-x="572" 
d="M487.5 632q47.5 -62 47.5 -179q0 -106 -30.5 -213t-96.5 -179t-167 -72q-85 0 -133.5 63.5t-48.5 179.5q0 104 31 210.5t97.5 179t166.5 72.5q86 0 133.5 -62zM212 585.5q-55 -68.5 -80 -166t-25 -188.5q0 -99 35.5 -149.5t99.5 -50.5q88 0 143 69t78.5 167t23.5 189
q0 99 -34.5 148.5t-100.5 49.5q-85 0 -140 -68.5zM263.5 752q-7.5 8 -7.5 20q0 15 10 25.5t25 10.5q13 0 20.5 -8t7.5 -20q0 -16 -10 -26t-25 -10q-13 0 -20.5 8zM416.5 752q-7.5 8 -7.5 20q0 15 10 25.5t24 10.5q13 0 20.5 -8t7.5 -20q0 -16 -9.5 -26t-24.5 -10
q-13 0 -20.5 8zM469 869h-192l6 39h192z" />
    <glyph glyph-name="uni022E" unicode="&#x22e;" horiz-adv-x="572" 
d="M487.5 632q47.5 -62 47.5 -179q0 -106 -30.5 -213t-96.5 -179t-167 -72q-85 0 -133.5 63.5t-48.5 179.5q0 104 31 210.5t97.5 179t166.5 72.5q86 0 133.5 -62zM212 585.5q-55 -68.5 -80 -166t-25 -188.5q0 -99 35.5 -149.5t99.5 -50.5q88 0 143 69t78.5 167t23.5 189
q0 99 -34.5 148.5t-100.5 49.5q-85 0 -140 -68.5zM347.5 809.5q-8.5 8.5 -8.5 21.5q0 16 10.5 26.5t26.5 10.5q13 0 21.5 -8t8.5 -21q0 -16 -10.5 -27t-26.5 -11q-13 0 -21.5 8.5z" />
    <glyph glyph-name="uni0230" unicode="&#x230;" horiz-adv-x="572" 
d="M487.5 632q47.5 -62 47.5 -179q0 -106 -30.5 -213t-96.5 -179t-167 -72q-85 0 -133.5 63.5t-48.5 179.5q0 104 31 210.5t97.5 179t166.5 72.5q86 0 133.5 -62zM212 585.5q-55 -68.5 -80 -166t-25 -188.5q0 -99 35.5 -149.5t99.5 -50.5q88 0 143 69t78.5 167t23.5 189
q0 99 -34.5 148.5t-100.5 49.5q-85 0 -140 -68.5zM339.5 752.5q-8.5 8.5 -8.5 21.5q0 16 10.5 26.5t26.5 10.5q13 0 21.5 -8t8.5 -21q0 -16 -10.5 -27t-26.5 -11q-13 0 -21.5 8.5zM469 869h-192l6 39h192z" />
    <glyph glyph-name="uni1ECC" unicode="&#x1ecc;" horiz-adv-x="572" 
d="M487.5 632q47.5 -62 47.5 -179q0 -106 -30.5 -213t-96.5 -179t-167 -72q-85 0 -133.5 63.5t-48.5 179.5q0 104 31 210.5t97.5 179t166.5 72.5q86 0 133.5 -62zM212 585.5q-55 -68.5 -80 -166t-25 -188.5q0 -99 35.5 -149.5t99.5 -50.5q88 0 143 69t78.5 167t23.5 189
q0 99 -34.5 148.5t-100.5 49.5q-85 0 -140 -68.5zM250.5 -99.5q8.5 -8.5 8.5 -21.5q0 -16 -10.5 -26.5t-26.5 -10.5q-13 0 -21.5 8t-8.5 21q0 16 10.5 27t26.5 11q13 0 21.5 -8.5z" />
    <glyph glyph-name="Ograve" unicode="&#xd2;" horiz-adv-x="572" 
d="M487.5 632q47.5 -62 47.5 -179q0 -106 -30.5 -213t-96.5 -179t-167 -72q-85 0 -133.5 63.5t-48.5 179.5q0 104 31 210.5t97.5 179t166.5 72.5q86 0 133.5 -62zM212 585.5q-55 -68.5 -80 -166t-25 -188.5q0 -99 35.5 -149.5t99.5 -50.5q88 0 143 69t78.5 167t23.5 189
q0 99 -34.5 148.5t-100.5 49.5q-85 0 -140 -68.5zM320 874l138 -89l-18 -25l-146 74z" />
    <glyph glyph-name="uni1ECE" unicode="&#x1ece;" horiz-adv-x="572" 
d="M487.5 632q47.5 -62 47.5 -179q0 -106 -30.5 -213t-96.5 -179t-167 -72q-85 0 -133.5 63.5t-48.5 179.5q0 104 31 210.5t97.5 179t166.5 72.5q86 0 133.5 -62zM212 585.5q-55 -68.5 -80 -166t-25 -188.5q0 -99 35.5 -149.5t99.5 -50.5q88 0 143 69t78.5 167t23.5 189
q0 99 -34.5 148.5t-100.5 49.5q-85 0 -140 -68.5zM357 847q30 2 47.5 14t17.5 41q0 17 -8.5 26.5t-24.5 9.5q-21 0 -47 -13l-11 30q31 18 62 18q33 0 52 -19t19 -51q0 -34 -19.5 -54.5t-53.5 -25.5l-5 -45h-37z" />
    <glyph glyph-name="Ohorn" unicode="&#x1a0;" horiz-adv-x="572" 
d="M570 636.5q-20 -26.5 -63 -37.5q28 -59 28 -146q0 -106 -30.5 -213t-96.5 -179t-167 -72q-85 0 -133.5 63.5t-48.5 179.5q0 104 31 210.5t97.5 179t166.5 72.5q43 0 78 -17t58 -49q35 6 49 25t14 58q0 24 -6 48l34 8q9 -27 9 -57q0 -47 -20 -73.5zM385 100
q55 69 78.5 167t23.5 189q0 99 -34.5 148.5t-100.5 49.5q-85 0 -140 -68.5t-80 -166t-25 -188.5q0 -99 35.5 -149.5t99.5 -50.5q88 0 143 69z" />
    <glyph glyph-name="uni1EDA" unicode="&#x1eda;" horiz-adv-x="572" 
d="M463 834l-170 -75l-14 27l164 89zM570 636.5q-20 -26.5 -63 -37.5q28 -59 28 -146q0 -106 -30.5 -213t-96.5 -179t-167 -72q-85 0 -133.5 63.5t-48.5 179.5q0 104 31 210.5t97.5 179t166.5 72.5q43 0 78 -17t58 -49q35 6 49 25t14 58q0 24 -6 48l34 8q9 -27 9 -57
q0 -47 -20 -73.5zM385 100q55 69 78.5 167t23.5 189q0 99 -34.5 148.5t-100.5 49.5q-85 0 -140 -68.5t-80 -166t-25 -188.5q0 -99 35.5 -149.5t99.5 -50.5q88 0 143 69z" />
    <glyph glyph-name="uni1EE2" unicode="&#x1ee2;" horiz-adv-x="572" 
d="M570 636.5q-20 -26.5 -63 -37.5q28 -59 28 -146q0 -106 -30.5 -213t-96.5 -179t-167 -72q-85 0 -133.5 63.5t-48.5 179.5q0 104 31 210.5t97.5 179t166.5 72.5q43 0 78 -17t58 -49q35 6 49 25t14 58q0 24 -6 48l34 8q9 -27 9 -57q0 -47 -20 -73.5zM385 100
q55 69 78.5 167t23.5 189q0 99 -34.5 148.5t-100.5 49.5q-85 0 -140 -68.5t-80 -166t-25 -188.5q0 -99 35.5 -149.5t99.5 -50.5q88 0 143 69zM250.5 -99.5q8.5 -8.5 8.5 -21.5q0 -16 -10.5 -26.5t-26.5 -10.5q-13 0 -21.5 8t-8.5 21q0 16 10.5 27t26.5 11q13 0 21.5 -8.5z
" />
    <glyph glyph-name="uni1EDC" unicode="&#x1edc;" horiz-adv-x="572" 
d="M458 785l-18 -25l-146 74l26 40zM570 636.5q-20 -26.5 -63 -37.5q28 -59 28 -146q0 -106 -30.5 -213t-96.5 -179t-167 -72q-85 0 -133.5 63.5t-48.5 179.5q0 104 31 210.5t97.5 179t166.5 72.5q43 0 78 -17t58 -49q35 6 49 25t14 58q0 24 -6 48l34 8q9 -27 9 -57
q0 -47 -20 -73.5zM385 100q55 69 78.5 167t23.5 189q0 99 -34.5 148.5t-100.5 49.5q-85 0 -140 -68.5t-80 -166t-25 -188.5q0 -99 35.5 -149.5t99.5 -50.5q88 0 143 69z" />
    <glyph glyph-name="uni1EDE" unicode="&#x1ede;" horiz-adv-x="572" 
d="M342 925l-11 30q31 18 62 18q33 0 52 -19t19 -51q0 -34 -19.5 -54.5t-53.5 -25.5l-5 -45h-37l8 69q30 2 47.5 14t17.5 41q0 17 -8.5 26.5t-24.5 9.5q-21 0 -47 -13zM570 636.5q-20 -26.5 -63 -37.5q28 -59 28 -146q0 -106 -30.5 -213t-96.5 -179t-167 -72
q-85 0 -133.5 63.5t-48.5 179.5q0 104 31 210.5t97.5 179t166.5 72.5q43 0 78 -17t58 -49q35 6 49 25t14 58q0 24 -6 48l34 8q9 -27 9 -57q0 -47 -20 -73.5zM385 100q55 69 78.5 167t23.5 189q0 99 -34.5 148.5t-100.5 49.5q-85 0 -140 -68.5t-80 -166t-25 -188.5
q0 -99 35.5 -149.5t99.5 -50.5q88 0 143 69z" />
    <glyph glyph-name="uni1EE0" unicode="&#x1ee0;" horiz-adv-x="572" 
d="M301.5 832.5q-10.5 -8.5 -26.5 -30.5l-24 17q38 59 76 59q13 0 23.5 -5t19 -11t11.5 -8q13 -10 22 -15t18 -5q13 0 25.5 10t26.5 32l25 -15q-35 -65 -76 -65q-15 0 -27 6.5t-29 18.5q-12 10 -20.5 15t-18.5 5q-15 0 -25.5 -8.5zM570 636.5q-20 -26.5 -63 -37.5
q28 -59 28 -146q0 -106 -30.5 -213t-96.5 -179t-167 -72q-85 0 -133.5 63.5t-48.5 179.5q0 104 31 210.5t97.5 179t166.5 72.5q43 0 78 -17t58 -49q35 6 49 25t14 58q0 24 -6 48l34 8q9 -27 9 -57q0 -47 -20 -73.5zM385 100q55 69 78.5 167t23.5 189q0 99 -34.5 148.5
t-100.5 49.5q-85 0 -140 -68.5t-80 -166t-25 -188.5q0 -99 35.5 -149.5t99.5 -50.5q88 0 143 69z" />
    <glyph glyph-name="Ohungarumlaut" unicode="&#x150;" horiz-adv-x="572" 
d="M487.5 632q47.5 -62 47.5 -179q0 -106 -30.5 -213t-96.5 -179t-167 -72q-85 0 -133.5 63.5t-48.5 179.5q0 104 31 210.5t97.5 179t166.5 72.5q86 0 133.5 -62zM212 585.5q-55 -68.5 -80 -166t-25 -188.5q0 -99 35.5 -149.5t99.5 -50.5q88 0 143 69t78.5 167t23.5 189
q0 99 -34.5 148.5t-100.5 49.5q-85 0 -140 -68.5zM478 929l36 -22l-93 -136l-27 15zM375 928l37 -22l-88 -130l-26 14z" />
    <glyph glyph-name="uni01A2" unicode="&#x1a2;" horiz-adv-x="740" 
d="M669.5 667.5q25.5 -27.5 25.5 -72.5q0 -6 -2 -22l-109 -768h-45l107 768q2 16 2 23q0 60 -60 60q-45 0 -95 -33q42 -62 42 -170q0 -106 -30.5 -213t-96.5 -179t-167 -72q-85 0 -133.5 63.5t-48.5 179.5q0 104 31 210.5t97.5 179t166.5 72.5q70 0 116 -44q32 21 62 33
t62 12q50 0 75.5 -27.5zM385 100q55 69 78.5 167t23.5 189q0 99 -34.5 148.5t-100.5 49.5q-85 0 -140 -68.5t-80 -166t-25 -188.5q0 -99 35.5 -149.5t99.5 -50.5q88 0 143 69z" />
    <glyph glyph-name="uni020E" unicode="&#x20e;" horiz-adv-x="572" 
d="M487.5 632q47.5 -62 47.5 -179q0 -106 -30.5 -213t-96.5 -179t-167 -72q-85 0 -133.5 63.5t-48.5 179.5q0 104 31 210.5t97.5 179t166.5 72.5q86 0 133.5 -62zM212 585.5q-55 -68.5 -80 -166t-25 -188.5q0 -99 35.5 -149.5t99.5 -50.5q88 0 143 69t78.5 167t23.5 189
q0 99 -34.5 148.5t-100.5 49.5q-85 0 -140 -68.5zM263 797q13 47 43.5 74t71.5 27q43 0 68.5 -28.5t24.5 -75.5l-31 -4q-6 69 -64 69t-85 -71z" />
    <glyph glyph-name="Omacron" unicode="&#x14c;" horiz-adv-x="572" 
d="M487.5 632q47.5 -62 47.5 -179q0 -106 -30.5 -213t-96.5 -179t-167 -72q-85 0 -133.5 63.5t-48.5 179.5q0 104 31 210.5t97.5 179t166.5 72.5q86 0 133.5 -62zM212 585.5q-55 -68.5 -80 -166t-25 -188.5q0 -99 35.5 -149.5t99.5 -50.5q88 0 143 69t78.5 167t23.5 189
q0 99 -34.5 148.5t-100.5 49.5q-85 0 -140 -68.5zM466 805h-192l6 39h192z" />
    <glyph glyph-name="uni1E52" unicode="&#x1e52;" horiz-adv-x="572" 
d="M487.5 632q47.5 -62 47.5 -179q0 -106 -30.5 -213t-96.5 -179t-167 -72q-85 0 -133.5 63.5t-48.5 179.5q0 104 31 210.5t97.5 179t166.5 72.5q86 0 133.5 -62zM212 585.5q-55 -68.5 -80 -166t-25 -188.5q0 -99 35.5 -149.5t99.5 -50.5q88 0 143 69t78.5 167t23.5 189
q0 99 -34.5 148.5t-100.5 49.5q-85 0 -140 -68.5zM461 763h-192l6 39h192zM451 967l20 -41l-170 -75l-14 27z" />
    <glyph glyph-name="uni1E50" unicode="&#x1e50;" horiz-adv-x="572" 
d="M487.5 632q47.5 -62 47.5 -179q0 -106 -30.5 -213t-96.5 -179t-167 -72q-85 0 -133.5 63.5t-48.5 179.5q0 104 31 210.5t97.5 179t166.5 72.5q86 0 133.5 -62zM212 585.5q-55 -68.5 -80 -166t-25 -188.5q0 -99 35.5 -149.5t99.5 -50.5q88 0 143 69t78.5 167t23.5 189
q0 99 -34.5 148.5t-100.5 49.5q-85 0 -140 -68.5zM461 763h-192l6 39h192zM327 966l138 -89l-18 -25l-146 74z" />
    <glyph glyph-name="uniA7B6" unicode="&#xa7b6;" horiz-adv-x="703" 
d="M95 35.5q-34 46.5 -34 142.5q0 124 33 245.5t94 260.5h46q-61 -137 -94 -262.5t-33 -244.5q0 -78 22.5 -112t65.5 -34q100 0 121 151l29 215h47l-31 -219q-4 -32 -4 -46q0 -102 80 -102q95 0 133 130.5t38 308.5q0 92 -19 215h45q20 -129 20 -215q0 -204 -49 -342
t-167 -138q-52 0 -80 29.5t-30 85.5q-39 -115 -136 -115q-63 0 -97 46.5z" />
    <glyph glyph-name="uni01EA" unicode="&#x1ea;" horiz-adv-x="572" 
d="M220 -61.5q-26 -28.5 -26 -67.5q0 -44 45 -44q16 0 48 5l-9 -38q-24 -6 -45 -6q-37 0 -59 21.5t-22 58.5t19.5 66.5t62.5 54.5q-83 3 -129 66t-46 177q0 104 31 210.5t97.5 179t166.5 72.5q86 0 133.5 -62t47.5 -179q0 -93 -23.5 -188.5t-74.5 -169t-128 -96.5
q-63 -32 -89 -60.5zM142.5 81.5q35.5 -50.5 99.5 -50.5q88 0 143 69t78.5 167t23.5 189q0 99 -34.5 148.5t-100.5 49.5q-85 0 -140 -68.5t-80 -166t-25 -188.5q0 -99 35.5 -149.5z" />
    <glyph glyph-name="uni01EC" unicode="&#x1ec;" horiz-adv-x="572" 
d="M472 844l-6 -39h-192l6 39h192zM220 -61.5q-26 -28.5 -26 -67.5q0 -44 45 -44q16 0 48 5l-9 -38q-24 -6 -45 -6q-37 0 -59 21.5t-22 58.5t19.5 66.5t62.5 54.5q-83 3 -129 66t-46 177q0 104 31 210.5t97.5 179t166.5 72.5q86 0 133.5 -62t47.5 -179q0 -93 -23.5 -188.5
t-74.5 -169t-128 -96.5q-63 -32 -89 -60.5zM142.5 81.5q35.5 -50.5 99.5 -50.5q88 0 143 69t78.5 167t23.5 189q0 99 -34.5 148.5t-100.5 49.5q-85 0 -140 -68.5t-80 -166t-25 -188.5q0 -99 35.5 -149.5z" />
    <glyph glyph-name="uni0186" unicode="&#x186;" horiz-adv-x="462" 
d="M380.5 633q45.5 -61 45.5 -177q0 -123 -35.5 -230t-101.5 -172t-154 -65q-49 0 -83 18.5t-62 51.5l29 28q29 -28 53.5 -41.5t62.5 -13.5q75 0 130 60.5t84 158t29 206.5q0 99 -33 147.5t-91 48.5q-39 0 -70 -12t-66 -38l-22 31q37 30 75.5 45t85.5 15q78 0 123.5 -61z
" />
    <glyph glyph-name="Oslash" unicode="&#xd8;" horiz-adv-x="572" 
d="M512 587q23 -55 23 -134q0 -106 -30.5 -213t-96.5 -179t-167 -72q-28 0 -55 8l-43 -114l-37 12l46 118q-45 27 -69 83t-24 136q0 104 31 210.5t97.5 179t166.5 72.5q28 0 57 -8l45 121l39 -12l-49 -126q43 -27 66 -82zM173 49l226 598q-20 7 -47 7q-85 0 -140 -68.5
t-80 -166t-25 -188.5q0 -139 66 -182zM385 100q55 69 78.5 167t23.5 189q0 136 -63 178l-223 -597q18 -6 41 -6q88 0 143 69z" />
    <glyph glyph-name="Oslashacute" unicode="&#x1fe;" horiz-adv-x="572" 
d="M512 587q23 -55 23 -134q0 -106 -30.5 -213t-96.5 -179t-167 -72q-28 0 -55 8l-43 -114l-37 12l46 118q-45 27 -69 83t-24 136q0 104 31 210.5t97.5 179t166.5 72.5q28 0 57 -8l45 121l39 -12l-49 -126q43 -27 66 -82zM173 49l226 598q-20 7 -47 7q-85 0 -140 -68.5
t-80 -166t-25 -188.5q0 -139 66 -182zM385 100q55 69 78.5 167t23.5 189q0 136 -63 178l-223 -597q18 -6 41 -6q88 0 143 69zM441 879l20 -41l-170 -75l-14 27z" />
    <glyph glyph-name="Otilde" unicode="&#xd5;" horiz-adv-x="572" 
d="M487.5 632q47.5 -62 47.5 -179q0 -106 -30.5 -213t-96.5 -179t-167 -72q-85 0 -133.5 63.5t-48.5 179.5q0 104 31 210.5t97.5 179t166.5 72.5q86 0 133.5 -62zM212 585.5q-55 -68.5 -80 -166t-25 -188.5q0 -99 35.5 -149.5t99.5 -50.5q88 0 143 69t78.5 167t23.5 189
q0 99 -34.5 148.5t-100.5 49.5q-85 0 -140 -68.5zM395 802.5q-12 6.5 -29 18.5q-12 10 -20.5 15t-18.5 5q-15 0 -25.5 -9t-26.5 -30l-24 17q38 59 76 59q13 0 23.5 -5t19 -11t11.5 -8q13 -10 22 -15t18 -5q13 0 25.5 10t26.5 32l25 -15q-35 -65 -76 -65q-15 0 -27 6.5z" />
    <glyph glyph-name="uni1E4C" unicode="&#x1e4c;" horiz-adv-x="572" 
d="M487.5 632q47.5 -62 47.5 -179q0 -106 -30.5 -213t-96.5 -179t-167 -72q-85 0 -133.5 63.5t-48.5 179.5q0 104 31 210.5t97.5 179t166.5 72.5q86 0 133.5 -62zM212 585.5q-55 -68.5 -80 -166t-25 -188.5q0 -99 35.5 -149.5t99.5 -50.5q88 0 143 69t78.5 167t23.5 189
q0 99 -34.5 148.5t-100.5 49.5q-85 0 -140 -68.5zM391 763.5q-12 6.5 -29 18.5q-12 10 -20.5 15t-18.5 5q-15 0 -25.5 -8.5t-26.5 -30.5l-24 17q38 59 76 59q13 0 23.5 -5t19 -11t11.5 -8q13 -10 22 -15t18 -5q13 0 25.5 10t26.5 32l25 -15q-35 -65 -76 -65q-15 0 -27 6.5z
M454 984l20 -41l-170 -75l-14 27z" />
    <glyph glyph-name="uni022C" unicode="&#x22c;" horiz-adv-x="572" 
d="M475 888h-192l6 39h192zM390 763.5q-12 6.5 -29 18.5q-12 10 -20.5 15t-18.5 5q-15 0 -25.5 -9t-26.5 -30l-24 17q38 59 76 59q13 0 23.5 -5t19 -11t11.5 -8q13 -10 22 -15t18 -5q13 0 25.5 10t26.5 32l25 -15q-35 -65 -76 -65q-15 0 -27 6.5zM487.5 632
q47.5 -62 47.5 -179q0 -106 -30.5 -213t-96.5 -179t-167 -72q-85 0 -133.5 63.5t-48.5 179.5q0 104 31 210.5t97.5 179t166.5 72.5q86 0 133.5 -62zM212 585.5q-55 -68.5 -80 -166t-25 -188.5q0 -99 35.5 -149.5t99.5 -50.5q88 0 143 69t78.5 167t23.5 189q0 99 -34.5 148.5
t-100.5 49.5q-85 0 -140 -68.5z" />
    <glyph glyph-name="OE" unicode="&#x152;" horiz-adv-x="706" 
d="M714 643h-257q29 -29 44 -77.5t15 -112.5q0 -41 -4 -76h134l-5 -40h-134q-14 -94 -49.5 -173t-92.5 -123h277l-8 -41h-338q-28 -11 -62 -11q-81 0 -128 64t-47 179q0 103 30.5 210t94 179.5t157.5 72.5q32 0 56 -10h329zM369.5 100q52.5 69 75.5 167.5t23 188.5
q0 98 -33.5 148t-93.5 50q-80 0 -132.5 -68.5t-77 -166.5t-24.5 -188q0 -99 34 -149.5t94 -50.5q82 0 134.5 69z" />
    <glyph glyph-name="P" unicode="P" horiz-adv-x="464" 
d="M419 642.5q47 -41.5 47 -122.5q0 -64 -23.5 -120t-79 -92t-144.5 -36h-80l-38 -272h-47l97 684h132q89 0 136 -41.5zM374.5 372.5q43.5 60.5 43.5 147.5q0 65 -34 94.5t-105 29.5h-87l-47 -332h79q107 0 150.5 60.5z" />
    <glyph glyph-name="uni1E54" unicode="&#x1e54;" horiz-adv-x="464" 
d="M419 642.5q47 -41.5 47 -122.5q0 -64 -23.5 -120t-79 -92t-144.5 -36h-80l-38 -272h-47l97 684h132q89 0 136 -41.5zM374.5 372.5q43.5 60.5 43.5 147.5q0 65 -34 94.5t-105 29.5h-87l-47 -332h79q107 0 150.5 60.5zM393 875l20 -41l-170 -75l-14 27z" />
    <glyph glyph-name="uni1E56" unicode="&#x1e56;" horiz-adv-x="464" 
d="M419 642.5q47 -41.5 47 -122.5q0 -64 -23.5 -120t-79 -92t-144.5 -36h-80l-38 -272h-47l97 684h132q89 0 136 -41.5zM374.5 372.5q43.5 60.5 43.5 147.5q0 65 -34 94.5t-105 29.5h-87l-47 -332h79q107 0 150.5 60.5zM297.5 809.5q-8.5 8.5 -8.5 21.5q0 16 10.5 26.5
t26.5 10.5q13 0 21.5 -8t8.5 -21q0 -16 -10.5 -27t-26.5 -11q-13 0 -21.5 8.5z" />
    <glyph glyph-name="uni01A4" unicode="&#x1a4;" horiz-adv-x="513" 
d="M468 642.5q47 -41.5 47 -122.5q0 -64 -23.5 -120t-79 -92t-144.5 -36h-80l-38 -272h-47l91 644h-21q-37 0 -55 -21.5t-18 -57.5q0 -35 14 -67l-36 -14q-20 36 -20 82q0 52 30.5 85t85.5 33h158q89 0 136 -41.5zM423.5 372.5q43.5 60.5 43.5 147.5q0 65 -34 94.5
t-105 29.5h-87l-47 -332h79q107 0 150.5 60.5z" />
    <glyph glyph-name="Thorn" unicode="&#xde;" 
d="M397 517q47 -42 47 -126q0 -104 -58.5 -177.5t-189.5 -73.5h-75l-20 -140h-47l97 684h46l-18 -125h82q89 0 136 -42zM352.5 240.5q43.5 60.5 43.5 149.5q0 69 -34 99t-105 30h-83l-48 -339h75q108 0 151.5 60.5z" />
    <glyph glyph-name="Q" unicode="Q" horiz-adv-x="574" 
d="M480 -56l-38 -33q-34 46 -79.5 62t-123.5 16q-85 1 -132.5 64.5t-47.5 178.5q0 104 31 210.5t97.5 179t166.5 72.5q86 0 133.5 -62t47.5 -179q0 -88 -21 -177.5t-68 -161t-119 -99.5q101 -7 153 -71zM142.5 81.5q35.5 -50.5 99.5 -50.5q88 0 143 69t78.5 167t23.5 189
q0 99 -34.5 148.5t-100.5 49.5q-85 0 -140 -68.5t-80 -166t-25 -188.5q0 -99 35.5 -149.5z" />
    <glyph glyph-name="uni024A" unicode="&#x24a;" horiz-adv-x="552" 
d="M532 -171q-16 -13 -38 -22t-47 -9q-41 0 -64 24t-23 68q0 6 2 24l12 86l10 70q-62 -81 -148 -81q-80 0 -127.5 66t-47.5 192q0 118 34.5 220.5t97 164.5t143.5 62q42 0 72.5 -21t52.5 -64l15 75h41l-97 -684l-12 -90q-1 -7 -1 -20q0 -53 44 -53q20 0 33 5.5t30 16.5z
M322 56q38 25 71 78l60 425q-23 49 -50 71.5t-67 22.5q-68 0 -120 -58t-79.5 -151.5t-27.5 -197.5q0 -109 35.5 -162t95.5 -53q44 0 82 25z" />
    <glyph glyph-name="R" unicode="R" horiz-adv-x="482" 
d="M425.5 401.5q-38.5 -59.5 -117.5 -80.5l108 -321h-48l-105 313h-118l-44 -313h-47l97 684h136q90 0 133.5 -38.5t43.5 -111.5t-38.5 -132.5zM244 353q92 0 132 53t40 126q0 58 -30 85t-99 27h-95l-41 -291h93z" />
    <glyph glyph-name="Racute" unicode="&#x154;" horiz-adv-x="482" 
d="M425.5 401.5q-38.5 -59.5 -117.5 -80.5l108 -321h-48l-105 313h-118l-44 -313h-47l97 684h136q90 0 133.5 -38.5t43.5 -111.5t-38.5 -132.5zM244 353q92 0 132 53t40 126q0 58 -30 85t-99 27h-95l-41 -291h93zM389 875l20 -41l-170 -75l-14 27z" />
    <glyph glyph-name="Rcaron" unicode="&#x158;" horiz-adv-x="482" 
d="M425.5 401.5q-38.5 -59.5 -117.5 -80.5l108 -321h-48l-105 313h-118l-44 -313h-47l97 684h136q90 0 133.5 -38.5t43.5 -111.5t-38.5 -132.5zM244 353q92 0 132 53t40 126q0 58 -30 85t-99 27h-95l-41 -291h93zM424 879l20 -23l-121 -99h-27l-90 100l21 22l86 -79z" />
    <glyph glyph-name="Rcommaaccent" unicode="&#x156;" horiz-adv-x="482" 
d="M425.5 401.5q-38.5 -59.5 -117.5 -80.5l108 -321h-48l-105 313h-118l-44 -313h-47l97 684h136q90 0 133.5 -38.5t43.5 -111.5t-38.5 -132.5zM244 353q92 0 132 53t40 126q0 58 -30 85t-99 27h-95l-41 -291h93zM247 -97.5q9 -9.5 9 -23.5q0 -12 -4.5 -23t-17.5 -33
l-51 -96h-27l43 115q-16 11 -16 30q0 17 11 28.5t28 11.5q16 0 25 -9.5z" />
    <glyph glyph-name="uni0210" unicode="&#x210;" horiz-adv-x="482" 
d="M425.5 401.5q-38.5 -59.5 -117.5 -80.5l108 -321h-48l-105 313h-118l-44 -313h-47l97 684h136q90 0 133.5 -38.5t43.5 -111.5t-38.5 -132.5zM244 353q92 0 132 53t40 126q0 58 -30 85t-99 27h-95l-41 -291h93zM231 929l44 -146l-32 -12l-57 139zM334 928l39 -141l-33 -11
l-52 134z" />
    <glyph glyph-name="uni1E5A" unicode="&#x1e5a;" horiz-adv-x="482" 
d="M425.5 401.5q-38.5 -59.5 -117.5 -80.5l108 -321h-48l-105 313h-118l-44 -313h-47l97 684h136q90 0 133.5 -38.5t43.5 -111.5t-38.5 -132.5zM244 353q92 0 132 53t40 126q0 58 -30 85t-99 27h-95l-41 -291h93zM242.5 -99.5q8.5 -8.5 8.5 -21.5q0 -16 -10.5 -26.5
t-26.5 -10.5q-13 0 -21.5 8t-8.5 21q0 16 10.5 27t26.5 11q13 0 21.5 -8.5z" />
    <glyph glyph-name="uni0212" unicode="&#x212;" horiz-adv-x="482" 
d="M425.5 401.5q-38.5 -59.5 -117.5 -80.5l108 -321h-48l-105 313h-118l-44 -313h-47l97 684h136q90 0 133.5 -38.5t43.5 -111.5t-38.5 -132.5zM244 353q92 0 132 53t40 126q0 58 -30 85t-99 27h-95l-41 -291h93zM209 797q13 47 43.5 74t71.5 27q43 0 68.5 -28.5t24.5 -75.5
l-31 -4q-6 69 -64 69t-85 -71z" />
    <glyph glyph-name="uni024C" unicode="&#x24c;" horiz-adv-x="487" 
d="M430.5 401.5q-38.5 -59.5 -117.5 -80.5l108 -321h-48l-105 313h-118l-44 -313h-47l44 313h-73l6 40h73l47 331h136q90 0 133.5 -38.5t43.5 -111.5t-38.5 -132.5zM381 406q40 53 40 126q0 58 -30 85t-99 27h-95l-41 -291h93q92 0 132 53z" />
    <glyph glyph-name="uni2C64" unicode="&#x2c64;" horiz-adv-x="482" 
d="M425.5 401.5q-38.5 -59.5 -117.5 -80.5l108 -321h-48l-105 313h-118l-44 -313l-12 -90q-1 -7 -1 -20q0 -53 44 -53q20 0 33 5.5t30 16.5l18 -30q-16 -13 -38 -22t-47 -9q-41 0 -64 24t-23 68q0 6 2 24l12 86h-1l97 684h136q90 0 133.5 -38.5t43.5 -111.5t-38.5 -132.5z
M244 353q92 0 132 53t40 126q0 58 -30 85t-99 27h-95l-41 -291h93z" />
    <glyph glyph-name="S" unicode="S" horiz-adv-x="442" 
d="M371.5 675q36.5 -19 66.5 -56l-30 -26q-28 32 -56.5 46.5t-66.5 14.5q-40 0 -72 -19.5t-50 -53t-18 -73.5q0 -44 22.5 -69.5t83.5 -53.5q70 -31 101 -70t31 -102q0 -57 -25.5 -108.5t-74.5 -83.5t-116 -32q-55 0 -95.5 22.5t-72.5 64.5l31 25q28 -35 59.5 -52.5
t77.5 -17.5q53 0 91.5 25t58 66.5t19.5 88.5q0 50 -24 80t-85 59q-72 34 -100.5 67.5t-28.5 88.5q0 47 23.5 90.5t66.5 70.5t98 27q49 0 85.5 -19z" />
    <glyph glyph-name="Sacute" unicode="&#x15a;" horiz-adv-x="442" 
d="M371.5 675q36.5 -19 66.5 -56l-30 -26q-28 32 -56.5 46.5t-66.5 14.5q-40 0 -72 -19.5t-50 -53t-18 -73.5q0 -44 22.5 -69.5t83.5 -53.5q70 -31 101 -70t31 -102q0 -57 -25.5 -108.5t-74.5 -83.5t-116 -32q-55 0 -95.5 22.5t-72.5 64.5l31 25q28 -35 59.5 -52.5
t77.5 -17.5q53 0 91.5 25t58 66.5t19.5 88.5q0 50 -24 80t-85 59q-72 34 -100.5 67.5t-28.5 88.5q0 47 23.5 90.5t66.5 70.5t98 27q49 0 85.5 -19zM376 875l20 -41l-170 -75l-14 27z" />
    <glyph glyph-name="uniA78B" unicode="&#xa78b;" horiz-adv-x="180" 
d="M86 356l39 328h49l-54 -328h-34z" />
    <glyph glyph-name="Scaron" unicode="&#x160;" horiz-adv-x="442" 
d="M371.5 675q36.5 -19 66.5 -56l-30 -26q-28 32 -56.5 46.5t-66.5 14.5q-40 0 -72 -19.5t-50 -53t-18 -73.5q0 -44 22.5 -69.5t83.5 -53.5q70 -31 101 -70t31 -102q0 -57 -25.5 -108.5t-74.5 -83.5t-116 -32q-55 0 -95.5 22.5t-72.5 64.5l31 25q28 -35 59.5 -52.5
t77.5 -17.5q53 0 91.5 25t58 66.5t19.5 88.5q0 50 -24 80t-85 59q-72 34 -100.5 67.5t-28.5 88.5q0 47 23.5 90.5t66.5 70.5t98 27q49 0 85.5 -19zM411 879l20 -23l-121 -99h-27l-90 100l21 22l86 -79z" />
    <glyph glyph-name="Scedilla" unicode="&#x15e;" horiz-adv-x="442" 
d="M371.5 675q36.5 -19 66.5 -56l-30 -26q-28 32 -56.5 46.5t-66.5 14.5q-40 0 -72 -19.5t-50 -53t-18 -73.5q0 -44 22.5 -69.5t83.5 -53.5q70 -31 101 -70t31 -102q0 -52 -22 -100.5t-64 -81.5t-100 -40l-10 -59q67 -7 67 -68q0 -38 -25.5 -62t-67.5 -24q-40 0 -65 21
l17 28q24 -14 48 -14t38.5 12.5t14.5 36.5q0 23 -14.5 33t-52.5 10l17 84q-54 1 -93 23.5t-72 63.5l31 25q28 -35 59.5 -52.5t77.5 -17.5q53 0 91.5 25t58 66.5t19.5 88.5q0 50 -24 80t-85 59q-72 34 -100.5 67.5t-28.5 88.5q0 47 23.5 90.5t66.5 70.5t98 27q49 0 85.5 -19z
" />
    <glyph glyph-name="Scircumflex" unicode="&#x15c;" horiz-adv-x="442" 
d="M371.5 675q36.5 -19 66.5 -56l-30 -26q-28 32 -56.5 46.5t-66.5 14.5q-40 0 -72 -19.5t-50 -53t-18 -73.5q0 -44 22.5 -69.5t83.5 -53.5q70 -31 101 -70t31 -102q0 -57 -25.5 -108.5t-74.5 -83.5t-116 -32q-55 0 -95.5 22.5t-72.5 64.5l31 25q28 -35 59.5 -52.5
t77.5 -17.5q53 0 91.5 25t58 66.5t19.5 88.5q0 50 -24 80t-85 59q-72 34 -100.5 67.5t-28.5 88.5q0 47 23.5 90.5t66.5 70.5t98 27q49 0 85.5 -19zM196 763l-19 23l120 100h27l91 -101l-22 -22l-86 80z" />
    <glyph glyph-name="Scommaaccent" unicode="&#x218;" horiz-adv-x="442" 
d="M371.5 675q36.5 -19 66.5 -56l-30 -26q-28 32 -56.5 46.5t-66.5 14.5q-40 0 -72 -19.5t-50 -53t-18 -73.5q0 -44 22.5 -69.5t83.5 -53.5q70 -31 101 -70t31 -102q0 -57 -25.5 -108.5t-74.5 -83.5t-116 -32q-55 0 -95.5 22.5t-72.5 64.5l31 25q28 -35 59.5 -52.5
t77.5 -17.5q53 0 91.5 25t58 66.5t19.5 88.5q0 50 -24 80t-85 59q-72 34 -100.5 67.5t-28.5 88.5q0 47 23.5 90.5t66.5 70.5t98 27q49 0 85.5 -19zM197 -97.5q9 -9.5 9 -23.5q0 -12 -4.5 -23t-17.5 -33l-51 -96h-27l43 115q-16 11 -16 30q0 17 11 28.5t28 11.5q16 0 25 -9.5
z" />
    <glyph glyph-name="uni1E60" unicode="&#x1e60;" horiz-adv-x="442" 
d="M371.5 675q36.5 -19 66.5 -56l-30 -26q-28 32 -56.5 46.5t-66.5 14.5q-40 0 -72 -19.5t-50 -53t-18 -73.5q0 -44 22.5 -69.5t83.5 -53.5q70 -31 101 -70t31 -102q0 -57 -25.5 -108.5t-74.5 -83.5t-116 -32q-55 0 -95.5 22.5t-72.5 64.5l31 25q28 -35 59.5 -52.5
t77.5 -17.5q53 0 91.5 25t58 66.5t19.5 88.5q0 50 -24 80t-85 59q-72 34 -100.5 67.5t-28.5 88.5q0 47 23.5 90.5t66.5 70.5t98 27q49 0 85.5 -19zM280.5 809.5q-8.5 8.5 -8.5 21.5q0 16 10.5 26.5t26.5 10.5q13 0 21.5 -8t8.5 -21q0 -16 -10.5 -27t-26.5 -11
q-13 0 -21.5 8.5z" />
    <glyph glyph-name="uni1E62" unicode="&#x1e62;" horiz-adv-x="442" 
d="M371.5 675q36.5 -19 66.5 -56l-30 -26q-28 32 -56.5 46.5t-66.5 14.5q-40 0 -72 -19.5t-50 -53t-18 -73.5q0 -44 22.5 -69.5t83.5 -53.5q70 -31 101 -70t31 -102q0 -57 -25.5 -108.5t-74.5 -83.5t-116 -32q-55 0 -95.5 22.5t-72.5 64.5l31 25q28 -35 59.5 -52.5
t77.5 -17.5q53 0 91.5 25t58 66.5t19.5 88.5q0 50 -24 80t-85 59q-72 34 -100.5 67.5t-28.5 88.5q0 47 23.5 90.5t66.5 70.5t98 27q49 0 85.5 -19zM192.5 -99.5q8.5 -8.5 8.5 -21.5q0 -16 -10.5 -26.5t-26.5 -10.5q-13 0 -21.5 8t-8.5 21q0 16 10.5 27t26.5 11
q13 0 21.5 -8.5z" />
    <glyph glyph-name="uni1E9E" unicode="&#x1e9e;" horiz-adv-x="537" 
d="M506 633l-4 -33l-189 -218q82 -14 123.5 -54t41.5 -114q0 -64 -25 -115.5t-69.5 -80.5t-100.5 -29q-57 0 -92 23l19 34q30 -15 72 -15q67 0 107.5 52t40.5 131q0 64 -40 95.5t-125 39.5l4 40l191 226q-36 18 -69 28t-70 10q-63 0 -100.5 -34.5t-47.5 -109.5l-72 -509h-47
l73 515q13 89 63 134t132 45q90 0 184 -61z" />
    <glyph glyph-name="uni018F" unicode="&#x18f;" horiz-adv-x="534" 
d="M454 639.5q45 -54.5 45 -165.5q0 -121 -31.5 -232.5t-96 -182t-158.5 -70.5q-81 0 -124 57.5t-43 167.5q0 71 18 156l381 -1q7 68 7 104q0 94 -32 137t-94 43q-44 0 -82 -16.5t-81 -52.5l-23 30q47 42 92 61t98 19q79 0 124 -54.5zM350.5 100q58.5 70 87.5 228h-337
q-11 -56 -11 -113q0 -185 123 -185q79 0 137.5 70z" />
    <glyph glyph-name="T" unicode="T" horiz-adv-x="403" 
d="M454 684l-12 -43h-164l-90 -641h-47l91 641h-167l6 43h383z" />
    <glyph glyph-name="Tbar" unicode="&#x166;" horiz-adv-x="403" 
d="M442 641h-164l-36 -257h100l-6 -39h-100l-48 -345h-47l49 345h-99l5 39h100l36 257h-167l6 43h383z" />
    <glyph glyph-name="Tcaron" unicode="&#x164;" horiz-adv-x="403" 
d="M454 684l-12 -43h-164l-90 -641h-47l91 641h-167l6 43h383zM385 879l20 -23l-121 -99h-27l-90 100l21 22l86 -79z" />
    <glyph glyph-name="uni0162" unicode="&#x162;" horiz-adv-x="403" 
d="M454 684l-12 -43h-164l-90 -640l1 -1l-11 -67q67 -7 67 -64q0 -39 -27 -65t-68 -26q-38 0 -63 21l18 29q21 -15 45 -15q22 0 38 14.5t16 39.5q0 20 -15.5 29t-50.5 9l20 95h-17l91 641h-167l6 43h383z" />
    <glyph glyph-name="uni1E70" unicode="&#x1e70;" horiz-adv-x="403" 
d="M454 684l-12 -43h-164l-90 -641h-47l91 641h-167l6 43h383zM44 -197l-20 23l121 104h27l90 -105l-21 -22l-88 84z" />
    <glyph glyph-name="uni021A" unicode="&#x21a;" horiz-adv-x="403" 
d="M454 684l-12 -43h-164l-90 -641h-47l91 641h-167l6 43h383zM179 -97.5q9 -9.5 9 -23.5q0 -12 -4.5 -23t-17.5 -33l-51 -96h-27l43 115q-16 11 -16 30q0 17 11 28.5t28 11.5q16 0 25 -9.5z" />
    <glyph glyph-name="uni023E" unicode="&#x23e;" horiz-adv-x="403" 
d="M442 641h-91l-114 -295l-49 -346h-47l22 157l-88 -227l-26 9l131 338l52 364h-167l6 43h267l23 58l26 -9l-19 -49h86zM253 465l69 176h-44z" />
    <glyph glyph-name="uni1E6A" unicode="&#x1e6a;" horiz-adv-x="403" 
d="M454 684l-12 -43h-164l-90 -641h-47l91 641h-167l6 43h383zM254.5 809.5q-8.5 8.5 -8.5 21.5q0 16 10.5 26.5t26.5 10.5q13 0 21.5 -8t8.5 -21q0 -16 -10.5 -27t-26.5 -11q-13 0 -21.5 8.5z" />
    <glyph glyph-name="uni1E6C" unicode="&#x1e6c;" horiz-adv-x="403" 
d="M454 684l-12 -43h-164l-90 -641h-47l91 641h-167l6 43h383zM174.5 -99.5q8.5 -8.5 8.5 -21.5q0 -16 -10.5 -26.5t-26.5 -10.5q-13 0 -21.5 8t-8.5 21q0 16 10.5 27t26.5 11q13 0 21.5 -8.5z" />
    <glyph glyph-name="uni01AC" unicode="&#x1ac;" horiz-adv-x="427" 
d="M466 641h-163l-91 -641h-46l90 641h-83q-37 0 -55 -21t-18 -55q0 -35 14 -67l-36 -14q-20 36 -20 82q0 52 30.5 85t86.5 33h303z" />
    <glyph glyph-name="uni1E6E" unicode="&#x1e6e;" horiz-adv-x="403" 
d="M454 684l-12 -43h-164l-90 -641h-47l91 641h-167l6 43h383zM58 -115h192l-6 -39h-192z" />
    <glyph glyph-name="uni01BC" unicode="&#x1bc;" horiz-adv-x="407" 
d="M59 10.5q-35 21.5 -59 62.5l32 24q21 -36 48 -52t67 -16q59 0 97.5 37t56 92t17.5 112q0 60 -25 90.5t-70 30.5q-56 0 -112 -35h-36l46 328h280l-13 -39h-229l-35 -250q54 34 109 34q63 0 97.5 -42t34.5 -117q0 -66 -23 -130.5t-72.5 -107.5t-125.5 -43q-50 0 -85 21.5z
" />
    <glyph glyph-name="uni0184" unicode="&#x184;" horiz-adv-x="465" 
d="M384 375q46 -43 46 -127q0 -63 -23 -119.5t-74.5 -92.5t-132.5 -36h-140l79 559l-36 32q39 37 61 93h39l-37 -266h87q85 0 131 -43zM311.5 73q38.5 32 54.5 78.5t16 94.5q0 69 -32.5 100.5t-95.5 31.5h-94l-47 -337h97q63 0 101.5 32z" />
    <glyph glyph-name="uni01A7" unicode="&#x1a7;" horiz-adv-x="429" 
d="M407.5 657.5q36.5 -36.5 36.5 -96.5q0 -58 -22.5 -96.5t-63.5 -65t-108 -53.5q-89 -36 -127.5 -79.5t-38.5 -121.5q0 -56 28 -85t78 -29q46 0 84.5 18.5t75.5 52.5l25 -29q-42 -41 -87.5 -62.5t-99.5 -21.5q-69 0 -111 42t-42 113q0 92 49.5 147t150.5 95q57 22 90.5 43
t52 52t18.5 79q0 45 -23.5 69t-68.5 24q-41 0 -74.5 -14t-72.5 -47l-24 30q44 37 84 54.5t90 17.5q64 0 100.5 -36.5z" />
    <glyph glyph-name="uni01AE" unicode="&#x1ae;" horiz-adv-x="403" 
d="M176 -90q-1 -7 -1 -20q0 -53 44 -53q20 0 33 5.5t30 16.5l18 -30q-16 -13 -38 -22t-47 -9q-41 0 -64 24t-23 68q0 6 2 24l12 86h-1l91 641h-167l6 43h383l-12 -43h-164l-90 -641z" />
    <glyph glyph-name="U" unicode="U" horiz-adv-x="528" 
d="M435 174q-11 -79 -65.5 -132t-141.5 -53q-80 0 -120 43.5t-40 111.5q0 23 2 34l71 506h46l-70 -507q-2 -11 -2 -32q0 -52 28.5 -83t86.5 -31q69 0 109.5 42.5t49.5 106.5l70 504h47z" />
    <glyph glyph-name="Uacute" unicode="&#xda;" horiz-adv-x="528" 
d="M435 174q-11 -79 -65.5 -132t-141.5 -53q-80 0 -120 43.5t-40 111.5q0 23 2 34l71 506h46l-70 -507q-2 -11 -2 -32q0 -52 28.5 -83t86.5 -31q69 0 109.5 42.5t49.5 106.5l70 504h47zM412 875l20 -41l-170 -75l-14 27z" />
    <glyph glyph-name="uni0244" unicode="&#x244;" horiz-adv-x="547" 
d="M543 516h-51l-48 -342q-11 -79 -65.5 -132t-141.5 -53q-80 0 -120 43.5t-40 111.5q0 23 2 34l47 338h-52l6 35h51l19 133h46l-18 -133h272l18 133h47l-19 -133h52zM445 516h-272l-47 -339q-2 -11 -2 -32q0 -52 28.5 -83t86.5 -31q69 0 109.5 42.5t49.5 106.5z" />
    <glyph glyph-name="Ubreve" unicode="&#x16c;" horiz-adv-x="528" 
d="M435 174q-11 -79 -65.5 -132t-141.5 -53q-80 0 -120 43.5t-40 111.5q0 23 2 34l71 506h46l-70 -507q-2 -11 -2 -32q0 -52 28.5 -83t86.5 -31q69 0 109.5 42.5t49.5 106.5l70 504h47zM264.5 793.5q-24.5 26.5 -24.5 67.5l29 4q8 -59 65 -59t83 61l30 -9q-11 -40 -42 -65.5
t-73 -25.5q-43 0 -67.5 26.5z" />
    <glyph glyph-name="uni01D3" unicode="&#x1d3;" horiz-adv-x="528" 
d="M435 174q-11 -79 -65.5 -132t-141.5 -53q-80 0 -120 43.5t-40 111.5q0 23 2 34l71 506h46l-70 -507q-2 -11 -2 -32q0 -52 28.5 -83t86.5 -31q69 0 109.5 42.5t49.5 106.5l70 504h47zM447 879l20 -23l-121 -99h-27l-90 100l21 22l86 -79z" />
    <glyph glyph-name="Ucircumflex" unicode="&#xdb;" horiz-adv-x="528" 
d="M435 174q-11 -79 -65.5 -132t-141.5 -53q-80 0 -120 43.5t-40 111.5q0 23 2 34l71 506h46l-70 -507q-2 -11 -2 -32q0 -52 28.5 -83t86.5 -31q69 0 109.5 42.5t49.5 106.5l70 504h47zM232 763l-19 23l120 100h27l91 -101l-22 -22l-86 80z" />
    <glyph glyph-name="uni0214" unicode="&#x214;" horiz-adv-x="528" 
d="M435 174q-11 -79 -65.5 -132t-141.5 -53q-80 0 -120 43.5t-40 111.5q0 23 2 34l71 506h46l-70 -507q-2 -11 -2 -32q0 -52 28.5 -83t86.5 -31q69 0 109.5 42.5t49.5 106.5l70 504h47zM254 929l44 -146l-32 -12l-57 139zM357 928l39 -141l-33 -11l-52 134z" />
    <glyph glyph-name="Udieresis" unicode="&#xdc;" horiz-adv-x="528" 
d="M435 174q-11 -79 -65.5 -132t-141.5 -53q-80 0 -120 43.5t-40 111.5q0 23 2 34l71 506h46l-70 -507q-2 -11 -2 -32q0 -52 28.5 -83t86.5 -31q69 0 109.5 42.5t49.5 106.5l70 504h47zM242.5 801q-7.5 8 -7.5 20q0 15 10 25.5t25 10.5q13 0 20.5 -8t7.5 -20q0 -16 -10 -26
t-25 -10q-13 0 -20.5 8zM395.5 801q-7.5 8 -7.5 20q0 15 10 25.5t24 10.5q13 0 20.5 -8t7.5 -20q0 -16 -9.5 -26t-24.5 -10q-13 0 -20.5 8z" />
    <glyph glyph-name="uni01D7" unicode="&#x1d7;" horiz-adv-x="528" 
d="M435 174q-11 -79 -65.5 -132t-141.5 -53q-80 0 -120 43.5t-40 111.5q0 23 2 34l71 506h46l-70 -507q-2 -11 -2 -32q0 -52 28.5 -83t86.5 -31q69 0 109.5 42.5t49.5 106.5l70 504h47zM423 955l30 -28l-117 -120l-19 18zM232.5 753q-7.5 8 -7.5 20q0 15 10 25.5t24 10.5
q13 0 20.5 -8t7.5 -20q0 -16 -9.5 -26t-24.5 -10q-13 0 -20.5 8zM385.5 753q-7.5 8 -7.5 20q0 15 9.5 25.5t24.5 10.5q13 0 20.5 -8t7.5 -20q0 -16 -10 -26t-24 -10q-13 0 -20.5 8z" />
    <glyph glyph-name="uni01D9" unicode="&#x1d9;" horiz-adv-x="528" 
d="M435 174q-11 -79 -65.5 -132t-141.5 -53q-80 0 -120 43.5t-40 111.5q0 23 2 34l71 506h46l-70 -507q-2 -11 -2 -32q0 -52 28.5 -83t86.5 -31q69 0 109.5 42.5t49.5 106.5l70 504h47zM452 938l20 -23l-121 -99h-27l-90 100l21 22l86 -79zM234.5 753q-7.5 8 -7.5 20
q0 15 10 25.5t24 10.5q13 0 20.5 -8t7.5 -20q0 -16 -9.5 -26t-24.5 -10q-13 0 -20.5 8zM387.5 753q-7.5 8 -7.5 20q0 15 9.5 25.5t24.5 10.5q13 0 20.5 -8t7.5 -20q0 -16 -10 -26t-25 -10q-12 0 -19.5 8z" />
    <glyph glyph-name="uni01DB" unicode="&#x1db;" horiz-adv-x="528" 
d="M435 174q-11 -79 -65.5 -132t-141.5 -53q-80 0 -120 43.5t-40 111.5q0 23 2 34l71 506h46l-70 -507q-2 -11 -2 -32q0 -52 28.5 -83t86.5 -31q69 0 109.5 42.5t49.5 106.5l70 504h47zM286 954l70 -132l-24 -15l-83 124zM232.5 753q-7.5 8 -7.5 20q0 15 10 25.5t25 10.5
q13 0 20.5 -8t7.5 -20q0 -16 -10 -26t-25 -10q-13 0 -20.5 8zM385.5 753q-7.5 8 -7.5 20q0 15 10 25.5t24 10.5q13 0 20.5 -8t7.5 -20q0 -16 -9.5 -26t-24.5 -10q-13 0 -20.5 8z" />
    <glyph glyph-name="uni01D5" unicode="&#x1d5;" horiz-adv-x="528" 
d="M435 174q-11 -79 -65.5 -132t-141.5 -53q-80 0 -120 43.5t-40 111.5q0 23 2 34l71 506h46l-70 -507q-2 -11 -2 -32q0 -52 28.5 -83t86.5 -31q69 0 109.5 42.5t49.5 106.5l70 504h47zM232.5 752q-7.5 8 -7.5 20q0 15 10 25.5t25 10.5q13 0 20.5 -8t7.5 -20q0 -16 -10 -26
t-25 -10q-13 0 -20.5 8zM385.5 752q-7.5 8 -7.5 20q0 15 10 25.5t24 10.5q13 0 20.5 -8t7.5 -20q0 -16 -9.5 -26t-24.5 -10q-13 0 -20.5 8zM438 869h-192l6 39h192z" />
    <glyph glyph-name="uni1EE4" unicode="&#x1ee4;" horiz-adv-x="528" 
d="M435 174q-11 -79 -65.5 -132t-141.5 -53q-80 0 -120 43.5t-40 111.5q0 23 2 34l71 506h46l-70 -507q-2 -11 -2 -32q0 -52 28.5 -83t86.5 -31q69 0 109.5 42.5t49.5 106.5l70 504h47zM237.5 -99.5q8.5 -8.5 8.5 -21.5q0 -16 -10.5 -26.5t-26.5 -10.5q-13 0 -21.5 8
t-8.5 21q0 16 10.5 27t26.5 11q13 0 21.5 -8.5z" />
    <glyph glyph-name="Ugrave" unicode="&#xd9;" horiz-adv-x="528" 
d="M435 174q-11 -79 -65.5 -132t-141.5 -53q-80 0 -120 43.5t-40 111.5q0 23 2 34l71 506h46l-70 -507q-2 -11 -2 -32q0 -52 28.5 -83t86.5 -31q69 0 109.5 42.5t49.5 106.5l70 504h47zM289 874l138 -89l-18 -25l-146 74z" />
    <glyph glyph-name="uni1EE6" unicode="&#x1ee6;" horiz-adv-x="528" 
d="M435 174q-11 -79 -65.5 -132t-141.5 -53q-80 0 -120 43.5t-40 111.5q0 23 2 34l71 506h46l-70 -507q-2 -11 -2 -32q0 -52 28.5 -83t86.5 -31q69 0 109.5 42.5t49.5 106.5l70 504h47zM326 847q30 2 47.5 14t17.5 41q0 17 -8.5 26.5t-24.5 9.5q-21 0 -47 -13l-11 30
q31 18 62 18q33 0 52 -19t19 -51q0 -34 -19.5 -54.5t-53.5 -25.5l-5 -45h-37z" />
    <glyph glyph-name="Uhorn" unicode="&#x1af;" horiz-adv-x="528" 
d="M565 632.5q-23 -27.5 -71 -35.5l-59 -423q-11 -79 -65.5 -132t-141.5 -53q-80 0 -120 43.5t-40 111.5q0 23 2 34l71 506h46l-70 -507q-2 -11 -2 -32q0 -52 28.5 -83t86.5 -31q69 0 109.5 42.5t49.5 106.5l70 504h47l-7 -54q29 7 40.5 26.5t11.5 54.5q0 24 -6 48l34 8
q9 -27 9 -57q0 -50 -23 -77.5z" />
    <glyph glyph-name="uni1EE8" unicode="&#x1ee8;" horiz-adv-x="528" 
d="M432 834l-170 -75l-14 27l164 89zM565 632.5q-23 -27.5 -71 -35.5l-59 -423q-11 -79 -65.5 -132t-141.5 -53q-80 0 -120 43.5t-40 111.5q0 23 2 34l71 506h46l-70 -507q-2 -11 -2 -32q0 -52 28.5 -83t86.5 -31q69 0 109.5 42.5t49.5 106.5l70 504h47l-7 -54
q29 7 40.5 26.5t11.5 54.5q0 24 -6 48l34 8q9 -27 9 -57q0 -50 -23 -77.5z" />
    <glyph glyph-name="uni1EF0" unicode="&#x1ef0;" horiz-adv-x="528" 
d="M565 632.5q-23 -27.5 -71 -35.5l-59 -423q-11 -79 -65.5 -132t-141.5 -53q-80 0 -120 43.5t-40 111.5q0 23 2 34l71 506h46l-70 -507q-2 -11 -2 -32q0 -52 28.5 -83t86.5 -31q69 0 109.5 42.5t49.5 106.5l70 504h47l-7 -54q29 7 40.5 26.5t11.5 54.5q0 24 -6 48l34 8
q9 -27 9 -57q0 -50 -23 -77.5zM237.5 -99.5q8.5 -8.5 8.5 -21.5q0 -16 -10.5 -26.5t-26.5 -10.5q-13 0 -21.5 8t-8.5 21q0 16 10.5 27t26.5 11q13 0 21.5 -8.5z" />
    <glyph glyph-name="uni1EEA" unicode="&#x1eea;" horiz-adv-x="528" 
d="M427 785l-18 -25l-146 74l26 40zM565 632.5q-23 -27.5 -71 -35.5l-59 -423q-11 -79 -65.5 -132t-141.5 -53q-80 0 -120 43.5t-40 111.5q0 23 2 34l71 506h46l-70 -507q-2 -11 -2 -32q0 -52 28.5 -83t86.5 -31q69 0 109.5 42.5t49.5 106.5l70 504h47l-7 -54
q29 7 40.5 26.5t11.5 54.5q0 24 -6 48l34 8q9 -27 9 -57q0 -50 -23 -77.5z" />
    <glyph glyph-name="uni1EEC" unicode="&#x1eec;" horiz-adv-x="528" 
d="M311 925l-11 30q31 18 62 18q33 0 52 -19t19 -51q0 -34 -19.5 -54.5t-53.5 -25.5l-5 -45h-37l8 69q30 2 47.5 14t17.5 41q0 17 -8.5 26.5t-24.5 9.5q-21 0 -47 -13zM565 632.5q-23 -27.5 -71 -35.5l-59 -423q-11 -79 -65.5 -132t-141.5 -53q-80 0 -120 43.5t-40 111.5
q0 23 2 34l71 506h46l-70 -507q-2 -11 -2 -32q0 -52 28.5 -83t86.5 -31q69 0 109.5 42.5t49.5 106.5l70 504h47l-7 -54q29 7 40.5 26.5t11.5 54.5q0 24 -6 48l34 8q9 -27 9 -57q0 -50 -23 -77.5z" />
    <glyph glyph-name="uni1EEE" unicode="&#x1eee;" horiz-adv-x="528" 
d="M270.5 832.5q-10.5 -8.5 -26.5 -30.5l-24 17q38 59 76 59q13 0 23.5 -5t19 -11t11.5 -8q13 -10 22 -15t18 -5q13 0 25.5 10t26.5 32l25 -15q-35 -65 -76 -65q-15 0 -27 6.5t-29 18.5q-12 10 -20.5 15t-18.5 5q-15 0 -25.5 -8.5zM565 632.5q-23 -27.5 -71 -35.5l-59 -423
q-11 -79 -65.5 -132t-141.5 -53q-80 0 -120 43.5t-40 111.5q0 23 2 34l71 506h46l-70 -507q-2 -11 -2 -32q0 -52 28.5 -83t86.5 -31q69 0 109.5 42.5t49.5 106.5l70 504h47l-7 -54q29 7 40.5 26.5t11.5 54.5q0 24 -6 48l34 8q9 -27 9 -57q0 -50 -23 -77.5z" />
    <glyph glyph-name="Uhungarumlaut" unicode="&#x170;" horiz-adv-x="528" 
d="M435 174q-11 -79 -65.5 -132t-141.5 -53q-80 0 -120 43.5t-40 111.5q0 23 2 34l71 506h46l-70 -507q-2 -11 -2 -32q0 -52 28.5 -83t86.5 -31q69 0 109.5 42.5t49.5 106.5l70 504h47zM447 929l36 -22l-93 -136l-27 15zM344 928l37 -22l-88 -130l-26 14z" />
    <glyph glyph-name="uni0216" unicode="&#x216;" horiz-adv-x="528" 
d="M435 174q-11 -79 -65.5 -132t-141.5 -53q-80 0 -120 43.5t-40 111.5q0 23 2 34l71 506h46l-70 -507q-2 -11 -2 -32q0 -52 28.5 -83t86.5 -31q69 0 109.5 42.5t49.5 106.5l70 504h47zM232 797q13 47 43.5 74t71.5 27q43 0 68.5 -28.5t24.5 -75.5l-31 -4q-6 69 -64 69
t-85 -71z" />
    <glyph glyph-name="Umacron" unicode="&#x16a;" horiz-adv-x="528" 
d="M435 174q-11 -79 -65.5 -132t-141.5 -53q-80 0 -120 43.5t-40 111.5q0 23 2 34l71 506h46l-70 -507q-2 -11 -2 -32q0 -52 28.5 -83t86.5 -31q69 0 109.5 42.5t49.5 106.5l70 504h47zM435 805h-192l6 39h192z" />
    <glyph glyph-name="Uogonek" unicode="&#x172;" horiz-adv-x="528" 
d="M506 684l-71 -510q-9 -62 -46 -110t-97 -66q-54 -30 -76.5 -56t-22.5 -64q0 -24 13.5 -37.5t39.5 -13.5q20 0 45 7l-6 -40q-24 -6 -47 -6q-42 0 -64.5 23.5t-22.5 60.5q0 38 20.5 66t61.5 51h-5q-80 0 -120 43.5t-40 111.5q0 23 2 34l71 506h46l-70 -507q-2 -11 -2 -32
q0 -52 28.5 -83t86.5 -31q69 0 109.5 42.5t49.5 106.5l70 504h47z" />
    <glyph glyph-name="uni01B1" unicode="&#x1b1;" horiz-adv-x="587" 
d="M115 52.5q-48 62.5 -48 179.5q0 130 42 244t139 167h-106l6 41h162l-6 -41q-104 -48 -146.5 -165.5t-42.5 -245.5q0 -101 35 -151.5t101 -50.5q85 0 140 67.5t80 164.5t25 188q0 73 -23 118.5t-73 74.5l6 41h161l-6 -41h-107q47 -32 68.5 -78t21.5 -115
q0 -102 -31.5 -208.5t-98 -179t-165.5 -72.5q-86 0 -134 62.5z" />
    <glyph glyph-name="Uring" unicode="&#x16e;" horiz-adv-x="528" 
d="M435 174q-11 -79 -65.5 -132t-141.5 -53q-80 0 -120 43.5t-40 111.5q0 23 2 34l71 506h46l-70 -507q-2 -11 -2 -32q0 -52 28.5 -83t86.5 -31q69 0 109.5 42.5t49.5 106.5l70 504h47zM407.5 919.5q19.5 -21.5 19.5 -55.5q0 -45 -26 -73.5t-64 -28.5q-32 0 -51.5 21.5
t-19.5 55.5q0 45 26 73.5t64 28.5q32 0 51.5 -21.5zM315 891q-15 -20 -15 -52q0 -22 10.5 -34.5t27.5 -12.5q26 0 40.5 20t14.5 52q0 22 -10 34.5t-28 12.5q-25 0 -40 -20z" />
    <glyph glyph-name="Utilde" unicode="&#x168;" horiz-adv-x="528" 
d="M435 174q-11 -79 -65.5 -132t-141.5 -53q-80 0 -120 43.5t-40 111.5q0 23 2 34l71 506h46l-70 -507q-2 -11 -2 -32q0 -52 28.5 -83t86.5 -31q69 0 109.5 42.5t49.5 106.5l70 504h47zM364 802.5q-12 6.5 -29 18.5q-12 10 -20.5 15t-18.5 5q-15 0 -25.5 -9t-26.5 -30
l-24 17q38 59 76 59q13 0 23.5 -5t19 -11t11.5 -8q13 -10 22 -15t18 -5q13 0 25.5 10t26.5 32l25 -15q-35 -65 -76 -65q-15 0 -27 6.5z" />
    <glyph glyph-name="uni1E78" unicode="&#x1e78;" horiz-adv-x="528" 
d="M435 174q-11 -79 -65.5 -132t-141.5 -53q-80 0 -120 43.5t-40 111.5q0 23 2 34l71 506h46l-70 -507q-2 -11 -2 -32q0 -52 28.5 -83t86.5 -31q69 0 109.5 42.5t49.5 106.5l70 504h47zM360 763.5q-12 6.5 -29 18.5q-12 10 -20.5 15t-18.5 5q-15 0 -25.5 -8.5t-26.5 -30.5
l-24 17q38 59 76 59q13 0 23.5 -5t19 -11t11.5 -8q13 -10 22 -15t18 -5q13 0 25.5 10t26.5 32l25 -15q-35 -65 -76 -65q-15 0 -27 6.5zM423 984l20 -41l-170 -75l-14 27z" />
    <glyph glyph-name="V" unicode="V" horiz-adv-x="458" 
d="M497 684l-277 -684h-56l-84 684h47l71 -636l250 636h49z" />
    <glyph glyph-name="uni01B2" unicode="&#x1b2;" horiz-adv-x="522" 
d="M477 675q18 -19 18 -53q0 -12 -1 -19l-46 -336q-20 -135 -84.5 -206.5t-155.5 -71.5q-65 0 -103 40t-38 106q0 22 2 33l72 516h46l-72 -516q-2 -22 -2 -31q0 -51 25.5 -78.5t72.5 -27.5q72 0 123 61t68 182l46 331q1 5 1 14q0 36 -31 36q-17 0 -34 -10l-11 33
q27 16 55 16q31 0 49 -19z" />
    <glyph glyph-name="uni0245" unicode="&#x245;" horiz-adv-x="474" 
d="M326 684l90 -684h-47l-78 646l-259 -646h-48l282 684h60z" />
    <glyph glyph-name="W" unicode="W" horiz-adv-x="668" 
d="M698 684l-220 -684h-57l-35 633l-212 -633h-58l-27 684h43l21 -637l213 637h55l34 -638l198 638h45z" />
    <glyph glyph-name="Wacute" unicode="&#x1e82;" horiz-adv-x="668" 
d="M698 684l-220 -684h-57l-35 633l-212 -633h-58l-27 684h43l21 -637l213 637h55l34 -638l198 638h45zM481 875l20 -41l-170 -75l-14 27z" />
    <glyph glyph-name="Wcircumflex" unicode="&#x174;" horiz-adv-x="668" 
d="M698 684l-220 -684h-57l-35 633l-212 -633h-58l-27 684h43l21 -637l213 637h55l34 -638l198 638h45zM301 763l-19 23l120 100h27l91 -101l-22 -22l-86 80z" />
    <glyph glyph-name="Wdieresis" unicode="&#x1e84;" horiz-adv-x="668" 
d="M698 684l-220 -684h-57l-35 633l-212 -633h-58l-27 684h43l21 -637l213 637h55l34 -638l198 638h45zM311.5 801q-7.5 8 -7.5 20q0 15 10 25.5t25 10.5q13 0 20.5 -8t7.5 -20q0 -16 -10 -26t-25 -10q-13 0 -20.5 8zM464.5 801q-7.5 8 -7.5 20q0 15 10 25.5t24 10.5
q13 0 20.5 -8t7.5 -20q0 -16 -9.5 -26t-24.5 -10q-13 0 -20.5 8z" />
    <glyph glyph-name="Wgrave" unicode="&#x1e80;" horiz-adv-x="668" 
d="M698 684l-220 -684h-57l-35 633l-212 -633h-58l-27 684h43l21 -637l213 637h55l34 -638l198 638h45zM358 874l138 -89l-18 -25l-146 74z" />
    <glyph glyph-name="uni2C72" unicode="&#x2c72;" horiz-adv-x="685" 
d="M174 0l212 633l35 -633h57l188 603q10 29 23 41t33 12q14 0 26 -6.5t26 -18.5l24 25q-34 38 -78 38q-33 0 -56 -18.5t-36 -61.5l-173 -569l-34 639h-55l-213 -637l-21 637h-43l27 -684h58z" />
    <glyph glyph-name="uni01F7" unicode="&#x1f7;" horiz-adv-x="459" 
d="M429.5 654.5q35.5 -39.5 35.5 -108.5q0 -78 -31.5 -133.5t-84.5 -92t-129 -68.5l-89 -37l-30 -215h-47l97 684h46l-7 -51q33 28 67.5 44.5t76.5 16.5q60 0 95.5 -39.5zM366 392.5q51 57.5 51 152.5q0 53 -24 80.5t-68 27.5q-73 0 -142 -67l-46 -329l83 36q95 42 146 99.5
z" />
    <glyph glyph-name="X" unicode="X" horiz-adv-x="417" 
d="M444 684l-197 -315l124 -369h-48l-106 335l-195 -335h-50l221 368l-108 316h49l89 -284l171 284h50z" />
    <glyph glyph-name="Y" unicode="Y" horiz-adv-x="425" 
d="M472 684l-235 -416l-38 -268h-47l38 268l-119 416h47l100 -372l203 372h51z" />
    <glyph glyph-name="Yacute" unicode="&#xdd;" horiz-adv-x="425" 
d="M472 684l-235 -416l-38 -268h-47l38 268l-119 416h47l100 -372l203 372h51zM358 875l20 -41l-170 -75l-14 27z" />
    <glyph glyph-name="Ycircumflex" unicode="&#x176;" horiz-adv-x="425" 
d="M472 684l-235 -416l-38 -268h-47l38 268l-119 416h47l100 -372l203 372h51zM178 763l-19 23l120 100h27l91 -101l-22 -22l-86 80z" />
    <glyph glyph-name="Ydieresis" unicode="&#x178;" horiz-adv-x="425" 
d="M472 684l-235 -416l-38 -268h-47l38 268l-119 416h47l100 -372l203 372h51zM188.5 801q-7.5 8 -7.5 20q0 15 10 25.5t25 10.5q13 0 20.5 -8t7.5 -20q0 -16 -10 -26t-25 -10q-13 0 -20.5 8zM341.5 801q-7.5 8 -7.5 20q0 15 10 25.5t24 10.5q13 0 20.5 -8t7.5 -20
q0 -16 -9.5 -26t-24.5 -10q-13 0 -20.5 8z" />
    <glyph glyph-name="uni1EF4" unicode="&#x1ef4;" horiz-adv-x="425" 
d="M472 684l-235 -416l-38 -268h-47l38 268l-119 416h47l100 -372l203 372h51zM185.5 -99.5q8.5 -8.5 8.5 -21.5q0 -16 -10.5 -26.5t-26.5 -10.5q-13 0 -21.5 8t-8.5 21q0 16 10.5 27t26.5 11q13 0 21.5 -8.5z" />
    <glyph glyph-name="Ygrave" unicode="&#x1ef2;" horiz-adv-x="425" 
d="M472 684l-235 -416l-38 -268h-47l38 268l-119 416h47l100 -372l203 372h51zM235 874l138 -89l-18 -25l-146 74z" />
    <glyph glyph-name="uni01B3" unicode="&#x1b3;" horiz-adv-x="437" 
d="M190 268l-119 416h49l99 -371l153 302q22 43 45 61t55 18q44 0 78 -38l-24 -25q-14 12 -26 18.5t-26 6.5q-20 0 -33.5 -11.5t-29.5 -42.5l-174 -334l-38 -268h-47z" />
    <glyph glyph-name="uni1EF6" unicode="&#x1ef6;" horiz-adv-x="425" 
d="M472 684l-235 -416l-38 -268h-47l38 268l-119 416h47l100 -372l203 372h51zM272 847q30 2 47.5 14t17.5 41q0 17 -8.5 26.5t-24.5 9.5q-21 0 -47 -13l-11 30q31 18 62 18q33 0 52 -19t19 -51q0 -34 -19.5 -54.5t-53.5 -25.5l-5 -45h-37z" />
    <glyph glyph-name="uni0232" unicode="&#x232;" horiz-adv-x="425" 
d="M472 684l-235 -416l-38 -268h-47l38 268l-119 416h47l100 -372l203 372h51zM381 805h-192l6 39h192z" />
    <glyph glyph-name="uni01A6" unicode="&#x1a6;" horiz-adv-x="477" 
d="M403 273.5q-39 -59.5 -117 -80.5l108 -321h-48l-105 313h-114l-26 -185h-47l97 684h46l-18 -128h86q90 0 133.5 -38.5t43.5 -111.5t-39 -132.5zM222 225q92 0 132 53t40 126q0 58 -30 84.5t-99 26.5h-92l-40 -290h89z" />
    <glyph glyph-name="uni024E" unicode="&#x24e;" horiz-adv-x="427" 
d="M422 591h40l-6 -35h-54l-162 -287l-39 -269h-47l38 268l-82 288h-56l5 35h41l-27 93h49l25 -93h226l50 93h51zM221 312l132 244h-197z" />
    <glyph glyph-name="uni1EF8" unicode="&#x1ef8;" horiz-adv-x="425" 
d="M472 684l-235 -416l-38 -268h-47l38 268l-119 416h47l100 -372l203 372h51zM310 802.5q-12 6.5 -29 18.5q-12 10 -20.5 15t-18.5 5q-15 0 -25.5 -9t-26.5 -30l-24 17q38 59 76 59q13 0 23.5 -5t19 -11t11.5 -8q13 -10 22 -15t18 -5q13 0 25.5 10t26.5 32l25 -15
q-35 -65 -76 -65q-15 0 -27 6.5z" />
    <glyph glyph-name="Z" unicode="Z" horiz-adv-x="419" 
d="M-9 0l6 40l388 602h-274l6 42h324l-6 -40l-387 -602l298 1l-13 -43h-342z" />
    <glyph glyph-name="Zacute" unicode="&#x179;" horiz-adv-x="419" 
d="M-9 0l6 40l388 602h-274l6 42h324l-6 -40l-387 -602l298 1l-13 -43h-342zM361 875l20 -41l-170 -75l-14 27z" />
    <glyph glyph-name="Zcaron" unicode="&#x17d;" horiz-adv-x="419" 
d="M-9 0l6 40l388 602h-274l6 42h324l-6 -40l-387 -602l298 1l-13 -43h-342zM396 879l20 -23l-121 -99h-27l-90 100l21 22l86 -79z" />
    <glyph glyph-name="Zdotaccent" unicode="&#x17b;" horiz-adv-x="419" 
d="M-9 0l6 40l388 602h-274l6 42h324l-6 -40l-387 -602l298 1l-13 -43h-342zM265.5 809.5q-8.5 8.5 -8.5 21.5q0 16 10.5 26.5t26.5 10.5q13 0 21.5 -8t8.5 -21q0 -16 -10.5 -27t-26.5 -11q-13 0 -21.5 8.5z" />
    <glyph glyph-name="uni1E92" unicode="&#x1e92;" horiz-adv-x="419" 
d="M-9 0l6 40l388 602h-274l6 42h324l-6 -40l-387 -602l298 1l-13 -43h-342zM172.5 -99.5q8.5 -8.5 8.5 -21.5q0 -16 -10.5 -26.5t-26.5 -10.5q-13 0 -21.5 8t-8.5 21q0 16 10.5 27t26.5 11q13 0 21.5 -8.5z" />
    <glyph glyph-name="uni0224" unicode="&#x224;" horiz-adv-x="419" 
d="M435 644l-387 -602l294 1l-6 -43l-13 -87q-8 -56 -38.5 -85.5t-74.5 -29.5q-45 0 -80 33l22 29q16 -12 27.5 -17.5t29.5 -5.5q26 0 44.5 19.5t24.5 59.5l12 84h-299l6 40l388 602h-274l6 42h324z" />
    <glyph glyph-name="uni01B5" unicode="&#x1b5;" horiz-adv-x="419" 
d="M441 684l-6 -40l-181 -281h86l-5 -39h-106l-181 -282l298 1l-13 -43h-342l6 40l183 284h-88l6 39h107l180 279h-274l6 42h324z" />
    <glyph glyph-name="Cacute.loclPLK" horiz-adv-x="456" 
d="M431 678.5q31 -15.5 59 -46.5l-29 -28q-26 26 -49.5 37.5t-57.5 11.5q-84 0 -139.5 -65t-81.5 -162t-26 -193q0 -100 36 -150.5t98 -50.5q39 0 70 14.5t63 41.5l22 -32q-72 -67 -159 -67q-81 0 -129.5 64t-48.5 180q0 108 32 214.5t98.5 176.5t165.5 70q45 0 76 -15.5z
M432 902l34 -26l-115 -145l-22 16z" />
    <glyph glyph-name="Nacute.loclPLK" horiz-adv-x="549" 
d="M419 0h-59l-180 640q-4 -79 -26 -234l-56 -406h-44l97 684h60l180 -638q7 98 23 208l59 430h43zM422 902l34 -26l-115 -145l-22 16z" />
    <glyph glyph-name="Oacute.loclPLK" horiz-adv-x="572" 
d="M487.5 632q47.5 -62 47.5 -179q0 -106 -30.5 -213t-96.5 -179t-167 -72q-85 0 -133.5 63.5t-48.5 179.5q0 104 31 210.5t97.5 179t166.5 72.5q86 0 133.5 -62zM212 585.5q-55 -68.5 -80 -166t-25 -188.5q0 -99 35.5 -149.5t99.5 -50.5q88 0 143 69t78.5 167t23.5 189
q0 99 -34.5 148.5t-100.5 49.5q-85 0 -140 -68.5zM436 902l34 -26l-115 -145l-22 16z" />
    <glyph glyph-name="Sacute.loclPLK" horiz-adv-x="442" 
d="M371.5 675q36.5 -19 66.5 -56l-30 -26q-28 32 -56.5 46.5t-66.5 14.5q-40 0 -72 -19.5t-50 -53t-18 -73.5q0 -44 22.5 -69.5t83.5 -53.5q70 -31 101 -70t31 -102q0 -57 -25.5 -108.5t-74.5 -83.5t-116 -32q-55 0 -95.5 22.5t-72.5 64.5l31 25q28 -35 59.5 -52.5
t77.5 -17.5q53 0 91.5 25t58 66.5t19.5 88.5q0 50 -24 80t-85 59q-72 34 -100.5 67.5t-28.5 88.5q0 47 23.5 90.5t66.5 70.5t98 27q49 0 85.5 -19zM369 902l34 -26l-115 -145l-22 16z" />
    <glyph glyph-name="Zacute.loclPLK" horiz-adv-x="419" 
d="M-9 0l6 40l388 602h-274l6 42h324l-6 -40l-387 -602l298 1l-13 -43h-342zM354 902l34 -26l-115 -145l-22 16z" />
    <glyph glyph-name="Eng.ss01" horiz-adv-x="540" 
d="M458.5 656q33.5 -38 33.5 -104q0 -18 -3 -39l-72 -513l-13 -87q-8 -56 -39.5 -85.5t-75.5 -29.5q-45 0 -80 33l23 29q14 -12 26 -17.5t30 -5.5q26 0 45 19.5t25 59.5l12 84l72 512q3 21 3 39q0 50 -23 76t-66 26q-49 0 -92.5 -30t-85.5 -81l-77 -542h-47l97 684h40
l-8 -89q86 99 179 99q63 0 96.5 -38z" />
    <glyph glyph-name="uni019D.ss01" horiz-adv-x="538" 
d="M456.5 656q33.5 -38 33.5 -104q0 -18 -3 -39l-72 -513h-46l72 512q3 20 3 37q0 51 -22.5 77.5t-66.5 26.5q-49 0 -92.5 -30t-86.5 -81l-76 -542l-13 -87q-8 -56 -39.5 -85.5t-75.5 -29.5q-45 0 -80 33l23 29q14 -12 26 -17.5t30 -5.5q26 0 45 19.5t25 59.5l12 84l96 684
h41l-9 -89q88 99 180 99q62 0 95.5 -38z" />
    <glyph glyph-name="uni2C64.ss01" horiz-adv-x="322" 
d="M378 685l-14 -44q-22 8 -44 8q-50 0 -85.5 -39.5t-65.5 -124.5l-68 -485l-12 -90q-1 -7 -1 -20q0 -53 44 -53q20 0 33 5.5t30 16.5l18 -30q-16 -13 -38 -22t-47 -9q-41 0 -64 24t-23 68q0 6 2 24l12 86h-1l97 684h40l-11 -103q27 58 61.5 85.5t84.5 27.5q30 0 52 -9z" />
    <glyph glyph-name="uni0181.ss02" horiz-adv-x="468" 
d="M378 371q46 -42 46 -125q0 -62 -23 -118t-74.5 -92t-132.5 -36h-140l97 684h281l-13 -41h-228l-32 -230h88q85 0 131 -42zM305.5 72.5q38.5 31.5 54.5 78t16 93.5q0 129 -128 129h-95l-46 -332h97q63 0 101.5 31.5z" />
    <glyph glyph-name="uniA78D.ss02" horiz-adv-x="483" 
d="M354 0h-46l38 266h-294l58 418h47l-53 -377h247l53 377h47z" />
    <glyph glyph-name="uni0299" unicode="&#x299;" horiz-adv-x="426" 
d="M363 327q-28 -33 -81 -44q99 -11 99 -102q0 -88 -56 -134.5t-149 -46.5h-126l73 517q75 15 129 15q68 0 103.5 -32t35.5 -87q0 -53 -28 -86zM251 494q-35 0 -87 -9l-26 -187h91q56 0 86 32t30 86q0 78 -94 78zM310 242q-25 19 -79 19h-99l-31 -222h76q72 0 115 34.5
t43 106.5q0 43 -25 62z" />
    <glyph glyph-name="uni0262" unicode="&#x262;" horiz-adv-x="453" 
d="M348 520q30 -14 58 -42l-29 -28q-22 23 -45.5 33.5t-52.5 10.5q-58 0 -100 -43t-64 -115t-22 -155q0 -151 117 -151q54 0 102 28l26 185h-92v39h142l-35 -246q-70 -45 -145 -45q-77 0 -119 48t-42 142q0 98 29 178.5t82 127.5t121 47q39 0 69 -14z" />
    <glyph glyph-name="uni029B" unicode="&#x29b;" horiz-adv-x="447" 
d="M574 707l-22 -28q-28 23 -58 23q-58 0 -69 -79l-19 -145l-25 -24q-26 20 -50 30t-52 10q-58 0 -100 -43t-64 -115t-22 -155q0 -151 117 -151q54 0 102 28l26 185h-92v39h142l-35 -246q-70 -45 -145 -45q-77 0 -119 48t-42 142q0 98 29 178.5t82 127.5t121 47q50 0 88 -25
l15 117q8 56 37 85.5t75 29.5t80 -34z" />
    <glyph glyph-name="uni029C" unicode="&#x29c;" horiz-adv-x="481" 
d="M311 0l36 252h-216l-36 -252h-45l74 522h45l-32 -231h216l32 231h45l-74 -522h-45z" />
    <glyph glyph-name="uni026A" unicode="&#x26a;" horiz-adv-x="252" 
d="M264 486h-84l-64 -450h86l-5 -36h-215l6 36h83l64 450h-85l6 36h214z" />
    <glyph glyph-name="uni029F" unicode="&#x29f;" horiz-adv-x="331" 
d="M169 522l-67 -482h196l-13 -40h-235l74 522h45z" />
    <glyph glyph-name="uni0274" unicode="&#x274;" horiz-adv-x="482" 
d="M357 0h-56l-148 477q-4 -63 -15 -151l-46 -326h-42l74 522h57l147 -477q9 105 18 168l43 309h42z" />
    <glyph glyph-name="uni0276" unicode="&#x276;" horiz-adv-x="585" 
d="M581 483h-202q43 -48 43 -139q0 -16 -2 -52h109l-7 -38h-107q-12 -69 -38 -126t-68 -89h219l-6 -39h-273q-27 -11 -57 -11q-70 0 -108 50.5t-38 138.5q0 80 24 161.5t76.5 137t130.5 55.5q31 0 54 -10h262zM298 80.5q41 51.5 59.5 125t18.5 141.5q0 72 -25.5 109.5
t-74.5 37.5q-64 0 -105.5 -51.5t-59.5 -125t-18 -142.5q0 -72 25.5 -109t74.5 -37q64 0 105 51.5z" />
    <glyph glyph-name="uni0280" unicode="&#x280;" horiz-adv-x="421" 
d="M348.5 285.5q-33.5 -40.5 -92.5 -56.5l92 -229h-46l-88 222h-88l-31 -222h-45l74 522h104q76 0 115 -33.5t39 -97.5q0 -65 -33.5 -105.5zM200 259q65 0 100.5 34.5t35.5 97.5q0 47 -26 69.5t-84 22.5h-63l-32 -224h69z" />
    <glyph glyph-name="uni0281" unicode="&#x281;" horiz-adv-x="422" 
d="M329 248q22 -30 22 -74q0 -85 -52 -129.5t-139 -44.5h-110l74 522h45l-32 -222h90l149 222h47l-156 -230q40 -14 62 -44zM267 71q38 33 38 102q0 45 -25.5 67.5t-72.5 22.5h-75l-32 -225h62q67 0 105 33z" />
    <glyph glyph-name="uni028F" unicode="&#x28f;" horiz-adv-x="370" 
d="M390 522l-190 -313l-28 -209h-45l28 208l-101 314h47l81 -277l160 277h48z" />
    <glyph glyph-name="a" unicode="a" horiz-adv-x="469" 
d="M416 495l-55 -383q-4 -25 -4 -47q0 -16 5 -26t18 -17l-15 -33q-25 10 -37.5 27t-12.5 48q0 10 1 16q-59 -91 -139 -91q-62 0 -97 48t-35 133q0 86 25.5 169.5t80 138t136.5 54.5q68 0 129 -37zM177 446q-44 -49 -65 -124t-21 -152q0 -69 23.5 -105t68.5 -36q73 0 136 107
l48 339q-38 20 -81 20q-65 0 -109 -49z" />
    <glyph glyph-name="aacute" unicode="&#xe1;" horiz-adv-x="469" 
d="M416 495l-55 -383q-4 -25 -4 -47q0 -16 5 -26t18 -17l-15 -33q-25 10 -37.5 27t-12.5 48q0 10 1 16q-59 -91 -139 -91q-62 0 -97 48t-35 133q0 86 25.5 169.5t80 138t136.5 54.5q68 0 129 -37zM177 446q-44 -49 -65 -124t-21 -152q0 -69 23.5 -105t68.5 -36q73 0 136 107
l48 339q-38 20 -81 20q-65 0 -109 -49zM387 774l20 -42l-170 -84l-15 26z" />
    <glyph glyph-name="abreve" unicode="&#x103;" horiz-adv-x="469" 
d="M416 495l-55 -383q-4 -25 -4 -47q0 -16 5 -26t18 -17l-15 -33q-25 10 -37.5 27t-12.5 48q0 10 1 16q-59 -91 -139 -91q-62 0 -97 48t-35 133q0 86 25.5 169.5t80 138t136.5 54.5q68 0 129 -37zM177 446q-44 -49 -65 -124t-21 -152q0 -69 23.5 -105t68.5 -36q73 0 136 107
l48 339q-38 20 -81 20q-65 0 -109 -49zM240 685.5q-25 28.5 -23 74.5l30 4q6 -68 62 -68q29 0 51.5 18.5t34.5 52.5l29 -10q-11 -46 -42 -73t-74 -27t-68 28.5z" />
    <glyph glyph-name="uni1EAF" unicode="&#x1eaf;" horiz-adv-x="469" 
d="M394 848l30 -28l-117 -120l-19 18zM229.5 622.5q-24.5 26.5 -24.5 67.5l29 4q8 -59 65 -59t83 61l30 -9q-11 -40 -42 -65.5t-73 -25.5q-43 0 -67.5 26.5zM416 495l-55 -383q-4 -25 -4 -47q0 -16 5 -26t18 -17l-15 -33q-25 10 -37.5 27t-12.5 48q0 10 1 16
q-59 -91 -139 -91q-62 0 -97 48t-35 133q0 86 25.5 169.5t80 138t136.5 54.5q68 0 129 -37zM177 446q-44 -49 -65 -124t-21 -152q0 -69 23.5 -105t68.5 -36q73 0 136 107l48 339q-38 20 -81 20q-65 0 -109 -49z" />
    <glyph glyph-name="uni1EB7" unicode="&#x1eb7;" horiz-adv-x="469" 
d="M416 495l-55 -383q-4 -25 -4 -47q0 -16 5 -26t18 -17l-15 -33q-25 10 -37.5 27t-12.5 48q0 10 1 16q-59 -91 -139 -91q-62 0 -97 48t-35 133q0 86 25.5 169.5t80 138t136.5 54.5q68 0 129 -37zM177 446q-44 -49 -65 -124t-21 -152q0 -69 23.5 -105t68.5 -36q73 0 136 107
l48 339q-38 20 -81 20q-65 0 -109 -49zM240 685.5q-25 28.5 -23 74.5l30 4q6 -68 62 -68q29 0 51.5 18.5t34.5 52.5l29 -10q-11 -46 -42 -73t-74 -27t-68 28.5zM225.5 -99.5q8.5 -8.5 8.5 -21.5q0 -16 -10.5 -26.5t-26.5 -10.5q-13 0 -21.5 8t-8.5 21q0 16 10.5 27t26.5 11
q13 0 21.5 -8.5z" />
    <glyph glyph-name="uni1EB1" unicode="&#x1eb1;" horiz-adv-x="469" 
d="M257 847l70 -132l-24 -15l-83 124zM230.5 622.5q-24.5 26.5 -24.5 67.5l29 4q8 -59 65 -59t83 61l30 -9q-11 -40 -42 -65.5t-73 -25.5q-43 0 -67.5 26.5zM416 495l-55 -383q-4 -25 -4 -47q0 -16 5 -26t18 -17l-15 -33q-25 10 -37.5 27t-12.5 48q0 10 1 16
q-59 -91 -139 -91q-62 0 -97 48t-35 133q0 86 25.5 169.5t80 138t136.5 54.5q68 0 129 -37zM177 446q-44 -49 -65 -124t-21 -152q0 -69 23.5 -105t68.5 -36q73 0 136 107l48 339q-38 20 -81 20q-65 0 -109 -49z" />
    <glyph glyph-name="uni1EB3" unicode="&#x1eb3;" horiz-adv-x="469" 
d="M416 495l-55 -383q-4 -25 -4 -47q0 -16 5 -26t18 -17l-15 -33q-25 10 -37.5 27t-12.5 48q0 10 1 16q-59 -91 -139 -91q-62 0 -97 48t-35 133q0 86 25.5 169.5t80 138t136.5 54.5q68 0 129 -37zM177 446q-44 -49 -65 -124t-21 -152q0 -69 23.5 -105t68.5 -36q73 0 136 107
l48 339q-38 20 -81 20q-65 0 -109 -49zM230.5 622.5q-24.5 26.5 -24.5 67.5l29 4q8 -59 65 -59t83 61l30 -9q-11 -40 -42 -65.5t-73 -25.5q-43 0 -67.5 26.5zM299 757q30 3 47.5 15t17.5 40q0 36 -34 36q-21 0 -47 -13l-11 30q30 18 63 18q32 0 51 -19t19 -51
q0 -34 -19 -54.5t-53 -25.5l-8 -54h-36z" />
    <glyph glyph-name="uni1EB5" unicode="&#x1eb5;" horiz-adv-x="469" 
d="M339 744.5q-12 6.5 -29 18.5q-12 10 -20.5 15t-18.5 5q-15 0 -25.5 -9t-26.5 -30l-24 17q38 59 76 59q13 0 23.5 -5t19 -11t11.5 -8q13 -10 22 -15t18 -5q13 0 25.5 10t26.5 32l25 -15q-35 -65 -76 -65q-15 0 -27 6.5zM230.5 622.5q-24.5 26.5 -24.5 67.5l29 4
q8 -59 65 -59t83 61l30 -9q-11 -40 -42 -65.5t-73 -25.5q-43 0 -67.5 26.5zM416 495l-55 -383q-4 -25 -4 -47q0 -16 5 -26t18 -17l-15 -33q-25 10 -37.5 27t-12.5 48q0 10 1 16q-59 -91 -139 -91q-62 0 -97 48t-35 133q0 86 25.5 169.5t80 138t136.5 54.5q68 0 129 -37z
M177 446q-44 -49 -65 -124t-21 -152q0 -69 23.5 -105t68.5 -36q73 0 136 107l48 339q-38 20 -81 20q-65 0 -109 -49z" />
    <glyph glyph-name="uni01CE" unicode="&#x1ce;" horiz-adv-x="469" 
d="M416 495l-55 -383q-4 -25 -4 -47q0 -16 5 -26t18 -17l-15 -33q-25 10 -37.5 27t-12.5 48q0 10 1 16q-59 -91 -139 -91q-62 0 -97 48t-35 133q0 86 25.5 169.5t80 138t136.5 54.5q68 0 129 -37zM177 446q-44 -49 -65 -124t-21 -152q0 -69 23.5 -105t68.5 -36q73 0 136 107
l48 339q-38 20 -81 20q-65 0 -109 -49zM418 762l20 -23l-120 -104h-27l-91 104l23 23l84 -84z" />
    <glyph glyph-name="acircumflex" unicode="&#xe2;" horiz-adv-x="469" 
d="M416 495l-55 -383q-4 -25 -4 -47q0 -16 5 -26t18 -17l-15 -33q-25 10 -37.5 27t-12.5 48q0 10 1 16q-59 -91 -139 -91q-62 0 -97 48t-35 133q0 86 25.5 169.5t80 138t136.5 54.5q68 0 129 -37zM177 446q-44 -49 -65 -124t-21 -152q0 -69 23.5 -105t68.5 -36q73 0 136 107
l48 339q-38 20 -81 20q-65 0 -109 -49zM210 648l-21 23l120 104h27l91 -105l-24 -22l-83 84z" />
    <glyph glyph-name="uni1EA5" unicode="&#x1ea5;" horiz-adv-x="469" 
d="M472 832l30 -28l-117 -120l-19 18zM193 585l-19 23l120 100h27l91 -101l-22 -22l-86 80zM416 495l-55 -383q-4 -25 -4 -47q0 -16 5 -26t18 -17l-15 -33q-25 10 -37.5 27t-12.5 48q0 10 1 16q-59 -91 -139 -91q-62 0 -97 48t-35 133q0 86 25.5 169.5t80 138t136.5 54.5
q68 0 129 -37zM177 446q-44 -49 -65 -124t-21 -152q0 -69 23.5 -105t68.5 -36q73 0 136 107l48 339q-38 20 -81 20q-65 0 -109 -49z" />
    <glyph glyph-name="uni1EAD" unicode="&#x1ead;" horiz-adv-x="469" 
d="M416 495l-55 -383q-4 -25 -4 -47q0 -16 5 -26t18 -17l-15 -33q-25 10 -37.5 27t-12.5 48q0 10 1 16q-59 -91 -139 -91q-62 0 -97 48t-35 133q0 86 25.5 169.5t80 138t136.5 54.5q68 0 129 -37zM177 446q-44 -49 -65 -124t-21 -152q0 -69 23.5 -105t68.5 -36q73 0 136 107
l48 339q-38 20 -81 20q-65 0 -109 -49zM210 648l-21 23l120 104h27l91 -105l-24 -22l-83 84zM225.5 -99.5q8.5 -8.5 8.5 -21.5q0 -16 -10.5 -26.5t-26.5 -10.5q-13 0 -21.5 8t-8.5 21q0 16 10.5 27t26.5 11q13 0 21.5 -8.5z" />
    <glyph glyph-name="uni1EA7" unicode="&#x1ea7;" horiz-adv-x="469" 
d="M171 831l70 -132l-24 -15l-83 124zM194 585l-19 23l120 100h27l91 -101l-22 -22l-86 80zM416 495l-55 -383q-4 -25 -4 -47q0 -16 5 -26t18 -17l-15 -33q-25 10 -37.5 27t-12.5 48q0 10 1 16q-59 -91 -139 -91q-62 0 -97 48t-35 133q0 86 25.5 169.5t80 138t136.5 54.5
q68 0 129 -37zM177 446q-44 -49 -65 -124t-21 -152q0 -69 23.5 -105t68.5 -36q73 0 136 107l48 339q-38 20 -81 20q-65 0 -109 -49z" />
    <glyph glyph-name="uni1EA9" unicode="&#x1ea9;" horiz-adv-x="469" 
d="M416 495l-55 -383q-4 -25 -4 -47q0 -16 5 -26t18 -17l-15 -33q-25 10 -37.5 27t-12.5 48q0 10 1 16q-59 -91 -139 -91q-62 0 -97 48t-35 133q0 86 25.5 169.5t80 138t136.5 54.5q68 0 129 -37zM177 446q-44 -49 -65 -124t-21 -152q0 -69 23.5 -105t68.5 -36q73 0 136 107
l48 339q-38 20 -81 20q-65 0 -109 -49zM192 585l-19 23l120 100h27l91 -101l-22 -22l-86 80zM400 757q30 3 47.5 15t17.5 40q0 36 -34 36q-21 0 -47 -13l-11 30q30 18 63 18q32 0 51 -19t19 -51q0 -34 -19 -54.5t-53 -25.5l-8 -54h-36z" />
    <glyph glyph-name="uni1EAB" unicode="&#x1eab;" horiz-adv-x="469" 
d="M341 739.5q-12 6.5 -29 18.5q-12 10 -20.5 15t-18.5 5q-15 0 -25.5 -8.5t-26.5 -30.5l-24 17q38 59 76 59q13 0 23.5 -5t19 -11t11.5 -8q13 -10 22 -15t18 -5q13 0 25.5 10t26.5 32l25 -15q-35 -65 -76 -65q-15 0 -27 6.5zM198 575l-19 23l120 100h27l91 -101l-22 -22
l-86 80zM416 495l-55 -383q-4 -25 -4 -47q0 -16 5 -26t18 -17l-15 -33q-25 10 -37.5 27t-12.5 48q0 10 1 16q-59 -91 -139 -91q-62 0 -97 48t-35 133q0 86 25.5 169.5t80 138t136.5 54.5q68 0 129 -37zM177 446q-44 -49 -65 -124t-21 -152q0 -69 23.5 -105t68.5 -36
q73 0 136 107l48 339q-38 20 -81 20q-65 0 -109 -49z" />
    <glyph glyph-name="uni0201" unicode="&#x201;" horiz-adv-x="469" 
d="M416 495l-55 -383q-4 -25 -4 -47q0 -16 5 -26t18 -17l-15 -33q-25 10 -37.5 27t-12.5 48q0 10 1 16q-59 -91 -139 -91q-62 0 -97 48t-35 133q0 86 25.5 169.5t80 138t136.5 54.5q68 0 129 -37zM177 446q-44 -49 -65 -124t-21 -152q0 -69 23.5 -105t68.5 -36q73 0 136 107
l48 339q-38 20 -81 20q-65 0 -109 -49zM229 803l44 -146l-32 -12l-57 139zM332 802l39 -141l-33 -11l-52 134z" />
    <glyph glyph-name="adieresis" unicode="&#xe4;" horiz-adv-x="469" 
d="M416 495l-55 -383q-4 -25 -4 -47q0 -16 5 -26t18 -17l-15 -33q-25 10 -37.5 27t-12.5 48q0 10 1 16q-59 -91 -139 -91q-62 0 -97 48t-35 133q0 86 25.5 169.5t80 138t136.5 54.5q68 0 129 -37zM177 446q-44 -49 -65 -124t-21 -152q0 -69 23.5 -105t68.5 -36q73 0 136 107
l48 339q-38 20 -81 20q-65 0 -109 -49zM213.5 675q-7.5 8 -7.5 20q0 15 10 25.5t25 10.5q13 0 20.5 -8t7.5 -20q0 -16 -10 -26t-25 -10q-13 0 -20.5 8zM366.5 675q-7.5 8 -7.5 20q0 15 10 25.5t24 10.5q13 0 20.5 -8t7.5 -20q0 -16 -9.5 -26t-24.5 -10q-13 0 -20.5 8z" />
    <glyph glyph-name="uni01DF" unicode="&#x1df;" horiz-adv-x="469" 
d="M416 495l-55 -383q-4 -25 -4 -47q0 -16 5 -26t18 -17l-15 -33q-25 10 -37.5 27t-12.5 48q0 10 1 16q-59 -91 -139 -91q-62 0 -97 48t-35 133q0 86 25.5 169.5t80 138t136.5 54.5q68 0 129 -37zM177 446q-44 -49 -65 -124t-21 -152q0 -69 23.5 -105t68.5 -36q73 0 136 107
l48 339q-38 20 -81 20q-65 0 -109 -49zM205.5 645q-7.5 8 -7.5 20q0 15 10 25.5t25 10.5q13 0 20.5 -8t7.5 -20q0 -16 -10 -26t-25 -10q-13 0 -20.5 8zM358.5 645q-7.5 8 -7.5 20q0 15 10 25.5t24 10.5q13 0 20.5 -8t7.5 -20q0 -16 -9.5 -26t-24.5 -10q-13 0 -20.5 8z
M412 766h-192l6 39h192z" />
    <glyph glyph-name="uni0227" unicode="&#x227;" horiz-adv-x="469" 
d="M416 495l-55 -383q-4 -25 -4 -47q0 -16 5 -26t18 -17l-15 -33q-25 10 -37.5 27t-12.5 48q0 10 1 16q-59 -91 -139 -91q-62 0 -97 48t-35 133q0 86 25.5 169.5t80 138t136.5 54.5q68 0 129 -37zM177 446q-44 -49 -65 -124t-21 -152q0 -69 23.5 -105t68.5 -36q73 0 136 107
l48 339q-38 20 -81 20q-65 0 -109 -49zM288.5 683.5q-8.5 8.5 -8.5 21.5q0 16 10.5 26.5t26.5 10.5q13 0 21.5 -8t8.5 -21q0 -16 -10.5 -27t-26.5 -11q-13 0 -21.5 8.5z" />
    <glyph glyph-name="uni1EA1" unicode="&#x1ea1;" horiz-adv-x="469" 
d="M416 495l-55 -383q-4 -25 -4 -47q0 -16 5 -26t18 -17l-15 -33q-25 10 -37.5 27t-12.5 48q0 10 1 16q-59 -91 -139 -91q-62 0 -97 48t-35 133q0 86 25.5 169.5t80 138t136.5 54.5q68 0 129 -37zM177 446q-44 -49 -65 -124t-21 -152q0 -69 23.5 -105t68.5 -36q73 0 136 107
l48 339q-38 20 -81 20q-65 0 -109 -49zM225.5 -99.5q8.5 -8.5 8.5 -21.5q0 -16 -10.5 -26.5t-26.5 -10.5q-13 0 -21.5 8t-8.5 21q0 16 10.5 27t26.5 11q13 0 21.5 -8.5z" />
    <glyph glyph-name="uni01E1" unicode="&#x1e1;" horiz-adv-x="469" 
d="M416 495l-55 -383q-4 -25 -4 -47q0 -16 5 -26t18 -17l-15 -33q-25 10 -37.5 27t-12.5 48q0 10 1 16q-59 -91 -139 -91q-62 0 -97 48t-35 133q0 86 25.5 169.5t80 138t136.5 54.5q68 0 129 -37zM177 446q-44 -49 -65 -124t-21 -152q0 -69 23.5 -105t68.5 -36q73 0 136 107
l48 339q-38 20 -81 20q-65 0 -109 -49zM280.5 633.5q-8.5 8.5 -8.5 21.5q0 16 10.5 26.5t26.5 10.5q13 0 21.5 -8t8.5 -21q0 -16 -10.5 -27t-26.5 -11q-13 0 -21.5 8.5zM414 753h-192l6 39h192z" />
    <glyph glyph-name="agrave" unicode="&#xe0;" horiz-adv-x="469" 
d="M416 495l-55 -383q-4 -25 -4 -47q0 -16 5 -26t18 -17l-15 -33q-25 10 -37.5 27t-12.5 48q0 10 1 16q-59 -91 -139 -91q-62 0 -97 48t-35 133q0 86 25.5 169.5t80 138t136.5 54.5q68 0 129 -37zM177 446q-44 -49 -65 -124t-21 -152q0 -69 23.5 -105t68.5 -36q73 0 136 107
l48 339q-38 20 -81 20q-65 0 -109 -49zM269 773l137 -100l-17 -25l-147 84z" />
    <glyph glyph-name="uni1EA3" unicode="&#x1ea3;" horiz-adv-x="469" 
d="M416 495l-55 -383q-4 -25 -4 -47q0 -16 5 -26t18 -17l-15 -33q-25 10 -37.5 27t-12.5 48q0 10 1 16q-59 -91 -139 -91q-62 0 -97 48t-35 133q0 86 25.5 169.5t80 138t136.5 54.5q68 0 129 -37zM177 446q-44 -49 -65 -124t-21 -152q0 -69 23.5 -105t68.5 -36q73 0 136 107
l48 339q-38 20 -81 20q-65 0 -109 -49zM291 697q30 3 47.5 15t17.5 40q0 36 -34 36q-21 0 -47 -13l-11 30q30 18 63 18q32 0 51 -19t19 -51q0 -34 -19 -54.5t-53 -25.5l-8 -54h-36z" />
    <glyph glyph-name="uni0203" unicode="&#x203;" horiz-adv-x="469" 
d="M416 495l-55 -383q-4 -25 -4 -47q0 -16 5 -26t18 -17l-15 -33q-25 10 -37.5 27t-12.5 48q0 10 1 16q-59 -91 -139 -91q-62 0 -97 48t-35 133q0 86 25.5 169.5t80 138t136.5 54.5q68 0 129 -37zM177 446q-44 -49 -65 -124t-21 -152q0 -69 23.5 -105t68.5 -36q73 0 136 107
l48 339q-38 20 -81 20q-65 0 -109 -49zM198 635q13 47 43.5 74t71.5 27q43 0 68.5 -28.5t24.5 -75.5l-31 -4q-6 69 -64 69t-85 -71z" />
    <glyph glyph-name="uni0251" unicode="&#x251;" horiz-adv-x="468" 
d="M356 65q0 -16 5 -26t18 -17l-15 -33q-25 10 -37.5 27t-12.5 48q0 10 1 16q-59 -91 -139 -91q-62 0 -97 48t-35 133q0 83 26 167.5t75.5 139.5t116.5 55q74 0 105 -78l17 68h35l-59 -410q-4 -25 -4 -47zM356 396q-13 54 -37.5 76t-58.5 22q-50 0 -89 -49.5t-60 -125
t-21 -149.5q0 -69 23.5 -105t68.5 -36q73 0 137 107z" />
    <glyph glyph-name="uni0252" unicode="&#x252;" horiz-adv-x="468" 
d="M389 485q35 -48 35 -133q0 -83 -26 -167.5t-75.5 -139.5t-116.5 -55q-74 0 -105 78l-17 -68h-35l59 410q4 25 4 47q0 16 -5 26t-18 17l15 33q25 -10 37.5 -27t12.5 -48q0 -10 -1 -16q60 91 139 91q62 0 97 -48zM297 77.5q39 49.5 60 125t21 149.5q0 69 -23.5 105
t-68.5 36q-73 0 -137 -107l-37 -260q13 -54 37.5 -76t58.5 -22q50 0 89 49.5z" />
    <glyph glyph-name="amacron" unicode="&#x101;" horiz-adv-x="469" 
d="M416 495l-55 -383q-4 -25 -4 -47q0 -16 5 -26t18 -17l-15 -33q-25 10 -37.5 27t-12.5 48q0 10 1 16q-59 -91 -139 -91q-62 0 -97 48t-35 133q0 86 25.5 169.5t80 138t136.5 54.5q68 0 129 -37zM177 446q-44 -49 -65 -124t-21 -152q0 -69 23.5 -105t68.5 -36q73 0 136 107
l48 339q-38 20 -81 20q-65 0 -109 -49zM406 679h-192l6 39h192z" />
    <glyph glyph-name="aogonek" unicode="&#x105;" horiz-adv-x="469" 
d="M357 65q0 -16 5 -26t18 -17l-15 -33q-64 -32 -90.5 -61t-26.5 -68q0 -44 45 -44q16 0 48 5l-9 -38q-24 -6 -45 -6q-37 0 -59 21.5t-22 58.5q0 46 31 81t102 66q-24 19 -24 59q0 11 1 17q-59 -91 -139 -91q-62 0 -97 48t-35 133q0 86 25.5 169.5t80 138t136.5 54.5
q68 0 129 -37l-55 -383q-4 -25 -4 -47zM367 475q-38 20 -81 20q-65 0 -109 -49t-65 -124t-21 -152q0 -69 23.5 -105t68.5 -36q73 0 136 107z" />
    <glyph glyph-name="aring" unicode="&#xe5;" horiz-adv-x="469" 
d="M416 495l-55 -383q-4 -25 -4 -47q0 -16 5 -26t18 -17l-15 -33q-25 10 -37.5 27t-12.5 48q0 10 1 16q-59 -91 -139 -91q-62 0 -97 48t-35 133q0 86 25.5 169.5t80 138t136.5 54.5q68 0 129 -37zM177 446q-44 -49 -65 -124t-21 -152q0 -69 23.5 -105t68.5 -36q73 0 136 107
l48 339q-38 20 -81 20q-65 0 -109 -49zM377.5 793.5q19.5 -21.5 19.5 -55.5q0 -45 -26 -73.5t-64 -28.5q-32 0 -51.5 21.5t-19.5 55.5q0 45 26 73.5t64 28.5q32 0 51.5 -21.5zM285 765q-15 -20 -15 -52q0 -22 10.5 -34.5t27.5 -12.5q26 0 40.5 20t14.5 52q0 22 -10 34.5
t-28 12.5q-25 0 -40 -20z" />
    <glyph glyph-name="aringacute" unicode="&#x1fb;" horiz-adv-x="469" 
d="M416 495l-55 -383q-4 -25 -4 -47q0 -16 5 -26t18 -17l-15 -33q-25 10 -37.5 27t-12.5 48q0 10 1 16q-59 -91 -139 -91q-62 0 -97 48t-35 133q0 86 25.5 169.5t80 138t136.5 54.5q68 0 129 -37zM177 446q-44 -49 -65 -124t-21 -152q0 -69 23.5 -105t68.5 -36q73 0 136 107
l48 339q-38 20 -81 20q-65 0 -109 -49zM369.5 745.5q19.5 -21.5 19.5 -55.5q0 -45 -26 -73.5t-64 -28.5q-32 0 -51.5 21.5t-19.5 55.5q0 45 26 73.5t64 28.5q32 0 51.5 -21.5zM277 717q-15 -20 -15 -52q0 -22 10.5 -34.5t27.5 -12.5q26 0 40.5 20t14.5 52q0 22 -10 34.5
t-28 12.5q-25 0 -40 -20zM393 893l20 -41l-170 -75l-14 27z" />
    <glyph glyph-name="uni2C65" unicode="&#x2c65;" horiz-adv-x="469" 
d="M357 65q0 -16 5 -26t18 -17l-15 -33q-24 7 -37 24t-13 48q0 12 1 19q-59 -91 -139 -91q-13 0 -35 4l-23 -63l-25 8l24 65q-35 20 -54 62.5t-19 104.5q0 86 25.5 169.5t80 138t136.5 54.5q16 0 24 -1l22 60l25 -8l-21 -56q42 -9 79 -32l-55 -383q-4 -25 -4 -47zM133 45
l165 450h-12q-65 0 -109 -49t-65 -124t-21 -152q0 -93 42 -125zM368 475q-16 9 -44 16l-167 -458q11 -4 26 -4q73 0 136 107z" />
    <glyph glyph-name="atilde" unicode="&#xe3;" horiz-adv-x="469" 
d="M416 495l-55 -383q-4 -25 -4 -47q0 -16 5 -26t18 -17l-15 -33q-25 10 -37.5 27t-12.5 48q0 10 1 16q-59 -91 -139 -91q-62 0 -97 48t-35 133q0 86 25.5 169.5t80 138t136.5 54.5q68 0 129 -37zM177 446q-44 -49 -65 -124t-21 -152q0 -69 23.5 -105t68.5 -36q73 0 136 107
l48 339q-38 20 -81 20q-65 0 -109 -49zM336 676.5q-12 6.5 -29 18.5q-12 10 -20.5 15t-18.5 5q-15 0 -25.5 -8.5t-26.5 -30.5l-24 17q38 59 76 59q13 0 23.5 -5t19 -11t11.5 -8q13 -10 22 -15t18 -5q13 0 25.5 10t26.5 32l25 -15q-35 -65 -76 -65q-15 0 -27 6.5z" />
    <glyph glyph-name="uni0250" unicode="&#x250;" horiz-adv-x="435" 
d="M116 133q-2 -20 -2 -27q0 -38 20 -57.5t63 -19.5q30 0 57.5 7.5t60.5 22.5l13 -35q-37 -18 -69 -26.5t-67 -8.5q-61 0 -92.5 30t-31.5 84q0 9 2 29l38 277q4 25 4 46q0 16 -5 26t-18 17l15 33q26 -10 38.5 -28.5t11.5 -54.5q58 84 141 84q54 0 85.5 -34.5t31.5 -93.5
q0 -92 -56.5 -143.5t-144.5 -51.5h-85zM131 245h78q71 0 113 41.5t42 116.5q0 44 -20 67.5t-56 23.5q-41 0 -74 -25t-63 -74z" />
    <glyph glyph-name="ae" unicode="&#xe6;" horiz-adv-x="681" 
d="M366 432q30 47 72.5 73.5t95.5 26.5q59 0 91.5 -32t32.5 -85q0 -181 -312 -206q-1 -10 -1 -29q0 -69 24 -109.5t77 -40.5q34 0 63 12.5t62 38.5l21 -30q-37 -31 -72.5 -46.5t-76.5 -15.5q-48 0 -82 25.5t-49 73.5q-43 -54 -83.5 -76.5t-82.5 -22.5q-58 0 -90 36t-32 96
q0 76 48.5 128.5t152.5 52.5h88q10 45 25 79q-16 113 -104 113q-27 0 -55 -7.5t-64 -23.5l-9 36q76 33 133 33q96 0 127 -100zM408.5 422q-46.5 -72 -58.5 -176q132 11 197.5 52t65.5 116q0 38 -20 59t-62 21q-76 0 -122.5 -72zM228 267q-82 0 -119.5 -40.5t-37.5 -105.5
q0 -44 21 -69t58 -25q38 0 74.5 24t77.5 78q-4 19 -4 50q0 40 8 88h-78z" />
    <glyph glyph-name="aeacute" unicode="&#x1fd;" horiz-adv-x="681" 
d="M366 432q30 47 72.5 73.5t95.5 26.5q59 0 91.5 -32t32.5 -85q0 -181 -312 -206q-1 -10 -1 -29q0 -69 24 -109.5t77 -40.5q34 0 63 12.5t62 38.5l21 -30q-37 -31 -72.5 -46.5t-76.5 -15.5q-48 0 -82 25.5t-49 73.5q-43 -54 -83.5 -76.5t-82.5 -22.5q-58 0 -90 36t-32 96
q0 76 48.5 128.5t152.5 52.5h88q10 45 25 79q-16 113 -104 113q-27 0 -55 -7.5t-64 -23.5l-9 36q76 33 133 33q96 0 127 -100zM408.5 422q-46.5 -72 -58.5 -176q132 11 197.5 52t65.5 116q0 38 -20 59t-62 21q-76 0 -122.5 -72zM228 267q-82 0 -119.5 -40.5t-37.5 -105.5
q0 -44 21 -69t58 -25q38 0 74.5 24t77.5 78q-4 19 -4 50q0 40 8 88h-78zM470 774l20 -42l-170 -84l-15 26z" />
    <glyph glyph-name="uni01E3" unicode="&#x1e3;" horiz-adv-x="681" 
d="M366 432q30 47 72.5 73.5t95.5 26.5q59 0 91.5 -32t32.5 -85q0 -181 -312 -206q-1 -10 -1 -29q0 -69 24 -109.5t77 -40.5q34 0 63 12.5t62 38.5l21 -30q-37 -31 -72.5 -46.5t-76.5 -15.5q-48 0 -82 25.5t-49 73.5q-43 -54 -83.5 -76.5t-82.5 -22.5q-58 0 -90 36t-32 96
q0 76 48.5 128.5t152.5 52.5h88q10 45 25 79q-16 113 -104 113q-27 0 -55 -7.5t-64 -23.5l-9 36q76 33 133 33q96 0 127 -100zM408.5 422q-46.5 -72 -58.5 -176q132 11 197.5 52t65.5 116q0 38 -20 59t-62 21q-76 0 -122.5 -72zM228 267q-82 0 -119.5 -40.5t-37.5 -105.5
q0 -44 21 -69t58 -25q38 0 74.5 24t77.5 78q-4 19 -4 50q0 40 8 88h-78zM489 679h-192l6 39h192z" />
    <glyph glyph-name="b" unicode="b" horiz-adv-x="475" 
d="M398.5 487.5q32.5 -44.5 32.5 -126.5q0 -87 -24 -172t-77 -142.5t-136 -57.5q-36 0 -68.5 8t-71.5 26l101 712l45 6l-40 -290q34 39 69.5 60t76.5 21q60 0 92.5 -44.5zM153 401l-50 -352q45 -20 94 -20q67 0 109 53t60.5 130.5t18.5 153.5q0 64 -22 95.5t-64 31.5
q-72 0 -146 -92z" />
    <glyph glyph-name="uni1E03" unicode="&#x1e03;" horiz-adv-x="475" 
d="M398.5 487.5q32.5 -44.5 32.5 -126.5q0 -87 -24 -172t-77 -142.5t-136 -57.5q-36 0 -68.5 8t-71.5 26l101 712l45 6l-40 -290q34 39 69.5 60t76.5 21q60 0 92.5 -44.5zM153 401l-50 -352q45 -20 94 -20q67 0 109 53t60.5 130.5t18.5 153.5q0 64 -22 95.5t-64 31.5
q-72 0 -146 -92zM320.5 860.5q-8.5 8.5 -8.5 21.5q0 16 10.5 26.5t26.5 10.5q13 0 21.5 -8t8.5 -21q0 -16 -10.5 -27t-26.5 -11q-13 0 -21.5 8.5z" />
    <glyph glyph-name="uni1E05" unicode="&#x1e05;" horiz-adv-x="475" 
d="M398.5 487.5q32.5 -44.5 32.5 -126.5q0 -87 -24 -172t-77 -142.5t-136 -57.5q-36 0 -68.5 8t-71.5 26l101 712l45 6l-40 -290q34 39 69.5 60t76.5 21q60 0 92.5 -44.5zM153 401l-50 -352q45 -20 94 -20q67 0 109 53t60.5 130.5t18.5 153.5q0 64 -22 95.5t-64 31.5
q-72 0 -146 -92zM207.5 -99.5q8.5 -8.5 8.5 -21.5q0 -16 -10.5 -26.5t-26.5 -10.5q-13 0 -21.5 8t-8.5 21q0 16 10.5 27t26.5 11q13 0 21.5 -8.5z" />
    <glyph glyph-name="uniA7B5" unicode="&#xa7b5;" horiz-adv-x="483" 
d="M124 520q16 112 69 166.5t127 54.5q61 0 98.5 -39t37.5 -106q0 -78 -41 -133t-120 -65q60 -2 99.5 -44.5t39.5 -118.5q0 -59 -23 -116t-69 -93.5t-113 -36.5q-41 0 -73 18t-53 50l-35 -254l-46 -6zM318 59.5q36 30.5 53 77.5t17 96q0 71 -37.5 108.5t-106.5 37.5h-43
l10 38h43q52 0 87.5 25t53 66t17.5 88q0 53 -24.5 80t-68.5 27q-56 0 -96.5 -43.5t-53.5 -141.5l-59 -416q23 -39 51 -56t67 -17q54 0 90 30.5z" />
    <glyph glyph-name="uni0253" unicode="&#x253;" horiz-adv-x="475" 
d="M398.5 487.5q32.5 -44.5 32.5 -126.5q0 -87 -24 -172t-77 -142.5t-136 -57.5q-36 0 -68.5 8t-71.5 26l70 499h1l13 95q9 59 43.5 91.5t87.5 32.5t100 -30l-19 -32q-37 23 -79 23q-76 0 -89 -94l-12 -87l-9 -70q33 39 68.5 60t76.5 21q60 0 92.5 -44.5zM363 461.5
q-22 31.5 -64 31.5q-72 0 -146 -92l-50 -352q45 -20 94 -20q67 0 109 53t60.5 130.5t18.5 153.5q0 64 -22 95.5z" />
    <glyph glyph-name="uni02AD" unicode="&#x2ad;" horiz-adv-x="276" 
d="M265 400h-37l13 91h-142l-13 -91h-36l18 126h215zM208 0h-37l13 91h-142l-13 -91h-36l18 126h215z" />
    <glyph glyph-name="uni0298" unicode="&#x298;" horiz-adv-x="656" 
d="M558 627q59 -67 59 -191q0 -128 -41 -229.5t-117.5 -159.5t-177.5 -58q-102 0 -161 68.5t-59 190.5q0 127 42.5 228.5t119 159.5t174.5 58q102 0 161 -67zM242 602q-66 -53 -101 -145t-35 -207q0 -107 47 -164t130 -57q90 0 155.5 52.5t100 145t34.5 209.5
q0 108 -46.5 163.5t-130.5 55.5q-88 0 -154 -53zM314.5 315.5q-8.5 8.5 -8.5 21.5q0 16 10.5 26.5t26.5 10.5q13 0 21.5 -8t8.5 -21q0 -16 -10.5 -27t-26.5 -11q-13 0 -21.5 8.5z" />
    <glyph glyph-name="uni02AC" unicode="&#x2ac;" horiz-adv-x="380" 
d="M398 662l-93 -262h-45l-18 225l-81 -225h-45l-23 262h35l14 -229l84 229h41l19 -230l78 230h34zM342 262l-93 -262h-45l-18 225l-81 -225h-45l-23 262h35l14 -229l84 229h41l19 -230l78 230h34z" />
    <glyph glyph-name="uni0180" unicode="&#x180;" horiz-adv-x="480" 
d="M403.5 487.5q32.5 -44.5 32.5 -126.5q0 -87 -24 -172t-77 -142.5t-136 -57.5q-36 0 -68.5 8t-71.5 26l85 598h-61l6 37h60l11 77l45 6l-11 -83h141l-12 -37h-135l-23 -170q34 39 69.5 60t76.5 21q60 0 92.5 -44.5zM368 461.5q-22 31.5 -64 31.5q-72 0 -146 -92l-50 -352
q45 -20 94 -20q67 0 109 53t60.5 130.5t18.5 153.5q0 64 -22 95.5z" />
    <glyph glyph-name="uni0183" unicode="&#x183;" horiz-adv-x="475" 
d="M398.5 487.5q32.5 -44.5 32.5 -126.5q0 -87 -24 -172t-77 -142.5t-136 -57.5q-36 0 -68.5 8t-71.5 26l101 712h240l-13 -38h-187l-35 -246q34 39 69.5 60t76.5 21q60 0 92.5 -44.5zM363 461.5q-22 31.5 -64 31.5q-72 0 -146 -92l-50 -352q45 -20 94 -20q67 0 109 53
t60.5 130.5t18.5 153.5q0 64 -22 95.5z" />
    <glyph glyph-name="c" unicode="c" horiz-adv-x="384" 
d="M340.5 519.5q26.5 -12.5 51.5 -39.5l-27 -27q-20 20 -40 30t-48 10q-63 0 -104.5 -49t-60.5 -121.5t-19 -145.5t26.5 -110t74.5 -37q29 0 54 11t53 32l20 -30q-64 -54 -129 -54q-68 0 -107 49.5t-39 139.5q0 83 25 164.5t77.5 135.5t129.5 54q36 0 62.5 -12.5z" />
    <glyph glyph-name="cacute" unicode="&#x107;" horiz-adv-x="384" 
d="M340.5 519.5q26.5 -12.5 51.5 -39.5l-27 -27q-20 20 -40 30t-48 10q-63 0 -104.5 -49t-60.5 -121.5t-19 -145.5t26.5 -110t74.5 -37q29 0 54 11t53 32l20 -30q-64 -54 -129 -54q-68 0 -107 49.5t-39 139.5q0 83 25 164.5t77.5 135.5t129.5 54q36 0 62.5 -12.5zM371 774
l20 -42l-170 -84l-15 26z" />
    <glyph glyph-name="ccaron" unicode="&#x10d;" horiz-adv-x="384" 
d="M340.5 519.5q26.5 -12.5 51.5 -39.5l-27 -27q-20 20 -40 30t-48 10q-63 0 -104.5 -49t-60.5 -121.5t-19 -145.5t26.5 -110t74.5 -37q29 0 54 11t53 32l20 -30q-64 -54 -129 -54q-68 0 -107 49.5t-39 139.5q0 83 25 164.5t77.5 135.5t129.5 54q36 0 62.5 -12.5zM402 762
l20 -23l-120 -104h-27l-91 104l23 23l84 -84z" />
    <glyph glyph-name="ccedilla" unicode="&#xe7;" horiz-adv-x="384" 
d="M172.5 444q-41.5 -49 -60.5 -121.5t-19 -145.5t26.5 -110t74.5 -37q29 0 54 11t53 32l20 -30q-61 -51 -122 -54l-10 -57q67 -7 67 -68q0 -38 -25.5 -62t-67.5 -24q-40 0 -65 21l17 28q24 -14 48 -14t38.5 12.5t14.5 36.5q0 23 -14.5 33t-52.5 10l18 86q-57 9 -89 57.5
t-32 129.5q0 83 25 164.5t77.5 135.5t129.5 54q36 0 62.5 -12.5t51.5 -39.5l-27 -27q-20 20 -40 30t-48 10q-63 0 -104.5 -49z" />
    <glyph glyph-name="ccircumflex" unicode="&#x109;" horiz-adv-x="384" 
d="M340.5 519.5q26.5 -12.5 51.5 -39.5l-27 -27q-20 20 -40 30t-48 10q-63 0 -104.5 -49t-60.5 -121.5t-19 -145.5t26.5 -110t74.5 -37q29 0 54 11t53 32l20 -30q-64 -54 -129 -54q-68 0 -107 49.5t-39 139.5q0 83 25 164.5t77.5 135.5t129.5 54q36 0 62.5 -12.5zM194 648
l-21 23l120 104h27l91 -105l-24 -22l-83 84z" />
    <glyph glyph-name="uni0255" unicode="&#x255;" horiz-adv-x="388" 
d="M340.5 519.5q26.5 -12.5 51.5 -39.5l-27 -27q-20 21 -40 30.5t-48 9.5q-63 0 -104.5 -49t-60.5 -121.5t-19 -144.5q0 -69 26 -109q35 77 70 109t76 32q39 0 61.5 -23.5t22.5 -63.5q0 -61 -41 -97.5t-106 -36.5q-44 0 -77 19l-39 -71l-28 15l39 77q-24 26 -37.5 64.5
t-13.5 84.5q0 83 25 164.5t77.5 135.5t129.5 54q36 0 62.5 -12.5zM206.5 146.5q-26.5 -28.5 -61.5 -101.5q27 -15 61 -15q45 0 74 23.5t29 69.5q0 24 -11.5 38t-33.5 14q-31 0 -57.5 -28.5z" />
    <glyph glyph-name="cdotaccent" unicode="&#x10b;" horiz-adv-x="384" 
d="M340.5 519.5q26.5 -12.5 51.5 -39.5l-27 -27q-20 20 -40 30t-48 10q-63 0 -104.5 -49t-60.5 -121.5t-19 -145.5t26.5 -110t74.5 -37q29 0 54 11t53 32l20 -30q-64 -54 -129 -54q-68 0 -107 49.5t-39 139.5q0 83 25 164.5t77.5 135.5t129.5 54q36 0 62.5 -12.5z
M272.5 683.5q-8.5 8.5 -8.5 21.5q0 16 10.5 26.5t26.5 10.5q13 0 21.5 -8t8.5 -21q0 -16 -10.5 -27t-26.5 -11q-13 0 -21.5 8.5z" />
    <glyph glyph-name="uni0188" unicode="&#x188;" horiz-adv-x="384" 
d="M561 707l-23 -28q-28 23 -58 23q-58 0 -69 -79l-19 -143l-24 -24q-22 19 -43 28t-48 9q-63 0 -104.5 -49t-60.5 -121.5t-19 -145.5t26.5 -110t74.5 -37q29 0 54 11t53 32l20 -30q-64 -54 -129 -54q-68 0 -107 49.5t-39 139.5q0 82 25 164t76.5 136t127.5 54q46 0 78 -22
l16 116q7 56 36 85.5t75 29.5q45 0 81 -34z" />
    <glyph glyph-name="uni0297" unicode="&#x297;" horiz-adv-x="403" 
d="M359.5 519.5q26.5 -12.5 51.5 -39.5l-27 -27q-20 21 -40 30.5t-48 9.5q-62 0 -108.5 -68t-71 -175.5t-24.5 -224.5q0 -103 25.5 -147t75.5 -44q30 0 55 11t52 32l20 -30q-64 -54 -129 -54q-146 0 -146 233q0 137 30.5 252.5t88 184.5t133.5 69q36 0 62.5 -12.5z" />
    <glyph glyph-name="uni023C" unicode="&#x23c;" horiz-adv-x="384" 
d="M324 484l-164 -448q15 -6 34 -6q29 0 54 11t53 32l20 -30q-64 -54 -129 -54q-27 0 -47 7l-24 -66l-24 8l25 68q-36 21 -56 65t-20 107q0 83 25 164.5t77.5 135.5t129.5 54q19 0 34 -3l23 62l25 -8l-23 -62q29 -11 55 -41l-27 -27q-22 22 -41 31zM299 491q-14 2 -22 2
q-63 0 -104.5 -49t-60.5 -121.5t-19 -145.5q0 -94 44 -129z" />
    <glyph glyph-name="d" unicode="d" horiz-adv-x="475" 
d="M455 735l-104 -735h-38l10 108q-66 -119 -152 -119q-59 0 -92.5 48t-33.5 134q0 83 24.5 166.5t74 139t119.5 55.5q75 0 109 -69l38 278zM170.5 444.5q-39.5 -49.5 -59.5 -124.5t-20 -149q0 -69 22.5 -105.5t63.5 -36.5q45 0 81 38.5t74 112.5l32 232q-14 39 -37.5 60.5
t-61.5 21.5q-55 0 -94.5 -49.5z" />
    <glyph glyph-name="eth" unicode="&#xf0;" horiz-adv-x="469" 
d="M394.5 561.5q21.5 -58.5 21.5 -141.5q0 -106 -25 -205t-78 -162.5t-130 -63.5q-67 0 -103.5 46.5t-36.5 128.5q0 72 23.5 142t69.5 115t110 45q79 0 125 -80l1 30q0 74 -16 124t-53 94l-75 -77l-31 15l83 85q-45 36 -93 50l14 34q57 -16 106 -55l72 70l22 -24l-69 -69
q41 -43 62.5 -101.5zM367 327q-21 50 -49.5 75t-68.5 25q-54 0 -90 -39t-53 -99.5t-17 -124.5q0 -66 24 -100.5t71 -34.5q140 0 183 298z" />
    <glyph glyph-name="uni0238" unicode="&#x238;" horiz-adv-x="691" 
d="M614 484.5q31 -47.5 31 -135.5q0 -94 -23.5 -176.5t-68.5 -133t-106 -50.5q-77 0 -102 93l-17 -82h-34l7 84q-49 -95 -131 -95q-57 0 -90 51.5t-33 142.5q0 92 25 172t72 128.5t108 48.5q68 0 101 -78l39 281l46 6l-40 -286q27 38 58 57.5t70 19.5q57 0 88 -47.5z
M346 404q-20 45 -40.5 67t-51.5 22q-49 0 -85.5 -44.5t-55.5 -115.5t-19 -150q0 -74 21.5 -114t59.5 -40q40 0 72 29t63 92zM529 76q35 47 52 121t17 153q0 72 -20.5 107.5t-59.5 35.5q-36 0 -67 -23.5t-61 -67.5l-36 -262q26 -111 91 -111q49 0 84 47z" />
    <glyph glyph-name="dcaron" unicode="&#x10f;" horiz-adv-x="475" 
d="M455 735l-104 -735h-38l10 108q-66 -119 -152 -119q-59 0 -92.5 48t-33.5 134q0 83 24.5 166.5t74 139t119.5 55.5q75 0 109 -69l38 278zM170.5 444.5q-39.5 -49.5 -59.5 -124.5t-20 -149q0 -69 22.5 -105.5t63.5 -36.5q45 0 81 38.5t74 112.5l32 232q-14 39 -37.5 60.5
t-61.5 21.5q-55 0 -94.5 -49.5zM541 739l41 -5l-51 -156l-27 4z" />
    <glyph glyph-name="uni1E13" unicode="&#x1e13;" horiz-adv-x="475" 
d="M455 735l-104 -735h-38l10 108q-66 -119 -152 -119q-59 0 -92.5 48t-33.5 134q0 83 24.5 166.5t74 139t119.5 55.5q75 0 109 -69l38 278zM170.5 444.5q-39.5 -49.5 -59.5 -124.5t-20 -149q0 -69 22.5 -105.5t63.5 -36.5q45 0 81 38.5t74 112.5l32 232q-14 39 -37.5 60.5
t-61.5 21.5q-55 0 -94.5 -49.5zM77 -197l-20 23l121 104h27l90 -105l-21 -22l-88 84z" />
    <glyph glyph-name="dcroat" unicode="&#x111;" horiz-adv-x="483" 
d="M506 658l-6 -38h-61l-88 -620h-38l10 108q-66 -119 -152 -119q-59 0 -92.5 48t-33.5 134q0 83 24.5 166.5t74 139t119.5 55.5q75 0 109 -69l21 157h-130l2 38h134l11 83l45 -6l-11 -77h62zM364 412q-14 39 -37.5 60.5t-61.5 21.5q-55 0 -94.5 -49.5t-59.5 -124.5
t-20 -149q0 -69 22.5 -105.5t63.5 -36.5q45 0 81 38.5t74 112.5z" />
    <glyph glyph-name="uni0221" unicode="&#x221;" horiz-adv-x="560" 
d="M539.5 170.5q20.5 -21.5 20.5 -57.5q0 -56 -38.5 -90t-95.5 -34q-44 0 -70 21l-43 -73l-28 15l50 84q-15 29 -12 72q-67 -119 -152 -119q-59 0 -92.5 48t-33.5 134q0 83 24.5 166.5t74 139t119.5 55.5q75 0 109 -69l38 278l45 -6l-87 -613q-3 -19 -3 -35q30 56 57.5 80.5
t62.5 24.5q34 0 54.5 -21.5zM258.5 67.5q36.5 38.5 74.5 112.5l31 232q-14 39 -37.5 60.5t-61.5 21.5q-55 0 -94.5 -49.5t-59.5 -124.5t-20 -149q0 -69 22.5 -105.5t63.5 -36.5q45 0 81.5 38.5zM495 51q25 21 25 62q0 22 -10 33t-28 11q-25 0 -47 -22.5t-57 -87.5
q16 -17 53 -17q39 0 64 21z" />
    <glyph glyph-name="uni1E0B" unicode="&#x1e0b;" horiz-adv-x="475" 
d="M455 735l-104 -735h-38l10 108q-66 -119 -152 -119q-59 0 -92.5 48t-33.5 134q0 83 24.5 166.5t74 139t119.5 55.5q75 0 109 -69l38 278zM170.5 444.5q-39.5 -49.5 -59.5 -124.5t-20 -149q0 -69 22.5 -105.5t63.5 -36.5q45 0 81 38.5t74 112.5l32 232q-14 39 -37.5 60.5
t-61.5 21.5q-55 0 -94.5 -49.5zM306.5 860.5q-8.5 8.5 -8.5 21.5q0 16 10.5 26.5t26.5 10.5q13 0 21.5 -8t8.5 -21q0 -16 -10.5 -27t-26.5 -11q-13 0 -21.5 8.5z" />
    <glyph glyph-name="uni1E0D" unicode="&#x1e0d;" horiz-adv-x="475" 
d="M455 735l-104 -735h-38l10 108q-66 -119 -152 -119q-59 0 -92.5 48t-33.5 134q0 83 24.5 166.5t74 139t119.5 55.5q75 0 109 -69l38 278zM170.5 444.5q-39.5 -49.5 -59.5 -124.5t-20 -149q0 -69 22.5 -105.5t63.5 -36.5q45 0 81 38.5t74 112.5l32 232q-14 39 -37.5 60.5
t-61.5 21.5q-55 0 -94.5 -49.5zM207.5 -99.5q8.5 -8.5 8.5 -21.5q0 -16 -10.5 -26.5t-26.5 -10.5q-13 0 -21.5 8t-8.5 21q0 16 10.5 27t26.5 11q13 0 21.5 -8.5z" />
    <glyph glyph-name="uni018D" unicode="&#x18d;" horiz-adv-x="465" 
d="M21 -146l27 27q23 -24 47 -34.5t57 -10.5q54 0 80.5 25.5t26.5 67.5q0 30 -18.5 52t-66.5 46q-66 34 -95 77.5t-29 113.5q0 69 22.5 141.5t73 122.5t128.5 50q69 0 107.5 -49.5t38.5 -134.5q0 -112 -42 -187.5t-144 -122.5q37 -24 54 -49t17 -58q0 -57 -40.5 -95.5
t-112.5 -38.5q-82 0 -131 57zM337.5 175q36.5 70 36.5 174q0 67 -26.5 105.5t-75.5 38.5q-64 0 -103.5 -45t-55.5 -108t-16 -122q0 -60 22.5 -96t82.5 -67q99 50 135.5 120z" />
    <glyph glyph-name="uni02A4" unicode="&#x2a4;" horiz-adv-x="736" 
d="M718 486l-221 -290h7q170 0 170 -154q0 -72 -26.5 -127t-74 -86t-107.5 -31q-51 0 -86.5 21.5t-62.5 63.5l30 24q25 -37 53.5 -53.5t66.5 -16.5q74 0 117 57t43 147q0 64 -31 91.5t-98 27.5h-52l6 37l213 285h-246l-68 -482h-38l10 108q-66 -119 -152 -119
q-59 0 -92.5 48t-33.5 134q0 83 24.5 166.5t74 139t119.5 55.5q75 0 109 -69l38 278l45 -6l-30 -213h299zM364 412q-14 39 -37.5 60.5t-61.5 21.5q-55 0 -94.5 -49.5t-59.5 -124.5t-20 -149q0 -69 22.5 -105.5t63.5 -36.5q45 0 81 38.5t74 112.5z" />
    <glyph glyph-name="uni0257" unicode="&#x257;" horiz-adv-x="475" 
d="M553 731.5q19 -9.5 35 -24.5l-23 -27q-14 11 -26.5 16.5t-31.5 5.5q-56 0 -67 -77l-15 -103l-74 -522h-38l10 108q-66 -119 -152 -119q-59 0 -92.5 48t-33.5 134q0 83 24.5 166.5t74 139t119.5 55.5q75 0 109 -69l8 59l16 105q7 56 36 85t75 29q27 0 46 -9.5zM364 412
q-14 39 -37.5 60.5t-61.5 21.5q-55 0 -94.5 -49.5t-59.5 -124.5t-20 -149q0 -69 22.5 -105.5t63.5 -36.5q45 0 81 38.5t74 112.5z" />
    <glyph glyph-name="uni1E0F" unicode="&#x1e0f;" horiz-adv-x="475" 
d="M455 735l-104 -735h-38l10 108q-66 -119 -152 -119q-59 0 -92.5 48t-33.5 134q0 83 24.5 166.5t74 139t119.5 55.5q75 0 109 -69l38 278zM170.5 444.5q-39.5 -49.5 -59.5 -124.5t-20 -149q0 -69 22.5 -105.5t63.5 -36.5q45 0 81 38.5t74 112.5l32 232q-14 39 -37.5 60.5
t-61.5 21.5q-55 0 -94.5 -49.5zM91 -115h192l-6 -39h-192z" />
    <glyph glyph-name="uni0256" unicode="&#x256;" horiz-adv-x="475" 
d="M466 -171q-34 -31 -83 -31q-43 0 -66.5 24.5t-23.5 68.5q0 7 2 25l11 84l14 104q-30 -52 -66 -83.5t-83 -31.5q-59 0 -92.5 48t-33.5 134q0 83 24.5 166.5t74 139t119.5 55.5q75 0 109 -69l38 278l45 -6l-104 -735l-11 -89q-2 -16 -2 -22q0 -53 50 -53q16 0 29 5.5
t29 15.5zM258 67.5q36 38.5 74 112.5l32 232q-14 39 -37.5 60.5t-61.5 21.5q-55 0 -94.5 -49.5t-59.5 -124.5t-20 -149q0 -69 22.5 -105.5t63.5 -36.5q45 0 81 38.5z" />
    <glyph glyph-name="uni018C" unicode="&#x18c;" horiz-adv-x="475" 
d="M351 0h-38l10 108q-66 -119 -152 -119q-59 0 -92.5 48t-33.5 134q0 83 24.5 166.5t74 139t119.5 55.5q75 0 109 -69l33 234h-192l5 38h237zM364 412q-14 39 -37.5 60.5t-61.5 21.5q-55 0 -94.5 -49.5t-59.5 -124.5t-20 -149q0 -69 22.5 -105.5t63.5 -36.5q45 0 81 38.5
t74 112.5z" />
    <glyph glyph-name="uni01F3" unicode="&#x1f3;" horiz-adv-x="819" 
d="M455 735l-104 -735h-38l10 108q-66 -119 -152 -119q-59 0 -92.5 48t-33.5 134q0 83 24.5 166.5t74 139t119.5 55.5q75 0 109 -69l38 278zM170.5 444.5q-39.5 -49.5 -59.5 -124.5t-20 -149q0 -69 22.5 -105.5t63.5 -36.5q45 0 81 38.5t74 112.5l32 232q-14 39 -37.5 60.5
t-61.5 21.5q-55 0 -94.5 -49.5zM828 522l-6 -36l-304 -446h240l-11 -40h-287l6 36l304 445h-222l6 41h274z" />
    <glyph glyph-name="uni02A3" unicode="&#x2a3;" horiz-adv-x="708" 
d="M712 486l-304 -446h240l-12 -40h-323l10 108q-66 -119 -152 -119q-59 0 -92.5 48t-33.5 134q0 83 24.5 166.5t74 139t119.5 55.5q75 0 109 -69l38 278l45 -6l-30 -213h292zM364 412q-14 39 -37.5 60.5t-61.5 21.5q-55 0 -94.5 -49.5t-59.5 -124.5t-20 -149
q0 -69 22.5 -105.5t63.5 -36.5q45 0 81 38.5t74 112.5zM356 36l303 445h-240z" />
    <glyph glyph-name="uni01C6" unicode="&#x1c6;" horiz-adv-x="819" 
d="M455 735l-104 -735h-38l10 108q-66 -119 -152 -119q-59 0 -92.5 48t-33.5 134q0 83 24.5 166.5t74 139t119.5 55.5q75 0 109 -69l38 278zM170.5 444.5q-39.5 -49.5 -59.5 -124.5t-20 -149q0 -69 22.5 -105.5t63.5 -36.5q45 0 81 38.5t74 112.5l32 232q-14 39 -37.5 60.5
t-61.5 21.5q-55 0 -94.5 -49.5zM828 522l-6 -36l-304 -446h240l-11 -40h-287l6 36l304 445h-222l6 41h274zM820 762l20 -23l-120 -104h-27l-91 104l23 23l84 -84z" />
    <glyph glyph-name="uni02A5" unicode="&#x2a5;" horiz-adv-x="721" 
d="M680.5 28.5q-45.5 -27.5 -123.5 -28.5q-9 -51 -16 -109l-37 4q8 57 18 105h-209l10 108q-66 -119 -152 -119q-59 0 -92.5 48t-33.5 134q0 83 24.5 166.5t74 139t119.5 55.5q75 0 109 -69l38 278l45 -6l-30 -213h291l-5 -36l-305 -446h124q34 159 122 159q33 0 53.5 -20.5
t20.5 -56.5q0 -66 -45.5 -93.5zM364 412q-14 39 -37.5 60.5t-61.5 21.5q-55 0 -94.5 -49.5t-59.5 -124.5t-20 -149q0 -69 22.5 -105.5t63.5 -36.5q45 0 81 38.5t74 112.5zM419 481l-63 -443l302 443h-239zM659.5 59.5q27.5 18.5 27.5 62.5q0 43 -37 43q-29 0 -49.5 -30
t-34.5 -95h14q52 1 79.5 19.5z" />
    <glyph glyph-name="e" unicode="e" horiz-adv-x="428" 
d="M94 210q-1 -11 -1 -32q0 -76 26.5 -112t74.5 -36q33 0 62 12.5t62 38.5l21 -30q-36 -31 -72 -46.5t-76 -15.5q-69 0 -107 49t-38 139q0 88 26.5 169.5t80 133.5t129.5 52q59 0 91.5 -32t32.5 -85q0 -180 -312 -205zM156 421.5q-46 -72.5 -59 -176.5q132 12 198 53t66 116
q0 38 -20.5 59t-62.5 21q-76 0 -122 -72.5z" />
    <glyph glyph-name="eacute" unicode="&#xe9;" horiz-adv-x="428" 
d="M94 210q-1 -11 -1 -32q0 -76 26.5 -112t74.5 -36q33 0 62 12.5t62 38.5l21 -30q-36 -31 -72 -46.5t-76 -15.5q-69 0 -107 49t-38 139q0 88 26.5 169.5t80 133.5t129.5 52q59 0 91.5 -32t32.5 -85q0 -180 -312 -205zM156 421.5q-46 -72.5 -59 -176.5q132 12 198 53t66 116
q0 38 -20.5 59t-62.5 21q-76 0 -122 -72.5zM372 774l20 -42l-170 -84l-15 26z" />
    <glyph glyph-name="ebreve" unicode="&#x115;" horiz-adv-x="428" 
d="M94 210q-1 -11 -1 -32q0 -76 26.5 -112t74.5 -36q33 0 62 12.5t62 38.5l21 -30q-36 -31 -72 -46.5t-76 -15.5q-69 0 -107 49t-38 139q0 88 26.5 169.5t80 133.5t129.5 52q59 0 91.5 -32t32.5 -85q0 -180 -312 -205zM156 421.5q-46 -72.5 -59 -176.5q132 12 198 53t66 116
q0 38 -20.5 59t-62.5 21q-76 0 -122 -72.5zM225 685.5q-25 28.5 -23 74.5l30 4q6 -68 62 -68q29 0 51.5 18.5t34.5 52.5l29 -10q-11 -46 -42 -73t-74 -27t-68 28.5z" />
    <glyph glyph-name="ecaron" unicode="&#x11b;" horiz-adv-x="428" 
d="M94 210q-1 -11 -1 -32q0 -76 26.5 -112t74.5 -36q33 0 62 12.5t62 38.5l21 -30q-36 -31 -72 -46.5t-76 -15.5q-69 0 -107 49t-38 139q0 88 26.5 169.5t80 133.5t129.5 52q59 0 91.5 -32t32.5 -85q0 -180 -312 -205zM156 421.5q-46 -72.5 -59 -176.5q132 12 198 53t66 116
q0 38 -20.5 59t-62.5 21q-76 0 -122 -72.5zM403 762l20 -23l-120 -104h-27l-91 104l23 23l84 -84z" />
    <glyph glyph-name="uni0229" unicode="&#x229;" horiz-adv-x="428" 
d="M94 210q-1 -11 -1 -32q0 -76 26.5 -112t74.5 -36q33 0 62 12.5t62 38.5l21 -30q-35 -29 -68.5 -45t-70.5 -17l-10 -57q67 -7 67 -68q0 -38 -25.5 -62t-67.5 -24q-40 0 -65 21l17 28q24 -14 48 -14t38.5 12.5t14.5 36.5q0 23 -14.5 33t-52.5 10l18 86q-58 8 -90 56.5
t-32 129.5q0 88 26.5 169.5t80 133.5t129.5 52q59 0 91.5 -32t32.5 -85q0 -180 -312 -205zM156 421.5q-46 -72.5 -59 -176.5q132 12 198 53t66 116q0 38 -20.5 59t-62.5 21q-76 0 -122 -72.5z" />
    <glyph glyph-name="ecircumflex" unicode="&#xea;" horiz-adv-x="428" 
d="M94 210q-1 -11 -1 -32q0 -76 26.5 -112t74.5 -36q33 0 62 12.5t62 38.5l21 -30q-36 -31 -72 -46.5t-76 -15.5q-69 0 -107 49t-38 139q0 88 26.5 169.5t80 133.5t129.5 52q59 0 91.5 -32t32.5 -85q0 -180 -312 -205zM156 421.5q-46 -72.5 -59 -176.5q132 12 198 53t66 116
q0 38 -20.5 59t-62.5 21q-76 0 -122 -72.5zM195 648l-21 23l120 104h27l91 -105l-24 -22l-83 84z" />
    <glyph glyph-name="uni1EBF" unicode="&#x1ebf;" horiz-adv-x="428" 
d="M487 804l-117 -120l-19 18l106 130zM289 665l-111 -80l-19 23l120 100h27l91 -101l-22 -22zM373.5 500q32.5 -32 32.5 -85q0 -180 -312 -205q-1 -11 -1 -32q0 -76 26.5 -112t74.5 -36q33 0 62 12.5t62 38.5l21 -30q-36 -31 -72 -46.5t-76 -15.5q-69 0 -107 49t-38 139
q0 88 26.5 169.5t80 133.5t129.5 52q59 0 91.5 -32zM295 298q66 41 66 116q0 38 -20.5 59t-62.5 21q-76 0 -122 -72.5t-59 -176.5q132 12 198 53z" />
    <glyph glyph-name="uni1EC7" unicode="&#x1ec7;" horiz-adv-x="428" 
d="M94 210q-1 -11 -1 -32q0 -76 26.5 -112t74.5 -36q33 0 62 12.5t62 38.5l21 -30q-36 -31 -72 -46.5t-76 -15.5q-69 0 -107 49t-38 139q0 88 26.5 169.5t80 133.5t129.5 52q59 0 91.5 -32t32.5 -85q0 -180 -312 -205zM156 421.5q-46 -72.5 -59 -176.5q132 12 198 53t66 116
q0 38 -20.5 59t-62.5 21q-76 0 -122 -72.5zM195 648l-21 23l120 104h27l91 -105l-24 -22l-83 84zM197.5 -99.5q8.5 -8.5 8.5 -21.5q0 -16 -10.5 -26.5t-26.5 -10.5q-13 0 -21.5 8t-8.5 21q0 16 10.5 27t26.5 11q13 0 21.5 -8.5z" />
    <glyph glyph-name="uni1EC1" unicode="&#x1ec1;" horiz-adv-x="428" 
d="M226 699l-24 -15l-83 124l37 23zM179 585l-19 23l120 100h27l91 -101l-22 -22l-86 80zM94 210q-1 -11 -1 -32q0 -76 26.5 -112t74.5 -36q33 0 62 12.5t62 38.5l21 -30q-36 -31 -72 -46.5t-76 -15.5q-69 0 -107 49t-38 139q0 88 26.5 169.5t80 133.5t129.5 52
q59 0 91.5 -32t32.5 -85q0 -180 -312 -205zM156 421.5q-46 -72.5 -59 -176.5q132 12 198 53t66 116q0 38 -20.5 59t-62.5 21q-76 0 -122 -72.5z" />
    <glyph glyph-name="uni1EC3" unicode="&#x1ec3;" horiz-adv-x="428" 
d="M94 210q-1 -11 -1 -32q0 -76 26.5 -112t74.5 -36q33 0 62 12.5t62 38.5l21 -30q-36 -31 -72 -46.5t-76 -15.5q-69 0 -107 49t-38 139q0 88 26.5 169.5t80 133.5t129.5 52q59 0 91.5 -32t32.5 -85q0 -180 -312 -205zM156 421.5q-46 -72.5 -59 -176.5q132 12 198 53t66 116
q0 38 -20.5 59t-62.5 21q-76 0 -122 -72.5zM177 585l-19 23l120 100h27l91 -101l-22 -22l-86 80zM385 757q30 3 47.5 15t17.5 40q0 36 -34 36q-21 0 -47 -13l-11 30q30 18 63 18q32 0 51 -19t19 -51q0 -34 -19 -54.5t-53 -25.5l-8 -54h-36z" />
    <glyph glyph-name="uni1EC5" unicode="&#x1ec5;" horiz-adv-x="428" 
d="M232.5 769.5q-10.5 -8.5 -26.5 -30.5l-24 17q38 59 76 59q13 0 23.5 -5t19 -11t11.5 -8q13 -10 22 -15t18 -5q13 0 25.5 10t26.5 32l25 -15q-35 -65 -76 -65q-15 0 -27 6.5t-29 18.5q-12 10 -20.5 15t-18.5 5q-15 0 -25.5 -8.5zM294 655l-111 -80l-19 23l120 100h27
l91 -101l-22 -22zM373.5 500q32.5 -32 32.5 -85q0 -180 -312 -205q-1 -11 -1 -32q0 -76 26.5 -112t74.5 -36q33 0 62 12.5t62 38.5l21 -30q-36 -31 -72 -46.5t-76 -15.5q-69 0 -107 49t-38 139q0 88 26.5 169.5t80 133.5t129.5 52q59 0 91.5 -32zM295 298q66 41 66 116
q0 38 -20.5 59t-62.5 21q-76 0 -122 -72.5t-59 -176.5q132 12 198 53z" />
    <glyph glyph-name="uni0205" unicode="&#x205;" horiz-adv-x="428" 
d="M94 210q-1 -11 -1 -32q0 -76 26.5 -112t74.5 -36q33 0 62 12.5t62 38.5l21 -30q-36 -31 -72 -46.5t-76 -15.5q-69 0 -107 49t-38 139q0 88 26.5 169.5t80 133.5t129.5 52q59 0 91.5 -32t32.5 -85q0 -180 -312 -205zM156 421.5q-46 -72.5 -59 -176.5q132 12 198 53t66 116
q0 38 -20.5 59t-62.5 21q-76 0 -122 -72.5zM214 803l44 -146l-32 -12l-57 139zM317 802l39 -141l-33 -11l-52 134z" />
    <glyph glyph-name="edieresis" unicode="&#xeb;" horiz-adv-x="428" 
d="M94 210q-1 -11 -1 -32q0 -76 26.5 -112t74.5 -36q33 0 62 12.5t62 38.5l21 -30q-36 -31 -72 -46.5t-76 -15.5q-69 0 -107 49t-38 139q0 88 26.5 169.5t80 133.5t129.5 52q59 0 91.5 -32t32.5 -85q0 -180 -312 -205zM156 421.5q-46 -72.5 -59 -176.5q132 12 198 53t66 116
q0 38 -20.5 59t-62.5 21q-76 0 -122 -72.5zM198.5 675q-7.5 8 -7.5 20q0 15 10 25.5t25 10.5q13 0 20.5 -8t7.5 -20q0 -16 -10 -26t-25 -10q-13 0 -20.5 8zM351.5 675q-7.5 8 -7.5 20q0 15 10 25.5t24 10.5q13 0 20.5 -8t7.5 -20q0 -16 -9.5 -26t-24.5 -10q-13 0 -20.5 8z
" />
    <glyph glyph-name="edotaccent" unicode="&#x117;" horiz-adv-x="428" 
d="M94 210q-1 -11 -1 -32q0 -76 26.5 -112t74.5 -36q33 0 62 12.5t62 38.5l21 -30q-36 -31 -72 -46.5t-76 -15.5q-69 0 -107 49t-38 139q0 88 26.5 169.5t80 133.5t129.5 52q59 0 91.5 -32t32.5 -85q0 -180 -312 -205zM156 421.5q-46 -72.5 -59 -176.5q132 12 198 53t66 116
q0 38 -20.5 59t-62.5 21q-76 0 -122 -72.5zM273.5 683.5q-8.5 8.5 -8.5 21.5q0 16 10.5 26.5t26.5 10.5q13 0 21.5 -8t8.5 -21q0 -16 -10.5 -27t-26.5 -11q-13 0 -21.5 8.5z" />
    <glyph glyph-name="uni1EB9" unicode="&#x1eb9;" horiz-adv-x="428" 
d="M94 210q-1 -11 -1 -32q0 -76 26.5 -112t74.5 -36q33 0 62 12.5t62 38.5l21 -30q-36 -31 -72 -46.5t-76 -15.5q-69 0 -107 49t-38 139q0 88 26.5 169.5t80 133.5t129.5 52q59 0 91.5 -32t32.5 -85q0 -180 -312 -205zM156 421.5q-46 -72.5 -59 -176.5q132 12 198 53t66 116
q0 38 -20.5 59t-62.5 21q-76 0 -122 -72.5zM197.5 -99.5q8.5 -8.5 8.5 -21.5q0 -16 -10.5 -26.5t-26.5 -10.5q-13 0 -21.5 8t-8.5 21q0 16 10.5 27t26.5 11q13 0 21.5 -8.5z" />
    <glyph glyph-name="egrave" unicode="&#xe8;" horiz-adv-x="428" 
d="M94 210q-1 -11 -1 -32q0 -76 26.5 -112t74.5 -36q33 0 62 12.5t62 38.5l21 -30q-36 -31 -72 -46.5t-76 -15.5q-69 0 -107 49t-38 139q0 88 26.5 169.5t80 133.5t129.5 52q59 0 91.5 -32t32.5 -85q0 -180 -312 -205zM156 421.5q-46 -72.5 -59 -176.5q132 12 198 53t66 116
q0 38 -20.5 59t-62.5 21q-76 0 -122 -72.5zM254 773l137 -100l-17 -25l-147 84z" />
    <glyph glyph-name="uni1EBB" unicode="&#x1ebb;" horiz-adv-x="428" 
d="M94 210q-1 -11 -1 -32q0 -76 26.5 -112t74.5 -36q33 0 62 12.5t62 38.5l21 -30q-36 -31 -72 -46.5t-76 -15.5q-69 0 -107 49t-38 139q0 88 26.5 169.5t80 133.5t129.5 52q59 0 91.5 -32t32.5 -85q0 -180 -312 -205zM156 421.5q-46 -72.5 -59 -176.5q132 12 198 53t66 116
q0 38 -20.5 59t-62.5 21q-76 0 -122 -72.5zM276 697q30 3 47.5 15t17.5 40q0 36 -34 36q-21 0 -47 -13l-11 30q30 18 63 18q32 0 51 -19t19 -51q0 -34 -19 -54.5t-53 -25.5l-8 -54h-36z" />
    <glyph glyph-name="uni0207" unicode="&#x207;" horiz-adv-x="428" 
d="M94 210q-1 -11 -1 -32q0 -76 26.5 -112t74.5 -36q33 0 62 12.5t62 38.5l21 -30q-36 -31 -72 -46.5t-76 -15.5q-69 0 -107 49t-38 139q0 88 26.5 169.5t80 133.5t129.5 52q59 0 91.5 -32t32.5 -85q0 -180 -312 -205zM156 421.5q-46 -72.5 -59 -176.5q132 12 198 53t66 116
q0 38 -20.5 59t-62.5 21q-76 0 -122 -72.5zM183 635q13 47 43.5 74t71.5 27q43 0 68.5 -28.5t24.5 -75.5l-31 -4q-6 69 -64 69t-85 -71z" />
    <glyph glyph-name="emacron" unicode="&#x113;" horiz-adv-x="428" 
d="M94 210q-1 -11 -1 -32q0 -76 26.5 -112t74.5 -36q33 0 62 12.5t62 38.5l21 -30q-36 -31 -72 -46.5t-76 -15.5q-69 0 -107 49t-38 139q0 88 26.5 169.5t80 133.5t129.5 52q59 0 91.5 -32t32.5 -85q0 -180 -312 -205zM156 421.5q-46 -72.5 -59 -176.5q132 12 198 53t66 116
q0 38 -20.5 59t-62.5 21q-76 0 -122 -72.5zM391 679h-192l6 39h192z" />
    <glyph glyph-name="eogonek" unicode="&#x119;" horiz-adv-x="428" 
d="M94 210q-1 -11 -1 -32q0 -76 26.5 -112t74.5 -36q33 0 62 12.5t62 38.5l21 -30q-39 -33 -75 -48q-54 -30 -77 -56t-23 -64q0 -24 13.5 -37.5t39.5 -13.5q20 0 45 7l-6 -40q-24 -6 -47 -6q-42 0 -64.5 23.5t-22.5 60.5q0 35 18.5 62.5t55.5 49.5h-5q-69 0 -107 49t-38 139
q0 88 26.5 169.5t80 133.5t129.5 52q59 0 91.5 -32t32.5 -85q0 -180 -312 -205zM156 421.5q-46 -72.5 -59 -176.5q132 12 198 53t66 116q0 38 -20.5 59t-62.5 21q-76 0 -122 -72.5z" />
    <glyph glyph-name="uni025B" unicode="&#x25b;" horiz-adv-x="390" 
d="M74 27q-39 38 -39 101q0 60 34.5 101.5t101.5 47.5q-39 11 -60.5 35t-21.5 68q0 37 17.5 72t53.5 57.5t88 22.5q71 0 127 -49l-25 -27q-24 19 -47.5 28.5t-54.5 9.5q-57 0 -85 -34t-28 -80q0 -41 23.5 -64.5t72.5 -23.5h42l-12 -38h-37q-142 0 -142 -126
q0 -46 25.5 -72.5t69.5 -26.5q39 0 68 12.5t61 38.5l23 -28q-65 -63 -154 -63q-62 0 -101 38z" />
    <glyph glyph-name="uni029A" unicode="&#x29a;" 
d="M72 25.5q-38 36.5 -38 96.5q0 61 36 105t104 50q-37 10 -56 33t-19 65q0 39 18 75t54.5 59t88.5 23q74 0 113.5 -50.5t39.5 -141.5q0 -101 -28.5 -181t-82.5 -125t-130 -45q-62 0 -100 36.5zM318 117q50 88 50 224q0 76 -27.5 114.5t-81.5 38.5q-59 0 -87.5 -35
t-28.5 -83q0 -39 22 -61.5t66 -22.5h29l-11 -38h-28q-77 0 -108.5 -38t-31.5 -93q0 -46 24.5 -70t69.5 -24q93 0 143 88z" />
    <glyph glyph-name="uni025C" unicode="&#x25c;" horiz-adv-x="397" 
d="M321.5 500q33.5 -32 33.5 -86q0 -58 -32 -93t-88 -45q45 -5 72 -33t27 -76q0 -44 -19.5 -85t-61.5 -67t-104 -26q-89 0 -146 68l28 28q46 -56 119 -56q72 0 104.5 40t32.5 96q0 45 -30.5 67.5t-82.5 22.5h-46l10 38h38q62 0 97.5 32t35.5 87q0 38 -21 60t-60 22
q-36 0 -63 -11t-63 -35l-18 30q38 27 72.5 40.5t75.5 13.5q56 0 89.5 -32z" />
    <glyph glyph-name="uni025E" unicode="&#x25e;" horiz-adv-x="448" 
d="M85 38.5q-39 49.5 -39 138.5q0 99 29 180t83 128t127 47q55 0 88 -32t33 -86q0 -57 -30 -92t-86 -46q45 -7 70 -34t25 -76q0 -46 -19.5 -86t-61 -65.5t-104.5 -25.5q-76 0 -115 49.5zM305.5 68q32.5 39 32.5 96q0 47 -27 69t-81 22h-29l11 38h23q59 0 92 32t33 86
q0 39 -19.5 60.5t-58.5 21.5q-61 0 -104 -44t-64.5 -116.5t-21.5 -156.5q0 -147 110 -147q71 0 103.5 39z" />
    <glyph glyph-name="uni025D" unicode="&#x25d;" horiz-adv-x="534" 
d="M576 358q-39 -31 -84 -31q-40 0 -63 23.5t-23 67.5q0 8 2 24l6 38l-62 -34q3 -15 3 -32q0 -58 -32 -93t-88 -45q45 -5 72 -33t27 -76q0 -44 -19.5 -85t-61.5 -67t-104 -26q-89 0 -146 68l28 28q46 -56 119 -56q72 0 104.5 40t32.5 96q0 45 -30.5 67.5t-82.5 22.5h-46
l10 38h38q62 0 97.5 32t35.5 87q0 38 -21 60t-60 22q-36 0 -63 -11t-63 -35l-18 30q38 27 72.5 40.5t75.5 13.5q36 0 64 -14t43 -40l80 44h43l-12 -82q-1 -7 -1 -20q0 -55 46 -55q18 0 32.5 5.5t31.5 15.5z" />
    <glyph glyph-name="uni0258" unicode="&#x258;" horiz-adv-x="425" 
d="M338.5 477q39.5 -55 39.5 -144q0 -95 -30 -174t-83.5 -124.5t-120.5 -45.5q-42 0 -73.5 16t-57.5 48l28 27q22 -26 46 -38t59 -12q61 0 105.5 49t65.5 130q-131 5 -193 41t-62 113q0 49 20.5 87.5t57 60t82.5 21.5q77 0 116.5 -55zM131 299q22 -25 68.5 -37.5
t125.5 -16.5q7 49 7 89q0 70 -26 115t-85 45q-52 0 -82 -35.5t-30 -92.5q0 -42 22 -67z" />
    <glyph glyph-name="uni0283" unicode="&#x283;" horiz-adv-x="219" 
d="M297 731.5q19 -9.5 35 -24.5l-23 -27q-14 11 -26.5 16.5t-31.5 5.5q-56 0 -67 -77l-15 -103l-74 -522l-13 -89q-8 -56 -39 -84.5t-76 -28.5q-44 0 -79 33l23 27q15 -12 26.5 -17t29.5 -5q27 0 45.5 18t24.5 58l13 88l74 522l16 105q7 56 36 85t75 29q27 0 46 -9.5z" />
    <glyph glyph-name="uni0286" unicode="&#x286;" horiz-adv-x="241" 
d="M318 731.5q19 -9.5 35 -24.5l-23 -27q-14 11 -26.5 16.5t-31.5 5.5q-56 0 -67 -77l-15 -103l-76 -545q50 -16 79 -34l-16 -28q-35 19 -67 29q-11 -69 -44.5 -107.5t-89.5 -38.5q-41 0 -65.5 24.5t-24.5 63.5q0 51 33 79t84 28q40 0 66 -7l76 536l16 105q7 56 36 85t75 29
q27 0 46 -9.5zM36 -137q21 29 29 91q-27 6 -63 6t-56.5 -18.5t-20.5 -54.5q0 -25 13 -39t38 -14q39 0 60 29z" />
    <glyph glyph-name="uni01AA" unicode="&#x1aa;" horiz-adv-x="243" 
d="M234 -171q-34 -31 -83 -31q-43 0 -66.5 24.5t-23.5 68.5q0 7 2 25l11 84l73 522q-23 -14 -51 -14q-34 0 -56.5 25.5t-22.5 67.5q0 62 32 101t79 39q37 0 59 -23.5t22 -65.5q0 -8 -2 -24l-88 -628l-11 -89q-2 -16 -2 -22q0 -53 50 -53q16 0 29 5.5t29 15.5zM153 560l10 74
q1 7 1 19q0 50 -38 50q-29 0 -46.5 -28.5t-18.5 -73.5q0 -54 42 -54q26 0 50 13z" />
    <glyph glyph-name="uni0285" unicode="&#x285;" horiz-adv-x="320" 
d="M288 21q-34 -31 -83 -31q-43 0 -66.5 24.5t-23.5 68.5q0 7 2 25l11 84l19 138l11 89q2 16 2 22q0 53 -50 53q-16 0 -29 -5.5t-29 -15.5l-20 28q34 31 83 31q43 0 66.5 -24.5t23.5 -68.5q0 -7 -2 -25l-11 -84l-19 -138l-11 -89q-2 -16 -2 -22q0 -53 50 -53q16 0 29 5.5
t29 15.5z" />
    <glyph glyph-name="uni0247" unicode="&#x247;" horiz-adv-x="428" 
d="M223 230l-70 -192q19 -8 41 -8q33 0 62 12.5t62 38.5l21 -30q-36 -31 -72 -46.5t-76 -15.5q-29 0 -53 9l-25 -68l-24 9l26 71q-33 21 -51 64t-18 103q0 88 26.5 169.5t80 133.5t129.5 52q8 0 24 -2l22 61l25 -8l-21 -58q35 -12 54.5 -41t19.5 -69q0 -138 -183 -185z
M156 421.5q-46 -72.5 -59 -176.5q63 6 111 18l84 230q-4 1 -14 1q-76 0 -122 -72.5zM318 487l-79 -215q122 41 122 142q0 57 -43 73zM193 223q-51 -10 -99 -13q-1 -11 -1 -32q0 -89 38 -125z" />
    <glyph glyph-name="uni1EBD" unicode="&#x1ebd;" horiz-adv-x="428" 
d="M94 210q-1 -11 -1 -32q0 -76 26.5 -112t74.5 -36q33 0 62 12.5t62 38.5l21 -30q-36 -31 -72 -46.5t-76 -15.5q-69 0 -107 49t-38 139q0 88 26.5 169.5t80 133.5t129.5 52q59 0 91.5 -32t32.5 -85q0 -180 -312 -205zM156 421.5q-46 -72.5 -59 -176.5q132 12 198 53t66 116
q0 38 -20.5 59t-62.5 21q-76 0 -122 -72.5zM321 676.5q-12 6.5 -29 18.5q-12 10 -20.5 15t-18.5 5q-15 0 -25.5 -8.5t-26.5 -30.5l-24 17q38 59 76 59q13 0 23.5 -5t19 -11t11.5 -8q13 -10 22 -15t18 -5q13 0 25.5 10t26.5 32l25 -15q-35 -65 -76 -65q-15 0 -27 6.5z" />
    <glyph glyph-name="uni01DD" unicode="&#x1dd;" horiz-adv-x="428" 
d="M344 484q38 -49 38 -139q0 -88 -26.5 -169.5t-80 -133.5t-129.5 -52q-59 0 -91.5 32t-32.5 85q0 180 312 205q1 11 1 32q0 76 -26.5 112t-74.5 36q-33 0 -62 -12.5t-62 -38.5l-21 30q36 31 72 46.5t76 15.5q69 0 107 -49zM272 100.5q46 72.5 59 176.5q-132 -12 -198 -53
t-66 -116q0 -38 20.5 -59t62.5 -21q76 0 122 72.5z" />
    <glyph glyph-name="uni0259" unicode="&#x259;" horiz-adv-x="428" 
d="M344 484q38 -49 38 -139q0 -88 -26.5 -169.5t-80 -133.5t-129.5 -52q-59 0 -91.5 32t-32.5 85q0 180 312 205q1 11 1 32q0 76 -26.5 112t-74.5 36q-33 0 -62 -12.5t-62 -38.5l-21 30q36 31 72 46.5t76 15.5q69 0 107 -49zM272 100.5q46 72.5 59 176.5q-132 -12 -198 -53
t-66 -116q0 -38 20.5 -59t62.5 -21q76 0 122 72.5z" />
    <glyph glyph-name="uni025A" unicode="&#x25a;" horiz-adv-x="564" 
d="M606 358q-39 -31 -84 -31q-40 0 -63 23.5t-23 67.5q0 8 2 24l6 38l-76 -42q14 -40 14 -93q0 -88 -26.5 -169.5t-80 -133.5t-129.5 -52q-59 0 -91.5 32t-32.5 85q0 180 312 205q1 11 1 32q0 76 -26.5 112t-74.5 36q-33 0 -62 -12.5t-62 -38.5l-21 30q36 31 72 46.5
t76 15.5q79 0 117 -64l95 53h43l-12 -82q-1 -7 -1 -20q0 -55 46 -55q18 0 32.5 5.5t31.5 15.5zM272 100.5q46 72.5 59 176.5q-132 -12 -198 -53t-66 -116q0 -38 20.5 -59t62.5 -21q76 0 122 72.5z" />
    <glyph glyph-name="uni0292" unicode="&#x292;" horiz-adv-x="377" 
d="M359 486l-221 -290h7q170 0 170 -154q0 -72 -26.5 -127t-74 -86t-107.5 -31q-51 0 -86.5 21.5t-62.5 63.5l30 24q25 -37 53.5 -53.5t66.5 -16.5q74 0 117 57t43 147q0 64 -31 91.5t-98 27.5h-52l6 37l213 285h-247l6 40h300z" />
    <glyph glyph-name="uni01EF" unicode="&#x1ef;" horiz-adv-x="377" 
d="M359 486l-221 -290h7q170 0 170 -154q0 -72 -26.5 -127t-74 -86t-107.5 -31q-51 0 -86.5 21.5t-62.5 63.5l30 24q25 -37 53.5 -53.5t66.5 -16.5q74 0 117 57t43 147q0 64 -31 91.5t-98 27.5h-52l6 37l213 285h-247l6 40h300zM345 762l20 -23l-120 -104h-27l-91 104l23 23
l84 -84z" />
    <glyph glyph-name="uni0293" unicode="&#x293;" horiz-adv-x="380" 
d="M364 486l-221 -290h8q169 0 169 -151q0 -80 -38 -140.5t-106 -87.5l15 -60l-34 -11l-14 60q-34 -8 -69 -8q-62 0 -95.5 29t-33.5 79q0 46 28 78t71 32q46 0 75 -35t48 -126q52 23 79 73t27 115q0 62 -31.5 89.5t-98.5 27.5h-52l1 1l5 36l213 285h-246l5 40h300zM76 -163
q33 0 58 7q-17 80 -38 109t-52 29q-28 0 -44 -20.5t-16 -52.5q0 -72 92 -72z" />
    <glyph glyph-name="uni01B9" unicode="&#x1b9;" horiz-adv-x="378" 
d="M379 482h-252l140 -285l-6 -37l-3 3l2 -3h-48q-84 0 -129.5 -51t-45.5 -142q0 -61 27.5 -95.5t80.5 -34.5q41 0 75 16.5t68 53.5l26 -26q-37 -41 -78.5 -62t-91.5 -21q-73 0 -114 46.5t-41 122.5q0 70 28 122.5t78.5 80.5t117.5 28h11l-144 288l6 36h299z" />
    <glyph glyph-name="uni01BA" unicode="&#x1ba;" horiz-adv-x="367" 
d="M-5 -155.5q-20 25.5 -20 58.5q0 51 36.5 77.5t120.5 46.5q53 12 84 26t48 38.5t17 65.5q0 39 -19.5 57t-59.5 18h-116l5 38l198 212h-235l5 40h297l-6 -36l-206 -216h62q61 0 91.5 -29t30.5 -82q0 -74 -45 -112t-136 -58q-72 -16 -99.5 -34.5t-27.5 -52.5q0 -22 12 -38.5
t39 -34.5l-18 -32q-38 22 -58 47.5z" />
    <glyph glyph-name="f" unicode="f" horiz-adv-x="259" 
d="M221 680.5q-23 -22.5 -30 -71.5l-12 -87h115l-12 -38h-108l-67 -479q-9 -63 -26 -100t-43 -59t-71 -46l-12 33q35 19 54.5 37.5t33 50t20.5 86.5l66 477h-73l5 38h73l13 91q9 61 44 94.5t89 33.5q49 0 98 -35l-19 -30q-22 14 -39.5 20.5t-37.5 6.5q-38 0 -61 -22.5z" />
    <glyph glyph-name="uni1E1F" unicode="&#x1e1f;" horiz-adv-x="259" 
d="M221 680.5q-23 -22.5 -30 -71.5l-12 -87h115l-12 -38h-108l-67 -479q-9 -63 -26 -100t-43 -59t-71 -46l-12 33q35 19 54.5 37.5t33 50t20.5 86.5l66 477h-73l5 38h73l13 91q9 61 44 94.5t89 33.5q49 0 98 -35l-19 -30q-22 14 -39.5 20.5t-37.5 6.5q-38 0 -61 -22.5z
M264.5 860.5q-8.5 8.5 -8.5 21.5q0 16 10.5 26.5t26.5 10.5q13 0 21.5 -8t8.5 -21q0 -16 -10.5 -27t-26.5 -11q-13 0 -21.5 8.5z" />
    <glyph glyph-name="uni02A9" unicode="&#x2a9;" horiz-adv-x="712" 
d="M622.5 501q26.5 -31 26.5 -87q0 -17 -3 -37l-53 -377l-13 -89q-8 -56 -39 -84.5t-76 -28.5q-44 0 -79 33l23 27q15 -12 26.5 -17t29.5 -5q27 0 45.5 18t24.5 58l13 88l53 375q3 21 3 37q0 41 -16 61.5t-46 20.5q-80 0 -166 -173l-45 -321h-45l69 484h-181l-67 -479
q-9 -63 -26 -100t-43 -59t-71 -46l-12 33q35 19 54.5 37.5t33 50t20.5 86.5l66 477h-73l5 38h73l13 91q9 61 44 94.5t89 33.5q49 0 98 -35l-19 -30q-22 14 -39.5 20.5t-37.5 6.5q-38 0 -61 -22.5t-30 -71.5l-12 -87h220l-15 -129q37 67 76.5 103t88.5 36q47 0 73.5 -31z" />
    <glyph glyph-name="g" unicode="g" horiz-adv-x="466" 
d="M416 495l-70 -500q-28 -198 -184 -198q-38 0 -74 13t-64 35l20 30q55 -39 119 -39q53 0 90 37t49 123l13 92q-29 -41 -61.5 -64.5t-74.5 -23.5q-63 0 -98 48t-35 130q0 84 26 165t80.5 135t135.5 54q68 0 128 -37zM178 447q-44 -48 -65 -120.5t-21 -146.5
q0 -68 23.5 -104.5t68.5 -36.5q74 0 137 108l48 328q-38 20 -82 20q-65 0 -109 -48z" />
    <glyph glyph-name="uni01F5" unicode="&#x1f5;" horiz-adv-x="466" 
d="M416 495l-70 -500q-28 -198 -184 -198q-38 0 -74 13t-64 35l20 30q55 -39 119 -39q53 0 90 37t49 123l13 92q-29 -41 -61.5 -64.5t-74.5 -23.5q-63 0 -98 48t-35 130q0 84 26 165t80.5 135t135.5 54q68 0 128 -37zM178 447q-44 -48 -65 -120.5t-21 -146.5
q0 -68 23.5 -104.5t68.5 -36.5q74 0 137 108l48 328q-38 20 -82 20q-65 0 -109 -48zM384 774l20 -42l-170 -84l-15 26z" />
    <glyph glyph-name="uni0263" unicode="&#x263;" horiz-adv-x="390" 
d="M191 48q14 -46 20.5 -79.5t6.5 -63.5q0 -50 -23 -78.5t-62 -28.5q-30 0 -47 19t-17 53q0 32 18.5 74.5t56.5 106.5l-90 471h48l70 -438l189 438h49zM163 18q-54 -96 -54 -147q0 -36 27 -36q21 0 32 18.5t11 52.5q0 45 -16 112z" />
    <glyph glyph-name="gbreve" unicode="&#x11f;" horiz-adv-x="466" 
d="M416 495l-70 -500q-28 -198 -184 -198q-38 0 -74 13t-64 35l20 30q55 -39 119 -39q53 0 90 37t49 123l13 92q-29 -41 -61.5 -64.5t-74.5 -23.5q-63 0 -98 48t-35 130q0 84 26 165t80.5 135t135.5 54q68 0 128 -37zM178 447q-44 -48 -65 -120.5t-21 -146.5
q0 -68 23.5 -104.5t68.5 -36.5q74 0 137 108l48 328q-38 20 -82 20q-65 0 -109 -48zM237 685.5q-25 28.5 -23 74.5l30 4q6 -68 62 -68q29 0 51.5 18.5t34.5 52.5l29 -10q-11 -46 -42 -73t-74 -27t-68 28.5z" />
    <glyph glyph-name="gcaron" unicode="&#x1e7;" horiz-adv-x="466" 
d="M416 495l-70 -500q-28 -198 -184 -198q-38 0 -74 13t-64 35l20 30q55 -39 119 -39q53 0 90 37t49 123l13 92q-29 -41 -61.5 -64.5t-74.5 -23.5q-63 0 -98 48t-35 130q0 84 26 165t80.5 135t135.5 54q68 0 128 -37zM178 447q-44 -48 -65 -120.5t-21 -146.5
q0 -68 23.5 -104.5t68.5 -36.5q74 0 137 108l48 328q-38 20 -82 20q-65 0 -109 -48zM415 762l20 -23l-120 -104h-27l-91 104l23 23l84 -84z" />
    <glyph glyph-name="gcircumflex" unicode="&#x11d;" horiz-adv-x="466" 
d="M416 495l-70 -500q-28 -198 -184 -198q-38 0 -74 13t-64 35l20 30q55 -39 119 -39q53 0 90 37t49 123l13 92q-29 -41 -61.5 -64.5t-74.5 -23.5q-63 0 -98 48t-35 130q0 84 26 165t80.5 135t135.5 54q68 0 128 -37zM178 447q-44 -48 -65 -120.5t-21 -146.5
q0 -68 23.5 -104.5t68.5 -36.5q74 0 137 108l48 328q-38 20 -82 20q-65 0 -109 -48zM207 648l-21 23l120 104h27l91 -105l-24 -22l-83 84z" />
    <glyph glyph-name="gcommaaccent" unicode="&#x123;" horiz-adv-x="466" 
d="M416 495l-70 -500q-28 -198 -184 -198q-38 0 -74 13t-64 35l20 30q55 -39 119 -39q53 0 90 37t49 123l13 92q-29 -41 -61.5 -64.5t-74.5 -23.5q-63 0 -98 48t-35 130q0 84 26 165t80.5 135t135.5 54q68 0 128 -37zM178 447q-44 -48 -65 -120.5t-21 -146.5
q0 -68 23.5 -104.5t68.5 -36.5q74 0 137 108l48 328q-38 20 -82 20q-65 0 -109 -48zM272 600.5q-9 9.5 -9 23.5q0 12 4.5 23t17.5 33l51 96h27l-43 -115q16 -11 16 -30q0 -17 -11 -28.5t-28 -11.5q-16 0 -25 9.5z" />
    <glyph glyph-name="gdotaccent" unicode="&#x121;" horiz-adv-x="466" 
d="M416 495l-70 -500q-28 -198 -184 -198q-38 0 -74 13t-64 35l20 30q55 -39 119 -39q53 0 90 37t49 123l13 92q-29 -41 -61.5 -64.5t-74.5 -23.5q-63 0 -98 48t-35 130q0 84 26 165t80.5 135t135.5 54q68 0 128 -37zM178 447q-44 -48 -65 -120.5t-21 -146.5
q0 -68 23.5 -104.5t68.5 -36.5q74 0 137 108l48 328q-38 20 -82 20q-65 0 -109 -48zM285.5 683.5q-8.5 8.5 -8.5 21.5q0 16 10.5 26.5t26.5 10.5q13 0 21.5 -8t8.5 -21q0 -16 -10.5 -27t-26.5 -11q-13 0 -21.5 8.5z" />
    <glyph glyph-name="uni0260" unicode="&#x260;" horiz-adv-x="471" 
d="M549 731.5q19 -9.5 35 -24.5l-23 -27q-14 11 -26.5 16.5t-31.5 5.5q-56 0 -67 -77l-15 -103l-75 -527q-30 -198 -184 -198q-38 0 -74 13t-64 35l20 30q55 -39 119 -39q53 0 90.5 37.5t48.5 122.5l13 92q-29 -41 -61.5 -64.5t-74.5 -23.5q-63 0 -98 48t-35 130
q0 84 26 165t80.5 135t135.5 54q45 0 87 -20l1 10l16 105q7 56 36 85t75 29q27 0 46 -9.5zM369 476q-36 19 -82 19q-65 0 -109 -48t-65 -120.5t-21 -146.5q0 -68 23.5 -104.5t68.5 -36.5q74 0 137 108z" />
    <glyph glyph-name="uni01BE" unicode="&#x1be;" horiz-adv-x="406" 
d="M348 244q0 -70 -26 -127t-72 -90t-103 -33q-49 0 -84 20.5t-66 60.5l29 23q27 -32 54 -48.5t66 -16.5q46 0 81.5 27.5t55 75.5t19.5 108q0 62 -26.5 93.5t-72.5 45.5l-52 16l23 163h-50l6 38h49l19 135l45 6l-20 -141h105l-6 -38h-104l-19 -139l27 -7q122 -37 122 -172z
" />
    <glyph glyph-name="uni0294" unicode="&#x294;" horiz-adv-x="356" 
d="M120 337l53 17q77 25 113 73.5t36 142.5q0 61 -28 96t-80 35q-38 0 -69 -16t-67 -49l-24 27q40 40 78.5 59t85.5 19q69 0 110 -47t41 -123q0 -110 -44 -165.5t-134 -84.5l-30 -9l-43 -312h-45z" />
    <glyph glyph-name="uni0296" unicode="&#x296;" horiz-adv-x="406" 
d="M243 741l-44 -318l27 -7q122 -37 122 -172q0 -70 -26 -127t-72 -90t-103 -33q-49 0 -84 20.5t-66 60.5l29 23q27 -32 54 -48.5t66 -16.5q46 0 81.5 27.5t55 75.5t19.5 108q0 62 -26.5 93.5t-72.5 45.5l-52 16l47 336z" />
    <glyph glyph-name="uni0295" unicode="&#x295;" horiz-adv-x="354" 
d="M164 0l44 309l-24 9q-57 20 -89.5 57t-32.5 114q0 69 26.5 127t73.5 91.5t106 33.5q47 0 81 -20t64 -61l-30 -25q-25 33 -51.5 49.5t-63.5 16.5q-47 0 -83 -29t-55.5 -78t-19.5 -109q0 -59 26 -89t72 -46l48 -16l-47 -334h-45z" />
    <glyph glyph-name="uni0242" unicode="&#x242;" horiz-adv-x="348" 
d="M93 181l59 19q62 19 93.5 61.5t31.5 112.5q0 56 -25 87t-70 31q-37 0 -65.5 -15t-61.5 -43l-23 30q36 34 72 51t82 17q63 0 100.5 -43t37.5 -113q0 -162 -155 -210l-35 -10l-22 -156h-45z" />
    <glyph glyph-name="uni02A1" unicode="&#x2a1;" horiz-adv-x="356" 
d="M161 312l-14 -105h96l-6 -37h-96l-23 -170h-45l24 170h-55l5 37h55l18 130l53 17q77 25 113 73.5t36 142.5q0 61 -28 96t-80 35q-38 0 -69 -16t-67 -49l-24 27q40 40 78.5 59t85.5 19q69 0 110 -47t41 -123q0 -110 -44 -165.5t-134 -84.5z" />
    <glyph glyph-name="uni02A2" unicode="&#x2a2;" horiz-adv-x="354" 
d="M349 721q34 -20 64 -61l-30 -25q-25 33 -51.5 49.5t-63.5 16.5q-47 0 -83 -29t-55.5 -78t-19.5 -109q0 -59 26 -89t72 -46l48 -16l-18 -127h56l-5 -37h-56l-24 -170h-45l24 170h-94l5 37h94l15 102l-24 9q-57 20 -89.5 57t-32.5 114q0 69 26.5 127t73.5 91.5t106 33.5
q47 0 81 -20z" />
    <glyph glyph-name="uni0261" unicode="&#x261;" horiz-adv-x="466" 
d="M416 495l-70 -500q-28 -198 -184 -198q-38 0 -74 13t-64 35l20 30q55 -39 119 -39q53 0 90 37t49 123l13 92q-29 -41 -61.5 -64.5t-74.5 -23.5q-63 0 -98 48t-35 130q0 84 26 165t80.5 135t135.5 54q68 0 128 -37zM178 447q-44 -48 -65 -120.5t-21 -146.5
q0 -68 23.5 -104.5t68.5 -36.5q74 0 137 108l48 328q-38 20 -82 20q-65 0 -109 -48z" />
    <glyph glyph-name="uni01E5" unicode="&#x1e5;" horiz-adv-x="466" 
d="M338 -46h56l-5 -37h-62q-44 -120 -165 -120q-38 0 -74 13t-64 35l20 30q55 -39 118 -39q84 0 119 81h-112l5 37h120q5 22 8 41l13 96q-29 -41 -61.5 -64.5t-74.5 -23.5q-63 0 -98 47.5t-35 131.5q0 82 26 162.5t80.5 134t135.5 53.5q68 0 128 -37l-71 -500q-3 -25 -7 -41
zM322 149l47 326q-38 20 -82 20q-65 0 -109 -47.5t-65 -119.5t-21 -145q0 -68 24 -104.5t69 -36.5q73 0 137 107z" />
    <glyph glyph-name="uni021D" unicode="&#x21d;" horiz-adv-x="385" 
d="M301.5 497.5q34.5 -34.5 34.5 -89.5q0 -58 -30.5 -93.5t-86.5 -46.5q51 -1 77.5 -25.5t26.5 -70.5q0 -100 -84 -164.5t-218 -100.5l-3 35q122 39 190 92t68 136q0 41 -23.5 58t-76.5 17h-59l10 38h28q61 0 97.5 32.5t36.5 90.5q0 41 -22 64t-62 23q-34 0 -62.5 -10.5
t-61.5 -33.5l-19 29q71 54 147 54q58 0 92.5 -34.5z" />
    <glyph glyph-name="h" unicode="h" horiz-adv-x="477" 
d="M387.5 500.5q26.5 -31.5 26.5 -87.5q0 -16 -3 -36l-54 -377h-45l53 375q3 21 3 38q0 81 -62 81q-43 0 -85.5 -47.5t-80.5 -125.5l-45 -321h-45l104 735l46 6l-49 -344q74 135 162 135q48 0 74.5 -31.5z" />
    <glyph glyph-name="hbar" unicode="&#x127;" horiz-adv-x="483" 
d="M393.5 500.5q26.5 -31.5 26.5 -87.5q0 -16 -3 -36l-54 -377h-45l53 375q3 21 3 38q0 81 -62 81q-43 0 -85.5 -47.5t-80.5 -125.5l-45 -321h-45l88 620h-61l5 38h61l11 77l46 6l-12 -83h141l-12 -38h-134l-32 -223q74 135 162 135q48 0 74.5 -31.5z" />
    <glyph glyph-name="uni021F" unicode="&#x21f;" horiz-adv-x="477" 
d="M387.5 500.5q26.5 -31.5 26.5 -87.5q0 -16 -3 -36l-54 -377h-45l53 375q3 21 3 38q0 81 -62 81q-43 0 -85.5 -47.5t-80.5 -125.5l-45 -321h-45l104 735l46 6l-49 -344q74 135 162 135q48 0 74.5 -31.5zM432 930l20 -23l-121 -99h-27l-90 100l21 22l86 -79z" />
    <glyph glyph-name="hcircumflex" unicode="&#x125;" horiz-adv-x="477" 
d="M387.5 500.5q26.5 -31.5 26.5 -87.5q0 -16 -3 -36l-54 -377h-45l53 375q3 21 3 38q0 81 -62 81q-43 0 -85.5 -47.5t-80.5 -125.5l-45 -321h-45l104 735l46 6l-49 -344q74 135 162 135q48 0 74.5 -31.5zM217 814l-19 23l120 100h27l91 -101l-22 -22l-86 80z" />
    <glyph glyph-name="uni1E25" unicode="&#x1e25;" horiz-adv-x="477" 
d="M387.5 500.5q26.5 -31.5 26.5 -87.5q0 -16 -3 -36l-54 -377h-45l53 375q3 21 3 38q0 81 -62 81q-43 0 -85.5 -47.5t-80.5 -125.5l-45 -321h-45l104 735l46 6l-49 -344q74 135 162 135q48 0 74.5 -31.5zM214.5 -99.5q8.5 -8.5 8.5 -21.5q0 -16 -10.5 -26.5t-26.5 -10.5
q-13 0 -21.5 8t-8.5 21q0 16 10.5 27t26.5 11q13 0 21.5 -8.5z" />
    <glyph glyph-name="uni0267" unicode="&#x267;" horiz-adv-x="478" 
d="M387.5 501q26.5 -31 26.5 -87q0 -17 -3 -37l-53 -377l-13 -89q-8 -56 -39 -84.5t-76 -28.5q-44 0 -79 33l23 27q15 -12 26.5 -17t29.5 -5q27 0 45.5 18t24.5 58l13 88l53 375q3 21 3 38q0 81 -63 81q-42 0 -84.5 -47.5t-80.5 -125.5l-45 -321h-45l73 521h1l13 96
q9 59 43.5 91.5t87.5 32.5t100 -30l-19 -32q-37 23 -79 23q-76 0 -89 -94l-12 -87l-18 -124q35 63 74 99t87 36t74.5 -31z" />
    <glyph glyph-name="uni0266" unicode="&#x266;" horiz-adv-x="478" 
d="M387.5 501q26.5 -31 26.5 -87q0 -17 -3 -37l-53 -377h-45l53 375q3 21 3 38q0 81 -63 81q-42 0 -84.5 -47.5t-80.5 -125.5l-45 -321h-45l73 521h1l13 96q9 59 43.5 91.5t87.5 32.5t100 -30l-19 -32q-37 23 -79 23q-76 0 -89 -94l-12 -87l-18 -124q35 63 74 99t87 36
t74.5 -31z" />
    <glyph glyph-name="uni0265" unicode="&#x265;" horiz-adv-x="472" 
d="M326 123q-35 -63 -74.5 -98.5t-88.5 -35.5q-47 0 -73.5 30.5t-26.5 85.5q0 18 3 37l54 380h45l-54 -380q-3 -19 -3 -37q0 -78 61 -78q81 0 167 168l46 327h45l-102 -719l-46 -6z" />
    <glyph glyph-name="uni02AE" unicode="&#x2ae;" horiz-adv-x="544" 
d="M498 522l-101 -719l-46 -6l46 326q-35 -63 -74 -98.5t-88 -35.5q-47 0 -73.5 30.5t-26.5 85.5q0 18 3 37l25 188l11 89q2 16 2 22q0 53 -50 53q-16 0 -29 -5.5t-29 -15.5l-20 28q34 31 83 31q43 0 66.5 -24.5t23.5 -68.5q0 -7 -2 -25l-11 -84l-26 -188q-3 -19 -3 -36
q0 -40 16 -59.5t45 -19.5q80 0 168 168l45 327h45z" />
    <glyph glyph-name="uni02AF" unicode="&#x2af;" horiz-adv-x="545" 
d="M539 -171q-34 -31 -83 -31q-43 0 -66.5 24.5t-23.5 68.5q0 7 2 25l11 84l18 123q-35 -63 -74 -98.5t-88 -35.5q-47 0 -73.5 30.5t-26.5 85.5q0 18 3 37l25 188l11 89q2 16 2 22q0 53 -50 53q-16 0 -29 -5.5t-29 -15.5l-20 28q34 31 83 31q43 0 66.5 -24.5t23.5 -68.5
q0 -7 -2 -25l-11 -84l-26 -188q-3 -19 -3 -36q0 -40 16 -59.5t45 -19.5q80 0 168 168l45 327h45l-74 -522l-11 -89q-2 -16 -2 -22q0 -53 50 -53q16 0 29 5.5t29 15.5z" />
    <glyph glyph-name="uni0195" unicode="&#x195;" horiz-adv-x="730" 
d="M362.5 23q-31.5 34 -31.5 89q0 8 2 28l32 235q3 21 3 39q0 80 -62 80q-43 0 -85.5 -47.5t-80.5 -125.5l-45 -321h-45l104 735l46 6l-49 -344q74 135 162 135q48 0 74.5 -31.5t26.5 -87.5q0 -16 -3 -36l-33 -237q-2 -18 -2 -26q0 -42 20.5 -63.5t58.5 -21.5
q99 0 136 122.5t37 292.5q0 39 -3 78h42q5 -45 5 -78q0 -196 -48.5 -325.5t-171.5 -129.5q-58 0 -89.5 34z" />
    <glyph glyph-name="i" unicode="i" horiz-adv-x="220" 
d="M169 522l-74 -522h-45l74 522h45zM146.5 683.5q-8.5 8.5 -8.5 21.5q0 16 10.5 26.5t26.5 10.5q13 0 21.5 -8t8.5 -21q0 -16 -10.5 -27t-26.5 -11q-13 0 -21.5 8.5z" />
    <glyph glyph-name="dotlessi" unicode="&#x131;" horiz-adv-x="220" 
d="M169 522l-74 -522h-45l74 522h45z" />
    <glyph glyph-name="iacute" unicode="&#xed;" horiz-adv-x="220" 
d="M169 522l-74 -522h-45l74 522h45zM245 774l20 -42l-170 -84l-15 26z" />
    <glyph glyph-name="ibreve" unicode="&#x12d;" horiz-adv-x="220" 
d="M169 522l-74 -522h-45l74 522h45zM98 685.5q-25 28.5 -23 74.5l30 4q6 -68 62 -68q29 0 51.5 18.5t34.5 52.5l29 -10q-11 -46 -42 -73t-74 -27t-68 28.5z" />
    <glyph glyph-name="uni01D0" unicode="&#x1d0;" horiz-adv-x="220" 
d="M169 522l-74 -522h-45l74 522h45zM276 762l20 -23l-120 -104h-27l-91 104l23 23l84 -84z" />
    <glyph glyph-name="icircumflex" unicode="&#xee;" horiz-adv-x="220" 
d="M169 522l-74 -522h-45l74 522h45zM68 648l-21 23l120 104h27l91 -105l-24 -22l-83 84z" />
    <glyph glyph-name="uni0209" unicode="&#x209;" horiz-adv-x="220" 
d="M169 522l-74 -522h-45l74 522h45zM87 803l44 -146l-32 -12l-57 139zM190 802l39 -141l-33 -11l-52 134z" />
    <glyph glyph-name="idieresis" unicode="&#xef;" horiz-adv-x="220" 
d="M169 522l-74 -522h-45l74 522h45zM71.5 675q-7.5 8 -7.5 20q0 15 10 25.5t25 10.5q13 0 20.5 -8t7.5 -20q0 -16 -10 -26t-25 -10q-13 0 -20.5 8zM224.5 675q-7.5 8 -7.5 20q0 15 10 25.5t24 10.5q13 0 20.5 -8t7.5 -20q0 -16 -9.5 -26t-24.5 -10q-13 0 -20.5 8z" />
    <glyph glyph-name="uni1E2F" unicode="&#x1e2f;" horiz-adv-x="220" 
d="M169 522l-74 -522h-45l74 522h45zM250 848l30 -28l-117 -120l-19 18zM62.5 646q-7.5 8 -7.5 20q0 15 10 25.5t25 10.5q13 0 20.5 -8t7.5 -20q0 -16 -10 -26t-25 -10q-13 0 -20.5 8zM215.5 646q-7.5 8 -7.5 20q0 15 10 25.5t24 10.5q13 0 20.5 -8t7.5 -20q0 -16 -9.5 -26
t-24.5 -10q-13 0 -20.5 8z" />
    <glyph glyph-name="i.loclTRK" horiz-adv-x="220" 
d="M169 522l-74 -522h-45l74 522h45zM146.5 683.5q-8.5 8.5 -8.5 21.5q0 16 10.5 26.5t26.5 10.5q13 0 21.5 -8t8.5 -21q0 -16 -10.5 -27t-26.5 -11q-13 0 -21.5 8.5z" />
    <glyph glyph-name="uni1ECB" unicode="&#x1ecb;" horiz-adv-x="220" 
d="M169 522l-74 -522h-45l74 522h45zM146.5 683.5q-8.5 8.5 -8.5 21.5q0 16 10.5 26.5t26.5 10.5q13 0 21.5 -8t8.5 -21q0 -16 -10.5 -27t-26.5 -11q-13 0 -21.5 8.5zM82.5 -99.5q8.5 -8.5 8.5 -21.5q0 -16 -10.5 -26.5t-26.5 -10.5q-13 0 -21.5 8t-8.5 21q0 16 10.5 27
t26.5 11q13 0 21.5 -8.5z" />
    <glyph glyph-name="igrave" unicode="&#xec;" horiz-adv-x="220" 
d="M169 522l-74 -522h-45l74 522h45zM127 773l137 -100l-17 -25l-147 84z" />
    <glyph glyph-name="uni1EC9" unicode="&#x1ec9;" horiz-adv-x="220" 
d="M169 522l-74 -522h-45l74 522h45zM149 697q30 3 47.5 15t17.5 40q0 36 -34 36q-21 0 -47 -13l-11 30q30 18 63 18q32 0 51 -19t19 -51q0 -34 -19 -54.5t-53 -25.5l-8 -54h-36z" />
    <glyph glyph-name="uni020B" unicode="&#x20b;" horiz-adv-x="220" 
d="M169 522l-74 -522h-45l74 522h45zM56 635q13 47 43.5 74t71.5 27q43 0 68.5 -28.5t24.5 -75.5l-31 -4q-6 69 -64 69t-85 -71z" />
    <glyph glyph-name="ij" unicode="&#x133;" horiz-adv-x="441" 
d="M169 522l-74 -522h-45l74 522h45zM146.5 683.5q-8.5 8.5 -8.5 21.5q0 16 10.5 26.5t26.5 10.5q13 0 21.5 -8t8.5 -21q0 -16 -10.5 -27t-26.5 -11q-13 0 -21.5 8.5zM164 -167q34 19 54 37.5t33 50t21 86.5l73 515h45l-73 -517q-9 -63 -26 -100t-43 -59t-72 -46z
M367.5 683.5q-8.5 8.5 -8.5 21.5q0 16 10.5 26.5t26.5 10.5q13 0 21.5 -8t8.5 -21q0 -16 -10.5 -27t-26.5 -11q-13 0 -21.5 8.5z" />
    <glyph glyph-name="imacron" unicode="&#x12b;" horiz-adv-x="220" 
d="M169 522l-74 -522h-45l74 522h45zM264 679h-192l6 39h192z" />
    <glyph glyph-name="iogonek" unicode="&#x12f;" horiz-adv-x="220" 
d="M196.5 734q8.5 -8 8.5 -21q0 -16 -10.5 -27t-26.5 -11q-13 0 -21.5 8.5t-8.5 21.5q0 16 10.5 26.5t26.5 10.5q13 0 21.5 -8zM124 522h45l-74 -522h-6q-64 -32 -90.5 -61t-26.5 -68q0 -44 45 -44q16 0 48 5l-9 -38q-24 -6 -45 -6q-37 0 -59 21.5t-22 58.5q0 45 28 78.5
t93 63.5z" />
    <glyph glyph-name="uni0269" unicode="&#x269;" horiz-adv-x="232" 
d="M119 522h45l-63 -446q-1 -5 -1 -13q0 -34 29 -34q12 0 31 7l10 -34q-26 -13 -51 -13q-29 0 -46.5 17.5t-17.5 50.5q0 6 2 20z" />
    <glyph glyph-name="uni0268" unicode="&#x268;" horiz-adv-x="235" 
d="M154.5 683.5q-8.5 8.5 -8.5 21.5q0 16 10.5 26.5t26.5 10.5q13 0 21.5 -8t8.5 -21q0 -16 -10.5 -27t-26.5 -11q-13 0 -21.5 8.5zM231 300l-6 -36h-85l-37 -264h-45l37 264h-84l5 36h85l31 222h45l-31 -222h85z" />
    <glyph glyph-name="itilde" unicode="&#x129;" horiz-adv-x="220" 
d="M169 522l-74 -522h-45l74 522h45zM194 676.5q-12 6.5 -29 18.5q-12 10 -20.5 15t-18.5 5q-15 0 -25.5 -8.5t-26.5 -30.5l-24 17q38 59 76 59q13 0 23.5 -5t19 -11t11.5 -8q13 -10 22 -15t18 -5q13 0 25.5 10t26.5 32l25 -15q-35 -65 -76 -65q-15 0 -27 6.5z" />
    <glyph glyph-name="j" unicode="j" horiz-adv-x="221" 
d="M-56 -167q34 19 54 37.5t33 50t21 86.5l73 515h45l-73 -517q-9 -63 -26 -100t-43 -59t-72 -46zM147.5 683.5q-8.5 8.5 -8.5 21.5q0 16 10.5 26.5t26.5 10.5q13 0 21.5 -8t8.5 -21q0 -16 -10.5 -27t-26.5 -11q-13 0 -21.5 8.5z" />
    <glyph glyph-name="uni0237" unicode="&#x237;" horiz-adv-x="221" 
d="M-56 -167q34 19 54 37.5t33 50t21 86.5l73 515h45l-73 -517q-9 -63 -26 -100t-43 -59t-72 -46z" />
    <glyph glyph-name="uni01F0" unicode="&#x1f0;" horiz-adv-x="221" 
d="M-56 -167q34 19 54 37.5t33 50t21 86.5l73 515h45l-73 -517q-9 -63 -26 -100t-43 -59t-72 -46zM277 762l20 -23l-120 -104h-27l-91 104l23 23l84 -84z" />
    <glyph glyph-name="jcircumflex" unicode="&#x135;" horiz-adv-x="221" 
d="M-56 -167q34 19 54 37.5t33 50t21 86.5l73 515h45l-73 -517q-9 -63 -26 -100t-43 -59t-72 -46zM69 648l-21 23l120 104h27l91 -105l-24 -22l-83 84z" />
    <glyph glyph-name="uni029D" unicode="&#x29d;" horiz-adv-x="281" 
d="M217.5 734q8.5 -8 8.5 -21q0 -16 -10.5 -27t-26.5 -11q-13 0 -21.5 8.5t-8.5 21.5q0 16 10.5 26.5t26.5 10.5q13 0 21.5 -8zM114 -23q50 -16 79 -34l-16 -28q-35 19 -67 29q-11 -69 -44.5 -107.5t-89.5 -38.5q-41 0 -65.5 24.5t-24.5 63.5q0 51 33 79t84 28q40 0 66 -7
l76 536h45zM36 -137q21 29 29 91q-27 6 -63 6t-56.5 -18.5t-20.5 -54.5q0 -25 13 -39t38 -14q39 0 60 29z" />
    <glyph glyph-name="uni025F" unicode="&#x25f;" horiz-adv-x="239" 
d="M224 226h-85l-31 -221q-9 -63 -26 -100t-43 -59t-72 -46l-12 33q34 19 54 37.5t33 50t21 86.5l31 219h-85l6 38h84l37 258h45l-36 -258h85z" />
    <glyph glyph-name="uni0284" unicode="&#x284;" horiz-adv-x="296" 
d="M316 731.5q19 -9.5 35 -24.5l-23 -27q-14 11 -26.5 16.5t-31.5 5.5q-56 0 -67 -77l-15 -103h1l-69 -484h86l-6 -38h-86q-9 -61 -26 -97.5t-42.5 -58t-70.5 -44.5l-13 33q34 18 53.5 36t33 48.5t21.5 82.5h-85l6 38h84l69 484h-1l16 105q7 56 36 85t75 29q27 0 46 -9.5z
" />
    <glyph glyph-name="uni0249" unicode="&#x249;" horiz-adv-x="239" 
d="M224 226h-85l-31 -221q-9 -63 -26 -100t-43 -59t-72 -46l-12 33q34 19 54 37.5t33 50t21 86.5l31 219h-85l6 38h84l37 258h45l-36 -258h85zM158.5 683.5q-8.5 8.5 -8.5 21.5q0 16 10.5 26.5t26.5 10.5q13 0 21.5 -8t8.5 -21q0 -16 -10.5 -27t-26.5 -11q-13 0 -21.5 8.5z
" />
    <glyph glyph-name="k" unicode="k" horiz-adv-x="433" 
d="M150 384q35 72 76 110t91 38q46 0 72 -28.5t26 -72.5q0 -131 -152 -192l92 -239h-48l-94 253q156 51 156 176q0 31 -14.5 48.5t-44.5 17.5q-46 0 -88 -50t-84 -144l-43 -301h-45l104 735l46 6z" />
    <glyph glyph-name="uni01E9" unicode="&#x1e9;" horiz-adv-x="433" 
d="M150 384q35 72 76 110t91 38q46 0 72 -28.5t26 -72.5q0 -131 -152 -192l92 -239h-48l-94 253q156 51 156 176q0 31 -14.5 48.5t-44.5 17.5q-46 0 -88 -50t-84 -144l-43 -301h-45l104 735l46 6zM435 930l20 -23l-121 -99h-27l-90 100l21 22l86 -79z" />
    <glyph glyph-name="kcommaaccent" unicode="&#x137;" horiz-adv-x="433" 
d="M150 384q35 72 76 110t91 38q46 0 72 -28.5t26 -72.5q0 -131 -152 -192l92 -239h-48l-94 253q156 51 156 176q0 31 -14.5 48.5t-44.5 17.5q-46 0 -88 -50t-84 -144l-43 -301h-45l104 735l46 6zM212 -97.5q9 -9.5 9 -23.5q0 -12 -4.5 -23t-17.5 -33l-51 -96h-27l43 115
q-16 11 -16 30q0 17 11 28.5t28 11.5q16 0 25 -9.5z" />
    <glyph glyph-name="kgreenlandic" unicode="&#x138;" horiz-adv-x="401" 
d="M169 522l-74 -522h-45l74 522h45zM408 522l-217 -248l161 -274h-50l-162 275l216 247h52z" />
    <glyph glyph-name="uni0199" unicode="&#x199;" horiz-adv-x="433" 
d="M264 239l91 -239h-47l-95 253q157 50 157 176q0 30 -15 48t-45 18q-46 0 -88 -50t-84 -144l-42 -301h-45l73 521l13 96q9 59 43.5 91.5t87.5 32.5t100 -30l-19 -32q-37 23 -79 23q-76 0 -89 -94l-12 -87l-19 -138q36 73 76.5 111t90.5 38q46 0 72 -28.5t26 -72.5
q0 -130 -151 -192z" />
    <glyph glyph-name="uni029E" unicode="&#x29e;" horiz-adv-x="397" 
d="M-6 0l218 242l-163 280h50l163 -285l-214 -237h-54zM203 -203l104 725h44l-102 -719z" />
    <glyph glyph-name="l" unicode="l" horiz-adv-x="232" 
d="M101 76q-1 -5 -1 -13q0 -34 29 -34q12 0 31 7l10 -34q-26 -13 -51 -13q-29 0 -46 17.5t-17 51.5q0 12 1 19l92 658l45 6z" />
    <glyph glyph-name="lacute" unicode="&#x13a;" horiz-adv-x="232" 
d="M101 76q-1 -5 -1 -13q0 -34 29 -34q12 0 31 7l10 -34q-26 -13 -51 -13q-29 0 -46 17.5t-17 51.5q0 12 1 19l92 658l45 6zM261 926l20 -41l-170 -75l-14 27z" />
    <glyph glyph-name="uni019B" unicode="&#x19b;" horiz-adv-x="381" 
d="M288.5 253.5q11.5 -91.5 27 -140.5t41.5 -105l-42 -15q-26 56 -41.5 107t-26.5 139.5t-13 229.5l-196 -477l-44 11l220 516l19 -4q-3 74 -15 112l-67 -73l-30 16l82 89q-21 34 -73 49l9 33q63 -19 92 -57l66 72l23 -24l-72 -78q22 -51 25 -157q4 -152 15.5 -243.5z" />
    <glyph glyph-name="uni019A" unicode="&#x19a;" horiz-adv-x="235" 
d="M114 76q-1 -5 -1 -13q0 -34 29 -34q12 0 31 7l10 -34q-26 -13 -51 -13q-29 0 -46 17.5t-17 51.5q0 12 1 19l39 276h-85l5 39h85l48 343l45 6l-49 -349h86l-6 -39h-85z" />
    <glyph glyph-name="uni026C" unicode="&#x26c;" horiz-adv-x="272" 
d="M196 36l10 -34q-26 -13 -51 -13q-29 0 -46 17.5t-17 51.5q0 12 1 19l27 193h-1q-44 2 -68.5 23t-24.5 62q0 44 26.5 70t67.5 26q11 0 25 -2l40 286l45 6l-61 -435q34 1 65 8l5 -32q-33 -8 -75 -10l-27 -196q-1 -5 -1 -13q0 -34 29 -34q12 0 31 7zM79 318q15 -12 46 -12
l15 109q-7 3 -21 3q-25 0 -40 -16t-15 -45q0 -27 15 -39z" />
    <glyph glyph-name="lcaron" unicode="&#x13e;" horiz-adv-x="232" 
d="M101 76q-1 -5 -1 -13q0 -34 29 -34q12 0 31 7l10 -34q-26 -13 -51 -13q-29 0 -46 17.5t-17 51.5q0 12 1 19l92 658l45 6zM260 739l41 -5l-51 -156l-27 4z" />
    <glyph glyph-name="uni1E3D" unicode="&#x1e3d;" horiz-adv-x="232" 
d="M101 76q-1 -5 -1 -13q0 -34 29 -34q12 0 31 7l10 -34q-26 -13 -51 -13q-29 0 -46 17.5t-17 51.5q0 12 1 19l92 658l45 6zM-6 -197l-20 23l121 104h27l90 -105l-21 -22l-88 84z" />
    <glyph glyph-name="lcommaaccent" unicode="&#x13c;" horiz-adv-x="232" 
d="M101 76q-1 -5 -1 -13q0 -34 29 -34q12 0 31 7l10 -34q-26 -13 -51 -13q-29 0 -46 17.5t-17 51.5q0 12 1 19l92 658l45 6zM125 -97.5q9 -9.5 9 -23.5q0 -12 -4.5 -23t-17.5 -33l-51 -96h-27l43 115q-16 11 -16 30q0 17 11 28.5t28 11.5q16 0 25 -9.5z" />
    <glyph glyph-name="uni0234" unicode="&#x234;" horiz-adv-x="299" 
d="M278.5 170.5q20.5 -21.5 20.5 -57.5q0 -56 -39 -90t-96 -34q-43 0 -69 20l-42 -72l-28 15l48 82q-13 23 -13 54q0 7 2 23l87 624l45 6l-89 -635q-2 -15 -1 -22q30 58 57.5 83t63.5 25q33 0 53.5 -21.5zM234.5 51q25.5 21 25.5 62q0 21 -10.5 32.5t-28.5 11.5
q-25 0 -47.5 -22.5t-56.5 -88.5q16 -16 53 -16q39 0 64.5 21z" />
    <glyph glyph-name="ldot" unicode="&#x140;" horiz-adv-x="242" 
d="M101 76q-1 -5 -1 -13q0 -34 29 -34q12 0 31 7l10 -34q-26 -13 -51 -13q-29 0 -46 17.5t-17 51.5q0 12 1 19l92 658l45 6zM215.5 350.5q-8.5 8.5 -8.5 21.5q0 16 10.5 26.5t26.5 10.5q13 0 21.5 -8t8.5 -21q0 -16 -10.5 -27t-26.5 -11q-13 0 -21.5 8.5z" />
    <glyph glyph-name="uni1E37" unicode="&#x1e37;" horiz-adv-x="232" 
d="M101 76q-1 -5 -1 -13q0 -34 29 -34q12 0 31 7l10 -34q-26 -13 -51 -13q-29 0 -46 17.5t-17 51.5q0 12 1 19l92 658l45 6zM124.5 -99.5q8.5 -8.5 8.5 -21.5q0 -16 -10.5 -26.5t-26.5 -10.5q-13 0 -21.5 8t-8.5 21q0 16 10.5 27t26.5 11q13 0 21.5 -8.5z" />
    <glyph glyph-name="uni026E" unicode="&#x26e;" horiz-adv-x="519" 
d="M501 486l-221 -290h7q170 0 170 -154q0 -72 -26.5 -127t-74 -86t-107.5 -31q-51 0 -86.5 21.5t-62.5 63.5l30 24q25 -37 53.5 -53.5t66.5 -16.5q74 0 117 57t43 147q0 64 -31 91.5t-98 27.5h-52l6 37l213 285h-290l-57 -406q-1 -5 -1 -13q0 -34 29 -34q12 0 31 7l10 -34
q-26 -13 -51 -13q-29 0 -46 17.5t-17 51.5q0 12 1 19l92 658l45 6l-31 -219h344z" />
    <glyph glyph-name="uni026D" unicode="&#x26d;" horiz-adv-x="219" 
d="M210 -171q-34 -31 -83 -31q-43 0 -66.5 24.5t-23.5 68.5q0 7 2 25l11 84l105 735l45 7l-105 -742l-11 -89q-2 -16 -2 -22q0 -53 50 -53q16 0 29 5.5t29 15.5z" />
    <glyph glyph-name="uni01C9" unicode="&#x1c9;" horiz-adv-x="453" 
d="M101 76q-1 -5 -1 -13q0 -34 29 -34q12 0 31 7l10 -34q-26 -13 -51 -13q-29 0 -46 17.5t-17 51.5q0 12 1 19l92 658l45 6zM176 -167q34 19 54 37.5t33 50t21 86.5l73 515h45l-73 -517q-9 -63 -26 -100t-43 -59t-72 -46zM379.5 683.5q-8.5 8.5 -8.5 21.5q0 16 10.5 26.5
t26.5 10.5q13 0 21.5 -8t8.5 -21q0 -16 -10.5 -27t-26.5 -11q-13 0 -21.5 8.5z" />
    <glyph glyph-name="uni026B" unicode="&#x26b;" horiz-adv-x="256" 
d="M282 379q-22 -33 -43 -49.5t-49 -16.5q-20 0 -40 13l-35 -250q-1 -5 -1 -13q0 -34 29 -34q12 0 31 7l10 -34q-26 -13 -51 -13q-29 0 -46 17.5t-17 51.5q0 12 1 19l39 277q-23 16 -39 16q-19 0 -33 -11t-32 -34l-25 18q23 33 44.5 50t49.5 17q20 0 41 -13l47 338l45 6
l-52 -373q20 -15 37 -15q18 0 32 11t31 33z" />
    <glyph glyph-name="uni02AA" unicode="&#x2aa;" horiz-adv-x="532" 
d="M114.5 26q-47.5 37 -47.5 111q0 17 3 35l80 563l46 6l-81 -570q-2 -22 -2 -30q0 -112 134 -112q84 0 130 32.5t46 95.5q0 33 -20.5 56.5t-72.5 46.5q-58 25 -82 54.5t-24 75.5q0 40 20 72.5t55 51t78 18.5q77 0 132 -57l-25 -27q-25 23 -50 34t-57 11q-47 0 -77 -27.5
t-30 -74.5q0 -33 19 -54t69 -43q58 -25 84.5 -57.5t26.5 -78.5q0 -79 -60.5 -124t-165.5 -45q-81 0 -128.5 37z" />
    <glyph glyph-name="lslash" unicode="&#x142;" horiz-adv-x="238" 
d="M162 36l10 -34q-26 -13 -51 -13q-29 0 -46 17.5t-17 51.5q0 12 1 19l35 252l-41 -27l-16 29l63 42l51 362l45 6l-47 -335l91 60l16 -30l-113 -75l-40 -285q-1 -5 -1 -13q0 -34 29 -34q12 0 31 7z" />
    <glyph glyph-name="uni02AB" unicode="&#x2ab;" horiz-adv-x="513" 
d="M516 486l-304 -446h240l-11 -40h-277q-22 -11 -45 -11q-29 0 -46.5 17.5t-17.5 50.5q0 6 2 20l92 658l45 6l-93 -665q-1 -5 -1 -13q0 -34 29 -34q12 0 31 7l304 445h-222l6 41h274z" />
    <glyph glyph-name="m" unicode="m" horiz-adv-x="697" 
d="M608.5 500q24.5 -32 24.5 -88q0 -19 -3 -40l-53 -372h-45l51 370q3 24 3 44q0 80 -53 80q-39 0 -76.5 -46.5t-76.5 -130.5l-45 -317h-44l52 370q3 24 3 43q0 41 -14 61t-40 20q-39 0 -76.5 -47.5t-75.5 -132.5l-45 -314h-45l74 522h39l-16 -131q33 67 71.5 104t80.5 37
q45 0 70 -35.5t22 -97.5q69 133 149 133q44 0 68.5 -32z" />
    <glyph glyph-name="uni1E3F" unicode="&#x1e3f;" horiz-adv-x="697" 
d="M608.5 500q24.5 -32 24.5 -88q0 -19 -3 -40l-53 -372h-45l51 370q3 24 3 44q0 80 -53 80q-39 0 -76.5 -46.5t-76.5 -130.5l-45 -317h-44l52 370q3 24 3 43q0 41 -14 61t-40 20q-39 0 -76.5 -47.5t-75.5 -132.5l-45 -314h-45l74 522h39l-16 -131q33 67 71.5 104t80.5 37
q45 0 70 -35.5t22 -97.5q69 133 149 133q44 0 68.5 -32zM490 774l20 -42l-170 -84l-15 26z" />
    <glyph glyph-name="uni1E41" unicode="&#x1e41;" horiz-adv-x="697" 
d="M608.5 500q24.5 -32 24.5 -88q0 -19 -3 -40l-53 -372h-45l51 370q3 24 3 44q0 80 -53 80q-39 0 -76.5 -46.5t-76.5 -130.5l-45 -317h-44l52 370q3 24 3 43q0 41 -14 61t-40 20q-39 0 -76.5 -47.5t-75.5 -132.5l-45 -314h-45l74 522h39l-16 -131q33 67 71.5 104t80.5 37
q45 0 70 -35.5t22 -97.5q69 133 149 133q44 0 68.5 -32zM391.5 683.5q-8.5 8.5 -8.5 21.5q0 16 10.5 26.5t26.5 10.5q13 0 21.5 -8t8.5 -21q0 -16 -10.5 -27t-26.5 -11q-13 0 -21.5 8.5z" />
    <glyph glyph-name="uni0271" unicode="&#x271;" horiz-adv-x="697" 
d="M608.5 500q24.5 -32 24.5 -88q0 -19 -3 -40l-53 -372l-13 -89q-8 -56 -39 -84.5t-76 -28.5q-44 0 -79 33l23 27q15 -12 26.5 -17t29.5 -5q27 0 45.5 18t24.5 58l13 88l51 370q3 24 3 44q0 80 -53 80q-39 0 -76.5 -46.5t-76.5 -130.5l-45 -317h-44l52 370q3 24 3 43
q0 41 -14 61t-40 20q-39 0 -76.5 -47.5t-75.5 -132.5l-45 -314h-45l74 522h39l-16 -131q33 67 71.5 104t80.5 37q45 0 70 -35.5t22 -97.5q69 133 149 133q44 0 68.5 -32z" />
    <glyph glyph-name="uni0270" unicode="&#x270;" horiz-adv-x="692" 
d="M646 522l-101 -719l-47 -6l48 331q-65 -139 -148 -139q-45 0 -70 35.5t-22 98.5q-69 -134 -149 -134q-44 0 -68.5 32t-24.5 88q0 19 3 40l53 373h45l-52 -371q-3 -22 -3 -42q0 -81 53 -81q40 0 77 46.5t76 130.5l46 317h44l-52 -371q-3 -24 -3 -43q0 -40 14 -60t40 -20
q39 0 76.5 47.5t75.5 131.5l44 315h45z" />
    <glyph glyph-name="uni026F" unicode="&#x26f;" horiz-adv-x="697" 
d="M647 522l-74 -522h-39l16 131q-33 -67 -71.5 -104t-80.5 -37q-45 0 -70 35.5t-22 97.5q-69 -133 -149 -133q-44 0 -68.5 32t-24.5 88q0 19 3 40l53 372h45l-51 -370q-3 -24 -3 -44q0 -80 53 -80q39 0 76.5 46.5t76.5 130.5l45 317h44l-52 -370q-3 -24 -3 -43
q0 -41 14 -61t40 -20q39 0 76.5 47.5t75.5 132.5l45 314h45z" />
    <glyph glyph-name="n" unicode="n" horiz-adv-x="477" 
d="M386.5 501q26.5 -31 26.5 -87q0 -17 -3 -37l-53 -377h-45l53 375q3 21 3 37q0 41 -16 61.5t-46 20.5q-80 0 -166 -173l-45 -321h-45l74 522h39l-15 -129q37 67 76.5 103t88.5 36q47 0 73.5 -31z" />
    <glyph glyph-name="nacute" unicode="&#x144;" horiz-adv-x="477" 
d="M386.5 501q26.5 -31 26.5 -87q0 -17 -3 -37l-53 -377h-45l53 375q3 21 3 37q0 41 -16 61.5t-46 20.5q-80 0 -166 -173l-45 -321h-45l74 522h39l-15 -129q37 67 76.5 103t88.5 36q47 0 73.5 -31zM375 774l20 -42l-170 -84l-15 26z" />
    <glyph glyph-name="napostrophe" unicode="&#x149;" horiz-adv-x="544" 
d="M177 732.5q9 -9.5 9 -23.5q0 -12 -4.5 -23.5t-16.5 -34.5l-50 -99h-27l42 120q-16 11 -16 30q0 17 11 28.5t28 11.5q15 0 24 -9.5zM453.5 501q26.5 -31 26.5 -87q0 -17 -3 -37l-53 -377h-45l53 375q3 21 3 37q0 41 -16 61.5t-46 20.5q-80 0 -166 -173l-45 -321h-45
l74 522h39l-15 -129q37 67 76.5 103t88.5 36q47 0 73.5 -31z" />
    <glyph glyph-name="ncaron" unicode="&#x148;" horiz-adv-x="477" 
d="M386.5 501q26.5 -31 26.5 -87q0 -17 -3 -37l-53 -377h-45l53 375q3 21 3 37q0 41 -16 61.5t-46 20.5q-80 0 -166 -173l-45 -321h-45l74 522h39l-15 -129q37 67 76.5 103t88.5 36q47 0 73.5 -31zM406 762l20 -23l-120 -104h-27l-91 104l23 23l84 -84z" />
    <glyph glyph-name="uni1E4B" unicode="&#x1e4b;" horiz-adv-x="477" 
d="M386.5 501q26.5 -31 26.5 -87q0 -17 -3 -37l-53 -377h-45l53 375q3 21 3 37q0 41 -16 61.5t-46 20.5q-80 0 -166 -173l-45 -321h-45l74 522h39l-15 -129q37 67 76.5 103t88.5 36q47 0 73.5 -31zM84 -197l-20 23l121 104h27l90 -105l-21 -22l-88 84z" />
    <glyph glyph-name="ncommaaccent" unicode="&#x146;" horiz-adv-x="477" 
d="M386.5 501q26.5 -31 26.5 -87q0 -17 -3 -37l-53 -377h-45l53 375q3 21 3 37q0 41 -16 61.5t-46 20.5q-80 0 -166 -173l-45 -321h-45l74 522h39l-15 -129q37 67 76.5 103t88.5 36q47 0 73.5 -31zM215 -97.5q9 -9.5 9 -23.5q0 -12 -4.5 -23t-17.5 -33l-51 -96h-27l43 115
q-16 11 -16 30q0 17 11 28.5t28 11.5q16 0 25 -9.5z" />
    <glyph glyph-name="uni0235" unicode="&#x235;" horiz-adv-x="566" 
d="M546.5 171.5q20.5 -21.5 20.5 -57.5q0 -57 -39 -91t-96 -34q-44 0 -70 21l-43 -73l-28 15l50 83q-13 23 -13 55q0 7 2 23l35 259q3 21 3 39q0 83 -63 83q-43 0 -85 -48t-80 -127l-45 -319h-45l74 522h39l-15 -132q76 142 166 142q47 0 73 -31t26 -87q0 -19 -3 -40
l-37 -266q-2 -17 -1 -24q29 57 57 83t64 26q33 0 53.5 -21.5zM501.5 51q25.5 21 25.5 62q0 21 -10 32.5t-28 11.5q-26 0 -48 -22.5t-56 -87.5q17 -17 53 -17q38 0 63.5 21z" />
    <glyph glyph-name="uni1E45" unicode="&#x1e45;" horiz-adv-x="477" 
d="M386.5 501q26.5 -31 26.5 -87q0 -17 -3 -37l-53 -377h-45l53 375q3 21 3 37q0 41 -16 61.5t-46 20.5q-80 0 -166 -173l-45 -321h-45l74 522h39l-15 -129q37 67 76.5 103t88.5 36q47 0 73.5 -31zM276.5 683.5q-8.5 8.5 -8.5 21.5q0 16 10.5 26.5t26.5 10.5q13 0 21.5 -8
t8.5 -21q0 -16 -10.5 -27t-26.5 -11q-13 0 -21.5 8.5z" />
    <glyph glyph-name="uni1E47" unicode="&#x1e47;" horiz-adv-x="477" 
d="M386.5 501q26.5 -31 26.5 -87q0 -17 -3 -37l-53 -377h-45l53 375q3 21 3 37q0 41 -16 61.5t-46 20.5q-80 0 -166 -173l-45 -321h-45l74 522h39l-15 -129q37 67 76.5 103t88.5 36q47 0 73.5 -31zM214.5 -99.5q8.5 -8.5 8.5 -21.5q0 -16 -10.5 -26.5t-26.5 -10.5
q-13 0 -21.5 8t-8.5 21q0 16 10.5 27t26.5 11q13 0 21.5 -8.5z" />
    <glyph glyph-name="uni01F9" unicode="&#x1f9;" horiz-adv-x="477" 
d="M386.5 501q26.5 -31 26.5 -87q0 -17 -3 -37l-53 -377h-45l53 375q3 21 3 37q0 41 -16 61.5t-46 20.5q-80 0 -166 -173l-45 -321h-45l74 522h39l-15 -129q37 67 76.5 103t88.5 36q47 0 73.5 -31zM257 773l137 -100l-17 -25l-147 84z" />
    <glyph glyph-name="eng" unicode="&#x14b;" horiz-adv-x="477" 
d="M386.5 501q26.5 -31 26.5 -87q0 -17 -3 -37l-53 -377l-13 -89q-8 -56 -39 -84.5t-76 -28.5q-44 0 -79 33l23 27q15 -12 26.5 -17t29.5 -5q27 0 45.5 18t24.5 58l13 88l53 375q3 21 3 37q0 41 -16 61.5t-46 20.5q-80 0 -166 -173l-45 -321h-45l74 522h39l-15 -129
q37 67 76.5 103t88.5 36q47 0 73.5 -31z" />
    <glyph glyph-name="uni0272" unicode="&#x272;" horiz-adv-x="477" 
d="M386.5 501q26.5 -31 26.5 -87q0 -17 -3 -37l-53 -377h-45l53 375q3 21 3 37q0 41 -16 61.5t-46 20.5q-80 0 -166 -173l-45 -321h1l-13 -89q-8 -56 -39 -84.5t-76 -28.5q-44 0 -79 33l23 27q15 -12 26.5 -17t29.5 -5q27 0 45.5 18t24.5 58l13 88h-1l74 522h39l-15 -129
q37 67 76.5 103t88.5 36q47 0 73.5 -31z" />
    <glyph glyph-name="uni0273" unicode="&#x273;" horiz-adv-x="477" 
d="M472 -171q-34 -31 -83 -31q-43 0 -66.5 24.5t-23.5 68.5q0 7 2 25l11 84l53 375q3 21 3 37q0 41 -16 61.5t-46 20.5q-80 0 -166 -173l-45 -321h-45l74 522h39l-15 -129q37 67 76.5 103t88.5 36q47 0 73.5 -31t26.5 -87q0 -17 -3 -37l-53 -377l-11 -89q-2 -16 -2 -22
q0 -53 50 -53q16 0 29 5.5t29 15.5z" />
    <glyph glyph-name="uni01CC" unicode="&#x1cc;" horiz-adv-x="698" 
d="M386.5 501q26.5 -31 26.5 -87q0 -17 -3 -37l-53 -377h-45l53 375q3 21 3 37q0 41 -16 61.5t-46 20.5q-80 0 -166 -173l-45 -321h-45l74 522h39l-15 -129q37 67 76.5 103t88.5 36q47 0 73.5 -31zM421 -167q34 19 54 37.5t33 50t21 86.5l73 515h45l-73 -517
q-9 -63 -26 -100t-43 -59t-72 -46zM624.5 683.5q-8.5 8.5 -8.5 21.5q0 16 10.5 26.5t26.5 10.5q13 0 21.5 -8t8.5 -21q0 -16 -10.5 -27t-26.5 -11q-13 0 -21.5 8.5z" />
    <glyph glyph-name="uni019E" unicode="&#x19e;" horiz-adv-x="477" 
d="M386.5 501q26.5 -31 26.5 -87q0 -17 -3 -37l-81 -574l-46 -6l82 578q3 21 3 38q0 81 -63 81q-42 0 -84 -47.5t-81 -125.5l-45 -321h-45l74 522h39l-15 -129q37 67 76.5 103t87.5 36t74.5 -31z" />
    <glyph glyph-name="ntilde" unicode="&#xf1;" horiz-adv-x="477" 
d="M386.5 501q26.5 -31 26.5 -87q0 -17 -3 -37l-53 -377h-45l53 375q3 21 3 37q0 41 -16 61.5t-46 20.5q-80 0 -166 -173l-45 -321h-45l74 522h39l-15 -129q37 67 76.5 103t88.5 36q47 0 73.5 -31zM324 676.5q-12 6.5 -29 18.5q-12 10 -20.5 15t-18.5 5q-15 0 -25.5 -8.5
t-26.5 -30.5l-24 17q38 59 76 59q13 0 23.5 -5t19 -11t11.5 -8q13 -10 22 -15t18 -5q13 0 25.5 10t26.5 32l25 -15q-35 -65 -76 -65q-15 0 -27 6.5z" />
    <glyph glyph-name="o" unicode="o" horiz-adv-x="468" 
d="M84 39.5q-38 50.5 -38 138.5q0 80 24 161.5t76.5 137t130.5 55.5q70 0 107.5 -50t37.5 -138q0 -80 -24 -162t-76 -137.5t-130 -55.5q-70 0 -108 50.5zM298 80.5q41 51.5 59.5 125t18.5 141.5q0 72 -25.5 109.5t-74.5 37.5q-64 0 -105.5 -51.5t-59.5 -125t-18 -142.5
q0 -72 25.5 -109t74.5 -37q64 0 105 51.5z" />
    <glyph glyph-name="oacute" unicode="&#xf3;" horiz-adv-x="468" 
d="M84 39.5q-38 50.5 -38 138.5q0 80 24 161.5t76.5 137t130.5 55.5q70 0 107.5 -50t37.5 -138q0 -80 -24 -162t-76 -137.5t-130 -55.5q-70 0 -108 50.5zM298 80.5q41 51.5 59.5 125t18.5 141.5q0 72 -25.5 109.5t-74.5 37.5q-64 0 -105.5 -51.5t-59.5 -125t-18 -142.5
q0 -72 25.5 -109t74.5 -37q64 0 105 51.5zM375 774l20 -42l-170 -84l-15 26z" />
    <glyph glyph-name="uni0275" unicode="&#x275;" horiz-adv-x="468" 
d="M384.5 482q37.5 -50 37.5 -138q0 -80 -24 -162t-76 -137.5t-130 -55.5q-70 0 -108 50.5t-38 138.5q0 80 24 161.5t76.5 137t130.5 55.5q70 0 107.5 -50zM163 434q-43 -60 -60 -150h270q4 29 4 63q0 72 -26 109.5t-75 37.5q-70 0 -113 -60zM308 91.5q43 62.5 60 154.5
h-271q-5 -31 -5 -71q0 -72 25.5 -109t75.5 -37q72 0 115 62.5z" />
    <glyph glyph-name="obreve" unicode="&#x14f;" horiz-adv-x="468" 
d="M84 39.5q-38 50.5 -38 138.5q0 80 24 161.5t76.5 137t130.5 55.5q70 0 107.5 -50t37.5 -138q0 -80 -24 -162t-76 -137.5t-130 -55.5q-70 0 -108 50.5zM298 80.5q41 51.5 59.5 125t18.5 141.5q0 72 -25.5 109.5t-74.5 37.5q-64 0 -105.5 -51.5t-59.5 -125t-18 -142.5
q0 -72 25.5 -109t74.5 -37q64 0 105 51.5zM228 685.5q-25 28.5 -23 74.5l30 4q6 -68 62 -68q29 0 51.5 18.5t34.5 52.5l29 -10q-11 -46 -42 -73t-74 -27t-68 28.5z" />
    <glyph glyph-name="uni01D2" unicode="&#x1d2;" horiz-adv-x="468" 
d="M84 39.5q-38 50.5 -38 138.5q0 80 24 161.5t76.5 137t130.5 55.5q70 0 107.5 -50t37.5 -138q0 -80 -24 -162t-76 -137.5t-130 -55.5q-70 0 -108 50.5zM298 80.5q41 51.5 59.5 125t18.5 141.5q0 72 -25.5 109.5t-74.5 37.5q-64 0 -105.5 -51.5t-59.5 -125t-18 -142.5
q0 -72 25.5 -109t74.5 -37q64 0 105 51.5zM406 762l20 -23l-120 -104h-27l-91 104l23 23l84 -84z" />
    <glyph glyph-name="ocircumflex" unicode="&#xf4;" horiz-adv-x="468" 
d="M84 39.5q-38 50.5 -38 138.5q0 80 24 161.5t76.5 137t130.5 55.5q70 0 107.5 -50t37.5 -138q0 -80 -24 -162t-76 -137.5t-130 -55.5q-70 0 -108 50.5zM298 80.5q41 51.5 59.5 125t18.5 141.5q0 72 -25.5 109.5t-74.5 37.5q-64 0 -105.5 -51.5t-59.5 -125t-18 -142.5
q0 -72 25.5 -109t74.5 -37q64 0 105 51.5zM198 648l-21 23l120 104h27l91 -105l-24 -22l-83 84z" />
    <glyph glyph-name="uni1ED1" unicode="&#x1ed1;" horiz-adv-x="468" 
d="M460 832l30 -28l-117 -120l-19 18zM181 585l-19 23l120 100h27l91 -101l-22 -22l-86 80zM84 39.5q-38 50.5 -38 138.5q0 80 24 161.5t76.5 137t130.5 55.5q70 0 107.5 -50t37.5 -138q0 -80 -24 -162t-76 -137.5t-130 -55.5q-70 0 -108 50.5zM298 80.5q41 51.5 59.5 125
t18.5 141.5q0 72 -25.5 109.5t-74.5 37.5q-64 0 -105.5 -51.5t-59.5 -125t-18 -142.5q0 -72 25.5 -109t74.5 -37q64 0 105 51.5z" />
    <glyph glyph-name="uni1ED9" unicode="&#x1ed9;" horiz-adv-x="468" 
d="M84 39.5q-38 50.5 -38 138.5q0 80 24 161.5t76.5 137t130.5 55.5q70 0 107.5 -50t37.5 -138q0 -80 -24 -162t-76 -137.5t-130 -55.5q-70 0 -108 50.5zM298 80.5q41 51.5 59.5 125t18.5 141.5q0 72 -25.5 109.5t-74.5 37.5q-64 0 -105.5 -51.5t-59.5 -125t-18 -142.5
q0 -72 25.5 -109t74.5 -37q64 0 105 51.5zM198 648l-21 23l120 104h27l91 -105l-24 -22l-83 84zM201.5 -99.5q8.5 -8.5 8.5 -21.5q0 -16 -10.5 -26.5t-26.5 -10.5q-13 0 -21.5 8t-8.5 21q0 16 10.5 27t26.5 11q13 0 21.5 -8.5z" />
    </font>
</defs>
</svg>
