<?xml version="1.0" standalone="no"?>
<!DOCTYPE svg PUBLIC "-//W3C//DTD SVG 1.1//EN" "http://www.w3.org/Graphics/SVG/1.1/DTD/svg11.dtd" >
<svg>
<metadata>
Created by FontForge 20120731 at Fri May  5 11:06:41 2017
 By www-data
Digitized data copyright 2012-2016, The Mozilla Foundation and Telefonica S.A.
</metadata>
<defs>
<font id="FiraSansExtraCondensed-ExtraLight" horiz-adv-x="460" >
  <font-face 
    font-family="Fira Sans Extra Condensed ExtraLight"
    font-weight="275"
    font-stretch="ultra-condensed"
    units-per-em="1000"
    panose-1="2 11 4 3 5 0 0 2 0 4"
    ascent="800"
    descent="-200"
    x-height="522"
    cap-height="684"
    bbox="-604 -350 1360 1050"
    underline-thickness="50"
    underline-position="-50"
    unicode-range="U+000D-FEFF"
  />
<missing-glyph horiz-adv-x="666" 
d="M543 1050v-1400h-420v1400h420zM489 998h-311v-1296h311v1296zM409.5 419q25.5 -32 25.5 -83q0 -53 -22.5 -82t-72.5 -36v-45q0 -11 -7.5 -17.5t-17.5 -6.5t-17.5 6.5t-7.5 17.5v84q53 3 72 19.5t19 57.5q0 33 -13 51t-48 18q-29 0 -52 -11q-8 -3 -13 -3q-11 0 -17.5 6.5
t-6.5 16.5q0 19 29.5 29t63.5 10q60 0 85.5 -32zM340 110q10 -10 10 -25q0 -16 -10 -26.5t-25 -10.5t-25 10.5t-10 26.5q0 15 10 25t25 10t25 -10z" />
    <glyph glyph-name="fi" unicode="fi" horiz-adv-x="462" 
d="M335 703l-17 -32q-54 30 -104 30q-40 0 -59 -17.5t-19 -65.5v-96h238v-522h-45v484h-193v-484h-45v484h-71v38h71v100q0 58 31 88.5t90 30.5q63 0 123 -38z" />
    <glyph glyph-name="fl" unicode="fl" horiz-adv-x="480" 
d="M454 2q-24 -13 -48 -13q-34 0 -54.5 22t-20.5 61v608q-31 12 -56 17t-55 5q-44 0 -64 -19.5t-20 -62.5v-98h113l-6 -38h-107v-484h-45v484h-71v38h71v101q0 54 33.5 86t92.5 32q31 0 57 -6t58 -18l44 5v-649q0 -21 9 -33t27 -12q14 0 30 7z" />
    <glyph glyph-name=".notdef" horiz-adv-x="666" 
d="M543 1050v-1400h-420v1400h420zM489 998h-311v-1296h311v1296zM409.5 419q25.5 -32 25.5 -83q0 -53 -22.5 -82t-72.5 -36v-45q0 -11 -7.5 -17.5t-17.5 -6.5t-17.5 6.5t-7.5 17.5v84q53 3 72 19.5t19 57.5q0 33 -13 51t-48 18q-29 0 -52 -11q-8 -3 -13 -3q-11 0 -17.5 6.5
t-6.5 16.5q0 19 29.5 29t63.5 10q60 0 85.5 -32zM340 110q10 -10 10 -25q0 -16 -10 -26.5t-25 -10.5t-25 10.5t-10 26.5q0 15 10 25t25 10t25 -10z" />
    <glyph glyph-name="nonmarkingreturn" unicode="&#xd;" horiz-adv-x="230" 
 />
    <glyph glyph-name="space" unicode=" " horiz-adv-x="230" 
 />
    <glyph glyph-name="A" unicode="A" horiz-adv-x="475" 
d="M408 0l-51 193h-241l-51 -193h-44l188 684h58l188 -684h-47zM127 232h220l-110 414z" />
    <glyph glyph-name="Aacute" unicode="&#xc1;" horiz-adv-x="475" 
d="M408 0l-51 193h-241l-51 -193h-44l188 684h58l188 -684h-47zM127 232h220l-110 414zM304 875l21 -40l-160 -76l-13 27z" />
    <glyph glyph-name="Abreve" unicode="&#x102;" horiz-adv-x="475" 
d="M408 0l-51 193h-241l-51 -193h-44l188 684h58l188 -684h-47zM127 232h220l-110 414zM167.5 792q-28.5 25 -33.5 67l30 7q8 -28 27 -44t47 -16t47.5 16t27.5 44l29 -7q-5 -42 -33.5 -67t-70.5 -25t-70.5 25z" />
    <glyph glyph-name="uni1EAE" unicode="&#x1eae;" horiz-adv-x="475" 
d="M408 0l-51 193h-241l-51 -193h-44l188 684h58l188 -684h-47zM127 232h220l-110 414zM166.5 763q-28.5 25 -33.5 67l30 7q8 -28 27 -44t47 -16t47.5 16t27.5 44l29 -7q-5 -42 -33.5 -67t-70.5 -25t-70.5 25zM310 1004l35 -27l-102 -121l-22 18z" />
    <glyph glyph-name="uni1EB6" unicode="&#x1eb6;" horiz-adv-x="475" 
d="M408 0l-51 193h-241l-51 -193h-44l188 684h58l188 -684h-47zM127 232h220l-110 414zM167.5 792q-28.5 25 -33.5 67l30 7q8 -28 27 -44t47 -16t47.5 16t27.5 44l29 -7q-5 -42 -33.5 -67t-70.5 -25t-70.5 25zM213.5 -149q-9.5 10 -9.5 24t9.5 24t24.5 10t24.5 -10t9.5 -24
t-9.5 -24t-24.5 -10t-24.5 10z" />
    <glyph glyph-name="uni1EB0" unicode="&#x1eb0;" horiz-adv-x="475" 
d="M408 0l-51 193h-241l-51 -193h-44l188 684h58l188 -684h-47zM127 232h220l-110 414zM165.5 763q-28.5 25 -33.5 67l30 7q8 -28 27 -44t47 -16t47.5 16t27.5 44l29 -7q-5 -42 -33.5 -67t-70.5 -25t-70.5 25zM171 1004l90 -130l-23 -18l-101 121z" />
    <glyph glyph-name="uni1EB2" unicode="&#x1eb2;" horiz-adv-x="475" 
d="M408 0l-51 193h-241l-51 -193h-44l188 684h58l188 -684h-47zM127 232h220l-110 414zM167.5 763q-28.5 25 -33.5 67l30 7q8 -28 27 -44t47 -16t47.5 16t27.5 44l29 -7q-5 -42 -33.5 -67t-70.5 -25t-70.5 25zM214 902q28 2 42 12.5t14 35.5q0 42 -39 42q-14 0 -23.5 -3
t-21.5 -10l-14 29q30 20 65 20q34 0 54 -20.5t20 -54.5q0 -65 -60 -74v-46h-37v69z" />
    <glyph glyph-name="uni1EB4" unicode="&#x1eb4;" horiz-adv-x="475" 
d="M408 0l-51 193h-241l-51 -193h-44l188 684h58l188 -684h-47zM127 232h220l-110 414zM169.5 763q-28.5 25 -33.5 67l30 7q8 -28 27 -44t47 -16t47.5 16t27.5 44l29 -7q-5 -42 -33.5 -67t-70.5 -25t-70.5 25zM261 893.5q-12 6.5 -30 18.5q-13 10 -22 14.5t-18 4.5
q-14 0 -24 -8.5t-22 -28.5l-27 13q31 60 72 60q13 0 25.5 -6t27.5 -18q16 -11 25 -15.5t19 -4.5q13 0 23.5 9.5t23.5 32.5l26 -12q-27 -66 -72 -66q-15 0 -27 6.5z" />
    <glyph glyph-name="uni01CD" unicode="&#x1cd;" horiz-adv-x="475" 
d="M408 0l-51 193h-241l-51 -193h-44l188 684h58l188 -684h-47zM127 232h220l-110 414zM338 879l19 -21l-106 -101h-27l-105 101l19 21l100 -81z" />
    <glyph glyph-name="Acircumflex" unicode="&#xc2;" horiz-adv-x="475" 
d="M408 0l-51 193h-241l-51 -193h-44l188 684h58l188 -684h-47zM127 232h220l-110 414zM138 765l-20 21l105 100h27l106 -100l-21 -21l-98 79z" />
    <glyph glyph-name="uni1EA4" unicode="&#x1ea4;" horiz-adv-x="475" 
d="M408 0l-51 193h-241l-51 -193h-44l188 684h58l188 -684h-47zM127 232h220l-110 414zM142 733l-20 21l105 100h27l106 -100l-21 -21l-98 79zM401 977l35 -27l-102 -121l-22 18z" />
    <glyph glyph-name="uni1EAC" unicode="&#x1eac;" horiz-adv-x="475" 
d="M408 0l-51 193h-241l-51 -193h-44l188 684h58l188 -684h-47zM127 232h220l-110 414zM138 765l-20 21l105 100h27l106 -100l-21 -21l-98 79zM213.5 -149q-9.5 10 -9.5 24t9.5 24t24.5 10t24.5 -10t9.5 -24t-9.5 -24t-24.5 -10t-24.5 10z" />
    <glyph glyph-name="uni1EA6" unicode="&#x1ea6;" horiz-adv-x="475" 
d="M408 0l-51 193h-241l-51 -193h-44l188 684h58l188 -684h-47zM127 232h220l-110 414zM138 733l-20 21l105 100h27l106 -100l-21 -21l-98 79zM80 977l90 -130l-23 -18l-101 121z" />
    <glyph glyph-name="uni1EA8" unicode="&#x1ea8;" horiz-adv-x="475" 
d="M408 0l-51 193h-241l-51 -193h-44l188 684h58l188 -684h-47zM127 232h220l-110 414zM138 733l-20 21l105 100h27l106 -100l-21 -21l-98 79zM320 879q28 2 42 12.5t14 35.5q0 42 -39 42q-14 0 -23.5 -3t-21.5 -10l-14 29q30 20 65 20q34 0 54 -20.5t20 -54.5
q0 -65 -60 -74v-46h-37v69z" />
    <glyph glyph-name="uni1EAA" unicode="&#x1eaa;" horiz-adv-x="475" 
d="M408 0l-51 193h-241l-51 -193h-44l188 684h58l188 -684h-47zM127 232h220l-110 414zM137 733l-20 21l105 100h27l106 -100l-21 -21l-98 79zM258 902.5q-12 6.5 -30 18.5q-13 10 -22 14.5t-18 4.5q-14 0 -24 -8.5t-22 -28.5l-27 13q31 60 72 60q13 0 25.5 -6t27.5 -18
q16 -11 25 -15.5t19 -4.5q13 0 23.5 9.5t23.5 32.5l26 -12q-27 -66 -72 -66q-15 0 -27 6.5z" />
    <glyph glyph-name="uni0200" unicode="&#x200;" horiz-adv-x="475" 
d="M408 0l-51 193h-241l-51 -193h-44l188 684h58l188 -684h-47zM127 232h220l-110 414zM139 929l63 -145l-28 -13l-74 138zM241 928l58 -140l-28 -12l-68 132z" />
    <glyph glyph-name="Adieresis" unicode="&#xc4;" horiz-adv-x="475" 
d="M408 0l-51 193h-241l-51 -193h-44l188 684h58l188 -684h-47zM127 232h220l-110 414zM190 848.5q9 -9.5 9 -23.5t-9 -23.5t-23 -9.5t-23 9.5t-9 23.5t9 23.5t23 9.5t23 -9.5zM342.5 848.5q9.5 -9.5 9.5 -23.5t-9.5 -23.5t-23.5 -9.5t-23 9.5t-9 23.5t9 23.5t23 9.5
t23.5 -9.5z" />
    <glyph glyph-name="uni01DE" unicode="&#x1de;" horiz-adv-x="475" 
d="M408 0l-51 193h-241l-51 -193h-44l188 684h58l188 -684h-47zM127 232h220l-110 414zM185 799.5q9 -9.5 9 -23.5t-9 -23.5t-23 -9.5t-23 9.5t-9 23.5t9 23.5t23 9.5t23 -9.5zM337.5 799.5q9.5 -9.5 9.5 -23.5t-9.5 -23.5t-23.5 -9.5t-23 9.5t-9 23.5t9 23.5t23 9.5
t23.5 -9.5zM335 870h-193v37h193v-37z" />
    <glyph glyph-name="uni0226" unicode="&#x226;" horiz-adv-x="475" 
d="M408 0l-51 193h-241l-51 -193h-44l188 684h58l188 -684h-47zM127 232h220l-110 414zM263.5 859q9.5 -10 9.5 -24t-9.5 -24t-24.5 -10t-24.5 10t-9.5 24t9.5 24t24.5 10t24.5 -10z" />
    <glyph glyph-name="uni1EA0" unicode="&#x1ea0;" horiz-adv-x="475" 
d="M408 0l-51 193h-241l-51 -193h-44l188 684h58l188 -684h-47zM127 232h220l-110 414zM213.5 -149q-9.5 10 -9.5 24t9.5 24t24.5 10t24.5 -10t9.5 -24t-9.5 -24t-24.5 -10t-24.5 10z" />
    <glyph glyph-name="uni01E0" unicode="&#x1e0;" horiz-adv-x="475" 
d="M408 0l-51 193h-241l-51 -193h-44l188 684h58l188 -684h-47zM127 232h220l-110 414zM263.5 802q9.5 -10 9.5 -24t-9.5 -24t-24.5 -10t-24.5 10t-9.5 24t9.5 24t24.5 10t24.5 -10zM335 870h-193v37h193v-37z" />
    <glyph glyph-name="Agrave" unicode="&#xc0;" horiz-adv-x="475" 
d="M408 0l-51 193h-241l-51 -193h-44l188 684h58l188 -684h-47zM127 232h220l-110 414zM171 875l151 -90l-14 -26l-159 75z" />
    <glyph glyph-name="uni1EA2" unicode="&#x1ea2;" horiz-adv-x="475" 
d="M408 0l-51 193h-241l-51 -193h-44l188 684h58l188 -684h-47zM127 232h220l-110 414zM219 847q28 2 42 12.5t14 35.5q0 42 -39 42q-14 0 -23.5 -3t-21.5 -10l-14 29q30 20 65 20q34 0 54 -20.5t20 -54.5q0 -65 -60 -74v-46h-37v69z" />
    <glyph glyph-name="uni0202" unicode="&#x202;" horiz-adv-x="475" 
d="M408 0l-51 193h-241l-51 -193h-44l188 684h58l188 -684h-47zM127 232h220l-110 414zM309 870q28 -27 33 -75l-30 -7q-15 72 -74 72q-58 0 -74 -72l-30 7q5 48 33 75t71 27t71 -27z" />
    <glyph glyph-name="uni2C6D" unicode="&#x2c6d;" horiz-adv-x="553" 
d="M467.5 54.5q8.5 -13.5 30.5 -24.5l-15 -37q-32 12 -48.5 30t-20.5 46q-56 -80 -144 -80q-96 0 -155 84.5t-59 255.5q0 122 28 204t77 121.5t111 39.5q88 0 142 -71l4 61h41v-590q0 -26 8.5 -39.5zM351.5 53q33.5 23 60.5 67v453q-49 80 -135 80q-78 0 -125 -78t-47 -246
q0 -155 46 -227t122 -72q45 0 78.5 23z" />
    <glyph glyph-name="Amacron" unicode="&#x100;" horiz-adv-x="475" 
d="M408 0l-51 193h-241l-51 -193h-44l188 684h58l188 -684h-47zM127 232h220l-110 414zM335 806h-193v37h193v-37z" />
    <glyph glyph-name="Aogonek" unicode="&#x104;" horiz-adv-x="475" 
d="M367 -56q-23 -26 -23 -65q0 -52 53 -52q20 0 47 6l-4 -39q-24 -6 -47 -6q-44 0 -67 24t-23 64q0 41 25 72t78 60l-49 185h-241l-51 -193h-44l188 684h58l188 -684h-11q-54 -30 -77 -56zM127 232h220l-110 414z" />
    <glyph glyph-name="Aring" unicode="&#xc5;" horiz-adv-x="475" 
d="M408 0l-51 193h-241l-51 -193h-44l188 684h58l188 -684h-47zM127 232h220l-110 414zM296.5 918q21.5 -23 21.5 -66t-21.5 -66.5t-58.5 -23.5q-36 0 -57.5 23.5t-21.5 66.5t21.5 66t57.5 23q37 0 58.5 -23zM193 852q0 -32 11.5 -46.5t33.5 -14.5q23 0 34.5 14t11.5 47
q0 32 -11.5 46t-34.5 14q-45 0 -45 -60z" />
    <glyph glyph-name="Aringacute" unicode="&#x1fa;" horiz-adv-x="475" 
d="M408 0l-51 193h-241l-51 -193h-44l188 684h58l188 -684h-47zM127 232h220l-110 414zM300.5 883q21.5 -23 21.5 -66t-21.5 -66.5t-58.5 -23.5q-36 0 -57.5 23.5t-21.5 66.5t21.5 66t57.5 23q37 0 58.5 -23zM197 817q0 -32 11.5 -46.5t33.5 -14.5q23 0 34.5 14t11.5 47
q0 32 -11.5 46t-34.5 14q-45 0 -45 -60zM308 1035l21 -40l-160 -76l-13 27z" />
    <glyph glyph-name="uni023A" unicode="&#x23a;" horiz-adv-x="475" 
d="M408 0l-51 193h-126l-57 -263l-27 6l56 257h-87l-51 -193h-44l188 684h58l24 -86l31 144l27 -6l-42 -196l148 -540h-47zM127 232h84l61 282l-35 134zM240 232h107l-59 223z" />
    <glyph glyph-name="Atilde" unicode="&#xc3;" horiz-adv-x="475" 
d="M408 0l-51 193h-241l-51 -193h-44l188 684h58l188 -684h-47zM127 232h220l-110 414zM260 803.5q-12 6.5 -30 18.5q-13 10 -22 14.5t-18 4.5q-14 0 -24 -8.5t-22 -28.5l-27 13q31 60 72 60q13 0 25.5 -6t27.5 -18q16 -11 25 -15.5t19 -4.5q13 0 23.5 9.5t23.5 32.5l26 -12
q-28 -66 -72 -66q-15 0 -27 6.5z" />
    <glyph glyph-name="AE" unicode="&#xc6;" horiz-adv-x="638" 
d="M415 40h188v-40h-225l-38 188h-234l-58 -188h-46l218 684h343l-5 -41h-267l55 -267h211v-39h-203zM118 228h214l-85 418z" />
    <glyph glyph-name="AEacute" unicode="&#x1fc;" horiz-adv-x="638" 
d="M415 40h188v-40h-225l-38 188h-234l-58 -188h-46l218 684h343l-5 -41h-267l55 -267h211v-39h-203zM118 228h214l-85 418zM438 875l21 -40l-160 -76l-13 27z" />
    <glyph glyph-name="uni01E2" unicode="&#x1e2;" horiz-adv-x="638" 
d="M415 40h188v-40h-225l-38 188h-234l-58 -188h-46l218 684h343l-5 -41h-267l55 -267h211v-39h-203zM118 228h214l-85 418zM469 806h-193v37h193v-37z" />
    <glyph glyph-name="B" unicode="B" horiz-adv-x="489" 
d="M445 188q0 -90 -54.5 -139t-150.5 -49h-148v684h119q100 0 154 -44t54 -126q0 -122 -119 -151q145 -21 145 -175zM138 644v-264h98q65 0 100 35t35 96q0 66 -39.5 99.5t-115.5 33.5h-78zM356.5 76.5q40.5 36.5 40.5 111.5q0 153 -157 153h-102v-301h102q76 0 116.5 36.5z
" />
    <glyph glyph-name="uni1E02" unicode="&#x1e02;" horiz-adv-x="489" 
d="M445 188q0 -90 -54.5 -139t-150.5 -49h-148v684h119q100 0 154 -44t54 -126q0 -122 -119 -151q145 -21 145 -175zM138 644v-264h98q65 0 100 35t35 96q0 66 -39.5 99.5t-115.5 33.5h-78zM356.5 76.5q40.5 36.5 40.5 111.5q0 153 -157 153h-102v-301h102q76 0 116.5 36.5z
M267.5 859q9.5 -10 9.5 -24t-9.5 -24t-24.5 -10t-24.5 10t-9.5 24t9.5 24t24.5 10t24.5 -10z" />
    <glyph glyph-name="uni1E04" unicode="&#x1e04;" horiz-adv-x="489" 
d="M445 188q0 -90 -54.5 -139t-150.5 -49h-148v684h119q100 0 154 -44t54 -126q0 -122 -119 -151q145 -21 145 -175zM138 644v-264h98q65 0 100 35t35 96q0 66 -39.5 99.5t-115.5 33.5h-78zM356.5 76.5q40.5 36.5 40.5 111.5q0 153 -157 153h-102v-301h102q76 0 116.5 36.5z
M230.5 -149q-9.5 10 -9.5 24t9.5 24t24.5 10t24.5 -10t9.5 -24t-9.5 -24t-24.5 -10t-24.5 10z" />
    <glyph glyph-name="uniA7B4" unicode="&#xa7b4;" horiz-adv-x="489" 
d="M445 193q0 -93 -51.5 -143t-138.5 -50q-62 0 -117 24v-219h-46v879h119q100 0 154 -44t54 -126q0 -122 -119 -151q145 -21 145 -170zM358.5 78q38.5 38 38.5 115q0 148 -157 148h-38l5 39h31q64 0 98.5 35.5t34.5 95.5q0 66 -39.5 99.5t-115.5 33.5h-78v-581
q55 -23 115 -23q67 0 105.5 38z" />
    <glyph glyph-name="uni0181" unicode="&#x181;" horiz-adv-x="537" 
d="M493 188q0 -90 -54.5 -139t-150.5 -49h-148v644h-19q-65 0 -65 -66q0 -39 21 -78l-33 -17q-15 23 -22.5 44t-7.5 52q0 47 27.5 76t80.5 29h137q100 0 154 -44t54 -126q0 -122 -119 -151q145 -21 145 -175zM186 644v-264h98q65 0 100 35t35 96q0 66 -39.5 99.5
t-115.5 33.5h-78zM404.5 76.5q40.5 36.5 40.5 111.5q0 153 -157 153h-102v-301h102q76 0 116.5 36.5z" />
    <glyph glyph-name="uni0181.ss02" horiz-adv-x="468" 
d="M375.5 363q53.5 -50 53.5 -150q0 -109 -55 -161t-155 -52h-127v684h282l-7 -41h-229v-230h84q100 0 153.5 -50zM341 81q39 41 39 133q0 82 -39.5 120.5t-117.5 38.5h-85v-333h88q76 0 115 41z" />
    <glyph glyph-name="uni0243" unicode="&#x243;" horiz-adv-x="491" 
d="M447 188q0 -90 -54.5 -139t-150.5 -49h-148v177h-74v38h74v469h119q100 0 154 -44t54 -126q0 -122 -119 -151q145 -21 145 -175zM140 644v-264h98q65 0 100 35t35 96q0 66 -39.5 99.5t-115.5 33.5h-78zM358.5 76.5q40.5 36.5 40.5 111.5q0 153 -157 153h-102v-126h144
v-38h-144v-137h102q76 0 116.5 36.5z" />
    <glyph glyph-name="uni0182" unicode="&#x182;" horiz-adv-x="468" 
d="M375.5 363q53.5 -50 53.5 -150q0 -109 -55 -161t-155 -52h-127v684h282l-7 -41h-229v-230h84q100 0 153.5 -50zM341 81q39 41 39 133q0 82 -39.5 120.5t-117.5 38.5h-85v-333h88q76 0 115 41z" />
    <glyph glyph-name="C" unicode="C" horiz-adv-x="451" 
d="M362 679q33 -15 65 -46l-26 -29q-29 26 -55 37.5t-60 11.5q-82 0 -131.5 -73.5t-49.5 -237.5q0 -159 49 -234.5t130 -75.5q40 0 66.5 13.5t55.5 40.5l27 -29q-63 -68 -149 -68q-67 0 -118.5 38.5t-80.5 117.5t-29 197q0 119 30 198t81.5 116.5t116.5 37.5q45 0 78 -15z
" />
    <glyph glyph-name="Cacute" unicode="&#x106;" horiz-adv-x="451" 
d="M362 679q33 -15 65 -46l-26 -29q-29 26 -55 37.5t-60 11.5q-82 0 -131.5 -73.5t-49.5 -237.5q0 -159 49 -234.5t130 -75.5q40 0 66.5 13.5t55.5 40.5l27 -29q-63 -68 -149 -68q-67 0 -118.5 38.5t-80.5 117.5t-29 197q0 119 30 198t81.5 116.5t116.5 37.5q45 0 78 -15z
M349 875l21 -40l-160 -76l-13 27z" />
    <glyph glyph-name="Cacute.loclPLK" horiz-adv-x="451" 
d="M362 679q33 -15 65 -46l-26 -29q-29 26 -55 37.5t-60 11.5q-82 0 -131.5 -73.5t-49.5 -237.5q0 -159 49 -234.5t130 -75.5q40 0 66.5 13.5t55.5 40.5l27 -29q-63 -68 -149 -68q-67 0 -118.5 38.5t-80.5 117.5t-29 197q0 119 30 198t81.5 116.5t116.5 37.5q45 0 78 -15z
M334 902l37 -26l-97 -145l-23 16z" />
    <glyph glyph-name="Ccaron" unicode="&#x10c;" horiz-adv-x="451" 
d="M362 679q33 -15 65 -46l-26 -29q-29 26 -55 37.5t-60 11.5q-82 0 -131.5 -73.5t-49.5 -237.5q0 -159 49 -234.5t130 -75.5q40 0 66.5 13.5t55.5 40.5l27 -29q-63 -68 -149 -68q-67 0 -118.5 38.5t-80.5 117.5t-29 197q0 119 30 198t81.5 116.5t116.5 37.5q45 0 78 -15z
M383 879l19 -21l-106 -101h-27l-105 101l19 21l100 -81z" />
    <glyph glyph-name="Ccedilla" unicode="&#xc7;" horiz-adv-x="451" 
d="M292 -11v-57q76 -10 76 -74q0 -37 -24.5 -58.5t-59.5 -21.5q-36 0 -65 20l17 28q22 -14 47 -14q20 0 33 12t13 34q0 24 -18 35.5t-56 11.5l5 85q-93 10 -148.5 99t-55.5 253q0 119 30 198t81.5 116.5t116.5 37.5q45 0 78 -15t65 -46l-26 -29q-29 26 -55 37.5t-60 11.5
q-82 0 -131.5 -73.5t-49.5 -237.5q0 -159 49 -234.5t130 -75.5q40 0 66.5 13.5t55.5 40.5l27 -29q-62 -65 -141 -68z" />
    <glyph glyph-name="Ccircumflex" unicode="&#x108;" horiz-adv-x="451" 
d="M362 679q33 -15 65 -46l-26 -29q-29 26 -55 37.5t-60 11.5q-82 0 -131.5 -73.5t-49.5 -237.5q0 -159 49 -234.5t130 -75.5q40 0 66.5 13.5t55.5 40.5l27 -29q-63 -68 -149 -68q-67 0 -118.5 38.5t-80.5 117.5t-29 197q0 119 30 198t81.5 116.5t116.5 37.5q45 0 78 -15z
M183 765l-20 21l105 100h27l106 -100l-21 -21l-98 79z" />
    <glyph glyph-name="Cdotaccent" unicode="&#x10a;" horiz-adv-x="451" 
d="M362 679q33 -15 65 -46l-26 -29q-29 26 -55 37.5t-60 11.5q-82 0 -131.5 -73.5t-49.5 -237.5q0 -159 49 -234.5t130 -75.5q40 0 66.5 13.5t55.5 40.5l27 -29q-63 -68 -149 -68q-67 0 -118.5 38.5t-80.5 117.5t-29 197q0 119 30 198t81.5 116.5t116.5 37.5q45 0 78 -15z
M308.5 859q9.5 -10 9.5 -24t-9.5 -24t-24.5 -10t-24.5 10t-9.5 24t9.5 24t24.5 10t24.5 -10z" />
    <glyph glyph-name="uniA7B3" unicode="&#xa7b3;" horiz-adv-x="413" 
d="M232 319l172 -428h-52l-149 397l-144 -397h-50l167 426l-150 367h52l127 -337l125 337h50z" />
    <glyph glyph-name="uni0187" unicode="&#x187;" horiz-adv-x="451" 
d="M564 789l-21 -29q-15 12 -28.5 17.5t-31.5 5.5q-56 0 -56 -76v-74l-26 -27q-29 25 -55 36t-60 11q-82 0 -131.5 -73.5t-49.5 -237.5q0 -159 49 -234.5t130 -75.5q40 0 66.5 13.5t55.5 40.5l27 -29q-63 -68 -149 -68q-67 0 -118.5 38.5t-80.5 117.5t-29 197q0 119 30 198
t81 116.5t116 37.5q57 0 100 -32v45q0 55 26.5 85t70.5 30q45 0 84 -33z" />
    <glyph glyph-name="uni023B" unicode="&#x23b;" horiz-adv-x="451" 
d="M433 57q-63 -68 -149 -68q-40 0 -76 14l-16 -73l-27 6l17 80q-59 36 -92.5 118t-33.5 208q0 119 30 198t81.5 116.5t116.5 37.5q25 0 44 -4l11 52l27 -6l-12 -54q38 -15 73 -49l-26 -29q-27 24 -55 38l-129 -595q31 -15 67 -15q40 0 66.5 13.5t55.5 40.5zM128 165.5
q23 -69.5 64 -102.5l127 587q-15 3 -33 3q-82 0 -131.5 -73.5t-49.5 -237.5q0 -107 23 -176.5z" />
    <glyph glyph-name="D" unicode="D" horiz-adv-x="518" 
d="M390.5 612q71.5 -72 71.5 -264q0 -194 -72 -271t-179 -77h-119v684h112q115 0 186.5 -72zM138 643v-603h75q89 0 144.5 67t55.5 241q0 121 -29 186t-73 87t-102 22h-71z" />
    <glyph glyph-name="uni01F1" unicode="&#x1f1;" horiz-adv-x="915" 
d="M390.5 612q71.5 -72 71.5 -264q0 -194 -72 -271t-179 -77h-119v684h112q115 0 186.5 -72zM138 643v-603h75q89 0 144.5 67t55.5 241q0 121 -29 186t-73 87t-102 22h-71zM877 684v-39l-306 -603h300l-5 -42h-344v40l307 602h-276v42h324z" />
    <glyph glyph-name="uni01C4" unicode="&#x1c4;" horiz-adv-x="915" 
d="M390.5 612q71.5 -72 71.5 -264q0 -194 -72 -271t-179 -77h-119v684h112q115 0 186.5 -72zM138 643v-603h75q89 0 144.5 67t55.5 241q0 121 -29 186t-73 87t-102 22h-71zM877 684v-39l-306 -603h300l-5 -42h-344v40l307 602h-276v42h324zM807 879l19 -21l-106 -101h-27
l-105 101l19 21l100 -81z" />
    <glyph glyph-name="uni0189" unicode="&#x189;" horiz-adv-x="522" 
d="M394.5 612q71.5 -72 71.5 -264q0 -194 -72 -271t-179 -77h-119v332h-76v40h76v312h112q115 0 186.5 -72zM361.5 107q55.5 67 55.5 241q0 121 -29 186t-73 87t-102 22h-71v-271h143v-40h-143v-292h75q89 0 144.5 67z" />
    <glyph glyph-name="Eth" unicode="&#xd0;" horiz-adv-x="522" 
d="M394.5 612q71.5 -72 71.5 -264q0 -194 -72 -271t-179 -77h-119v332h-76v40h76v312h112q115 0 186.5 -72zM361.5 107q55.5 67 55.5 241q0 121 -29 186t-73 87t-102 22h-71v-271h143v-40h-143v-292h75q89 0 144.5 67z" />
    <glyph glyph-name="Dcaron" unicode="&#x10e;" horiz-adv-x="518" 
d="M390.5 612q71.5 -72 71.5 -264q0 -194 -72 -271t-179 -77h-119v684h112q115 0 186.5 -72zM138 643v-603h75q89 0 144.5 67t55.5 241q0 121 -29 186t-73 87t-102 22h-71zM345 879l19 -21l-106 -101h-27l-105 101l19 21l100 -81z" />
    <glyph glyph-name="uni1E12" unicode="&#x1e12;" horiz-adv-x="518" 
d="M390.5 612q71.5 -72 71.5 -264q0 -194 -72 -271t-179 -77h-119v684h112q115 0 186.5 -72zM138 643v-603h75q89 0 144.5 67t55.5 241q0 121 -29 186t-73 87t-102 22h-71zM149 -196l-20 20l105 106h27l106 -106l-21 -20l-98 85z" />
    <glyph glyph-name="Dcroat" unicode="&#x110;" horiz-adv-x="522" 
d="M394.5 612q71.5 -72 71.5 -264q0 -194 -72 -271t-179 -77h-119v332h-76v40h76v312h112q115 0 186.5 -72zM361.5 107q55.5 67 55.5 241q0 121 -29 186t-73 87t-102 22h-71v-271h143v-40h-143v-292h75q89 0 144.5 67z" />
    <glyph glyph-name="uni1E0A" unicode="&#x1e0a;" horiz-adv-x="518" 
d="M390.5 612q71.5 -72 71.5 -264q0 -194 -72 -271t-179 -77h-119v684h112q115 0 186.5 -72zM138 643v-603h75q89 0 144.5 67t55.5 241q0 121 -29 186t-73 87t-102 22h-71zM270.5 859q9.5 -10 9.5 -24t-9.5 -24t-24.5 -10t-24.5 10t-9.5 24t9.5 24t24.5 10t24.5 -10z" />
    <glyph glyph-name="uni1E0C" unicode="&#x1e0c;" horiz-adv-x="518" 
d="M390.5 612q71.5 -72 71.5 -264q0 -194 -72 -271t-179 -77h-119v684h112q115 0 186.5 -72zM138 643v-603h75q89 0 144.5 67t55.5 241q0 121 -29 186t-73 87t-102 22h-71zM222.5 -149q-9.5 10 -9.5 24t9.5 24t24.5 10t24.5 -10t9.5 -24t-9.5 -24t-24.5 -10t-24.5 10z" />
    <glyph glyph-name="uni018A" unicode="&#x18a;" horiz-adv-x="566" 
d="M438.5 612q71.5 -72 71.5 -264q0 -194 -72 -271t-179 -77h-119v644h-19q-65 0 -65 -66q0 -39 21 -78l-33 -17q-15 23 -22.5 44t-7.5 52q0 47 27.5 76t80.5 29h130q115 0 186.5 -72zM405.5 107q55.5 67 55.5 241q0 121 -29 186t-73 87t-102 22h-71v-603h75q89 0 144.5 67z
" />
    <glyph glyph-name="uni1E0E" unicode="&#x1e0e;" horiz-adv-x="518" 
d="M390.5 612q71.5 -72 71.5 -264q0 -194 -72 -271t-179 -77h-119v684h112q115 0 186.5 -72zM138 643v-603h75q89 0 144.5 67t55.5 241q0 121 -29 186t-73 87t-102 22h-71zM345 -152h-193v37h193v-37z" />
    <glyph glyph-name="uni018B" unicode="&#x18b;" horiz-adv-x="468" 
d="M377 0h-126q-101 0 -156 50t-55 154q0 101 56 155t162 54h73v230h-233v41h279v-684zM331 40v333h-73q-86 0 -127.5 -41.5t-41.5 -127.5q0 -87 40.5 -125.5t123.5 -38.5h78z" />
    <glyph glyph-name="uni01F2" unicode="&#x1f2;" horiz-adv-x="853" 
d="M390.5 612q71.5 -72 71.5 -264q0 -194 -72 -271t-179 -77h-119v684h112q115 0 186.5 -72zM138 643v-603h75q89 0 144.5 67t55.5 241q0 121 -29 186t-73 87t-102 22h-71zM825 522v-36l-246 -446h244l-5 -40h-288v36l247 446h-227v40h275z" />
    <glyph glyph-name="uni01C5" unicode="&#x1c5;" horiz-adv-x="853" 
d="M390.5 612q71.5 -72 71.5 -264q0 -194 -72 -271t-179 -77h-119v684h112q115 0 186.5 -72zM138 643v-603h75q89 0 144.5 67t55.5 241q0 121 -29 186t-73 87t-102 22h-71zM825 522v-36l-246 -446h244l-5 -40h-288v36l247 446h-227v40h275zM785 761l20 -20l-106 -106h-27
l-105 106l20 20l99 -86z" />
    <glyph glyph-name="E" unicode="E" horiz-adv-x="415" 
d="M375 684l-6 -41h-231v-266h200v-40h-200v-297h242v-40h-288v684h283z" />
    <glyph glyph-name="Eacute" unicode="&#xc9;" horiz-adv-x="415" 
d="M375 684l-6 -41h-231v-266h200v-40h-200v-297h242v-40h-288v684h283zM303 875l21 -40l-160 -76l-13 27z" />
    <glyph glyph-name="Ebreve" unicode="&#x114;" horiz-adv-x="415" 
d="M375 684l-6 -41h-231v-266h200v-40h-200v-297h242v-40h-288v684h283zM166.5 792q-28.5 25 -33.5 67l30 7q8 -28 27 -44t47 -16t47.5 16t27.5 44l29 -7q-5 -42 -33.5 -67t-70.5 -25t-70.5 25z" />
    <glyph glyph-name="Ecaron" unicode="&#x11a;" horiz-adv-x="415" 
d="M375 684l-6 -41h-231v-266h200v-40h-200v-297h242v-40h-288v684h283zM337 879l19 -21l-106 -101h-27l-105 101l19 21l100 -81z" />
    <glyph glyph-name="uni0228" unicode="&#x228;" horiz-adv-x="415" 
d="M245 0v-68q76 -10 76 -74q0 -37 -24.5 -58.5t-59.5 -21.5q-36 0 -65 20l17 28q22 -14 47 -14q20 0 33 12t13 34q0 24 -18 35.5t-56 11.5l6 95h-122v684h283l-6 -41h-231v-266h200v-40h-200v-297h242v-40h-135z" />
    <glyph glyph-name="Ecircumflex" unicode="&#xca;" horiz-adv-x="415" 
d="M375 684l-6 -41h-231v-266h200v-40h-200v-297h242v-40h-288v684h283zM137 765l-20 21l105 100h27l106 -100l-21 -21l-98 79z" />
    <glyph glyph-name="uni1EBE" unicode="&#x1ebe;" horiz-adv-x="415" 
d="M375 684l-6 -41h-231v-266h200v-40h-200v-297h242v-40h-288v684h283zM141 733l-20 21l105 100h27l106 -100l-21 -21l-98 79zM400 977l35 -27l-102 -121l-22 18z" />
    <glyph glyph-name="uni1EC6" unicode="&#x1ec6;" horiz-adv-x="415" 
d="M375 684l-6 -41h-231v-266h200v-40h-200v-297h242v-40h-288v684h283zM137 765l-20 21l105 100h27l106 -100l-21 -21l-98 79zM209.5 -149q-9.5 10 -9.5 24t9.5 24t24.5 10t24.5 -10t9.5 -24t-9.5 -24t-24.5 -10t-24.5 10z" />
    <glyph glyph-name="uni1EC0" unicode="&#x1ec0;" horiz-adv-x="415" 
d="M375 684l-6 -41h-231v-266h200v-40h-200v-297h242v-40h-288v684h283zM137 733l-20 21l105 100h27l106 -100l-21 -21l-98 79zM79 977l90 -130l-23 -18l-101 121z" />
    <glyph glyph-name="uni1EC2" unicode="&#x1ec2;" horiz-adv-x="415" 
d="M375 684l-6 -41h-231v-266h200v-40h-200v-297h242v-40h-288v684h283zM137 733l-20 21l105 100h27l106 -100l-21 -21l-98 79zM319 879q28 2 42 12.5t14 35.5q0 42 -39 42q-14 0 -23.5 -3t-21.5 -10l-14 29q30 20 65 20q34 0 54 -20.5t20 -54.5q0 -65 -60 -74v-46h-37v69z
" />
    <glyph glyph-name="uni1EC4" unicode="&#x1ec4;" horiz-adv-x="415" 
d="M375 684l-6 -41h-231v-266h200v-40h-200v-297h242v-40h-288v684h283zM136 733l-20 21l105 100h27l106 -100l-21 -21l-98 79zM257 902.5q-12 6.5 -30 18.5q-13 10 -22 14.5t-18 4.5q-14 0 -24 -8.5t-22 -28.5l-27 13q31 60 72 60q13 0 25.5 -6t27.5 -18q16 -11 25 -15.5
t19 -4.5q13 0 23.5 9.5t23.5 32.5l26 -12q-27 -66 -72 -66q-15 0 -27 6.5z" />
    <glyph glyph-name="uni0204" unicode="&#x204;" horiz-adv-x="415" 
d="M375 684l-6 -41h-231v-266h200v-40h-200v-297h242v-40h-288v684h283zM138 929l63 -145l-28 -13l-74 138zM240 928l58 -140l-28 -12l-68 132z" />
    <glyph glyph-name="Edieresis" unicode="&#xcb;" horiz-adv-x="415" 
d="M375 684l-6 -41h-231v-266h200v-40h-200v-297h242v-40h-288v684h283zM189 848.5q9 -9.5 9 -23.5t-9 -23.5t-23 -9.5t-23 9.5t-9 23.5t9 23.5t23 9.5t23 -9.5zM341.5 848.5q9.5 -9.5 9.5 -23.5t-9.5 -23.5t-23.5 -9.5t-23 9.5t-9 23.5t9 23.5t23 9.5t23.5 -9.5z" />
    <glyph glyph-name="Edotaccent" unicode="&#x116;" horiz-adv-x="415" 
d="M375 684l-6 -41h-231v-266h200v-40h-200v-297h242v-40h-288v684h283zM262.5 859q9.5 -10 9.5 -24t-9.5 -24t-24.5 -10t-24.5 10t-9.5 24t9.5 24t24.5 10t24.5 -10z" />
    <glyph glyph-name="uni1EB8" unicode="&#x1eb8;" horiz-adv-x="415" 
d="M375 684l-6 -41h-231v-266h200v-40h-200v-297h242v-40h-288v684h283zM209.5 -149q-9.5 10 -9.5 24t9.5 24t24.5 10t24.5 -10t9.5 -24t-9.5 -24t-24.5 -10t-24.5 10z" />
    <glyph glyph-name="Egrave" unicode="&#xc8;" horiz-adv-x="415" 
d="M375 684l-6 -41h-231v-266h200v-40h-200v-297h242v-40h-288v684h283zM170 875l151 -90l-14 -26l-159 75z" />
    <glyph glyph-name="uni1EBA" unicode="&#x1eba;" horiz-adv-x="415" 
d="M375 684l-6 -41h-231v-266h200v-40h-200v-297h242v-40h-288v684h283zM218 847q28 2 42 12.5t14 35.5q0 42 -39 42q-14 0 -23.5 -3t-21.5 -10l-14 29q30 20 65 20q34 0 54 -20.5t20 -54.5q0 -65 -60 -74v-46h-37v69z" />
    <glyph glyph-name="uni0206" unicode="&#x206;" horiz-adv-x="415" 
d="M375 684l-6 -41h-231v-266h200v-40h-200v-297h242v-40h-288v684h283zM308 870q28 -27 33 -75l-30 -7q-15 72 -74 72q-58 0 -74 -72l-30 7q5 48 33 75t71 27t71 -27z" />
    <glyph glyph-name="Emacron" unicode="&#x112;" horiz-adv-x="415" 
d="M375 684l-6 -41h-231v-266h200v-40h-200v-297h242v-40h-288v684h283zM334 806h-193v37h193v-37z" />
    <glyph glyph-name="Eogonek" unicode="&#x118;" horiz-adv-x="415" 
d="M380 40v-40h-24q-54 -30 -77 -56t-23 -65q0 -52 53 -52q20 0 47 6l-4 -39q-24 -6 -47 -6q-44 0 -67 24t-23 64q0 39 21.5 68.5t66.5 55.5h-211v684h283l-6 -41h-231v-266h200v-40h-200v-297h242z" />
    <glyph glyph-name="uni0190" unicode="&#x190;" horiz-adv-x="428" 
d="M314.5 673q40.5 -21 77.5 -62l-27 -27q-31 34 -64 51.5t-73 17.5q-55 0 -87 -35t-32 -93q0 -66 35 -101.5t93 -35.5h49l-6 -41l-45 1q-69 1 -105.5 -39t-36.5 -114q0 -79 38 -121.5t103 -42.5q44 0 78.5 19t65.5 57l31 -25q-73 -93 -175 -93q-85 0 -137.5 55t-52.5 152
q0 78 36 122t90 52q-50 13 -79.5 51.5t-29.5 102.5q0 76 44.5 123t119.5 47q49 0 89.5 -21z" />
    <glyph glyph-name="uni018E" unicode="&#x18e;" horiz-adv-x="415" 
d="M41 684h282v-684h-288v40h242v297h-200v40h200v266h-236v41z" />
    <glyph glyph-name="uni01A9" unicode="&#x1a9;" horiz-adv-x="404" 
d="M366 684v-41h-272l177 -292v-24l-178 -286h273v-41h-329v31l192 308l-192 314v31h329z" />
    <glyph glyph-name="uni0246" unicode="&#x246;" horiz-adv-x="415" 
d="M380 40v-40h-198l-15 -70l-26 5l14 65h-63v684h210l13 58l25 -5l-11 -53h46l-6 -41h-49l-57 -266h75v-40h-84l-63 -297h189zM138 643v-266h98l58 266h-156zM138 40h26l64 297h-90v-297z" />
    <glyph glyph-name="uni1EBC" unicode="&#x1ebc;" horiz-adv-x="415" 
d="M375 684l-6 -41h-231v-266h200v-40h-200v-297h242v-40h-288v684h283zM259 803.5q-12 6.5 -30 18.5q-13 10 -22 14.5t-18 4.5q-14 0 -24 -8.5t-22 -28.5l-27 13q31 60 72 60q13 0 25.5 -6t27.5 -18q16 -11 25 -15.5t19 -4.5q13 0 23.5 9.5t23.5 32.5l26 -12
q-28 -66 -72 -66q-15 0 -27 6.5z" />
    <glyph glyph-name="uni01B7" unicode="&#x1b7;" horiz-adv-x="400" 
d="M363 187q0 -88 -48.5 -143t-131.5 -55q-56 0 -97 21t-74 64l30 25q32 -38 63.5 -53.5t75.5 -15.5q65 0 99.5 42.5t34.5 113.5q0 83 -37 120t-109 37h-66v38l188 263h-260v40h311v-39l-190 -264h20q191 0 191 -194z" />
    <glyph glyph-name="uni01EE" unicode="&#x1ee;" horiz-adv-x="400" 
d="M363 187q0 -88 -48.5 -143t-131.5 -55q-56 0 -97 21t-74 64l30 25q32 -38 63.5 -53.5t75.5 -15.5q65 0 99.5 42.5t34.5 113.5q0 83 -37 120t-109 37h-66v38l188 263h-260v40h311v-39l-190 -264h20q191 0 191 -194zM286 879l19 -21l-106 -101h-27l-105 101l19 21l100 -81z
" />
    <glyph glyph-name="uni01B8" unicode="&#x1b8;" horiz-adv-x="400" 
d="M388 74q-35 -43 -76 -64t-96 -21q-83 0 -130.5 52.5t-47.5 141.5q0 98 48 148t142 50h21l-191 264v39h312v-40h-261l188 -263v-38h-65q-72 0 -109 -38.5t-37 -121.5q0 -72 33.5 -112.5t97.5 -40.5q43 0 75 15.5t65 53.5z" />
    <glyph glyph-name="F" unicode="F" horiz-adv-x="392" 
d="M92 0v684h278l-5 -41h-227v-279h196v-40h-196v-324h-46z" />
    <glyph glyph-name="uni1E1E" unicode="&#x1e1e;" horiz-adv-x="392" 
d="M92 0v684h278l-5 -41h-227v-279h196v-40h-196v-324h-46zM264.5 859q9.5 -10 9.5 -24t-9.5 -24t-24.5 -10t-24.5 10t-9.5 24t9.5 24t24.5 10t24.5 -10z" />
    <glyph glyph-name="uni0191" unicode="&#x191;" horiz-adv-x="392" 
d="M138 643v-279h196v-40h-196v-323h1v-94q0 -53 -27.5 -81t-71.5 -28q-47 0 -85 32l22 30q29 -23 61 -23q54 0 54 69v778h278l-5 -41h-227z" />
    <glyph glyph-name="G" unicode="G" horiz-adv-x="508" 
d="M371.5 678.5q34.5 -15.5 70.5 -49.5l-27 -28q-31 28 -59 40t-65 12q-80 0 -133 -72t-53 -236q0 -166 47.5 -240.5t136.5 -74.5q35 0 63 9t55 28v257h-110l-6 41h161v-321q-36 -26 -78 -40.5t-84 -14.5q-111 0 -172.5 87.5t-61.5 268.5q0 119 32.5 197.5t86 115
t116.5 36.5q46 0 80.5 -15.5z" />
    <glyph glyph-name="uni01F4" unicode="&#x1f4;" horiz-adv-x="508" 
d="M371.5 678.5q34.5 -15.5 70.5 -49.5l-27 -28q-31 28 -59 40t-65 12q-80 0 -133 -72t-53 -236q0 -166 47.5 -240.5t136.5 -74.5q35 0 63 9t55 28v257h-110l-6 41h161v-321q-36 -26 -78 -40.5t-84 -14.5q-111 0 -172.5 87.5t-61.5 268.5q0 119 32.5 197.5t86 115
t116.5 36.5q46 0 80.5 -15.5zM355 875l21 -40l-160 -76l-13 27z" />
    <glyph glyph-name="uni0194" unicode="&#x194;" horiz-adv-x="459" 
d="M257 56q27 -69 37.5 -104.5t10.5 -71.5q0 -39 -19.5 -60.5t-55.5 -21.5q-35 0 -55 21.5t-20 60.5q0 33 10.5 68.5t37.5 107.5l-182 628h46l163 -594l163 594h46zM255.5 -60.5q-7.5 29.5 -25.5 84.5q-18 -55 -25.5 -84t-7.5 -58q0 -46 33 -46t33 46q0 28 -7.5 57.5z" />
    <glyph glyph-name="Gbreve" unicode="&#x11e;" horiz-adv-x="508" 
d="M371.5 678.5q34.5 -15.5 70.5 -49.5l-27 -28q-31 28 -59 40t-65 12q-80 0 -133 -72t-53 -236q0 -166 47.5 -240.5t136.5 -74.5q35 0 63 9t55 28v257h-110l-6 41h161v-321q-36 -26 -78 -40.5t-84 -14.5q-111 0 -172.5 87.5t-61.5 268.5q0 119 32.5 197.5t86 115
t116.5 36.5q46 0 80.5 -15.5zM218.5 792q-28.5 25 -33.5 67l30 7q8 -28 27 -44t47 -16t47.5 16t27.5 44l29 -7q-5 -42 -33.5 -67t-70.5 -25t-70.5 25z" />
    <glyph glyph-name="Gcaron" unicode="&#x1e6;" horiz-adv-x="508" 
d="M371.5 678.5q34.5 -15.5 70.5 -49.5l-27 -28q-31 28 -59 40t-65 12q-80 0 -133 -72t-53 -236q0 -166 47.5 -240.5t136.5 -74.5q35 0 63 9t55 28v257h-110l-6 41h161v-321q-36 -26 -78 -40.5t-84 -14.5q-111 0 -172.5 87.5t-61.5 268.5q0 119 32.5 197.5t86 115
t116.5 36.5q46 0 80.5 -15.5zM389 879l19 -21l-106 -101h-27l-105 101l19 21l100 -81z" />
    <glyph glyph-name="Gcircumflex" unicode="&#x11c;" horiz-adv-x="508" 
d="M371.5 678.5q34.5 -15.5 70.5 -49.5l-27 -28q-31 28 -59 40t-65 12q-80 0 -133 -72t-53 -236q0 -166 47.5 -240.5t136.5 -74.5q35 0 63 9t55 28v257h-110l-6 41h161v-321q-36 -26 -78 -40.5t-84 -14.5q-111 0 -172.5 87.5t-61.5 268.5q0 119 32.5 197.5t86 115
t116.5 36.5q46 0 80.5 -15.5zM189 765l-20 21l105 100h27l106 -100l-21 -21l-98 79z" />
    <glyph glyph-name="Gcommaaccent" unicode="&#x122;" horiz-adv-x="508" 
d="M371.5 678.5q34.5 -15.5 70.5 -49.5l-27 -28q-31 28 -59 40t-65 12q-80 0 -133 -72t-53 -236q0 -166 47.5 -240.5t136.5 -74.5q35 0 63 9t55 28v257h-110l-6 41h161v-321q-36 -26 -78 -40.5t-84 -14.5q-111 0 -172.5 87.5t-61.5 268.5q0 119 32.5 197.5t86 115
t116.5 36.5q46 0 80.5 -15.5zM302.5 -98q9.5 -10 9.5 -27q0 -9 -3 -20t-7 -22.5t-7 -19.5l-34 -86h-27l29 114q-23 11 -23 34q0 16 10 26.5t27 10.5q16 0 25.5 -10z" />
    <glyph glyph-name="Gdotaccent" unicode="&#x120;" horiz-adv-x="508" 
d="M371.5 678.5q34.5 -15.5 70.5 -49.5l-27 -28q-31 28 -59 40t-65 12q-80 0 -133 -72t-53 -236q0 -166 47.5 -240.5t136.5 -74.5q35 0 63 9t55 28v257h-110l-6 41h161v-321q-36 -26 -78 -40.5t-84 -14.5q-111 0 -172.5 87.5t-61.5 268.5q0 119 32.5 197.5t86 115
t116.5 36.5q46 0 80.5 -15.5zM314.5 859q9.5 -10 9.5 -24t-9.5 -24t-24.5 -10t-24.5 10t-9.5 24t9.5 24t24.5 10t24.5 -10z" />
    <glyph glyph-name="uni0193" unicode="&#x193;" horiz-adv-x="467" 
d="M579 789l-21 -29q-14 11 -28 17t-32 6q-56 0 -56 -76v-78l-25 -26q-32 26 -61 38t-65 12q-80 0 -133 -72t-53 -236q0 -166 47.5 -240.5t136.5 -74.5q35 0 63 9t55 28v257h-110l-6 41h161v-321q-36 -26 -78 -40.5t-84 -14.5q-111 0 -172.5 87.5t-61.5 268.5
q0 119 32.5 197.5t86 115t116.5 36.5q61 0 107 -33v46q0 55 26.5 85t71.5 30q46 0 83 -33z" />
    <glyph glyph-name="uni0241" unicode="&#x241;" horiz-adv-x="374" 
d="M125 299l58 18q57 18 86.5 57t29.5 117q0 73 -33 117.5t-92 44.5q-39 0 -72 -17.5t-66 -51.5l-27 27q38 42 78 62.5t89 20.5q79 0 125.5 -56.5t46.5 -145.5q0 -96 -38.5 -140.5t-106.5 -66.5l-31 -10v-275h-47v299z" />
    <glyph glyph-name="uni01E4" unicode="&#x1e4;" horiz-adv-x="519" 
d="M513 200h-61v-156q-36 -27 -78 -41t-85 -14q-110 0 -171.5 88t-61.5 268q0 118 33 196.5t86 115.5t116 37q46 0 81 -15.5t70 -49.5l-27 -29q-31 28 -59 40.5t-64 12.5q-80 0 -133.5 -73t-53.5 -235q0 -315 184 -315q34 0 62.5 9.5t56.5 28.5v132h-111v39h111v85h-111
l-6 41h161v-126h61v-39z" />
    <glyph glyph-name="uni021C" unicode="&#x21c;" horiz-adv-x="411" 
d="M305 645.5q44 -48.5 44 -127.5q0 -129 -115 -158q61 -7 97 -47t36 -111q0 -106 -72.5 -176t-239.5 -111l-4 41q100 26 158.5 60.5t83.5 79.5t25 105q0 66 -37 102t-108 35l-48 -1l6 41h40q61 0 95.5 35.5t34.5 103.5q0 63 -30.5 99.5t-86.5 36.5q-40 0 -72.5 -17.5
t-66.5 -51.5l-26 27q39 42 78.5 62.5t88.5 20.5q75 0 119 -48.5z" />
    <glyph glyph-name="H" unicode="H" horiz-adv-x="548" 
d="M410 0v340h-272v-340h-46v684h46v-304h272v304h46v-684h-46z" />
    <glyph glyph-name="Hbar" unicode="&#x126;" horiz-adv-x="549" 
d="M509 551v-35h-51v-516h-46v340h-272v-340h-46v516h-54v35h54v133h46v-133h272v133h46v-133h51zM412 380v136h-272v-136h272z" />
    <glyph glyph-name="uni021E" unicode="&#x21e;" horiz-adv-x="548" 
d="M410 0v340h-272v-340h-46v684h46v-304h272v304h46v-684h-46zM373 879l19 -21l-106 -101h-27l-105 101l19 21l100 -81z" />
    <glyph glyph-name="Hcircumflex" unicode="&#x124;" horiz-adv-x="548" 
d="M410 0v340h-272v-340h-46v684h46v-304h272v304h46v-684h-46zM173 765l-20 21l105 100h27l106 -100l-21 -21l-98 79z" />
    <glyph glyph-name="uni1E24" unicode="&#x1e24;" horiz-adv-x="548" 
d="M410 0v340h-272v-340h-46v684h46v-304h272v304h46v-684h-46zM249.5 -149q-9.5 10 -9.5 24t9.5 24t24.5 10t24.5 -10t9.5 -24t-9.5 -24t-24.5 -10t-24.5 10z" />
    <glyph glyph-name="uniA7AA" unicode="&#xa7aa;" horiz-adv-x="595" 
d="M504 684v-684h-46v340h-272v-340h-46v644h-19q-65 0 -65 -66q0 -39 21 -78l-33 -17q-15 23 -22.5 44t-7.5 52q0 47 27.5 76t80.5 29h64v-304h272v304h46z" />
    <glyph glyph-name="uniA78D" unicode="&#xa78d;" horiz-adv-x="485" 
d="M393 684v-684h-46v301q-66 -76 -150 -76q-71 0 -115.5 45.5t-44.5 126.5v287h47v-285q0 -66 31 -99t87 -33q45 0 82.5 22t62.5 59v336h46z" />
    <glyph glyph-name="uniA78D.ss02" horiz-adv-x="477" 
d="M339 0v266h-294v418h46v-377h248v377h47v-684h-47z" />
    <glyph glyph-name="uni01F6" unicode="&#x1f6;" horiz-adv-x="792" 
d="M722 257q0 -135 -49 -201.5t-127 -66.5q-59 0 -97.5 39.5t-38.5 109.5v202h-272v-340h-46v684h46v-304h272v304h46v-544q0 -56 24.5 -83.5t66.5 -27.5q57 0 93 53t36 175t-21 265h45q22 -145 22 -265z" />
    <glyph glyph-name="I" unicode="I" horiz-adv-x="230" 
d="M138 684v-684h-46v684h46z" />
    <glyph glyph-name="IJ" unicode="&#x132;" horiz-adv-x="466" 
d="M138 684v-684h-46v684h46zM380 90q0 -56 -12 -92t-39 -61t-75 -49l-13 33q38 23 57.5 44t27 49.5t7.5 77.5v592h47v-594z" />
    <glyph glyph-name="Iacute" unicode="&#xcd;" horiz-adv-x="230" 
d="M138 684v-684h-46v684h46zM180 875l21 -40l-160 -76l-13 27z" />
    <glyph glyph-name="Ibreve" unicode="&#x12c;" horiz-adv-x="230" 
d="M138 684v-684h-46v684h46zM43.5 792q-28.5 25 -33.5 67l30 7q8 -28 27 -44t47 -16t47.5 16t27.5 44l29 -7q-5 -42 -33.5 -67t-70.5 -25t-70.5 25z" />
    <glyph glyph-name="uni01CF" unicode="&#x1cf;" horiz-adv-x="230" 
d="M138 684v-684h-46v684h46zM214 879l19 -21l-106 -101h-27l-105 101l19 21l100 -81z" />
    <glyph glyph-name="Icircumflex" unicode="&#xce;" horiz-adv-x="230" 
d="M138 684v-684h-46v684h46zM14 765l-20 21l105 100h27l106 -100l-21 -21l-98 79z" />
    <glyph glyph-name="uni0208" unicode="&#x208;" horiz-adv-x="230" 
d="M138 684v-684h-46v684h46zM15 929l63 -145l-28 -13l-74 138zM117 928l58 -140l-28 -12l-68 132z" />
    <glyph glyph-name="Idieresis" unicode="&#xcf;" horiz-adv-x="230" 
d="M138 684v-684h-46v684h46zM66 848.5q9 -9.5 9 -23.5t-9 -23.5t-23 -9.5t-23 9.5t-9 23.5t9 23.5t23 9.5t23 -9.5zM218.5 848.5q9.5 -9.5 9.5 -23.5t-9.5 -23.5t-23.5 -9.5t-23 9.5t-9 23.5t9 23.5t23 9.5t23.5 -9.5z" />
    <glyph glyph-name="uni1E2E" unicode="&#x1e2e;" horiz-adv-x="230" 
d="M138 684v-684h-46v684h46zM183 954l35 -27l-102 -121l-22 18zM61 799.5q9 -9.5 9 -23.5t-9 -23.5t-23 -9.5t-23 9.5t-9 23.5t9 23.5t23 9.5t23 -9.5zM213.5 799.5q9.5 -9.5 9.5 -23.5t-9.5 -23.5t-23.5 -9.5t-23 9.5t-9 23.5t9 23.5t23 9.5t23.5 -9.5z" />
    <glyph glyph-name="Idotaccent" unicode="&#x130;" horiz-adv-x="230" 
d="M138 684v-684h-46v684h46zM139.5 859q9.5 -10 9.5 -24t-9.5 -24t-24.5 -10t-24.5 10t-9.5 24t9.5 24t24.5 10t24.5 -10z" />
    <glyph glyph-name="uni1ECA" unicode="&#x1eca;" horiz-adv-x="230" 
d="M138 684v-684h-46v684h46zM90.5 -149q-9.5 10 -9.5 24t9.5 24t24.5 10t24.5 -10t9.5 -24t-9.5 -24t-24.5 -10t-24.5 10z" />
    <glyph glyph-name="Igrave" unicode="&#xcc;" horiz-adv-x="230" 
d="M138 684v-684h-46v684h46zM47 875l151 -90l-14 -26l-159 75z" />
    <glyph glyph-name="uni1EC8" unicode="&#x1ec8;" horiz-adv-x="230" 
d="M138 684v-684h-46v684h46zM95 847q28 2 42 12.5t14 35.5q0 42 -39 42q-14 0 -23.5 -3t-21.5 -10l-14 29q30 20 65 20q34 0 54 -20.5t20 -54.5q0 -65 -60 -74v-46h-37v69z" />
    <glyph glyph-name="uni020A" unicode="&#x20a;" horiz-adv-x="230" 
d="M138 684v-684h-46v684h46zM185 870q28 -27 33 -75l-30 -7q-15 72 -74 72q-58 0 -74 -72l-30 7q5 48 33 75t71 27t71 -27z" />
    <glyph glyph-name="Imacron" unicode="&#x12a;" horiz-adv-x="230" 
d="M138 684v-684h-46v684h46zM211 806h-193v37h193v-37z" />
    <glyph glyph-name="Iogonek" unicode="&#x12e;" horiz-adv-x="230" 
d="M138 684v-684h-4q-54 -30 -77 -56t-23 -65q0 -52 53 -52q20 0 47 6l-4 -39q-24 -6 -47 -6q-44 0 -67 24t-23 64q0 41 24.5 71.5t74.5 58.5v678h46z" />
    <glyph glyph-name="uni0196" unicode="&#x196;" horiz-adv-x="277" 
d="M265 22q-38 -32 -85 -32q-44 0 -71.5 28t-27.5 81v94h1v491h46v-586q0 -69 54 -69q32 0 61 23z" />
    <glyph glyph-name="uni0197" unicode="&#x197;" horiz-adv-x="258" 
d="M237 380v-40h-85v-340h-46v340h-85v40h85v304h46v-304h85z" />
    <glyph glyph-name="Itilde" unicode="&#x128;" horiz-adv-x="230" 
d="M138 684v-684h-46v684h46zM136 803.5q-12 6.5 -30 18.5q-13 10 -22 14.5t-18 4.5q-14 0 -24 -8.5t-22 -28.5l-27 13q31 60 72 60q13 0 25.5 -6t27.5 -18q16 -11 25 -15.5t19 -4.5q13 0 23.5 9.5t23.5 32.5l26 -12q-28 -66 -72 -66q-15 0 -27 6.5z" />
    <glyph glyph-name="J" unicode="J" horiz-adv-x="236" 
d="M150 90q0 -56 -12 -92t-39 -61t-75 -49l-13 33q38 23 57.5 44t27 49.5t7.5 77.5v592h47v-594z" />
    <glyph glyph-name="Jcircumflex" unicode="&#x134;" horiz-adv-x="236" 
d="M150 90q0 -56 -12 -92t-39 -61t-75 -49l-13 33q38 23 57.5 44t27 49.5t7.5 77.5v592h47v-594zM25 765l-20 21l105 100h27l106 -100l-21 -21l-98 79z" />
    <glyph glyph-name="uniA7B2" unicode="&#xa7b2;" horiz-adv-x="252" 
d="M231 -86q-37 20 -71 31q-1 -69 -32.5 -108t-92.5 -39q-47 0 -73 25t-26 69q0 48 31.5 74.5t86.5 26.5q35 0 60 -5v696h46v-704q52 -18 85 -38zM95.5 -139.5q18.5 27.5 18.5 85.5v8q-27 6 -60 6q-79 0 -79 -66q0 -61 59 -61q43 0 61.5 27.5z" />
    <glyph glyph-name="uni0248" unicode="&#x248;" horiz-adv-x="255" 
d="M234 323h-84v-233q0 -56 -12 -92t-39 -61t-75 -49l-13 33q38 23 57.5 44t27 49.5t7.5 77.5v231h-85v40h85v321h47v-321h84v-40z" />
    <glyph glyph-name="K" unicode="K" horiz-adv-x="452" 
d="M138 684v-684h-46v684h46zM431 684l-238 -315l252 -369h-53l-251 367l240 317h50z" />
    <glyph glyph-name="uni01E8" unicode="&#x1e8;" horiz-adv-x="452" 
d="M138 684v-684h-46v684h46zM431 684l-238 -315l252 -369h-53l-251 367l240 317h50zM348 879l19 -21l-106 -101h-27l-105 101l19 21l100 -81z" />
    <glyph glyph-name="Kcommaaccent" unicode="&#x136;" horiz-adv-x="452" 
d="M138 684v-684h-46v684h46zM431 684l-238 -315l252 -369h-53l-251 367l240 317h50zM274.5 -98q9.5 -10 9.5 -27q0 -9 -3 -20t-7 -22.5t-7 -19.5l-34 -86h-27l29 114q-23 11 -23 34q0 16 10 26.5t27 10.5q16 0 25.5 -10z" />
    <glyph glyph-name="uni0198" unicode="&#x198;" horiz-adv-x="476" 
d="M141 367l151 255q20 36 43.5 54t55.5 18q44 0 77 -35l-20 -26q-16 13 -26.5 18.5t-26.5 5.5q-20 0 -34.5 -11.5t-30.5 -39.5l-137 -237l252 -369h-53zM138 684v-684h-46v684h46z" />
    <glyph glyph-name="L" unicode="L" horiz-adv-x="387" 
d="M138 684v-641h234l-6 -43h-274v684h46z" />
    <glyph glyph-name="uni01C7" unicode="&#x1c7;" horiz-adv-x="607" 
d="M138 684v-641h234l-6 -43h-274v684h46zM521 90q0 -56 -12 -92t-39 -61t-75 -49l-13 33q38 23 57.5 44t27 49.5t7.5 77.5v592h47v-594z" />
    <glyph glyph-name="Lacute" unicode="&#x139;" horiz-adv-x="387" 
d="M138 684v-641h234l-6 -43h-274v684h46zM181 875l21 -40l-160 -76l-13 27z" />
    <glyph glyph-name="uni023D" unicode="&#x23d;" horiz-adv-x="401" 
d="M152 43h234l-6 -43h-274v343h-85v40h85v301h46v-301h85v-40h-85v-300z" />
    <glyph glyph-name="uniA7AD" unicode="&#xa7ad;" horiz-adv-x="419" 
d="M405 43l-6 -43h-274v272h-1q-53 1 -80.5 25t-27.5 70q0 40 24 64t60 24q11 0 25 -2v231h46v-375q46 1 95 12l5 -34q-50 -11 -100 -14v-230h234zM125 309v110q-14 2 -23 2q-22 0 -34.5 -14t-12.5 -40q0 -31 17.5 -44.5t51.5 -13.5h1z" />
    <glyph glyph-name="Lcaron" unicode="&#x13d;" horiz-adv-x="387" 
d="M138 684v-641h234l-6 -43h-274v684h46zM219 527l30 156l-42 5l-16 -157z" />
    <glyph glyph-name="uni1E3C" unicode="&#x1e3c;" horiz-adv-x="387" 
d="M138 684v-641h234l-6 -43h-274v684h46zM133 -196l-20 20l105 106h27l106 -106l-21 -20l-98 85z" />
    <glyph glyph-name="Lcommaaccent" unicode="&#x13b;" horiz-adv-x="387" 
d="M138 684v-641h234l-6 -43h-274v684h46zM254.5 -98q9.5 -10 9.5 -27q0 -9 -3 -20t-7 -22.5t-7 -19.5l-34 -86h-27l29 114q-23 11 -23 34q0 16 10 26.5t27 10.5q16 0 25.5 -10z" />
    <glyph glyph-name="Ldot" unicode="&#x13f;" horiz-adv-x="387" 
d="M138 684v-641h234l-6 -43h-274v684h46zM324.5 387q9.5 -10 9.5 -24t-9.5 -24t-24.5 -10t-24.5 10t-9.5 24t9.5 24t24.5 10t24.5 -10z" />
    <glyph glyph-name="uni1E36" unicode="&#x1e36;" horiz-adv-x="387" 
d="M138 684v-641h234l-6 -43h-274v684h46zM206.5 -149q-9.5 10 -9.5 24t9.5 24t24.5 10t24.5 -10t9.5 -24t-9.5 -24t-24.5 -10t-24.5 10z" />
    <glyph glyph-name="uni01C8" unicode="&#x1c8;" horiz-adv-x="593" 
d="M138 684v-641h234l-6 -43h-274v684h46zM505 -14q0 -53 -12 -86t-36 -55t-65 -45l-15 32q32 20 49 38t25.5 45.5t8.5 71.5v535h45v-536zM506.5 733q9.5 -10 9.5 -24t-9.5 -24t-24.5 -10t-24.5 10t-9.5 24t9.5 24t24.5 10t24.5 -10z" />
    <glyph glyph-name="Lslash" unicode="&#x141;" horiz-adv-x="396" 
d="M147 43h234l-6 -43h-274v288l-54 -40l-18 32l71 53l1 1v350h46v-316l150 113l19 -32l-169 -126v-280z" />
    <glyph glyph-name="M" unicode="M" horiz-adv-x="639" 
d="M578 0h-43l-27 335q-10 112 -22 304l-144 -557h-45l-149 557q-2 -59 -20 -299l-24 -340h-44l55 684h63l142 -546l138 546h65z" />
    <glyph glyph-name="uni1E3E" unicode="&#x1e3e;" horiz-adv-x="639" 
d="M578 0h-43l-27 335q-10 112 -22 304l-144 -557h-45l-149 557q-2 -59 -20 -299l-24 -340h-44l55 684h63l142 -546l138 546h65zM385 875l21 -40l-160 -76l-13 27z" />
    <glyph glyph-name="uni1E40" unicode="&#x1e40;" horiz-adv-x="639" 
d="M578 0h-43l-27 335q-10 112 -22 304l-144 -557h-45l-149 557q-2 -59 -20 -299l-24 -340h-44l55 684h63l142 -546l138 546h65zM344.5 859q9.5 -10 9.5 -24t-9.5 -24t-24.5 -10t-24.5 10t-9.5 24t9.5 24t24.5 10t24.5 -10z" />
    <glyph glyph-name="uni019C" unicode="&#x19c;" horiz-adv-x="759" 
d="M667 684v-684h-40l-4 92q-26 -48 -62 -75.5t-78 -27.5q-47 0 -79 29t-45 79q-29 -50 -65.5 -79t-79.5 -29q-63 0 -97.5 47t-34.5 124v524h46v-525q0 -60 23.5 -94.5t66.5 -34.5q77 0 134 119v13v522h46v-525q0 -59 24 -94t67 -35q41 0 73.5 32t58.5 88v534h46z" />
    <glyph glyph-name="N" unicode="N" horiz-adv-x="550" 
d="M458 0h-61l-268 631q7 -103 7 -222v-409h-44v684h61l267 -631q-6 102 -6 199v432h44v-684z" />
    <glyph glyph-name="uni01CA" unicode="&#x1ca;" horiz-adv-x="786" 
d="M458 0h-61l-268 631q7 -103 7 -222v-409h-44v684h61l267 -631q-6 102 -6 199v432h44v-684zM700 90q0 -56 -12 -92t-39 -61t-75 -49l-13 33q38 23 57.5 44t27 49.5t7.5 77.5v592h47v-594z" />
    <glyph glyph-name="Nacute" unicode="&#x143;" horiz-adv-x="550" 
d="M458 0h-61l-268 631q7 -103 7 -222v-409h-44v684h61l267 -631q-6 102 -6 199v432h44v-684zM348 875l21 -40l-160 -76l-13 27z" />
    <glyph glyph-name="Nacute.loclPLK" horiz-adv-x="550" 
d="M458 0h-61l-268 631q7 -103 7 -222v-409h-44v684h61l267 -631q-6 102 -6 199v432h44v-684zM333 902l37 -26l-97 -145l-23 16z" />
    <glyph glyph-name="Ncaron" unicode="&#x147;" horiz-adv-x="550" 
d="M458 0h-61l-268 631q7 -103 7 -222v-409h-44v684h61l267 -631q-6 102 -6 199v432h44v-684zM382 879l19 -21l-106 -101h-27l-105 101l19 21l100 -81z" />
    <glyph glyph-name="uni1E4A" unicode="&#x1e4a;" horiz-adv-x="550" 
d="M458 0h-61l-268 631q7 -103 7 -222v-409h-44v684h61l267 -631q-6 102 -6 199v432h44v-684zM178 -196l-20 20l105 106h27l106 -106l-21 -20l-98 85z" />
    <glyph glyph-name="Ncommaaccent" unicode="&#x145;" horiz-adv-x="550" 
d="M458 0h-61l-268 631q7 -103 7 -222v-409h-44v684h61l267 -631q-6 102 -6 199v432h44v-684zM299.5 -98q9.5 -10 9.5 -27q0 -9 -3 -20t-7 -22.5t-7 -19.5l-34 -86h-27l29 114q-23 11 -23 34q0 16 10 26.5t27 10.5q16 0 25.5 -10z" />
    <glyph glyph-name="uni1E44" unicode="&#x1e44;" horiz-adv-x="550" 
d="M458 0h-61l-268 631q7 -103 7 -222v-409h-44v684h61l267 -631q-6 102 -6 199v432h44v-684zM307.5 859q9.5 -10 9.5 -24t-9.5 -24t-24.5 -10t-24.5 10t-9.5 24t9.5 24t24.5 10t24.5 -10z" />
    <glyph glyph-name="uni1E46" unicode="&#x1e46;" horiz-adv-x="550" 
d="M458 0h-61l-268 631q7 -103 7 -222v-409h-44v684h61l267 -631q-6 102 -6 199v432h44v-684zM251.5 -149q-9.5 10 -9.5 24t9.5 24t24.5 10t24.5 -10t9.5 -24t-9.5 -24t-24.5 -10t-24.5 10z" />
    <glyph glyph-name="uni01F8" unicode="&#x1f8;" horiz-adv-x="550" 
d="M458 0h-61l-268 631q7 -103 7 -222v-409h-44v684h61l267 -631q-6 102 -6 199v432h44v-684zM215 875l151 -90l-14 -26l-159 75z" />
    <glyph glyph-name="Eng" unicode="&#x14a;" horiz-adv-x="550" 
d="M458 684v-777q0 -53 -27.5 -81t-71.5 -28q-47 0 -85 32l22 30q29 -23 61 -23q54 0 54 69v94h-14l-268 631q7 -103 7 -222v-409h-44v684h61l267 -631q-6 102 -6 199v432h44z" />
    <glyph glyph-name="Eng.ss01" horiz-adv-x="540" 
d="M418.5 647.5q38.5 -46.5 38.5 -132.5v-608q0 -53 -27.5 -81t-71.5 -28q-47 0 -85 32l22 30q29 -23 61 -23q54 0 54 69v600q0 147 -106 147q-52 0 -91 -30t-75 -81v-542h-46v684h40l4 -93q75 103 174 103q70 0 108.5 -46.5z" />
    <glyph glyph-name="uni019D" unicode="&#x19d;" horiz-adv-x="550" 
d="M458 684v-684h-61l-268 631q7 -103 7 -222v-502q0 -53 -27.5 -81t-70.5 -28q-47 0 -85 32l22 29q15 -11 29 -17t32 -6q56 0 56 70v778h61l267 -631q-6 102 -6 199v432h44z" />
    <glyph glyph-name="uni019D.ss01" horiz-adv-x="540" 
d="M418.5 647.5q38.5 -46.5 38.5 -132.5v-515h-47v506q0 147 -106 147q-52 0 -91 -30t-75 -81v-541h1v-94q0 -53 -27.5 -81t-71.5 -28q-47 0 -85 32l22 30q29 -23 61 -23q54 0 54 69v778h40l4 -93q75 103 174 103q70 0 108.5 -46.5z" />
    <glyph glyph-name="uni01CB" unicode="&#x1cb;" horiz-adv-x="771" 
d="M458 0h-61l-268 631q7 -103 7 -222v-409h-44v684h61l267 -631q-6 102 -6 199v432h44v-684zM683 -14q0 -53 -12 -86t-36 -55t-65 -45l-15 32q32 20 49 38t25.5 45.5t8.5 71.5v535h45v-536zM684.5 733q9.5 -10 9.5 -24t-9.5 -24t-24.5 -10t-24.5 10t-9.5 24t9.5 24t24.5 10
t24.5 -10z" />
    <glyph glyph-name="uni0220" unicode="&#x220;" horiz-adv-x="540" 
d="M418.5 647.5q38.5 -46.5 38.5 -132.5v-710h-47v701q0 147 -106 147q-52 0 -91 -30t-75 -81v-542h-46v684h40l4 -93q75 103 174 103q70 0 108.5 -46.5z" />
    <glyph glyph-name="Ntilde" unicode="&#xd1;" horiz-adv-x="550" 
d="M458 0h-61l-268 631q7 -103 7 -222v-409h-44v684h61l267 -631q-6 102 -6 199v432h44v-684zM304 803.5q-12 6.5 -30 18.5q-13 10 -22 14.5t-18 4.5q-14 0 -24 -8.5t-22 -28.5l-27 13q31 60 72 60q13 0 25.5 -6t27.5 -18q16 -11 25 -15.5t19 -4.5q13 0 23.5 9.5t23.5 32.5
l26 -12q-28 -66 -72 -66q-15 0 -27 6.5z" />
    <glyph glyph-name="O" unicode="O" horiz-adv-x="568" 
d="M451.5 606q60.5 -88 60.5 -265q0 -173 -60.5 -262.5t-167.5 -89.5q-105 0 -166.5 89.5t-61.5 261.5q0 173 61.5 263.5t166.5 90.5q107 0 167.5 -88zM152.5 576.5q-47.5 -76.5 -47.5 -236.5q0 -157 48 -233.5t131 -76.5q87 0 133.5 76t46.5 235q0 161 -47.5 236.5
t-132.5 75.5q-84 0 -131.5 -76.5z" />
    <glyph glyph-name="uni0222" unicode="&#x222;" horiz-adv-x="525" 
d="M438 316q31 -49 31 -120q0 -90 -53.5 -148.5t-152.5 -58.5t-153 57.5t-54 148.5q0 68 31 117.5t89 71.5q-42 19 -62 55.5t-20 85.5v159h47v-158q0 -124 122 -124q67 0 95 34.5t28 89.5v158h47v-159q0 -47 -21 -84t-63 -56q58 -20 89 -69zM381.5 73.5
q38.5 43.5 38.5 122.5t-38.5 122t-118.5 43q-78 0 -118 -44t-40 -122t39.5 -121.5t118.5 -43.5q80 0 118.5 43.5z" />
    <glyph glyph-name="Oacute" unicode="&#xd3;" horiz-adv-x="568" 
d="M451.5 606q60.5 -88 60.5 -265q0 -173 -60.5 -262.5t-167.5 -89.5q-105 0 -166.5 89.5t-61.5 261.5q0 173 61.5 263.5t166.5 90.5q107 0 167.5 -88zM152.5 576.5q-47.5 -76.5 -47.5 -236.5q0 -157 48 -233.5t131 -76.5q87 0 133.5 76t46.5 235q0 161 -47.5 236.5
t-132.5 75.5q-84 0 -131.5 -76.5zM350 875l21 -40l-160 -76l-13 27z" />
    <glyph glyph-name="Oacute.loclPLK" horiz-adv-x="568" 
d="M451.5 606q60.5 -88 60.5 -265q0 -173 -60.5 -262.5t-167.5 -89.5q-105 0 -166.5 89.5t-61.5 261.5q0 173 61.5 263.5t166.5 90.5q107 0 167.5 -88zM152.5 576.5q-47.5 -76.5 -47.5 -236.5q0 -157 48 -233.5t131 -76.5q87 0 133.5 76t46.5 235q0 161 -47.5 236.5
t-132.5 75.5q-84 0 -131.5 -76.5zM335 902l37 -26l-97 -145l-23 16z" />
    <glyph glyph-name="Obreve" unicode="&#x14e;" horiz-adv-x="568" 
d="M451.5 606q60.5 -88 60.5 -265q0 -173 -60.5 -262.5t-167.5 -89.5q-105 0 -166.5 89.5t-61.5 261.5q0 173 61.5 263.5t166.5 90.5q107 0 167.5 -88zM152.5 576.5q-47.5 -76.5 -47.5 -236.5q0 -157 48 -233.5t131 -76.5q87 0 133.5 76t46.5 235q0 161 -47.5 236.5
t-132.5 75.5q-84 0 -131.5 -76.5zM213.5 792q-28.5 25 -33.5 67l30 7q8 -28 27 -44t47 -16t47.5 16t27.5 44l29 -7q-5 -42 -33.5 -67t-70.5 -25t-70.5 25z" />
    <glyph glyph-name="uni01D1" unicode="&#x1d1;" horiz-adv-x="568" 
d="M451.5 606q60.5 -88 60.5 -265q0 -173 -60.5 -262.5t-167.5 -89.5q-105 0 -166.5 89.5t-61.5 261.5q0 173 61.5 263.5t166.5 90.5q107 0 167.5 -88zM152.5 576.5q-47.5 -76.5 -47.5 -236.5q0 -157 48 -233.5t131 -76.5q87 0 133.5 76t46.5 235q0 161 -47.5 236.5
t-132.5 75.5q-84 0 -131.5 -76.5zM384 879l19 -21l-106 -101h-27l-105 101l19 21l100 -81z" />
    <glyph glyph-name="uni019F" unicode="&#x19f;" horiz-adv-x="568" 
d="M451 605.5q61 -88.5 61 -264.5q0 -172 -60.5 -262t-167.5 -90q-105 0 -166.5 89t-61.5 262t61.5 263.5t166.5 90.5q106 0 167 -88.5zM155.5 583.5q-47.5 -69.5 -52.5 -214.5h362q-4 146 -51.5 215t-129.5 69q-81 0 -128.5 -69.5zM417 103.5q47 73.5 48 226.5h-362
q1 -152 49.5 -226t131.5 -74q86 0 133 73.5z" />
    <glyph glyph-name="Ocircumflex" unicode="&#xd4;" horiz-adv-x="568" 
d="M451.5 606q60.5 -88 60.5 -265q0 -173 -60.5 -262.5t-167.5 -89.5q-105 0 -166.5 89.5t-61.5 261.5q0 173 61.5 263.5t166.5 90.5q107 0 167.5 -88zM152.5 576.5q-47.5 -76.5 -47.5 -236.5q0 -157 48 -233.5t131 -76.5q87 0 133.5 76t46.5 235q0 161 -47.5 236.5
t-132.5 75.5q-84 0 -131.5 -76.5zM184 765l-20 21l105 100h27l106 -100l-21 -21l-98 79z" />
    <glyph glyph-name="uni1ED0" unicode="&#x1ed0;" horiz-adv-x="568" 
d="M451.5 606q60.5 -88 60.5 -265q0 -173 -60.5 -262.5t-167.5 -89.5q-105 0 -166.5 89.5t-61.5 261.5q0 173 61.5 263.5t166.5 90.5q107 0 167.5 -88zM152.5 576.5q-47.5 -76.5 -47.5 -236.5q0 -157 48 -233.5t131 -76.5q87 0 133.5 76t46.5 235q0 161 -47.5 236.5
t-132.5 75.5q-84 0 -131.5 -76.5zM188 733l-20 21l105 100h27l106 -100l-21 -21l-98 79zM447 977l35 -27l-102 -121l-22 18z" />
    <glyph glyph-name="uni1ED8" unicode="&#x1ed8;" horiz-adv-x="568" 
d="M451.5 606q60.5 -88 60.5 -265q0 -173 -60.5 -262.5t-167.5 -89.5q-105 0 -166.5 89.5t-61.5 261.5q0 173 61.5 263.5t166.5 90.5q107 0 167.5 -88zM152.5 576.5q-47.5 -76.5 -47.5 -236.5q0 -157 48 -233.5t131 -76.5q87 0 133.5 76t46.5 235q0 161 -47.5 236.5
t-132.5 75.5q-84 0 -131.5 -76.5zM184 765l-20 21l105 100h27l106 -100l-21 -21l-98 79zM259.5 -149q-9.5 10 -9.5 24t9.5 24t24.5 10t24.5 -10t9.5 -24t-9.5 -24t-24.5 -10t-24.5 10z" />
    <glyph glyph-name="uni1ED2" unicode="&#x1ed2;" horiz-adv-x="568" 
d="M451.5 606q60.5 -88 60.5 -265q0 -173 -60.5 -262.5t-167.5 -89.5q-105 0 -166.5 89.5t-61.5 261.5q0 173 61.5 263.5t166.5 90.5q107 0 167.5 -88zM152.5 576.5q-47.5 -76.5 -47.5 -236.5q0 -157 48 -233.5t131 -76.5q87 0 133.5 76t46.5 235q0 161 -47.5 236.5
t-132.5 75.5q-84 0 -131.5 -76.5zM184 733l-20 21l105 100h27l106 -100l-21 -21l-98 79zM126 977l90 -130l-23 -18l-101 121z" />
    <glyph glyph-name="uni1ED4" unicode="&#x1ed4;" horiz-adv-x="568" 
d="M451.5 606q60.5 -88 60.5 -265q0 -173 -60.5 -262.5t-167.5 -89.5q-105 0 -166.5 89.5t-61.5 261.5q0 173 61.5 263.5t166.5 90.5q107 0 167.5 -88zM152.5 576.5q-47.5 -76.5 -47.5 -236.5q0 -157 48 -233.5t131 -76.5q87 0 133.5 76t46.5 235q0 161 -47.5 236.5
t-132.5 75.5q-84 0 -131.5 -76.5zM184 733l-20 21l105 100h27l106 -100l-21 -21l-98 79zM366 879q28 2 42 12.5t14 35.5q0 42 -39 42q-14 0 -23.5 -3t-21.5 -10l-14 29q30 20 65 20q34 0 54 -20.5t20 -54.5q0 -65 -60 -74v-46h-37v69z" />
    <glyph glyph-name="uni1ED6" unicode="&#x1ed6;" horiz-adv-x="568" 
d="M451.5 606q60.5 -88 60.5 -265q0 -173 -60.5 -262.5t-167.5 -89.5q-105 0 -166.5 89.5t-61.5 261.5q0 173 61.5 263.5t166.5 90.5q107 0 167.5 -88zM152.5 576.5q-47.5 -76.5 -47.5 -236.5q0 -157 48 -233.5t131 -76.5q87 0 133.5 76t46.5 235q0 161 -47.5 236.5
t-132.5 75.5q-84 0 -131.5 -76.5zM183 733l-20 21l105 100h27l106 -100l-21 -21l-98 79zM304 902.5q-12 6.5 -30 18.5q-13 10 -22 14.5t-18 4.5q-14 0 -24 -8.5t-22 -28.5l-27 13q31 60 72 60q13 0 25.5 -6t27.5 -18q16 -11 25 -15.5t19 -4.5q13 0 23.5 9.5t23.5 32.5
l26 -12q-27 -66 -72 -66q-15 0 -27 6.5z" />
    <glyph glyph-name="uni020C" unicode="&#x20c;" horiz-adv-x="568" 
d="M451.5 606q60.5 -88 60.5 -265q0 -173 -60.5 -262.5t-167.5 -89.5q-105 0 -166.5 89.5t-61.5 261.5q0 173 61.5 263.5t166.5 90.5q107 0 167.5 -88zM152.5 576.5q-47.5 -76.5 -47.5 -236.5q0 -157 48 -233.5t131 -76.5q87 0 133.5 76t46.5 235q0 161 -47.5 236.5
t-132.5 75.5q-84 0 -131.5 -76.5zM185 929l63 -145l-28 -13l-74 138zM287 928l58 -140l-28 -12l-68 132z" />
    <glyph glyph-name="Odieresis" unicode="&#xd6;" horiz-adv-x="568" 
d="M451.5 606q60.5 -88 60.5 -265q0 -173 -60.5 -262.5t-167.5 -89.5q-105 0 -166.5 89.5t-61.5 261.5q0 173 61.5 263.5t166.5 90.5q107 0 167.5 -88zM152.5 576.5q-47.5 -76.5 -47.5 -236.5q0 -157 48 -233.5t131 -76.5q87 0 133.5 76t46.5 235q0 161 -47.5 236.5
t-132.5 75.5q-84 0 -131.5 -76.5zM236 848.5q9 -9.5 9 -23.5t-9 -23.5t-23 -9.5t-23 9.5t-9 23.5t9 23.5t23 9.5t23 -9.5zM388.5 848.5q9.5 -9.5 9.5 -23.5t-9.5 -23.5t-23.5 -9.5t-23 9.5t-9 23.5t9 23.5t23 9.5t23.5 -9.5z" />
    <glyph glyph-name="uni022A" unicode="&#x22a;" horiz-adv-x="568" 
d="M451.5 606q60.5 -88 60.5 -265q0 -173 -60.5 -262.5t-167.5 -89.5q-105 0 -166.5 89.5t-61.5 261.5q0 173 61.5 263.5t166.5 90.5q107 0 167.5 -88zM152.5 576.5q-47.5 -76.5 -47.5 -236.5q0 -157 48 -233.5t131 -76.5q87 0 133.5 76t46.5 235q0 161 -47.5 236.5
t-132.5 75.5q-84 0 -131.5 -76.5zM231 799.5q9 -9.5 9 -23.5t-9 -23.5t-23 -9.5t-23 9.5t-9 23.5t9 23.5t23 9.5t23 -9.5zM383.5 799.5q9.5 -9.5 9.5 -23.5t-9.5 -23.5t-23.5 -9.5t-23 9.5t-9 23.5t9 23.5t23 9.5t23.5 -9.5zM381 870h-193v37h193v-37z" />
    <glyph glyph-name="uni022E" unicode="&#x22e;" horiz-adv-x="568" 
d="M451.5 606q60.5 -88 60.5 -265q0 -173 -60.5 -262.5t-167.5 -89.5q-105 0 -166.5 89.5t-61.5 261.5q0 173 61.5 263.5t166.5 90.5q107 0 167.5 -88zM152.5 576.5q-47.5 -76.5 -47.5 -236.5q0 -157 48 -233.5t131 -76.5q87 0 133.5 76t46.5 235q0 161 -47.5 236.5
t-132.5 75.5q-84 0 -131.5 -76.5zM309.5 859q9.5 -10 9.5 -24t-9.5 -24t-24.5 -10t-24.5 10t-9.5 24t9.5 24t24.5 10t24.5 -10z" />
    <glyph glyph-name="uni0230" unicode="&#x230;" horiz-adv-x="568" 
d="M451.5 606q60.5 -88 60.5 -265q0 -173 -60.5 -262.5t-167.5 -89.5q-105 0 -166.5 89.5t-61.5 261.5q0 173 61.5 263.5t166.5 90.5q107 0 167.5 -88zM152.5 576.5q-47.5 -76.5 -47.5 -236.5q0 -157 48 -233.5t131 -76.5q87 0 133.5 76t46.5 235q0 161 -47.5 236.5
t-132.5 75.5q-84 0 -131.5 -76.5zM309.5 802q9.5 -10 9.5 -24t-9.5 -24t-24.5 -10t-24.5 10t-9.5 24t9.5 24t24.5 10t24.5 -10zM381 870h-193v37h193v-37z" />
    <glyph glyph-name="uni1ECC" unicode="&#x1ecc;" horiz-adv-x="568" 
d="M451.5 606q60.5 -88 60.5 -265q0 -173 -60.5 -262.5t-167.5 -89.5q-105 0 -166.5 89.5t-61.5 261.5q0 173 61.5 263.5t166.5 90.5q107 0 167.5 -88zM152.5 576.5q-47.5 -76.5 -47.5 -236.5q0 -157 48 -233.5t131 -76.5q87 0 133.5 76t46.5 235q0 161 -47.5 236.5
t-132.5 75.5q-84 0 -131.5 -76.5zM259.5 -149q-9.5 10 -9.5 24t9.5 24t24.5 10t24.5 -10t9.5 -24t-9.5 -24t-24.5 -10t-24.5 10z" />
    <glyph glyph-name="Ograve" unicode="&#xd2;" horiz-adv-x="568" 
d="M451.5 606q60.5 -88 60.5 -265q0 -173 -60.5 -262.5t-167.5 -89.5q-105 0 -166.5 89.5t-61.5 261.5q0 173 61.5 263.5t166.5 90.5q107 0 167.5 -88zM152.5 576.5q-47.5 -76.5 -47.5 -236.5q0 -157 48 -233.5t131 -76.5q87 0 133.5 76t46.5 235q0 161 -47.5 236.5
t-132.5 75.5q-84 0 -131.5 -76.5zM217 875l151 -90l-14 -26l-159 75z" />
    <glyph glyph-name="uni1ECE" unicode="&#x1ece;" horiz-adv-x="568" 
d="M451.5 606q60.5 -88 60.5 -265q0 -173 -60.5 -262.5t-167.5 -89.5q-105 0 -166.5 89.5t-61.5 261.5q0 173 61.5 263.5t166.5 90.5q107 0 167.5 -88zM152.5 576.5q-47.5 -76.5 -47.5 -236.5q0 -157 48 -233.5t131 -76.5q87 0 133.5 76t46.5 235q0 161 -47.5 236.5
t-132.5 75.5q-84 0 -131.5 -76.5zM265 847q28 2 42 12.5t14 35.5q0 42 -39 42q-14 0 -23.5 -3t-21.5 -10l-14 29q30 20 65 20q34 0 54 -20.5t20 -54.5q0 -65 -60 -74v-46h-37v69z" />
    <glyph glyph-name="Ohorn" unicode="&#x1a0;" horiz-adv-x="568" 
d="M504 627.5q-16 -20.5 -49 -27.5q57 -92 57 -259q0 -173 -60.5 -262.5t-167.5 -89.5q-105 0 -166.5 89.5t-61.5 261.5q0 173 61.5 263.5t166.5 90.5q94 0 151 -67q25 5 36 18.5t11 40.5q0 34 -11 72l33 11q16 -42 16 -83q0 -38 -16 -58.5zM417.5 106q46.5 76 46.5 235
q0 161 -47.5 236.5t-132.5 75.5q-84 0 -131.5 -76.5t-47.5 -236.5q0 -157 48 -233.5t131 -76.5q87 0 133.5 76z" />
    <glyph glyph-name="uni1EDA" unicode="&#x1eda;" horiz-adv-x="568" 
d="M371 835l-160 -76l-13 27l152 89zM504 627.5q-16 -20.5 -49 -27.5q57 -92 57 -259q0 -173 -60.5 -262.5t-167.5 -89.5q-105 0 -166.5 89.5t-61.5 261.5q0 173 61.5 263.5t166.5 90.5q94 0 151 -67q25 5 36 18.5t11 40.5q0 34 -11 72l33 11q16 -42 16 -83q0 -38 -16 -58.5
zM417.5 106q46.5 76 46.5 235q0 161 -47.5 236.5t-132.5 75.5q-84 0 -131.5 -76.5t-47.5 -236.5q0 -157 48 -233.5t131 -76.5q87 0 133.5 76z" />
    <glyph glyph-name="uni1EE2" unicode="&#x1ee2;" horiz-adv-x="568" 
d="M504 627.5q-16 -20.5 -49 -27.5q57 -92 57 -259q0 -173 -60.5 -262.5t-167.5 -89.5q-105 0 -166.5 89.5t-61.5 261.5q0 173 61.5 263.5t166.5 90.5q94 0 151 -67q25 5 36 18.5t11 40.5q0 34 -11 72l33 11q16 -42 16 -83q0 -38 -16 -58.5zM417.5 106q46.5 76 46.5 235
q0 161 -47.5 236.5t-132.5 75.5q-84 0 -131.5 -76.5t-47.5 -236.5q0 -157 48 -233.5t131 -76.5q87 0 133.5 76zM308.5 -101q9.5 -10 9.5 -24t-9.5 -24t-24.5 -10t-24.5 10t-9.5 24t9.5 24t24.5 10t24.5 -10z" />
    <glyph glyph-name="uni1EDC" unicode="&#x1edc;" horiz-adv-x="568" 
d="M368 785l-14 -26l-159 75l22 41zM504 627.5q-16 -20.5 -49 -27.5q57 -92 57 -259q0 -173 -60.5 -262.5t-167.5 -89.5q-105 0 -166.5 89.5t-61.5 261.5q0 173 61.5 263.5t166.5 90.5q94 0 151 -67q25 5 36 18.5t11 40.5q0 34 -11 72l33 11q16 -42 16 -83q0 -38 -16 -58.5z
M417.5 106q46.5 76 46.5 235q0 161 -47.5 236.5t-132.5 75.5q-84 0 -131.5 -76.5t-47.5 -236.5q0 -157 48 -233.5t131 -76.5q87 0 133.5 76z" />
    <glyph glyph-name="uni1EDE" unicode="&#x1ede;" horiz-adv-x="568" 
d="M258.5 934q-9.5 -3 -21.5 -10l-14 29q30 20 65 20q34 0 54 -20.5t20 -54.5q0 -65 -60 -74v-46h-37v69q28 2 42 12.5t14 35.5q0 42 -39 42q-14 0 -23.5 -3zM504 627.5q-16 -20.5 -49 -27.5q57 -92 57 -259q0 -173 -60.5 -262.5t-167.5 -89.5q-105 0 -166.5 89.5
t-61.5 261.5q0 173 61.5 263.5t166.5 90.5q94 0 151 -67q25 5 36 18.5t11 40.5q0 34 -11 72l33 11q16 -42 16 -83q0 -38 -16 -58.5zM417.5 106q46.5 76 46.5 235q0 161 -47.5 236.5t-132.5 75.5q-84 0 -131.5 -76.5t-47.5 -236.5q0 -157 48 -233.5t131 -76.5q87 0 133.5 76z
" />
    <glyph glyph-name="uni1EE0" unicode="&#x1ee0;" horiz-adv-x="568" 
d="M212 832.5q-10 -8.5 -22 -28.5l-27 13q31 60 72 60q13 0 25.5 -6t27.5 -18q16 -11 25 -15.5t19 -4.5q13 0 23.5 9.5t23.5 32.5l26 -12q-27 -66 -72 -66q-15 0 -27 6.5t-30 18.5q-13 10 -22 14.5t-18 4.5q-14 0 -24 -8.5zM504 627.5q-16 -20.5 -49 -27.5q57 -92 57 -259
q0 -173 -60.5 -262.5t-167.5 -89.5q-105 0 -166.5 89.5t-61.5 261.5q0 173 61.5 263.5t166.5 90.5q94 0 151 -67q25 5 36 18.5t11 40.5q0 34 -11 72l33 11q16 -42 16 -83q0 -38 -16 -58.5zM417.5 106q46.5 76 46.5 235q0 161 -47.5 236.5t-132.5 75.5q-84 0 -131.5 -76.5
t-47.5 -236.5q0 -157 48 -233.5t131 -76.5q87 0 133.5 76z" />
    <glyph glyph-name="Ohungarumlaut" unicode="&#x150;" horiz-adv-x="568" 
d="M451.5 606q60.5 -88 60.5 -265q0 -173 -60.5 -262.5t-167.5 -89.5q-105 0 -166.5 89.5t-61.5 261.5q0 173 61.5 263.5t166.5 90.5q107 0 167.5 -88zM152.5 576.5q-47.5 -76.5 -47.5 -236.5q0 -157 48 -233.5t131 -76.5q87 0 133.5 76t46.5 235q0 161 -47.5 236.5
t-132.5 75.5q-84 0 -131.5 -76.5zM373 929l39 -20l-74 -138l-28 13zM271 928l38 -20l-68 -132l-28 12z" />
    <glyph glyph-name="uni01A2" unicode="&#x1a2;" horiz-adv-x="739" 
d="M617.5 662.5q29.5 -32.5 29.5 -95.5v-762h-46v762q0 89 -68 89q-27 0 -49 -8.5t-46 -24.5q74 -90 74 -282q0 -173 -60.5 -262.5t-167.5 -89.5q-105 0 -166.5 89.5t-61.5 261.5q0 173 61.5 263.5t166.5 90.5q77 0 129 -45q30 22 59 34t63 12q53 0 82.5 -32.5zM417.5 106
q46.5 76 46.5 235q0 161 -47.5 236.5t-132.5 75.5q-84 0 -131.5 -76.5t-47.5 -236.5q0 -157 48 -233.5t131 -76.5q87 0 133.5 76z" />
    <glyph glyph-name="uni020E" unicode="&#x20e;" horiz-adv-x="568" 
d="M451.5 606q60.5 -88 60.5 -265q0 -173 -60.5 -262.5t-167.5 -89.5q-105 0 -166.5 89.5t-61.5 261.5q0 173 61.5 263.5t166.5 90.5q107 0 167.5 -88zM152.5 576.5q-47.5 -76.5 -47.5 -236.5q0 -157 48 -233.5t131 -76.5q87 0 133.5 76t46.5 235q0 161 -47.5 236.5
t-132.5 75.5q-84 0 -131.5 -76.5zM355 870q28 -27 33 -75l-30 -7q-15 72 -74 72q-58 0 -74 -72l-30 7q5 48 33 75t71 27t71 -27z" />
    <glyph glyph-name="Omacron" unicode="&#x14c;" horiz-adv-x="568" 
d="M451.5 606q60.5 -88 60.5 -265q0 -173 -60.5 -262.5t-167.5 -89.5q-105 0 -166.5 89.5t-61.5 261.5q0 173 61.5 263.5t166.5 90.5q107 0 167.5 -88zM152.5 576.5q-47.5 -76.5 -47.5 -236.5q0 -157 48 -233.5t131 -76.5q87 0 133.5 76t46.5 235q0 161 -47.5 236.5
t-132.5 75.5q-84 0 -131.5 -76.5zM381 806h-193v37h193v-37z" />
    <glyph glyph-name="uni1E52" unicode="&#x1e52;" horiz-adv-x="568" 
d="M451.5 606q60.5 -88 60.5 -265q0 -173 -60.5 -262.5t-167.5 -89.5q-105 0 -166.5 89.5t-61.5 261.5q0 173 61.5 263.5t166.5 90.5q107 0 167.5 -88zM152.5 576.5q-47.5 -76.5 -47.5 -236.5q0 -157 48 -233.5t131 -76.5q87 0 133.5 76t46.5 235q0 161 -47.5 236.5
t-132.5 75.5q-84 0 -131.5 -76.5zM381 764h-193v37h193v-37zM348 967l21 -40l-160 -76l-13 27z" />
    <glyph glyph-name="uni1E50" unicode="&#x1e50;" horiz-adv-x="568" 
d="M226 967l151 -90l-14 -26l-159 75zM384 764h-193v37h193v-37zM451.5 606q60.5 -88 60.5 -265q0 -173 -60.5 -262.5t-167.5 -89.5q-105 0 -166.5 89.5t-61.5 261.5q0 173 61.5 263.5t166.5 90.5q107 0 167.5 -88zM152.5 576.5q-47.5 -76.5 -47.5 -236.5q0 -157 48 -233.5
t131 -76.5q87 0 133.5 76t46.5 235q0 161 -47.5 236.5t-132.5 75.5q-84 0 -131.5 -76.5z" />
    <glyph glyph-name="uniA7B6" unicode="&#xa7b6;" horiz-adv-x="695" 
d="M619 490q15 -83 15 -202q0 -166 -42.5 -232.5t-118.5 -66.5q-53 0 -84 27t-43 80q-26 -107 -126 -107q-79 0 -119 68t-40 233q0 116 15 198t47 196h47q-34 -111 -48 -196t-14 -197q0 -104 13.5 -161t38 -78.5t62.5 -21.5q101 0 101 143v224h47v-224q0 -77 26.5 -110
t74.5 -33q36 0 61 21t39.5 77.5t14.5 160.5q0 113 -13.5 199t-46.5 196h46q32 -111 47 -194z" />
    <glyph glyph-name="uni01EA" unicode="&#x1ea;" horiz-adv-x="568" 
d="M274.5 -56.5q-22.5 -26.5 -22.5 -64.5q0 -52 53 -52q20 0 47 6l-4 -39q-24 -6 -47 -6q-44 0 -67 24t-23 64q0 35 17.5 62t53.5 51q-104 1 -165 90.5t-61 260.5q0 173 61.5 263.5t166.5 90.5q107 0 167.5 -88t60.5 -265q0 -144 -42.5 -230.5t-119.5 -111.5
q-53 -29 -75.5 -55.5zM153 106.5q48 -76.5 131 -76.5q87 0 133.5 76t46.5 235q0 161 -47.5 236.5t-132.5 75.5q-84 0 -131.5 -76.5t-47.5 -236.5q0 -157 48 -233.5z" />
    <glyph glyph-name="uni01EC" unicode="&#x1ec;" horiz-adv-x="568" 
d="M381 843v-37h-193v37h193zM274.5 -56.5q-22.5 -26.5 -22.5 -64.5q0 -52 53 -52q20 0 47 6l-4 -39q-24 -6 -47 -6q-44 0 -67 24t-23 64q0 35 17.5 62t53.5 51q-104 1 -165 90.5t-61 260.5q0 173 61.5 263.5t166.5 90.5q107 0 167.5 -88t60.5 -265q0 -144 -42.5 -230.5
t-119.5 -111.5q-53 -29 -75.5 -55.5zM153 106.5q48 -76.5 131 -76.5q87 0 133.5 76t46.5 235q0 161 -47.5 236.5t-132.5 75.5q-84 0 -131.5 -76.5t-47.5 -236.5q0 -157 48 -233.5z" />
    <glyph glyph-name="uni0186" unicode="&#x186;" horiz-adv-x="451" 
d="M338 607q57 -87 57 -265q0 -116 -28.5 -195.5t-79 -118.5t-116.5 -39q-48 0 -85 18.5t-68 49.5l27 29q31 -27 58.5 -40.5t66.5 -13.5q79 0 128 76.5t49 233.5q0 164 -45 237.5t-122 73.5q-37 0 -68.5 -12.5t-62.5 -37.5l-24 30q69 61 156 61q100 0 157 -87z" />
    <glyph glyph-name="Oslash" unicode="&#xd8;" horiz-adv-x="568" 
d="M479 552.5q33 -81.5 33 -211.5q0 -172 -60.5 -262t-167.5 -90q-36 0 -65 10l-28 -116l-41 11l33 121q-60 36 -93.5 118t-33.5 207q0 173 61.5 263.5t166.5 90.5q34 0 64 -9l30 122l41 -12l-35 -126q62 -35 95 -116.5zM199 54l141 590q-25 9 -56 9q-85 0 -132.5 -76.5
t-47.5 -236.5q0 -220 95 -286zM464 341q0 227 -95 289l-141 -590q24 -10 56 -10q179 0 180 311z" />
    <glyph glyph-name="Oslashacute" unicode="&#x1fe;" horiz-adv-x="568" 
d="M479 552.5q33 -81.5 33 -211.5q0 -172 -60.5 -262t-167.5 -90q-36 0 -65 10l-28 -116l-41 11l33 121q-60 36 -93.5 118t-33.5 207q0 173 61.5 263.5t166.5 90.5q34 0 64 -9l30 122l41 -12l-35 -126q62 -35 95 -116.5zM199 54l141 590q-25 9 -56 9q-85 0 -132.5 -76.5
t-47.5 -236.5q0 -220 95 -286zM464 341q0 227 -95 289l-141 -590q24 -10 56 -10q179 0 180 311zM345 886l21 -40l-160 -76l-13 27z" />
    <glyph glyph-name="Otilde" unicode="&#xd5;" horiz-adv-x="568" 
d="M451.5 606q60.5 -88 60.5 -265q0 -173 -60.5 -262.5t-167.5 -89.5q-105 0 -166.5 89.5t-61.5 261.5q0 173 61.5 263.5t166.5 90.5q107 0 167.5 -88zM152.5 576.5q-47.5 -76.5 -47.5 -236.5q0 -157 48 -233.5t131 -76.5q87 0 133.5 76t46.5 235q0 161 -47.5 236.5
t-132.5 75.5q-84 0 -131.5 -76.5zM306 803.5q-12 6.5 -30 18.5q-13 10 -22 14.5t-18 4.5q-14 0 -24 -8.5t-22 -28.5l-27 13q31 60 72 60q13 0 25.5 -6t27.5 -18q16 -11 25 -15.5t19 -4.5q13 0 23.5 9.5t23.5 32.5l26 -12q-28 -66 -72 -66q-15 0 -27 6.5z" />
    <glyph glyph-name="uni1E4C" unicode="&#x1e4c;" horiz-adv-x="568" 
d="M451.5 606q60.5 -88 60.5 -265q0 -173 -60.5 -262.5t-167.5 -89.5q-105 0 -166.5 89.5t-61.5 261.5q0 173 61.5 263.5t166.5 90.5q107 0 167.5 -88zM152.5 576.5q-47.5 -76.5 -47.5 -236.5q0 -157 48 -233.5t131 -76.5q87 0 133.5 76t46.5 235q0 161 -47.5 236.5
t-132.5 75.5q-84 0 -131.5 -76.5zM306 764.5q-12 6.5 -30 18.5q-13 10 -22 14.5t-18 4.5q-14 0 -24 -8.5t-22 -28.5l-27 13q31 60 72 60q13 0 25.5 -6t27.5 -18q16 -11 25 -15.5t19 -4.5q13 0 23.5 9.5t23.5 32.5l26 -12q-28 -66 -72 -66q-15 0 -27 6.5zM350 987l21 -40
l-160 -76l-13 27z" />
    <glyph glyph-name="uni022C" unicode="&#x22c;" horiz-adv-x="568" 
d="M451.5 606q60.5 -88 60.5 -265q0 -173 -60.5 -262.5t-167.5 -89.5q-105 0 -166.5 89.5t-61.5 261.5q0 173 61.5 263.5t166.5 90.5q107 0 167.5 -88zM152.5 576.5q-47.5 -76.5 -47.5 -236.5q0 -157 48 -233.5t131 -76.5q87 0 133.5 76t46.5 235q0 161 -47.5 236.5
t-132.5 75.5q-84 0 -131.5 -76.5zM306 764.5q-12 6.5 -30 18.5q-13 10 -22 14.5t-18 4.5q-14 0 -24 -8.5t-22 -28.5l-27 13q31 60 72 60q13 0 25.5 -6t27.5 -18q16 -11 25 -15.5t19 -4.5q13 0 23.5 9.5t23.5 32.5l26 -12q-28 -66 -72 -66q-15 0 -27 6.5zM378 888h-193v37
h193v-37z" />
    <glyph glyph-name="OE" unicode="&#x152;" horiz-adv-x="710" 
d="M675 0h-341q-28 -11 -59 -11q-64 0 -113.5 40.5t-77.5 120t-28 190.5t28 191t77.5 121.5t113.5 41.5q33 0 59 -10h336l-6 -41h-267q45 -37 70 -104t28 -162h138v-41h-137q-3 -216 -102 -296h281v-40zM127 168.5q22 -69.5 60.5 -104t88.5 -34.5q80 0 126 80t46 238
q0 150 -46.5 227.5t-125.5 77.5q-78 0 -124.5 -79.5t-46.5 -233.5q0 -102 22 -171.5z" />
    <glyph glyph-name="P" unicode="P" horiz-adv-x="462" 
d="M371 634q58 -50 58 -153q0 -209 -237 -209h-54v-272h-46v684h102q119 0 177 -50zM334 350.5q46 38.5 46 129.5q0 88 -44.5 126t-141.5 38h-56v-332h55q95 0 141 38.5z" />
    <glyph glyph-name="uni1E54" unicode="&#x1e54;" horiz-adv-x="462" 
d="M371 634q58 -50 58 -153q0 -209 -237 -209h-54v-272h-46v684h102q119 0 177 -50zM334 350.5q46 38.5 46 129.5q0 88 -44.5 126t-141.5 38h-56v-332h55q95 0 141 38.5zM301 875l21 -40l-160 -76l-13 27z" />
    <glyph glyph-name="uni1E56" unicode="&#x1e56;" horiz-adv-x="462" 
d="M371 634q58 -50 58 -153q0 -209 -237 -209h-54v-272h-46v684h102q119 0 177 -50zM334 350.5q46 38.5 46 129.5q0 88 -44.5 126t-141.5 38h-56v-332h55q95 0 141 38.5zM260.5 859q9.5 -10 9.5 -24t-9.5 -24t-24.5 -10t-24.5 10t-9.5 24t9.5 24t24.5 10t24.5 -10z" />
    <glyph glyph-name="uni01A4" unicode="&#x1a4;" horiz-adv-x="510" 
d="M419 634q58 -50 58 -153q0 -209 -237 -209h-54v-272h-46v644h-19q-65 0 -65 -66q0 -39 21 -78l-33 -17q-15 23 -22.5 44t-7.5 52q0 47 27.5 76t80.5 29h120q119 0 177 -50zM382 350.5q46 38.5 46 129.5q0 88 -44.5 126t-141.5 38h-56v-332h55q95 0 141 38.5z" />
    <glyph glyph-name="Thorn" unicode="&#xde;" horiz-adv-x="462" 
d="M372 510q57 -50 57 -154q0 -113 -59.5 -164.5t-172.5 -51.5h-59v-140h-46v684h46v-124h60q117 0 174 -50zM334.5 219.5q45.5 39.5 45.5 135.5q0 88 -44 126.5t-138 38.5h-60v-340h58q93 0 138.5 39.5z" />
    <glyph glyph-name="Q" unicode="Q" horiz-adv-x="568" 
d="M534 -53l-32 -36q-44 47 -92.5 64t-126.5 17q-104 0 -165.5 88t-61.5 260q0 173 61.5 263.5t166.5 90.5q106 0 167 -88.5t61 -264.5q0 -144 -38.5 -219.5t-107.5 -103.5q103 -3 168 -71zM153 106.5q48 -76.5 131 -76.5q87 0 133.5 76t46.5 235q0 161 -47.5 236.5
t-132.5 75.5q-84 0 -131.5 -76.5t-47.5 -236.5q0 -157 48 -233.5z" />
    <glyph glyph-name="uni024A" unicode="&#x24a;" horiz-adv-x="544" 
d="M587 -170q-38 -32 -85 -32q-44 0 -71.5 28t-27.5 81v148q-53 -66 -133 -66q-96 0 -155 84.5t-59 255.5q0 122 28 204t77 121.5t111 39.5q82 0 134 -61l3 51h41v-778q0 -69 54 -69q32 0 61 23zM403 106v480q-49 67 -126 67q-78 0 -125 -78t-47 -246q0 -155 46 -227
t122 -72q77 0 130 76z" />
    <glyph glyph-name="R" unicode="R" horiz-adv-x="482" 
d="M403 0l-149 315q-22 -2 -35 -2h-81v-313h-46v684h116q113 0 165.5 -47t52.5 -136q0 -69 -33 -114.5t-94 -63.5l155 -323h-51zM336.5 389q39.5 36 39.5 112q0 72 -38.5 107.5t-131.5 35.5h-68v-291h76q83 0 122.5 36z" />
    <glyph glyph-name="Racute" unicode="&#x154;" horiz-adv-x="482" 
d="M403 0l-149 315q-22 -2 -35 -2h-81v-313h-46v684h116q113 0 165.5 -47t52.5 -136q0 -69 -33 -114.5t-94 -63.5l155 -323h-51zM336.5 389q39.5 36 39.5 112q0 72 -38.5 107.5t-131.5 35.5h-68v-291h76q83 0 122.5 36zM304 875l21 -40l-160 -76l-13 27z" />
    <glyph glyph-name="Rcaron" unicode="&#x158;" horiz-adv-x="482" 
d="M403 0l-149 315q-22 -2 -35 -2h-81v-313h-46v684h116q113 0 165.5 -47t52.5 -136q0 -69 -33 -114.5t-94 -63.5l155 -323h-51zM336.5 389q39.5 36 39.5 112q0 72 -38.5 107.5t-131.5 35.5h-68v-291h76q83 0 122.5 36zM338 879l19 -21l-106 -101h-27l-105 101l19 21
l100 -81z" />
    <glyph glyph-name="Rcommaaccent" unicode="&#x156;" horiz-adv-x="482" 
d="M403 0l-149 315q-22 -2 -35 -2h-81v-313h-46v684h116q113 0 165.5 -47t52.5 -136q0 -69 -33 -114.5t-94 -63.5l155 -323h-51zM336.5 389q39.5 36 39.5 112q0 72 -38.5 107.5t-131.5 35.5h-68v-291h76q83 0 122.5 36zM275.5 -98q9.5 -10 9.5 -27q0 -9 -3 -20t-7 -22.5
t-7 -19.5l-34 -86h-27l29 114q-23 11 -23 34q0 16 10 26.5t27 10.5q16 0 25.5 -10z" />
    <glyph glyph-name="uni0210" unicode="&#x210;" horiz-adv-x="482" 
d="M403 0l-149 315q-22 -2 -35 -2h-81v-313h-46v684h116q113 0 165.5 -47t52.5 -136q0 -69 -33 -114.5t-94 -63.5l155 -323h-51zM336.5 389q39.5 36 39.5 112q0 72 -38.5 107.5t-131.5 35.5h-68v-291h76q83 0 122.5 36zM139 929l63 -145l-28 -13l-74 138zM241 928l58 -140
l-28 -12l-68 132z" />
    <glyph glyph-name="uni1E5A" unicode="&#x1e5a;" horiz-adv-x="482" 
d="M403 0l-149 315q-22 -2 -35 -2h-81v-313h-46v684h116q113 0 165.5 -47t52.5 -136q0 -69 -33 -114.5t-94 -63.5l155 -323h-51zM336.5 389q39.5 36 39.5 112q0 72 -38.5 107.5t-131.5 35.5h-68v-291h76q83 0 122.5 36zM227.5 -149q-9.5 10 -9.5 24t9.5 24t24.5 10t24.5 -10
t9.5 -24t-9.5 -24t-24.5 -10t-24.5 10z" />
    <glyph glyph-name="uni0212" unicode="&#x212;" horiz-adv-x="482" 
d="M403 0l-149 315q-22 -2 -35 -2h-81v-313h-46v684h116q113 0 165.5 -47t52.5 -136q0 -69 -33 -114.5t-94 -63.5l155 -323h-51zM336.5 389q39.5 36 39.5 112q0 72 -38.5 107.5t-131.5 35.5h-68v-291h76q83 0 122.5 36zM309 870q28 -27 33 -75l-30 -7q-15 72 -74 72
q-58 0 -74 -72l-30 7q5 48 33 75t71 27t71 -27z" />
    <glyph glyph-name="uni024C" unicode="&#x24c;" horiz-adv-x="484" 
d="M405 0l-149 315q-22 -2 -35 -2h-81v-313h-46v313h-74v40h74v331h116q113 0 165.5 -47t52.5 -136q0 -69 -33 -114.5t-94 -63.5l155 -323h-51zM338.5 389q39.5 36 39.5 112q0 72 -38.5 107.5t-131.5 35.5h-68v-291h76q83 0 122.5 36z" />
    <glyph glyph-name="uni2C64" unicode="&#x2c64;" horiz-adv-x="482" 
d="M192 -163q32 0 61 23l22 -30q-38 -32 -85 -32q-44 0 -71.5 28t-27.5 81v94h1v683h116q113 0 165.5 -47t52.5 -136q0 -69 -33 -114.5t-94 -63.5l155 -323h-51l-149 315q-22 -2 -35 -2h-81v-407q0 -69 54 -69zM138 644v-291h76q83 0 122.5 36t39.5 112q0 72 -38.5 107.5
t-131.5 35.5h-68z" />
    <glyph glyph-name="uni2C64.ss01" horiz-adv-x="331" 
d="M138 503v-597q0 -69 54 -69q32 0 61 23l22 -30q-38 -32 -85 -32q-44 0 -71.5 28t-27.5 81v94h1v683h40l3 -101q19 53 54.5 82t85.5 29q29 0 54 -9l-10 -43q-21 7 -48 7q-95 0 -133 -146z" />
    <glyph glyph-name="S" unicode="S" horiz-adv-x="442" 
d="M307.5 675.5q36.5 -18.5 71.5 -55.5l-27 -27q-32 32 -62 46t-70 14q-53 0 -85.5 -34.5t-32.5 -87.5t29 -85.5t103 -60.5q84 -33 123 -77t39 -123q0 -55 -23.5 -99.5t-65.5 -70.5t-96 -26q-55 0 -98 22t-80 63l27 27q36 -35 70 -53t80 -18q63 0 100.5 42.5t37.5 111.5
q0 63 -29 98t-105 64q-86 34 -122.5 76t-36.5 108q0 44 21 82t59 60t85 22q51 0 87.5 -18.5z" />
    <glyph glyph-name="Sacute" unicode="&#x15a;" horiz-adv-x="442" 
d="M307.5 675.5q36.5 -18.5 71.5 -55.5l-27 -27q-32 32 -62 46t-70 14q-53 0 -85.5 -34.5t-32.5 -87.5t29 -85.5t103 -60.5q84 -33 123 -77t39 -123q0 -55 -23.5 -99.5t-65.5 -70.5t-96 -26q-55 0 -98 22t-80 63l27 27q36 -35 70 -53t80 -18q63 0 100.5 42.5t37.5 111.5
q0 63 -29 98t-105 64q-86 34 -122.5 76t-36.5 108q0 44 21 82t59 60t85 22q51 0 87.5 -18.5zM289 875l21 -40l-160 -76l-13 27z" />
    <glyph glyph-name="Sacute.loclPLK" horiz-adv-x="442" 
d="M307.5 675.5q36.5 -18.5 71.5 -55.5l-27 -27q-32 32 -62 46t-70 14q-53 0 -85.5 -34.5t-32.5 -87.5t29 -85.5t103 -60.5q84 -33 123 -77t39 -123q0 -55 -23.5 -99.5t-65.5 -70.5t-96 -26q-55 0 -98 22t-80 63l27 27q36 -35 70 -53t80 -18q63 0 100.5 42.5t37.5 111.5
q0 63 -29 98t-105 64q-86 34 -122.5 76t-36.5 108q0 44 21 82t59 60t85 22q51 0 87.5 -18.5zM274 902l37 -26l-97 -145l-23 16z" />
    <glyph glyph-name="uniA78B" unicode="&#xa78b;" horiz-adv-x="180" 
d="M71 356l-5 328h48l-6 -328h-37z" />
    <glyph glyph-name="Scaron" unicode="&#x160;" horiz-adv-x="442" 
d="M307.5 675.5q36.5 -18.5 71.5 -55.5l-27 -27q-32 32 -62 46t-70 14q-53 0 -85.5 -34.5t-32.5 -87.5t29 -85.5t103 -60.5q84 -33 123 -77t39 -123q0 -55 -23.5 -99.5t-65.5 -70.5t-96 -26q-55 0 -98 22t-80 63l27 27q36 -35 70 -53t80 -18q63 0 100.5 42.5t37.5 111.5
q0 63 -29 98t-105 64q-86 34 -122.5 76t-36.5 108q0 44 21 82t59 60t85 22q51 0 87.5 -18.5zM323 879l19 -21l-106 -101h-27l-105 101l19 21l100 -81z" />
    <glyph glyph-name="Scedilla" unicode="&#x15e;" horiz-adv-x="442" 
d="M374.5 89.5q-21.5 -43.5 -60 -70t-88.5 -29.5v-58q76 -10 76 -74q0 -37 -24.5 -58.5t-59.5 -21.5q-36 0 -65 20l17 28q22 -14 47 -14q20 0 33 12t13 34q0 24 -18 35.5t-56 11.5l5 85q-48 3 -87 24.5t-74 59.5l27 27q36 -35 70 -53t80 -18q63 0 100.5 42.5t37.5 111.5
q0 63 -29 98t-105 64q-86 34 -122.5 76t-36.5 108q0 44 21 82t59 60t85 22q51 0 87.5 -18.5t71.5 -55.5l-27 -27q-32 32 -62 46t-70 14q-53 0 -85.5 -34.5t-32.5 -87.5t29 -85.5t103 -60.5q84 -33 123 -77t39 -123q0 -52 -21.5 -95.5z" />
    <glyph glyph-name="Scircumflex" unicode="&#x15c;" horiz-adv-x="442" 
d="M307.5 675.5q36.5 -18.5 71.5 -55.5l-27 -27q-32 32 -62 46t-70 14q-53 0 -85.5 -34.5t-32.5 -87.5t29 -85.5t103 -60.5q84 -33 123 -77t39 -123q0 -55 -23.5 -99.5t-65.5 -70.5t-96 -26q-55 0 -98 22t-80 63l27 27q36 -35 70 -53t80 -18q63 0 100.5 42.5t37.5 111.5
q0 63 -29 98t-105 64q-86 34 -122.5 76t-36.5 108q0 44 21 82t59 60t85 22q51 0 87.5 -18.5zM123 765l-20 21l105 100h27l106 -100l-21 -21l-98 79z" />
    <glyph glyph-name="Scommaaccent" unicode="&#x218;" horiz-adv-x="442" 
d="M307.5 675.5q36.5 -18.5 71.5 -55.5l-27 -27q-32 32 -62 46t-70 14q-53 0 -85.5 -34.5t-32.5 -87.5t29 -85.5t103 -60.5q84 -33 123 -77t39 -123q0 -55 -23.5 -99.5t-65.5 -70.5t-96 -26q-55 0 -98 22t-80 63l27 27q36 -35 70 -53t80 -18q63 0 100.5 42.5t37.5 111.5
q0 63 -29 98t-105 64q-86 34 -122.5 76t-36.5 108q0 44 21 82t59 60t85 22q51 0 87.5 -18.5zM239.5 -98q9.5 -10 9.5 -27q0 -9 -3 -20t-7 -22.5t-7 -19.5l-34 -86h-27l29 114q-23 11 -23 34q0 16 10 26.5t27 10.5q16 0 25.5 -10z" />
    <glyph glyph-name="uni1E60" unicode="&#x1e60;" horiz-adv-x="442" 
d="M307.5 675.5q36.5 -18.5 71.5 -55.5l-27 -27q-32 32 -62 46t-70 14q-53 0 -85.5 -34.5t-32.5 -87.5t29 -85.5t103 -60.5q84 -33 123 -77t39 -123q0 -55 -23.5 -99.5t-65.5 -70.5t-96 -26q-55 0 -98 22t-80 63l27 27q36 -35 70 -53t80 -18q63 0 100.5 42.5t37.5 111.5
q0 63 -29 98t-105 64q-86 34 -122.5 76t-36.5 108q0 44 21 82t59 60t85 22q51 0 87.5 -18.5zM248.5 859q9.5 -10 9.5 -24t-9.5 -24t-24.5 -10t-24.5 10t-9.5 24t9.5 24t24.5 10t24.5 -10z" />
    <glyph glyph-name="uni1E62" unicode="&#x1e62;" horiz-adv-x="442" 
d="M307.5 675.5q36.5 -18.5 71.5 -55.5l-27 -27q-32 32 -62 46t-70 14q-53 0 -85.5 -34.5t-32.5 -87.5t29 -85.5t103 -60.5q84 -33 123 -77t39 -123q0 -55 -23.5 -99.5t-65.5 -70.5t-96 -26q-55 0 -98 22t-80 63l27 27q36 -35 70 -53t80 -18q63 0 100.5 42.5t37.5 111.5
q0 63 -29 98t-105 64q-86 34 -122.5 76t-36.5 108q0 44 21 82t59 60t85 22q51 0 87.5 -18.5zM191.5 -149q-9.5 10 -9.5 24t9.5 24t24.5 10t24.5 -10t9.5 -24t-9.5 -24t-24.5 -10t-24.5 10z" />
    <glyph glyph-name="uni1E9E" unicode="&#x1e9e;" horiz-adv-x="532" 
d="M360 679.5q47 -14.5 97 -42.5v-34l-161 -219q96 -14 144 -63.5t48 -137.5q0 -90 -45.5 -142t-121.5 -52q-59 0 -95 23l15 34q37 -16 77 -16q56 0 88.5 39.5t32.5 113.5q0 80 -45.5 119t-141.5 47v40l164 227q-40 18 -76 27.5t-76 9.5q-60 0 -93 -36t-33 -107v-510h-46
v513q0 84 45 132.5t126 48.5q50 0 97 -14.5z" />
    <glyph glyph-name="uni018F" unicode="&#x18f;" horiz-adv-x="531" 
d="M420.5 612.5q54.5 -81.5 54.5 -270.5q0 -183 -57.5 -268t-158.5 -85q-102 0 -157.5 83.5t-55.5 258.5q0 23 2 38h379q-4 156 -46 220t-120 64q-45 0 -81 -16t-72 -52l-27 28q40 42 83.5 61.5t98.5 19.5q103 0 157.5 -81.5zM380 98.5q44 68.5 47 230.5h-334
q1 -159 43.5 -229t122.5 -70q77 0 121 68.5z" />
    <glyph glyph-name="T" unicode="T" horiz-adv-x="403" 
d="M395 684l-5 -41h-165v-643h-47v643h-166v41h383z" />
    <glyph glyph-name="Tbar" unicode="&#x166;" horiz-adv-x="403" 
d="M390 642h-165v-259h101v-38h-101v-346h-47v346h-101v38h101v259h-166v41h383z" />
    <glyph glyph-name="Tcaron" unicode="&#x164;" horiz-adv-x="403" 
d="M395 684l-5 -41h-165v-643h-47v643h-166v41h383zM301 879l19 -21l-106 -101h-27l-105 101l19 21l100 -81z" />
    <glyph glyph-name="uni0162" unicode="&#x162;" horiz-adv-x="403" 
d="M282 -90q19 -19 19 -50q0 -38 -24 -60t-61 -22t-64 20l15 30q23 -15 47 -15q21 0 34 12t13 35t-17.5 34t-55.5 11l7 95h-17v643h-166v41h383l-5 -41h-165v-710q38 -4 57 -23z" />
    <glyph glyph-name="uni1E70" unicode="&#x1e70;" horiz-adv-x="403" 
d="M395 684l-5 -41h-165v-643h-47v643h-166v41h383zM103 -196l-20 20l105 106h27l106 -106l-21 -20l-98 85z" />
    <glyph glyph-name="uni021A" unicode="&#x21a;" horiz-adv-x="403" 
d="M395 684l-5 -41h-165v-643h-47v643h-166v41h383zM224.5 -98q9.5 -10 9.5 -27q0 -9 -3 -20t-7 -22.5t-7 -19.5l-34 -86h-27l29 114q-23 11 -23 34q0 16 10 26.5t27 10.5q16 0 25.5 -10z" />
    <glyph glyph-name="uni023E" unicode="&#x23e;" horiz-adv-x="403" 
d="M390 641h-90l-77 -289v-352h-44v188l-69 -258l-26 7l95 355v349h-167v43h272l16 60l26 -7l-14 -53h83zM223 456l49 185h-49v-185z" />
    <glyph glyph-name="uni1E6A" unicode="&#x1e6a;" horiz-adv-x="403" 
d="M395 684l-5 -41h-165v-643h-47v643h-166v41h383zM226.5 859q9.5 -10 9.5 -24t-9.5 -24t-24.5 -10t-24.5 10t-9.5 24t9.5 24t24.5 10t24.5 -10z" />
    <glyph glyph-name="uni1E6C" unicode="&#x1e6c;" horiz-adv-x="403" 
d="M395 684l-5 -41h-165v-643h-47v643h-166v41h383zM176.5 -149q-9.5 10 -9.5 24t9.5 24t24.5 10t24.5 -10t9.5 -24t-9.5 -24t-24.5 -10t-24.5 10z" />
    <glyph glyph-name="uni01AC" unicode="&#x1ac;" horiz-adv-x="425" 
d="M412 641h-165v-641h-46v641h-82q-63 0 -63 -65q0 -22 5.5 -39t15.5 -36l-33 -19q-15 23 -22.5 44t-7.5 51q0 51 28.5 79t85.5 28h290z" />
    <glyph glyph-name="uni1E6E" unicode="&#x1e6e;" horiz-adv-x="403" 
d="M395 684l-5 -41h-165v-643h-47v643h-166v41h383zM299 -152h-193v37h193v-37z" />
    <glyph glyph-name="uni01BC" unicode="&#x1bc;" horiz-adv-x="408" 
d="M341 645h-231v-249q25 16 48 24.5t53 8.5q71 0 113.5 -55t42.5 -155q0 -69 -22 -121t-62.5 -80.5t-93.5 -28.5q-50 0 -87.5 20t-71.5 59l29 25q29 -33 59 -48.5t71 -15.5q60 0 95.5 50t35.5 141q0 88 -32.5 129.5t-87.5 41.5q-28 0 -50 -7.5t-49 -26.5h-34v327h282z" />
    <glyph glyph-name="uni0184" unicode="&#x184;" 
d="M375 367.5q54 -50.5 54 -152.5q0 -215 -213 -215h-124v559l-41 32q31 36 47 93h40v-266h79q104 0 158 -50.5zM340 81.5q40 41.5 40 134.5q0 84 -40 123t-122 39h-80v-338h84q78 0 118 41.5z" />
    <glyph glyph-name="uni01A7" unicode="&#x1a7;" horiz-adv-x="435" 
d="M345 650q42 -44 42 -114q0 -71 -36 -111t-123 -76q-52 -21 -80.5 -43t-41 -52t-12.5 -76q0 -69 36 -108.5t93 -39.5q47 0 82.5 18.5t69.5 53.5l27 -28q-37 -41 -80.5 -63t-99.5 -22q-51 0 -91 24t-62.5 67t-22.5 99q0 80 38.5 126t122.5 79q52 21 80 40t40 45t12 67
q0 54 -29 85.5t-81 31.5q-42 0 -74 -14t-66 -47l-26 28q39 38 77.5 56t90.5 18q72 0 114 -44z" />
    <glyph glyph-name="uni01AE" unicode="&#x1ae;" horiz-adv-x="403" 
d="M279 -163q32 0 61 23l22 -30q-38 -32 -85 -32q-44 0 -71.5 28t-27.5 81v736h-166v41h383l-5 -41h-165v-737q0 -69 54 -69z" />
    <glyph glyph-name="U" unicode="U" horiz-adv-x="529" 
d="M448 176q0 -81 -47 -134t-136 -53q-90 0 -136.5 52.5t-46.5 134.5v508h46v-504q0 -69 34 -109t103 -40t102.5 40.5t33.5 108.5v504h47v-508z" />
    <glyph glyph-name="Uacute" unicode="&#xda;" horiz-adv-x="529" 
d="M448 176q0 -81 -47 -134t-136 -53q-90 0 -136.5 52.5t-46.5 134.5v508h46v-504q0 -69 34 -109t103 -40t102.5 40.5t33.5 108.5v504h47v-508zM331 875l21 -40l-160 -76l-13 27z" />
    <glyph glyph-name="uni0244" unicode="&#x244;" horiz-adv-x="550" 
d="M511 516h-52v-340q0 -81 -47 -134t-136 -53q-90 0 -136.5 52.5t-46.5 134.5v340h-53v35h53v133h46v-133h273v133h47v-133h52v-35zM412 516h-273v-336q0 -69 34 -109t103 -40t102.5 40.5t33.5 108.5v336z" />
    <glyph glyph-name="Ubreve" unicode="&#x16c;" horiz-adv-x="529" 
d="M448 176q0 -81 -47 -134t-136 -53q-90 0 -136.5 52.5t-46.5 134.5v508h46v-504q0 -69 34 -109t103 -40t102.5 40.5t33.5 108.5v504h47v-508zM194.5 792q-28.5 25 -33.5 67l30 7q8 -28 27 -44t47 -16t47.5 16t27.5 44l29 -7q-5 -42 -33.5 -67t-70.5 -25t-70.5 25z" />
    <glyph glyph-name="uni01D3" unicode="&#x1d3;" horiz-adv-x="529" 
d="M448 176q0 -81 -47 -134t-136 -53q-90 0 -136.5 52.5t-46.5 134.5v508h46v-504q0 -69 34 -109t103 -40t102.5 40.5t33.5 108.5v504h47v-508zM365 879l19 -21l-106 -101h-27l-105 101l19 21l100 -81z" />
    <glyph glyph-name="Ucircumflex" unicode="&#xdb;" horiz-adv-x="529" 
d="M448 176q0 -81 -47 -134t-136 -53q-90 0 -136.5 52.5t-46.5 134.5v508h46v-504q0 -69 34 -109t103 -40t102.5 40.5t33.5 108.5v504h47v-508zM165 765l-20 21l105 100h27l106 -100l-21 -21l-98 79z" />
    <glyph glyph-name="uni0214" unicode="&#x214;" horiz-adv-x="529" 
d="M448 176q0 -81 -47 -134t-136 -53q-90 0 -136.5 52.5t-46.5 134.5v508h46v-504q0 -69 34 -109t103 -40t102.5 40.5t33.5 108.5v504h47v-508zM166 929l63 -145l-28 -13l-74 138zM268 928l58 -140l-28 -12l-68 132z" />
    <glyph glyph-name="Udieresis" unicode="&#xdc;" horiz-adv-x="529" 
d="M448 176q0 -81 -47 -134t-136 -53q-90 0 -136.5 52.5t-46.5 134.5v508h46v-504q0 -69 34 -109t103 -40t102.5 40.5t33.5 108.5v504h47v-508zM217 848.5q9 -9.5 9 -23.5t-9 -23.5t-23 -9.5t-23 9.5t-9 23.5t9 23.5t23 9.5t23 -9.5zM369.5 848.5q9.5 -9.5 9.5 -23.5
t-9.5 -23.5t-23.5 -9.5t-23 9.5t-9 23.5t9 23.5t23 9.5t23.5 -9.5z" />
    <glyph glyph-name="uni01D7" unicode="&#x1d7;" horiz-adv-x="529" 
d="M448 176q0 -81 -47 -134t-136 -53q-90 0 -136.5 52.5t-46.5 134.5v508h46v-504q0 -69 34 -109t103 -40t102.5 40.5t33.5 108.5v504h47v-508zM334 954l35 -27l-102 -121l-22 18zM212 799.5q9 -9.5 9 -23.5t-9 -23.5t-23 -9.5t-23 9.5t-9 23.5t9 23.5t23 9.5t23 -9.5z
M364.5 799.5q9.5 -9.5 9.5 -23.5t-9.5 -23.5t-23.5 -9.5t-23 9.5t-9 23.5t9 23.5t23 9.5t23.5 -9.5z" />
    <glyph glyph-name="uni01D9" unicode="&#x1d9;" horiz-adv-x="529" 
d="M448 176q0 -81 -47 -134t-136 -53q-90 0 -136.5 52.5t-46.5 134.5v508h46v-504q0 -69 34 -109t103 -40t102.5 40.5t33.5 108.5v504h47v-508zM362 938l19 -21l-106 -101h-27l-105 101l19 21l100 -81zM212 799.5q9 -9.5 9 -23.5t-9 -23.5t-24 -9.5q-13 0 -22 9.5t-9 23.5
t9 23.5t22 9.5q15 0 24 -9.5zM364 799.5q9 -9.5 9 -23.5t-9 -23.5t-23 -9.5t-23 9.5t-9 23.5t9 23.5t23 9.5t23 -9.5z" />
    <glyph glyph-name="uni01DB" unicode="&#x1db;" horiz-adv-x="529" 
d="M448 176q0 -81 -47 -134t-136 -53q-90 0 -136.5 52.5t-46.5 134.5v508h46v-504q0 -69 34 -109t103 -40t102.5 40.5t33.5 108.5v504h47v-508zM205 954l90 -130l-23 -18l-101 121zM212 799.5q9 -9.5 9 -23.5t-9 -23.5t-23 -9.5t-23 9.5t-9 23.5t9 23.5t23 9.5t23 -9.5z
M364.5 799.5q9.5 -9.5 9.5 -23.5t-9.5 -23.5t-23.5 -9.5t-23 9.5t-9 23.5t9 23.5t23 9.5t23.5 -9.5z" />
    <glyph glyph-name="uni01D5" unicode="&#x1d5;" horiz-adv-x="529" 
d="M448 176q0 -81 -47 -134t-136 -53q-90 0 -136.5 52.5t-46.5 134.5v508h46v-504q0 -69 34 -109t103 -40t102.5 40.5t33.5 108.5v504h47v-508zM212 799.5q9 -9.5 9 -23.5t-9 -23.5t-23 -9.5t-23 9.5t-9 23.5t9 23.5t23 9.5t23 -9.5zM364.5 799.5q9.5 -9.5 9.5 -23.5
t-9.5 -23.5t-23.5 -9.5t-23 9.5t-9 23.5t9 23.5t23 9.5t23.5 -9.5zM362 870h-193v37h193v-37z" />
    <glyph glyph-name="uni1EE4" unicode="&#x1ee4;" horiz-adv-x="529" 
d="M448 176q0 -81 -47 -134t-136 -53q-90 0 -136.5 52.5t-46.5 134.5v508h46v-504q0 -69 34 -109t103 -40t102.5 40.5t33.5 108.5v504h47v-508zM240.5 -149q-9.5 10 -9.5 24t9.5 24t24.5 10t24.5 -10t9.5 -24t-9.5 -24t-24.5 -10t-24.5 10z" />
    <glyph glyph-name="Ugrave" unicode="&#xd9;" horiz-adv-x="529" 
d="M448 176q0 -81 -47 -134t-136 -53q-90 0 -136.5 52.5t-46.5 134.5v508h46v-504q0 -69 34 -109t103 -40t102.5 40.5t33.5 108.5v504h47v-508zM198 875l151 -90l-14 -26l-159 75z" />
    <glyph glyph-name="uni1EE6" unicode="&#x1ee6;" horiz-adv-x="529" 
d="M448 176q0 -81 -47 -134t-136 -53q-90 0 -136.5 52.5t-46.5 134.5v508h46v-504q0 -69 34 -109t103 -40t102.5 40.5t33.5 108.5v504h47v-508zM246 847q28 2 42 12.5t14 35.5q0 42 -39 42q-14 0 -23.5 -3t-21.5 -10l-14 29q30 20 65 20q34 0 54 -20.5t20 -54.5
q0 -65 -60 -74v-46h-37v69z" />
    <glyph glyph-name="Uhorn" unicode="&#x1af;" horiz-adv-x="529" 
d="M509 623q-20 -21 -61 -26v-421q0 -81 -47 -134t-136 -53q-90 0 -136.5 52.5t-46.5 134.5v508h46v-504q0 -69 34 -109t103 -40t102.5 40.5t33.5 108.5v504h47v-56q23 5 33 18t10 40q0 34 -11 72l33 11q16 -42 16 -83q0 -42 -20 -63z" />
    <glyph glyph-name="uni1EE8" unicode="&#x1ee8;" horiz-adv-x="529" 
d="M352 835l-160 -76l-13 27l152 89zM509 623q-20 -21 -61 -26v-421q0 -81 -47 -134t-136 -53q-90 0 -136.5 52.5t-46.5 134.5v508h46v-504q0 -69 34 -109t103 -40t102.5 40.5t33.5 108.5v504h47v-56q23 5 33 18t10 40q0 34 -11 72l33 11q16 -42 16 -83q0 -42 -20 -63z" />
    <glyph glyph-name="uni1EF0" unicode="&#x1ef0;" horiz-adv-x="529" 
d="M509 623q-20 -21 -61 -26v-421q0 -81 -47 -134t-136 -53q-90 0 -136.5 52.5t-46.5 134.5v508h46v-504q0 -69 34 -109t103 -40t102.5 40.5t33.5 108.5v504h47v-56q23 5 33 18t10 40q0 34 -11 72l33 11q16 -42 16 -83q0 -42 -20 -63zM289.5 -101q9.5 -10 9.5 -24t-9.5 -24
t-24.5 -10t-24.5 10t-9.5 24t9.5 24t24.5 10t24.5 -10z" />
    <glyph glyph-name="uni1EEA" unicode="&#x1eea;" horiz-adv-x="529" 
d="M349 785l-14 -26l-159 75l22 41zM509 623q-20 -21 -61 -26v-421q0 -81 -47 -134t-136 -53q-90 0 -136.5 52.5t-46.5 134.5v508h46v-504q0 -69 34 -109t103 -40t102.5 40.5t33.5 108.5v504h47v-56q23 5 33 18t10 40q0 34 -11 72l33 11q16 -42 16 -83q0 -42 -20 -63z" />
    <glyph glyph-name="uni1EEC" unicode="&#x1eec;" horiz-adv-x="529" 
d="M239.5 934q-9.5 -3 -21.5 -10l-14 29q30 20 65 20q34 0 54 -20.5t20 -54.5q0 -65 -60 -74v-46h-37v69q28 2 42 12.5t14 35.5q0 42 -39 42q-14 0 -23.5 -3zM509 623q-20 -21 -61 -26v-421q0 -81 -47 -134t-136 -53q-90 0 -136.5 52.5t-46.5 134.5v508h46v-504
q0 -69 34 -109t103 -40t102.5 40.5t33.5 108.5v504h47v-56q23 5 33 18t10 40q0 34 -11 72l33 11q16 -42 16 -83q0 -42 -20 -63z" />
    <glyph glyph-name="uni1EEE" unicode="&#x1eee;" horiz-adv-x="529" 
d="M193 832.5q-10 -8.5 -22 -28.5l-27 13q31 60 72 60q13 0 25.5 -6t27.5 -18q16 -11 25 -15.5t19 -4.5q13 0 23.5 9.5t23.5 32.5l26 -12q-27 -66 -72 -66q-15 0 -27 6.5t-30 18.5q-13 10 -22 14.5t-18 4.5q-14 0 -24 -8.5zM509 623q-20 -21 -61 -26v-421q0 -81 -47 -134
t-136 -53q-90 0 -136.5 52.5t-46.5 134.5v508h46v-504q0 -69 34 -109t103 -40t102.5 40.5t33.5 108.5v504h47v-56q23 5 33 18t10 40q0 34 -11 72l33 11q16 -42 16 -83q0 -42 -20 -63z" />
    <glyph glyph-name="Uhungarumlaut" unicode="&#x170;" horiz-adv-x="529" 
d="M448 176q0 -81 -47 -134t-136 -53q-90 0 -136.5 52.5t-46.5 134.5v508h46v-504q0 -69 34 -109t103 -40t102.5 40.5t33.5 108.5v504h47v-508zM354 929l39 -20l-74 -138l-28 13zM252 928l38 -20l-68 -132l-28 12z" />
    <glyph glyph-name="uni0216" unicode="&#x216;" horiz-adv-x="529" 
d="M448 176q0 -81 -47 -134t-136 -53q-90 0 -136.5 52.5t-46.5 134.5v508h46v-504q0 -69 34 -109t103 -40t102.5 40.5t33.5 108.5v504h47v-508zM336 870q28 -27 33 -75l-30 -7q-15 72 -74 72q-58 0 -74 -72l-30 7q5 48 33 75t71 27t71 -27z" />
    <glyph glyph-name="Umacron" unicode="&#x16a;" horiz-adv-x="529" 
d="M448 176q0 -81 -47 -134t-136 -53q-90 0 -136.5 52.5t-46.5 134.5v508h46v-504q0 -69 34 -109t103 -40t102.5 40.5t33.5 108.5v504h47v-508zM362 806h-193v37h193v-37z" />
    <glyph glyph-name="Uogonek" unicode="&#x172;" horiz-adv-x="529" 
d="M448 684v-508q0 -66 -31.5 -114t-91.5 -65q-51 -29 -72.5 -54.5t-21.5 -61.5q0 -25 14 -39.5t40 -14.5q21 0 46 7l-4 -40q-25 -6 -48 -6q-43 0 -66 24.5t-23 63.5q0 69 78 113h-3q-90 0 -136.5 52.5t-46.5 134.5v508h46v-504q0 -69 34 -109t103 -40t102.5 40.5
t33.5 108.5v504h47z" />
    <glyph glyph-name="uni01B1" unicode="&#x1b1;" horiz-adv-x="566" 
d="M116 70.5q-61 81.5 -61 239.5q0 127 31 204t83 129h-96v41h150v-40q-56 -47 -87.5 -126.5t-31.5 -207.5q0 -143 47.5 -211.5t131.5 -68.5q85 0 132.5 68.5t47.5 211.5q0 128 -31.5 207t-87.5 127v40h150v-41h-96q53 -49 83 -126t30 -207q0 -156 -61.5 -238.5
t-166.5 -82.5q-106 0 -167 81.5z" />
    <glyph glyph-name="Uring" unicode="&#x16e;" horiz-adv-x="529" 
d="M448 176q0 -81 -47 -134t-136 -53q-90 0 -136.5 52.5t-46.5 134.5v508h46v-504q0 -69 34 -109t103 -40t102.5 40.5t33.5 108.5v504h47v-508zM323.5 918q21.5 -23 21.5 -66t-21.5 -66.5t-58.5 -23.5q-36 0 -57.5 23.5t-21.5 66.5t21.5 66t57.5 23q37 0 58.5 -23zM220 852
q0 -32 11.5 -46.5t33.5 -14.5q23 0 34.5 14t11.5 47q0 32 -11.5 46t-34.5 14q-45 0 -45 -60z" />
    <glyph glyph-name="Utilde" unicode="&#x168;" horiz-adv-x="529" 
d="M448 176q0 -81 -47 -134t-136 -53q-90 0 -136.5 52.5t-46.5 134.5v508h46v-504q0 -69 34 -109t103 -40t102.5 40.5t33.5 108.5v504h47v-508zM287 803.5q-12 6.5 -30 18.5q-13 10 -22 14.5t-18 4.5q-14 0 -24 -8.5t-22 -28.5l-27 13q31 60 72 60q13 0 25.5 -6t27.5 -18
q16 -11 25 -15.5t19 -4.5q13 0 23.5 9.5t23.5 32.5l26 -12q-28 -66 -72 -66q-15 0 -27 6.5z" />
    <glyph glyph-name="uni1E78" unicode="&#x1e78;" horiz-adv-x="529" 
d="M448 176q0 -81 -47 -134t-136 -53q-90 0 -136.5 52.5t-46.5 134.5v508h46v-504q0 -69 34 -109t103 -40t102.5 40.5t33.5 108.5v504h47v-508zM287 764.5q-12 6.5 -30 18.5q-13 10 -22 14.5t-18 4.5q-14 0 -24 -8.5t-22 -28.5l-27 13q31 60 72 60q13 0 25.5 -6t27.5 -18
q16 -11 25 -15.5t19 -4.5q13 0 23.5 9.5t23.5 32.5l26 -12q-28 -66 -72 -66q-15 0 -27 6.5zM331 987l21 -40l-160 -76l-13 27z" />
    <glyph glyph-name="V" unicode="V" horiz-adv-x="459" 
d="M439 684l-182 -684h-54l-182 684h46l164 -636l162 636h46z" />
    <glyph glyph-name="uni01B2" unicode="&#x1b2;" horiz-adv-x="529" 
d="M427 671q21 -23 21 -68v-342q0 -86 -26 -147t-72 -93t-105 -32q-74 0 -118.5 47t-44.5 123v525h46v-521q0 -62 31 -97t86 -35q71 0 113.5 60t42.5 172v340q0 52 -38 52q-18 0 -34 -8l-13 33q23 14 53 14q37 0 58 -23z" />
    <glyph glyph-name="uni0245" unicode="&#x245;" horiz-adv-x="475" 
d="M267 684l188 -684h-48l-170 646l-171 -646h-45l188 684h58z" />
    <glyph glyph-name="W" unicode="W" horiz-adv-x="671" 
d="M641 684l-124 -684h-59l-123 633l-123 -633h-59l-124 684h46l109 -639l124 639h54l125 -639l110 639h44z" />
    <glyph glyph-name="Wacute" unicode="&#x1e82;" horiz-adv-x="671" 
d="M641 684l-124 -684h-59l-123 633l-123 -633h-59l-124 684h46l109 -639l124 639h54l125 -639l110 639h44zM401 875l21 -40l-160 -76l-13 27z" />
    <glyph glyph-name="Wcircumflex" unicode="&#x174;" horiz-adv-x="671" 
d="M641 684l-124 -684h-59l-123 633l-123 -633h-59l-124 684h46l109 -639l124 639h54l125 -639l110 639h44zM235 765l-20 21l105 100h27l106 -100l-21 -21l-98 79z" />
    <glyph glyph-name="Wdieresis" unicode="&#x1e84;" horiz-adv-x="671" 
d="M641 684l-124 -684h-59l-123 633l-123 -633h-59l-124 684h46l109 -639l124 639h54l125 -639l110 639h44zM287 848.5q9 -9.5 9 -23.5t-9 -23.5t-23 -9.5t-23 9.5t-9 23.5t9 23.5t23 9.5t23 -9.5zM439.5 848.5q9.5 -9.5 9.5 -23.5t-9.5 -23.5t-23.5 -9.5t-23 9.5t-9 23.5
t9 23.5t23 9.5t23.5 -9.5z" />
    <glyph glyph-name="Wgrave" unicode="&#x1e80;" horiz-adv-x="671" 
d="M641 684l-124 -684h-59l-123 633l-123 -633h-59l-124 684h46l109 -639l124 639h54l125 -639l110 639h44zM268 875l151 -90l-14 -26l-159 75z" />
    <glyph glyph-name="uni2C72" unicode="&#x2c72;" horiz-adv-x="698" 
d="M153 0h59l123 633l123 -633h59l102 593q6 37 20 50.5t36 13.5q15 0 26.5 -6t25.5 -18l20 26q-35 35 -75 35q-77 0 -91 -90l-94 -560l-125 640h-54l-124 -640l-109 640h-46z" />
    <glyph glyph-name="uni01F7" unicode="&#x1f7;" horiz-adv-x="462" 
d="M387 646q42 -48 42 -131q0 -102 -54.5 -160.5t-154.5 -102.5l-82 -36v-216h-46v684h46v-55q31 31 64 48t75 17q68 0 110 -48zM338 379.5q42 49.5 42 135.5q0 67 -29 102.5t-80 35.5q-40 0 -72 -17t-61 -48v-331l81 37q77 36 119 85.5z" />
    <glyph glyph-name="X" unicode="X" horiz-adv-x="418" 
d="M235 371l174 -371h-48l-155 339l-150 -339h-47l170 368l-153 316h48l133 -286l132 286h47z" />
    <glyph glyph-name="Y" unicode="Y" horiz-adv-x="426" 
d="M414 684l-177 -415v-269h-46v268l-179 416h49l154 -373l151 373h48z" />
    <glyph glyph-name="Yacute" unicode="&#xdd;" horiz-adv-x="426" 
d="M414 684l-177 -415v-269h-46v268l-179 416h49l154 -373l151 373h48zM279 875l21 -40l-160 -76l-13 27z" />
    <glyph glyph-name="Ycircumflex" unicode="&#x176;" horiz-adv-x="426" 
d="M414 684l-177 -415v-269h-46v268l-179 416h49l154 -373l151 373h48zM113 765l-20 21l105 100h27l106 -100l-21 -21l-98 79z" />
    <glyph glyph-name="Ydieresis" unicode="&#x178;" horiz-adv-x="426" 
d="M414 684l-177 -415v-269h-46v268l-179 416h49l154 -373l151 373h48zM165 848.5q9 -9.5 9 -23.5t-9 -23.5t-23 -9.5t-23 9.5t-9 23.5t9 23.5t23 9.5t23 -9.5zM317.5 848.5q9.5 -9.5 9.5 -23.5t-9.5 -23.5t-23.5 -9.5t-23 9.5t-9 23.5t9 23.5t23 9.5t23.5 -9.5z" />
    <glyph glyph-name="uni1EF4" unicode="&#x1ef4;" horiz-adv-x="426" 
d="M414 684l-177 -415v-269h-46v268l-179 416h49l154 -373l151 373h48zM189.5 -149q-9.5 10 -9.5 24t9.5 24t24.5 10t24.5 -10t9.5 -24t-9.5 -24t-24.5 -10t-24.5 10z" />
    <glyph glyph-name="Ygrave" unicode="&#x1ef2;" horiz-adv-x="426" 
d="M414 684l-177 -415v-269h-46v268l-179 416h49l154 -373l151 373h48zM146 875l151 -90l-14 -26l-159 75z" />
    <glyph glyph-name="uni01B3" unicode="&#x1b3;" horiz-adv-x="443" 
d="M191 268l-179 416h49l154 -374l112 306q14 40 35 59t55 19q40 0 75 -35l-20 -26q-15 13 -26 18.5t-26 5.5q-20 0 -32 -12t-24 -45l-127 -331v-269h-46v268z" />
    <glyph glyph-name="uni1EF6" unicode="&#x1ef6;" horiz-adv-x="426" 
d="M414 684l-177 -415v-269h-46v268l-179 416h49l154 -373l151 373h48zM194 847q28 2 42 12.5t14 35.5q0 42 -39 42q-14 0 -23.5 -3t-21.5 -10l-14 29q30 20 65 20q34 0 54 -20.5t20 -54.5q0 -65 -60 -74v-46h-37v69z" />
    <glyph glyph-name="uni0232" unicode="&#x232;" horiz-adv-x="426" 
d="M414 684l-177 -415v-269h-46v268l-179 416h49l154 -373l151 373h48zM310 806h-193v37h193v-37z" />
    <glyph glyph-name="uni01A6" unicode="&#x1a6;" horiz-adv-x="483" 
d="M405 -127l-149 315q-24 -2 -36 -2h-82v-186h-46v684h46v-128h71q217 0 217 -183q0 -68 -32.5 -113.5t-93.5 -63.5l155 -323h-50zM337 261q40 36 40 112q0 73 -39 108.5t-132 34.5h-68v-291h76q83 0 123 36z" />
    <glyph glyph-name="uni024E" unicode="&#x24e;" horiz-adv-x="426" 
d="M374 591h40v-35h-55l-122 -287v-269h-46v268l-124 288h-55v35h40l-40 93h49l38 -93h229l38 93h48zM215 311l99 245h-200z" />
    <glyph glyph-name="uni1EF8" unicode="&#x1ef8;" horiz-adv-x="426" 
d="M414 684l-177 -415v-269h-46v268l-179 416h49l154 -373l151 373h48zM235 803.5q-12 6.5 -30 18.5q-13 10 -22 14.5t-18 4.5q-14 0 -24 -8.5t-22 -28.5l-27 13q31 60 72 60q13 0 25.5 -6t27.5 -18q16 -11 25 -15.5t19 -4.5q13 0 23.5 9.5t23.5 32.5l26 -12
q-28 -66 -72 -66q-15 0 -27 6.5z" />
    <glyph glyph-name="Z" unicode="Z" horiz-adv-x="422" 
d="M384 684v-39l-306 -603h300l-5 -42h-344v40l307 602h-276v42h324z" />
    <glyph glyph-name="Zacute" unicode="&#x179;" horiz-adv-x="422" 
d="M384 684v-39l-306 -603h300l-5 -42h-344v40l307 602h-276v42h324zM280 875l21 -40l-160 -76l-13 27z" />
    <glyph glyph-name="Zacute.loclPLK" horiz-adv-x="422" 
d="M384 684v-39l-306 -603h300l-5 -42h-344v40l307 602h-276v42h324zM265 902l37 -26l-97 -145l-23 16z" />
    <glyph glyph-name="Zcaron" unicode="&#x17d;" horiz-adv-x="422" 
d="M384 684v-39l-306 -603h300l-5 -42h-344v40l307 602h-276v42h324zM314 879l19 -21l-106 -101h-27l-105 101l19 21l100 -81z" />
    <glyph glyph-name="Zdotaccent" unicode="&#x17b;" horiz-adv-x="422" 
d="M384 684v-39l-306 -603h300l-5 -42h-344v40l307 602h-276v42h324zM239.5 859q9.5 -10 9.5 -24t-9.5 -24t-24.5 -10t-24.5 10t-9.5 24t9.5 24t24.5 10t24.5 -10z" />
    <glyph glyph-name="uni1E92" unicode="&#x1e92;" horiz-adv-x="422" 
d="M384 684v-39l-306 -603h300l-5 -42h-344v40l307 602h-276v42h324zM187.5 -149q-9.5 10 -9.5 24t9.5 24t24.5 10t24.5 -10t9.5 -24t-9.5 -24t-24.5 -10t-24.5 10z" />
    <glyph glyph-name="uni0224" unicode="&#x224;" horiz-adv-x="422" 
d="M384 645l-306 -603h297v-135q0 -53 -27.5 -81t-70.5 -28q-47 0 -85 32l22 30q14 -11 28.5 -17t33.5 -6q53 0 53 69v94h-300v40l307 602h-276v42h324v-39z" />
    <glyph glyph-name="uni01B5" unicode="&#x1b5;" horiz-adv-x="422" 
d="M384 684v-39l-143 -281h89v-40h-109l-143 -282h300l-5 -42h-344v40l145 284h-87v40h107l142 278h-276v42h324z" />
    <glyph glyph-name="uni0299" unicode="&#x299;" horiz-adv-x="449" 
d="M367.5 245.5q28.5 -32.5 28.5 -91.5q0 -77 -47 -115.5t-126 -38.5h-135v518q82 14 131 14q72 0 112.5 -36.5t40.5 -97.5q0 -47 -21 -75t-64 -40q52 -5 80.5 -37.5zM133 487v-189h102q44 0 68 25t24 74q0 46 -27 71.5t-80 25.5q-40 0 -87 -7zM315 64.5q36 26.5 36 88.5
q0 56 -28 82t-82 26h-108v-223h89q57 0 93 26.5z" />
    <glyph glyph-name="uni0262" unicode="&#x262;" horiz-adv-x="455" 
d="M318 520.5q32 -13.5 61 -41.5l-26 -28q-25 22 -51 32.5t-56 10.5q-63 0 -104.5 -53t-41.5 -176q0 -128 37 -181.5t108 -53.5q29 0 52 7t46 21v185h-93l-5 39h141v-246q-30 -22 -66.5 -33.5t-74.5 -11.5q-92 0 -142 65t-50 209q0 91 26 151.5t70 89t98 28.5q39 0 71 -13.5
z" />
    <glyph glyph-name="uni029B" unicode="&#x29b;" horiz-adv-x="454" 
d="M516 708l-21 -28q-15 11 -29 16.5t-31 5.5q-56 0 -56 -76v-147l-25 -25q-26 20 -52 30t-56 10q-63 0 -104.5 -53t-41.5 -176q0 -128 37 -181.5t108 -53.5q29 0 52 7t46 21v185h-93l-5 39h141v-246q-30 -22 -66.5 -33.5t-74.5 -11.5q-92 0 -142 65t-50 209q0 91 26 151.5
t70 89t97 28.5q51 0 89 -26v118q0 55 26.5 85t70.5 30q45 0 84 -33z" />
    <glyph glyph-name="uni029C" unicode="&#x29c;" horiz-adv-x="483" 
d="M350 0v252h-217v-252h-45v522h45v-231h217v231h45v-522h-45z" />
    <glyph glyph-name="uni026A" unicode="&#x26a;" horiz-adv-x="262" 
d="M238 484h-85v-446h85v-38h-214v38h84v446h-84v38h214v-38z" />
    <glyph glyph-name="uni029F" unicode="&#x29f;" horiz-adv-x="340" 
d="M133 522v-482h197l-6 -40h-236v522h45z" />
    <glyph glyph-name="uni0274" unicode="&#x274;" horiz-adv-x="483" 
d="M396 0h-58l-213 476q5 -75 5 -199v-277h-42v522h58l213 -477q-5 63 -5 174v303h42v-522z" />
    <glyph glyph-name="uni0276" unicode="&#x276;" horiz-adv-x="594" 
d="M562 0h-274q-27 -11 -56 -11q-85 0 -132 69t-47 202q0 135 47.5 203.5t132.5 68.5q32 0 58 -10h267l-5 -39h-208q29 -25 47.5 -73t21.5 -118h112v-38h-111q-1 -85 -21 -136t-54 -80h222v-38zM233 29q64 0 99.5 58.5t35.5 177.5q0 115 -36.5 171.5t-98.5 56.5
q-133 0 -133 -233q0 -231 133 -231z" />
    <glyph glyph-name="uni0280" unicode="&#x280;" horiz-adv-x="434" 
d="M339 0l-118 223q-7 -1 -23 -1h-66v-222h-44v522h103q88 0 131.5 -39t43.5 -112q0 -53 -26.5 -89.5t-76.5 -51.5l124 -230h-48zM202 259q118 0 118 112q0 57 -30 84.5t-98 27.5h-60v-224h70z" />
    <glyph glyph-name="uni0281" unicode="&#x281;" horiz-adv-x="434" 
d="M339.5 243q26.5 -36 26.5 -90q0 -74 -43.5 -113.5t-131.5 -39.5h-103v522h44v-222h69q14 0 20 -1l118 223h48l-124 -230q50 -13 76.5 -49zM290 66.5q30 28.5 30 86.5q0 110 -118 110h-70v-225h60q68 0 98 28.5z" />
    <glyph glyph-name="uni028F" unicode="&#x28f;" horiz-adv-x="346" 
d="M341 522l-144 -313v-209h-45v208l-147 314h46l123 -280l123 280h44z" />
    <glyph glyph-name="a" unicode="a" horiz-adv-x="441" 
d="M361.5 46.5q8.5 -16.5 27.5 -25.5l-10 -32q-31 8 -46.5 28.5t-18.5 57.5q-47 -86 -133 -86q-62 0 -97.5 42.5t-35.5 113.5q0 81 48.5 124t137.5 43h75v64q0 59 -23 88.5t-73 29.5q-30 0 -58.5 -7.5t-62.5 -21.5l-14 33q74 34 138 34q69 0 103 -39.5t34 -113.5v-283
q0 -33 8.5 -49.5zM309 128v149h-71q-143 0 -143 -131q0 -58 24.5 -88.5t67.5 -30.5q82 0 122 101z" />
    <glyph glyph-name="a.ss04" horiz-adv-x="477" 
d="M396 56.5q9 -16.5 30 -26.5l-14 -37q-31 11 -46.5 30t-20.5 50q-45 -84 -127 -84q-78 0 -121.5 68.5t-43.5 201.5q0 130 46 201.5t125 71.5q76 0 120 -71l4 61h39v-416q0 -33 9 -49.5zM291.5 52.5q28.5 24.5 50.5 72.5v288q-21 38 -47.5 59t-64.5 21q-59 0 -94 -56.5
t-35 -173.5q0 -235 122 -235q40 0 68.5 24.5z" />
    <glyph glyph-name="aacute" unicode="&#xe1;" horiz-adv-x="441" 
d="M361.5 46.5q8.5 -16.5 27.5 -25.5l-10 -32q-31 8 -46.5 28.5t-18.5 57.5q-47 -86 -133 -86q-62 0 -97.5 42.5t-35.5 113.5q0 81 48.5 124t137.5 43h75v64q0 59 -23 88.5t-73 29.5q-30 0 -58.5 -7.5t-62.5 -21.5l-14 33q74 34 138 34q69 0 103 -39.5t34 -113.5v-283
q0 -33 8.5 -49.5zM309 128v149h-71q-143 0 -143 -131q0 -58 24.5 -88.5t67.5 -30.5q82 0 122 101zM273 772l23 -40l-159 -84l-16 25z" />
    <glyph glyph-name="abreve" unicode="&#x103;" horiz-adv-x="441" 
d="M361.5 46.5q8.5 -16.5 27.5 -25.5l-10 -32q-31 8 -46.5 28.5t-18.5 57.5q-47 -86 -133 -86q-62 0 -97.5 42.5t-35.5 113.5q0 81 48.5 124t137.5 43h75v64q0 59 -23 88.5t-73 29.5q-30 0 -58.5 -7.5t-62.5 -21.5l-14 33q74 34 138 34q69 0 103 -39.5t34 -113.5v-283
q0 -33 8.5 -49.5zM309 128v149h-71q-143 0 -143 -131q0 -58 24.5 -88.5t67.5 -30.5q82 0 122 101zM144 684q-28 27 -33 75l30 7q16 -72 74 -72q59 0 74 72l30 -7q-5 -48 -33 -75t-71 -27t-71 27z" />
    <glyph glyph-name="uni1EAF" unicode="&#x1eaf;" horiz-adv-x="441" 
d="M361.5 46.5q8.5 -16.5 27.5 -25.5l-10 -32q-31 8 -46.5 28.5t-18.5 57.5q-47 -86 -133 -86q-62 0 -97.5 42.5t-35.5 113.5q0 81 48.5 124t137.5 43h75v64q0 59 -23 88.5t-73 29.5q-30 0 -58.5 -7.5t-62.5 -21.5l-14 33q74 34 138 34q69 0 103 -39.5t34 -113.5v-283
q0 -33 8.5 -49.5zM309 128v149h-71q-143 0 -143 -131q0 -58 24.5 -88.5t67.5 -30.5q82 0 122 101zM139.5 621q-28.5 25 -33.5 67l30 7q8 -28 27 -44t47 -16t47.5 16t27.5 44l29 -7q-5 -42 -33.5 -67t-70.5 -25t-70.5 25zM281 862l35 -27l-102 -121l-22 18z" />
    <glyph glyph-name="uni1EB7" unicode="&#x1eb7;" horiz-adv-x="441" 
d="M361.5 46.5q8.5 -16.5 27.5 -25.5l-10 -32q-31 8 -46.5 28.5t-18.5 57.5q-47 -86 -133 -86q-62 0 -97.5 42.5t-35.5 113.5q0 81 48.5 124t137.5 43h75v64q0 59 -23 88.5t-73 29.5q-30 0 -58.5 -7.5t-62.5 -21.5l-14 33q74 34 138 34q69 0 103 -39.5t34 -113.5v-283
q0 -33 8.5 -49.5zM309 128v149h-71q-143 0 -143 -131q0 -58 24.5 -88.5t67.5 -30.5q82 0 122 101zM144 684q-28 27 -33 75l30 7q16 -72 74 -72q59 0 74 72l30 -7q-5 -48 -33 -75t-71 -27t-71 27zM188.5 -149q-9.5 10 -9.5 24t9.5 24t24.5 10t24.5 -10t9.5 -24t-9.5 -24
t-24.5 -10t-24.5 10z" />
    <glyph glyph-name="uni1EB1" unicode="&#x1eb1;" horiz-adv-x="441" 
d="M361.5 46.5q8.5 -16.5 27.5 -25.5l-10 -32q-31 8 -46.5 28.5t-18.5 57.5q-47 -86 -133 -86q-62 0 -97.5 42.5t-35.5 113.5q0 81 48.5 124t137.5 43h75v64q0 59 -23 88.5t-73 29.5q-30 0 -58.5 -7.5t-62.5 -21.5l-14 33q74 34 138 34q69 0 103 -39.5t34 -113.5v-283
q0 -33 8.5 -49.5zM309 128v149h-71q-143 0 -143 -131q0 -58 24.5 -88.5t67.5 -30.5q82 0 122 101zM149.5 621q-28.5 25 -33.5 67l30 7q8 -28 27 -44t47 -16t47.5 16t27.5 44l29 -7q-5 -42 -33.5 -67t-70.5 -25t-70.5 25zM151 862l90 -130l-23 -18l-101 121z" />
    <glyph glyph-name="uni1EB3" unicode="&#x1eb3;" horiz-adv-x="441" 
d="M361.5 46.5q8.5 -16.5 27.5 -25.5l-10 -32q-31 8 -46.5 28.5t-18.5 57.5q-47 -86 -133 -86q-62 0 -97.5 42.5t-35.5 113.5q0 81 48.5 124t137.5 43h75v64q0 59 -23 88.5t-73 29.5q-30 0 -58.5 -7.5t-62.5 -21.5l-14 33q74 34 138 34q69 0 103 -39.5t34 -113.5v-283
q0 -33 8.5 -49.5zM309 128v149h-71q-143 0 -143 -131q0 -58 24.5 -88.5t67.5 -30.5q82 0 122 101zM144.5 621q-28.5 25 -33.5 67l30 7q8 -28 27 -44t47 -16t47.5 16t27.5 44l29 -7q-5 -42 -33.5 -67t-70.5 -25t-70.5 25zM194 771q28 2 42 13t14 36q0 42 -39 42
q-14 0 -23.5 -3t-21.5 -10l-14 28q30 20 65 20q34 0 54 -20.5t20 -54.5q0 -65 -60 -74v-55h-37v78z" />
    <glyph glyph-name="uni1EB5" unicode="&#x1eb5;" horiz-adv-x="441" 
d="M361.5 46.5q8.5 -16.5 27.5 -25.5l-10 -32q-31 8 -46.5 28.5t-18.5 57.5q-47 -86 -133 -86q-62 0 -97.5 42.5t-35.5 113.5q0 81 48.5 124t137.5 43h75v64q0 59 -23 88.5t-73 29.5q-30 0 -58.5 -7.5t-62.5 -21.5l-14 33q74 34 138 34q69 0 103 -39.5t34 -113.5v-283
q0 -33 8.5 -49.5zM309 128v149h-71q-143 0 -143 -131q0 -58 24.5 -88.5t67.5 -30.5q82 0 122 101zM145.5 621q-28.5 25 -33.5 67l30 7q8 -28 27 -44t47 -16t47.5 16t27.5 44l29 -7q-5 -42 -33.5 -67t-70.5 -25t-70.5 25zM237 751.5q-12 6.5 -30 18.5q-13 10 -22 14.5
t-18 4.5q-14 0 -24 -8.5t-22 -28.5l-27 13q31 60 72 60q13 0 25.5 -6t27.5 -18q16 -11 25 -15.5t19 -4.5q13 0 23.5 9.5t23.5 32.5l26 -12q-27 -66 -72 -66q-15 0 -27 6.5z" />
    <glyph glyph-name="uni01CE" unicode="&#x1ce;" horiz-adv-x="441" 
d="M361.5 46.5q8.5 -16.5 27.5 -25.5l-10 -32q-31 8 -46.5 28.5t-18.5 57.5q-47 -86 -133 -86q-62 0 -97.5 42.5t-35.5 113.5q0 81 48.5 124t137.5 43h75v64q0 59 -23 88.5t-73 29.5q-30 0 -58.5 -7.5t-62.5 -21.5l-14 33q74 34 138 34q69 0 103 -39.5t34 -113.5v-283
q0 -33 8.5 -49.5zM309 128v149h-71q-143 0 -143 -131q0 -58 24.5 -88.5t67.5 -30.5q82 0 122 101zM314 761l20 -20l-106 -106h-27l-105 106l20 20l99 -86z" />
    <glyph glyph-name="acircumflex" unicode="&#xe2;" horiz-adv-x="441" 
d="M361.5 46.5q8.5 -16.5 27.5 -25.5l-10 -32q-31 8 -46.5 28.5t-18.5 57.5q-47 -86 -133 -86q-62 0 -97.5 42.5t-35.5 113.5q0 81 48.5 124t137.5 43h75v64q0 59 -23 88.5t-73 29.5q-30 0 -58.5 -7.5t-62.5 -21.5l-14 33q74 34 138 34q69 0 103 -39.5t34 -113.5v-283
q0 -33 8.5 -49.5zM309 128v149h-71q-143 0 -143 -131q0 -58 24.5 -88.5t67.5 -30.5q82 0 122 101zM116 649l-20 20l105 106h27l106 -106l-21 -20l-98 85z" />
    <glyph glyph-name="uni1EA5" unicode="&#x1ea5;" horiz-adv-x="441" 
d="M361.5 46.5q8.5 -16.5 27.5 -25.5l-10 -32q-31 8 -46.5 28.5t-18.5 57.5q-47 -86 -133 -86q-62 0 -97.5 42.5t-35.5 113.5q0 81 48.5 124t137.5 43h75v64q0 59 -23 88.5t-73 29.5q-30 0 -58.5 -7.5t-62.5 -21.5l-14 33q74 34 138 34q69 0 103 -39.5t34 -113.5v-283
q0 -33 8.5 -49.5zM309 128v149h-71q-143 0 -143 -131q0 -58 24.5 -88.5t67.5 -30.5q82 0 122 101zM115 587l-20 21l105 100h27l106 -100l-21 -21l-98 79zM374 831l35 -27l-102 -121l-22 18z" />
    <glyph glyph-name="uni1EAD" unicode="&#x1ead;" horiz-adv-x="441" 
d="M361.5 46.5q8.5 -16.5 27.5 -25.5l-10 -32q-31 8 -46.5 28.5t-18.5 57.5q-47 -86 -133 -86q-62 0 -97.5 42.5t-35.5 113.5q0 81 48.5 124t137.5 43h75v64q0 59 -23 88.5t-73 29.5q-30 0 -58.5 -7.5t-62.5 -21.5l-14 33q74 34 138 34q69 0 103 -39.5t34 -113.5v-283
q0 -33 8.5 -49.5zM309 128v149h-71q-143 0 -143 -131q0 -58 24.5 -88.5t67.5 -30.5q82 0 122 101zM116 649l-20 20l105 106h27l106 -106l-21 -20l-98 85zM188.5 -149q-9.5 10 -9.5 24t9.5 24t24.5 10t24.5 -10t9.5 -24t-9.5 -24t-24.5 -10t-24.5 10z" />
    <glyph glyph-name="uni1EA7" unicode="&#x1ea7;" horiz-adv-x="441" 
d="M361.5 46.5q8.5 -16.5 27.5 -25.5l-10 -32q-31 8 -46.5 28.5t-18.5 57.5q-47 -86 -133 -86q-62 0 -97.5 42.5t-35.5 113.5q0 81 48.5 124t137.5 43h75v64q0 59 -23 88.5t-73 29.5q-30 0 -58.5 -7.5t-62.5 -21.5l-14 33q74 34 138 34q69 0 103 -39.5t34 -113.5v-283
q0 -33 8.5 -49.5zM309 128v149h-71q-143 0 -143 -131q0 -58 24.5 -88.5t67.5 -30.5q82 0 122 101zM115 587l-20 21l105 100h27l106 -100l-21 -21l-98 79zM57 831l90 -130l-23 -18l-101 121z" />
    <glyph glyph-name="uni1EA9" unicode="&#x1ea9;" horiz-adv-x="441" 
d="M361.5 46.5q8.5 -16.5 27.5 -25.5l-10 -32q-31 8 -46.5 28.5t-18.5 57.5q-47 -86 -133 -86q-62 0 -97.5 42.5t-35.5 113.5q0 81 48.5 124t137.5 43h75v64q0 59 -23 88.5t-73 29.5q-30 0 -58.5 -7.5t-62.5 -21.5l-14 33q74 34 138 34q69 0 103 -39.5t34 -113.5v-283
q0 -33 8.5 -49.5zM309 128v149h-71q-143 0 -143 -131q0 -58 24.5 -88.5t67.5 -30.5q82 0 122 101zM115 587l-20 21l105 100h27l106 -100l-21 -21l-98 79zM296 756q28 2 42 13t14 36q0 42 -39 42q-14 0 -23.5 -3t-21.5 -10l-14 28q30 20 65 20q34 0 54 -20.5t20 -54.5
q0 -65 -60 -74v-55h-37v78z" />
    <glyph glyph-name="uni1EAB" unicode="&#x1eab;" horiz-adv-x="441" 
d="M361.5 46.5q8.5 -16.5 27.5 -25.5l-10 -32q-31 8 -46.5 28.5t-18.5 57.5q-47 -86 -133 -86q-62 0 -97.5 42.5t-35.5 113.5q0 81 48.5 124t137.5 43h75v64q0 59 -23 88.5t-73 29.5q-30 0 -58.5 -7.5t-62.5 -21.5l-14 33q74 34 138 34q69 0 103 -39.5t34 -113.5v-283
q0 -33 8.5 -49.5zM309 128v149h-71q-143 0 -143 -131q0 -58 24.5 -88.5t67.5 -30.5q82 0 122 101zM115 577l-20 21l105 100h27l106 -100l-21 -21l-98 79zM236 747.5q-12 6.5 -30 18.5q-13 10 -22 14.5t-18 4.5q-14 0 -24 -8.5t-22 -28.5l-27 13q31 60 72 60q13 0 25.5 -6
t27.5 -18q16 -11 25 -15.5t19 -4.5q13 0 23.5 9.5t23.5 32.5l26 -12q-27 -66 -72 -66q-15 0 -27 6.5z" />
    <glyph glyph-name="uni0201" unicode="&#x201;" horiz-adv-x="441" 
d="M361.5 46.5q8.5 -16.5 27.5 -25.5l-10 -32q-31 8 -46.5 28.5t-18.5 57.5q-47 -86 -133 -86q-62 0 -97.5 42.5t-35.5 113.5q0 81 48.5 124t137.5 43h75v64q0 59 -23 88.5t-73 29.5q-30 0 -58.5 -7.5t-62.5 -21.5l-14 33q74 34 138 34q69 0 103 -39.5t34 -113.5v-283
q0 -33 8.5 -49.5zM309 128v149h-71q-143 0 -143 -131q0 -58 24.5 -88.5t67.5 -30.5q82 0 122 101zM122 803l63 -145l-28 -13l-74 138zM224 802l58 -140l-28 -12l-68 132z" />
    <glyph glyph-name="adieresis" unicode="&#xe4;" horiz-adv-x="441" 
d="M361.5 46.5q8.5 -16.5 27.5 -25.5l-10 -32q-31 8 -46.5 28.5t-18.5 57.5q-47 -86 -133 -86q-62 0 -97.5 42.5t-35.5 113.5q0 81 48.5 124t137.5 43h75v64q0 59 -23 88.5t-73 29.5q-30 0 -58.5 -7.5t-62.5 -21.5l-14 33q74 34 138 34q69 0 103 -39.5t34 -113.5v-283
q0 -33 8.5 -49.5zM309 128v149h-71q-143 0 -143 -131q0 -58 24.5 -88.5t67.5 -30.5q82 0 122 101zM162 722.5q9 -9.5 9 -23.5t-9 -23.5t-23 -9.5t-23 9.5t-9 23.5t9 23.5t23 9.5t23 -9.5zM314.5 722.5q9.5 -9.5 9.5 -23.5t-9.5 -23.5t-23.5 -9.5t-23 9.5t-9 23.5t9 23.5
t23 9.5t23.5 -9.5z" />
    <glyph glyph-name="uni01DF" unicode="&#x1df;" horiz-adv-x="441" 
d="M361.5 46.5q8.5 -16.5 27.5 -25.5l-10 -32q-31 8 -46.5 28.5t-18.5 57.5q-47 -86 -133 -86q-62 0 -97.5 42.5t-35.5 113.5q0 81 48.5 124t137.5 43h75v64q0 59 -23 88.5t-73 29.5q-30 0 -58.5 -7.5t-62.5 -21.5l-14 33q74 34 138 34q69 0 103 -39.5t34 -113.5v-283
q0 -33 8.5 -49.5zM309 128v149h-71q-143 0 -143 -131q0 -58 24.5 -88.5t67.5 -30.5q82 0 122 101zM162 692.5q9 -9.5 9 -23.5t-9 -23.5t-23 -9.5t-23 9.5t-9 23.5t9 23.5t23 9.5t23 -9.5zM314.5 692.5q9.5 -9.5 9.5 -23.5t-9.5 -23.5t-23.5 -9.5t-23 9.5t-9 23.5t9 23.5
t23 9.5t23.5 -9.5zM312 767h-193v37h193v-37z" />
    <glyph glyph-name="uni0227" unicode="&#x227;" horiz-adv-x="441" 
d="M361.5 46.5q8.5 -16.5 27.5 -25.5l-10 -32q-31 8 -46.5 28.5t-18.5 57.5q-47 -86 -133 -86q-62 0 -97.5 42.5t-35.5 113.5q0 81 48.5 124t137.5 43h75v64q0 59 -23 88.5t-73 29.5q-30 0 -58.5 -7.5t-62.5 -21.5l-14 33q74 34 138 34q69 0 103 -39.5t34 -113.5v-283
q0 -33 8.5 -49.5zM309 128v149h-71q-143 0 -143 -131q0 -58 24.5 -88.5t67.5 -30.5q82 0 122 101zM239.5 733q9.5 -10 9.5 -24t-9.5 -24t-24.5 -10t-24.5 10t-9.5 24t9.5 24t24.5 10t24.5 -10z" />
    <glyph glyph-name="uni1EA1" unicode="&#x1ea1;" horiz-adv-x="441" 
d="M361.5 46.5q8.5 -16.5 27.5 -25.5l-10 -32q-31 8 -46.5 28.5t-18.5 57.5q-47 -86 -133 -86q-62 0 -97.5 42.5t-35.5 113.5q0 81 48.5 124t137.5 43h75v64q0 59 -23 88.5t-73 29.5q-30 0 -58.5 -7.5t-62.5 -21.5l-14 33q74 34 138 34q69 0 103 -39.5t34 -113.5v-283
q0 -33 8.5 -49.5zM309 128v149h-71q-143 0 -143 -131q0 -58 24.5 -88.5t67.5 -30.5q82 0 122 101zM188.5 -149q-9.5 10 -9.5 24t9.5 24t24.5 10t24.5 -10t9.5 -24t-9.5 -24t-24.5 -10t-24.5 10z" />
    <glyph glyph-name="uni01E1" unicode="&#x1e1;" horiz-adv-x="441" 
d="M361.5 46.5q8.5 -16.5 27.5 -25.5l-10 -32q-31 8 -46.5 28.5t-18.5 57.5q-47 -86 -133 -86q-62 0 -97.5 42.5t-35.5 113.5q0 81 48.5 124t137.5 43h75v64q0 59 -23 88.5t-73 29.5q-30 0 -58.5 -7.5t-62.5 -21.5l-14 33q74 34 138 34q69 0 103 -39.5t34 -113.5v-283
q0 -33 8.5 -49.5zM309 128v149h-71q-143 0 -143 -131q0 -58 24.5 -88.5t67.5 -30.5q82 0 122 101zM240.5 683q9.5 -10 9.5 -24t-9.5 -24t-24.5 -10t-24.5 10t-9.5 24t9.5 24t24.5 10t24.5 -10zM312 754h-193v37h193v-37z" />
    <glyph glyph-name="agrave" unicode="&#xe0;" horiz-adv-x="441" 
d="M361.5 46.5q8.5 -16.5 27.5 -25.5l-10 -32q-31 8 -46.5 28.5t-18.5 57.5q-47 -86 -133 -86q-62 0 -97.5 42.5t-35.5 113.5q0 81 48.5 124t137.5 43h75v64q0 59 -23 88.5t-73 29.5q-30 0 -58.5 -7.5t-62.5 -21.5l-14 33q74 34 138 34q69 0 103 -39.5t34 -113.5v-283
q0 -33 8.5 -49.5zM309 128v149h-71q-143 0 -143 -131q0 -58 24.5 -88.5t67.5 -30.5q82 0 122 101zM154 772l151 -99l-16 -25l-158 84z" />
    <glyph glyph-name="uni1EA3" unicode="&#x1ea3;" horiz-adv-x="441" 
d="M361.5 46.5q8.5 -16.5 27.5 -25.5l-10 -32q-31 8 -46.5 28.5t-18.5 57.5q-47 -86 -133 -86q-62 0 -97.5 42.5t-35.5 113.5q0 81 48.5 124t137.5 43h75v64q0 59 -23 88.5t-73 29.5q-30 0 -58.5 -7.5t-62.5 -21.5l-14 33q74 34 138 34q69 0 103 -39.5t34 -113.5v-283
q0 -33 8.5 -49.5zM309 128v149h-71q-143 0 -143 -131q0 -58 24.5 -88.5t67.5 -30.5q82 0 122 101zM196 697q28 2 42 13t14 36q0 42 -39 42q-14 0 -23.5 -3t-21.5 -10l-14 28q30 20 65 20q34 0 54 -20.5t20 -54.5q0 -65 -60 -74v-55h-37v78z" />
    <glyph glyph-name="uni0203" unicode="&#x203;" horiz-adv-x="441" 
d="M361.5 46.5q8.5 -16.5 27.5 -25.5l-10 -32q-31 8 -46.5 28.5t-18.5 57.5q-47 -86 -133 -86q-62 0 -97.5 42.5t-35.5 113.5q0 81 48.5 124t137.5 43h75v64q0 59 -23 88.5t-73 29.5q-30 0 -58.5 -7.5t-62.5 -21.5l-14 33q74 34 138 34q69 0 103 -39.5t34 -113.5v-283
q0 -33 8.5 -49.5zM309 128v149h-71q-143 0 -143 -131q0 -58 24.5 -88.5t67.5 -30.5q82 0 122 101zM286 708q28 -27 33 -75l-30 -7q-15 72 -74 72q-58 0 -74 -72l-30 7q5 48 33 75t71 27t71 -27z" />
    <glyph glyph-name="uni0251" unicode="&#x251;" horiz-adv-x="477" 
d="M396 56.5q9 -16.5 30 -26.5l-14 -37q-31 11 -46.5 30t-20.5 50q-45 -84 -127 -84q-78 0 -121.5 68.5t-43.5 201.5q0 130 46 201.5t125 71.5q76 0 120 -71l4 61h39v-416q0 -33 9 -49.5zM291.5 52.5q28.5 24.5 50.5 72.5v288q-21 38 -47.5 59t-64.5 21q-59 0 -94 -56.5
t-35 -173.5q0 -235 122 -235q40 0 68.5 24.5z" />
    <glyph glyph-name="uni0252" unicode="&#x252;" horiz-adv-x="477" 
d="M380.5 464.5q43.5 -68.5 43.5 -201.5q0 -130 -46 -201.5t-125 -71.5q-76 0 -120 71l-4 -61h-39v416q0 33 -9 49.5t-30 26.5l14 37q31 -11 46.5 -30t20.5 -50q45 84 127 84q78 0 121.5 -68.5zM341 85.5q35 56.5 35 173.5q0 235 -122 235q-40 0 -68.5 -24.5t-50.5 -72.5
v-288q21 -38 47.5 -59t64.5 -21q59 0 94 56.5z" />
    <glyph glyph-name="amacron" unicode="&#x101;" horiz-adv-x="441" 
d="M361.5 46.5q8.5 -16.5 27.5 -25.5l-10 -32q-31 8 -46.5 28.5t-18.5 57.5q-47 -86 -133 -86q-62 0 -97.5 42.5t-35.5 113.5q0 81 48.5 124t137.5 43h75v64q0 59 -23 88.5t-73 29.5q-30 0 -58.5 -7.5t-62.5 -21.5l-14 33q74 34 138 34q69 0 103 -39.5t34 -113.5v-283
q0 -33 8.5 -49.5zM309 128v149h-71q-143 0 -143 -131q0 -58 24.5 -88.5t67.5 -30.5q82 0 122 101zM312 680h-193v37h193v-37z" />
    <glyph glyph-name="aogonek" unicode="&#x105;" horiz-adv-x="441" 
d="M302 -67q-23 -26 -23 -65q0 -52 53 -52q20 0 47 6l-4 -39q-24 -6 -47 -6q-44 0 -67 24t-23 64q0 43 27.5 75t84.5 62q-32 21 -36 73q-47 -86 -133 -86q-62 0 -97.5 42.5t-35.5 113.5q0 81 48.5 124t137.5 43h75v64q0 59 -23 88.5t-73 29.5q-30 0 -58.5 -7.5t-62.5 -21.5
l-14 33q74 34 138 34q69 0 103 -39.5t34 -113.5v-283q0 -33 8.5 -49.5t27.5 -25.5l-10 -32q-54 -30 -77 -56zM309 128v149h-71q-143 0 -143 -131q0 -58 24.5 -88.5t67.5 -30.5q82 0 122 101z" />
    <glyph glyph-name="aring" unicode="&#xe5;" horiz-adv-x="441" 
d="M361.5 46.5q8.5 -16.5 27.5 -25.5l-10 -32q-31 8 -46.5 28.5t-18.5 57.5q-47 -86 -133 -86q-62 0 -97.5 42.5t-35.5 113.5q0 81 48.5 124t137.5 43h75v64q0 59 -23 88.5t-73 29.5q-30 0 -58.5 -7.5t-62.5 -21.5l-14 33q74 34 138 34q69 0 103 -39.5t34 -113.5v-283
q0 -33 8.5 -49.5zM309 128v149h-71q-143 0 -143 -131q0 -58 24.5 -88.5t67.5 -30.5q82 0 122 101zM273.5 792q21.5 -23 21.5 -66t-21.5 -66.5t-58.5 -23.5q-36 0 -57.5 23.5t-21.5 66.5t21.5 66t57.5 23q37 0 58.5 -23zM170 726q0 -32 11.5 -46.5t33.5 -14.5q23 0 34.5 14
t11.5 47q0 32 -11.5 46t-34.5 14q-45 0 -45 -60z" />
    <glyph glyph-name="aringacute" unicode="&#x1fb;" horiz-adv-x="441" 
d="M302 852l-160 -76l-13 27l152 89zM157.5 744q21.5 23 57.5 23q37 0 58.5 -23t21.5 -66t-21.5 -66.5t-58.5 -23.5q-36 0 -57.5 23.5t-21.5 66.5t21.5 66zM249.5 724q-11.5 14 -34.5 14q-45 0 -45 -60q0 -32 11.5 -46.5t33.5 -14.5q23 0 34.5 14t11.5 47q0 32 -11.5 46z
M361.5 46.5q8.5 -16.5 27.5 -25.5l-10 -32q-31 8 -46.5 28.5t-18.5 57.5q-47 -86 -133 -86q-62 0 -97.5 42.5t-35.5 113.5q0 81 48.5 124t137.5 43h75v64q0 59 -23 88.5t-73 29.5q-30 0 -58.5 -7.5t-62.5 -21.5l-14 33q74 34 138 34q69 0 103 -39.5t34 -113.5v-283
q0 -33 8.5 -49.5zM309 128v149h-71q-143 0 -143 -131q0 -58 24.5 -88.5t67.5 -30.5q82 0 122 101z" />
    <glyph glyph-name="uni2C65" unicode="&#x2c65;" horiz-adv-x="441" 
d="M361.5 46.5q8.5 -16.5 27.5 -25.5l-10 -32q-31 8 -46.5 28.5t-18.5 57.5q-47 -86 -133 -86h-10l-13 -59l-25 5l13 58q-46 11 -72 51.5t-26 100.5q0 77 44 119.5t126 47.5l39 174q-19 8 -44 8q-30 0 -58.5 -7.5t-62.5 -21.5l-14 33q74 34 138 34q29 0 50 -7l15 66l25 -6
l-16 -70q63 -34 63 -136v-283q0 -33 8.5 -49.5zM280 471l-36 -159h65v64q0 66 -29 95zM309 128v149h-71h-2l-56 -250h7q82 0 122 101zM111 71q16 -29 44 -39l55 244q-115 -12 -115 -130q0 -46 16 -75z" />
    <glyph glyph-name="atilde" unicode="&#xe3;" horiz-adv-x="441" 
d="M361.5 46.5q8.5 -16.5 27.5 -25.5l-10 -32q-31 8 -46.5 28.5t-18.5 57.5q-47 -86 -133 -86q-62 0 -97.5 42.5t-35.5 113.5q0 81 48.5 124t137.5 43h75v64q0 59 -23 88.5t-73 29.5q-30 0 -58.5 -7.5t-62.5 -21.5l-14 33q74 34 138 34q69 0 103 -39.5t34 -113.5v-283
q0 -33 8.5 -49.5zM309 128v149h-71q-143 0 -143 -131q0 -58 24.5 -88.5t67.5 -30.5q82 0 122 101zM237 677.5q-12 6.5 -30 18.5q-13 10 -22 14.5t-18 4.5q-14 0 -24 -8.5t-22 -28.5l-27 13q31 60 72 60q13 0 25.5 -6t27.5 -18q16 -11 25 -15.5t19 -4.5q13 0 23.5 9.5
t23.5 32.5l26 -12q-28 -66 -72 -66q-15 0 -27 6.5z" />
    <glyph glyph-name="uni0250" unicode="&#x250;" horiz-adv-x="441" 
d="M286.5 35.5q28.5 7.5 62.5 21.5l14 -33q-74 -34 -138 -34q-69 0 -103 39.5t-34 113.5v283q0 33 -8.5 49.5t-27.5 25.5l10 32q31 -8 46.5 -28.5t18.5 -57.5q47 86 133 86q62 0 97.5 -42.5t35.5 -113.5q0 -81 -48.5 -124t-137.5 -43h-75v-64q0 -59 23 -88.5t73 -29.5
q30 0 58.5 7.5zM132 394v-149h71q143 0 143 131q0 58 -24.5 88.5t-67.5 30.5q-82 0 -122 -101z" />
    <glyph glyph-name="ae" unicode="&#xe6;" horiz-adv-x="695" 
d="M645 241h-289q4 -107 40.5 -159.5t96.5 -52.5q34 0 60 12.5t54 38.5l23 -27q-32 -32 -65 -48t-75 -16q-51 0 -90.5 28t-62.5 81q-35 -58 -71.5 -83.5t-83.5 -25.5q-62 0 -98 43t-36 113q0 80 49 123.5t135 43.5h77v55q0 65 -23 95.5t-77 30.5q-48 0 -116 -29l-12 34
q74 34 133 34q57 0 88 -27t43 -80q45 107 140 107q79 0 120.5 -64.5t41.5 -185.5q0 -21 -2 -41zM602 297q0 96 -29 146t-88 50q-57 0 -91.5 -53.5t-37.5 -162.5h246v20zM260.5 53.5q31.5 26.5 62.5 85.5q-14 53 -14 117v21h-76q-66 0 -102 -33t-36 -98q0 -57 25 -88t69 -31
q40 0 71.5 26.5z" />
    <glyph glyph-name="aeacute" unicode="&#x1fd;" horiz-adv-x="695" 
d="M645 241h-289q4 -107 40.5 -159.5t96.5 -52.5q34 0 60 12.5t54 38.5l23 -27q-32 -32 -65 -48t-75 -16q-51 0 -90.5 28t-62.5 81q-35 -58 -71.5 -83.5t-83.5 -25.5q-62 0 -98 43t-36 113q0 80 49 123.5t135 43.5h77v55q0 65 -23 95.5t-77 30.5q-48 0 -116 -29l-12 34
q74 34 133 34q57 0 88 -27t43 -80q45 107 140 107q79 0 120.5 -64.5t41.5 -185.5q0 -21 -2 -41zM602 297q0 96 -29 146t-88 50q-57 0 -91.5 -53.5t-37.5 -162.5h246v20zM260.5 53.5q31.5 26.5 62.5 85.5q-14 53 -14 117v21h-76q-66 0 -102 -33t-36 -98q0 -57 25 -88t69 -31
q40 0 71.5 26.5zM407 772l23 -40l-159 -84l-16 25z" />
    <glyph glyph-name="uni01E3" unicode="&#x1e3;" horiz-adv-x="695" 
d="M645 241h-289q4 -107 40.5 -159.5t96.5 -52.5q34 0 60 12.5t54 38.5l23 -27q-32 -32 -65 -48t-75 -16q-51 0 -90.5 28t-62.5 81q-35 -58 -71.5 -83.5t-83.5 -25.5q-62 0 -98 43t-36 113q0 80 49 123.5t135 43.5h77v55q0 65 -23 95.5t-77 30.5q-48 0 -116 -29l-12 34
q74 34 133 34q57 0 88 -27t43 -80q45 107 140 107q79 0 120.5 -64.5t41.5 -185.5q0 -21 -2 -41zM602 297q0 96 -29 146t-88 50q-57 0 -91.5 -53.5t-37.5 -162.5h246v20zM260.5 53.5q31.5 26.5 62.5 85.5q-14 53 -14 117v21h-76q-66 0 -102 -33t-36 -98q0 -57 25 -88t69 -31
q40 0 71.5 26.5zM446 680h-193v37h193v-37z" />
    <glyph glyph-name="b" unicode="b" horiz-adv-x="472" 
d="M378.5 465.5q40.5 -66.5 40.5 -201.5q0 -133 -43 -204t-121 -71q-38 0 -70 21.5t-54 56.5l-4 -67h-39v735l45 5v-290q51 82 130 82q75 0 115.5 -66.5zM371 264q0 121 -29 175t-85 54q-39 0 -68 -23.5t-56 -67.5v-289q50 -85 117 -85q121 0 121 236z" />
    <glyph glyph-name="uni1E03" unicode="&#x1e03;" horiz-adv-x="472" 
d="M378.5 465.5q40.5 -66.5 40.5 -201.5q0 -133 -43 -204t-121 -71q-38 0 -70 21.5t-54 56.5l-4 -67h-39v735l45 5v-290q51 82 130 82q75 0 115.5 -66.5zM371 264q0 121 -29 175t-85 54q-39 0 -68 -23.5t-56 -67.5v-289q50 -85 117 -85q121 0 121 236zM272.5 910
q9.5 -10 9.5 -24t-9.5 -24t-24.5 -10t-24.5 10t-9.5 24t9.5 24t24.5 10t24.5 -10z" />
    <glyph glyph-name="uni1E05" unicode="&#x1e05;" horiz-adv-x="472" 
d="M378.5 465.5q40.5 -66.5 40.5 -201.5q0 -133 -43 -204t-121 -71q-38 0 -70 21.5t-54 56.5l-4 -67h-39v735l45 5v-290q51 82 130 82q75 0 115.5 -66.5zM371 264q0 121 -29 175t-85 54q-39 0 -68 -23.5t-56 -67.5v-289q50 -85 117 -85q121 0 121 236zM223.5 -149
q-9.5 10 -9.5 24t9.5 24t24.5 10t24.5 -10t9.5 -24t-9.5 -24t-24.5 -10t-24.5 10z" />
    <glyph glyph-name="uniA7B5" unicode="&#xa7b5;" horiz-adv-x="481" 
d="M390 347.5q49 -50.5 49 -148.5q0 -65 -23.5 -112.5t-62 -72.5t-83.5 -25q-81 0 -137 65v-249l-45 -8v744q0 98 43 149t116 51q67 0 109 -45t42 -127q0 -76 -35 -118.5t-100 -50.5q78 -2 127 -52.5zM356 74.5q36 45.5 36 122.5q0 89 -44.5 136t-124.5 47h-37l5 37h34
q51 0 90 34t39 115q0 70 -29 103t-78 33q-114 0 -114 -162v-442q29 -36 60.5 -52.5t71.5 -16.5q55 0 91 45.5z" />
    <glyph glyph-name="uni0253" unicode="&#x253;" horiz-adv-x="472" 
d="M378.5 465.5q40.5 -66.5 40.5 -201.5q0 -133 -43 -204t-121 -71q-38 0 -70 21.5t-54 56.5l-4 -67h-39v521h-1v94q0 60 31.5 93t86.5 33q52 0 100 -29l-17 -32q-42 22 -79 22q-77 0 -77 -87v-80h1v-85q51 82 130 82q75 0 115.5 -66.5zM371 264q0 121 -29 175t-85 54
q-39 0 -68 -23.5t-56 -67.5v-289q50 -85 117 -85q121 0 121 236z" />
    <glyph glyph-name="uni02AD" unicode="&#x2ad;" horiz-adv-x="275" 
d="M30 400v126h215v-126h-34v90h-146v-90h-35zM30 -1v126h215v-126h-34v90h-146v-90h-35z" />
    <glyph glyph-name="uni0298" unicode="&#x298;" horiz-adv-x="651" 
d="M467.5 654.5q60.5 -39.5 94 -118.5t33.5 -195q0 -113 -33 -192t-94 -119.5t-142 -40.5q-80 0 -141 40t-95 119t-34 192t34 193t95 120.5t141 40.5q81 0 141.5 -39.5zM161 576.5q-60 -78.5 -60 -236.5q0 -155 60.5 -233t164.5 -78q106 0 165 78t59 234q0 158 -59.5 236
t-164.5 78t-165 -78.5zM350.5 365q9.5 -10 9.5 -24t-9.5 -24t-24.5 -10t-24.5 10t-9.5 24t9.5 24t24.5 10t24.5 -10z" />
    <glyph glyph-name="uni02AC" unicode="&#x2ac;" horiz-adv-x="379" 
d="M343 662l-58 -262h-45l-49 225l-51 -225h-45l-59 262h37l46 -230l52 230h40l51 -230l46 230h35zM343 262l-58 -262h-45l-49 225l-51 -225h-45l-59 262h37l46 -230l52 230h40l51 -230l46 230h35z" />
    <glyph glyph-name="uni0180" unicode="&#x180;" horiz-adv-x="476" 
d="M382.5 465.5q40.5 -66.5 40.5 -201.5q0 -133 -43 -204t-121 -71q-38 0 -70 21.5t-54 56.5l-4 -67h-39v620h-62v38h62v77l45 5v-82h138v-38h-138v-170q51 82 130 82q75 0 115.5 -66.5zM375 264q0 121 -29 175t-85 54q-39 0 -68 -23.5t-56 -67.5v-289q50 -85 117 -85
q121 0 121 236z" />
    <glyph glyph-name="uni0183" unicode="&#x183;" horiz-adv-x="472" 
d="M378.5 465.5q40.5 -66.5 40.5 -201.5q0 -133 -43 -204t-121 -71q-38 0 -70 21.5t-54 56.5l-4 -67h-39v735h241l-8 -38h-188v-247q51 82 130 82q75 0 115.5 -66.5zM371 264q0 121 -29 175t-85 54q-39 0 -68 -23.5t-56 -67.5v-289q50 -85 117 -85q121 0 121 236z" />
    <glyph glyph-name="c" unicode="c" horiz-adv-x="378" 
d="M299.5 520q28.5 -12 55.5 -39l-23 -29q-22 21 -44.5 31t-50.5 10q-63 0 -99.5 -57t-36.5 -178q0 -119 35.5 -174t99.5 -55q53 0 99 43l23 -27q-54 -56 -122 -56q-86 0 -134.5 67.5t-48.5 201.5q0 133 49 203.5t134 70.5q35 0 63.5 -12z" />
    <glyph glyph-name="cacute" unicode="&#x107;" horiz-adv-x="378" 
d="M299.5 520q28.5 -12 55.5 -39l-23 -29q-22 21 -44.5 31t-50.5 10q-63 0 -99.5 -57t-36.5 -178q0 -119 35.5 -174t99.5 -55q53 0 99 43l23 -27q-54 -56 -122 -56q-86 0 -134.5 67.5t-48.5 201.5q0 133 49 203.5t134 70.5q35 0 63.5 -12zM293 772l23 -40l-159 -84l-16 25z
" />
    <glyph glyph-name="cacute.loclPLK" horiz-adv-x="378" 
d="M299.5 520q28.5 -12 55.5 -39l-23 -29q-22 21 -44.5 31t-50.5 10q-63 0 -99.5 -57t-36.5 -178q0 -119 35.5 -174t99.5 -55q53 0 99 43l23 -27q-54 -56 -122 -56q-86 0 -134.5 67.5t-48.5 201.5q0 133 49 203.5t134 70.5q35 0 63.5 -12zM286 757l38 -26l-98 -153l-23 16z
" />
    <glyph glyph-name="ccaron" unicode="&#x10d;" horiz-adv-x="378" 
d="M299.5 520q28.5 -12 55.5 -39l-23 -29q-22 21 -44.5 31t-50.5 10q-63 0 -99.5 -57t-36.5 -178q0 -119 35.5 -174t99.5 -55q53 0 99 43l23 -27q-54 -56 -122 -56q-86 0 -134.5 67.5t-48.5 201.5q0 133 49 203.5t134 70.5q35 0 63.5 -12zM334 761l20 -20l-106 -106h-27
l-105 106l20 20l99 -86z" />
    <glyph glyph-name="ccedilla" unicode="&#xe7;" horiz-adv-x="378" 
d="M245 -11v-57q76 -10 76 -74q0 -37 -24.5 -58.5t-59.5 -21.5q-36 0 -65 20l17 28q22 -14 47 -14q20 0 33 12t13 34q0 24 -18 35.5t-56 11.5l5 85q-76 8 -118 76t-42 192q0 133 49 203.5t134 70.5q35 0 63.5 -12t55.5 -39l-23 -29q-22 21 -44.5 31t-50.5 10
q-63 0 -99.5 -57t-36.5 -178q0 -119 35.5 -174t99.5 -55q53 0 99 43l23 -27q-50 -52 -113 -56z" />
    <glyph glyph-name="ccircumflex" unicode="&#x109;" horiz-adv-x="378" 
d="M299.5 520q28.5 -12 55.5 -39l-23 -29q-22 21 -44.5 31t-50.5 10q-63 0 -99.5 -57t-36.5 -178q0 -119 35.5 -174t99.5 -55q53 0 99 43l23 -27q-54 -56 -122 -56q-86 0 -134.5 67.5t-48.5 201.5q0 133 49 203.5t134 70.5q35 0 63.5 -12zM136 649l-20 20l105 106h27
l106 -106l-21 -20l-98 85z" />
    <glyph glyph-name="uni0255" unicode="&#x255;" horiz-adv-x="393" 
d="M347 183q24 -27 24 -71q0 -56 -35.5 -89.5t-96.5 -33.5q-42 0 -77 20l-25 -70l-32 12l28 76q-39 33 -59.5 91.5t-20.5 139.5q0 133 49 203.5t134 70.5q35 0 63.5 -12t55.5 -39l-23 -29q-22 21 -44.5 31t-50.5 10q-63 0 -99.5 -57t-36.5 -178q0 -131 50 -189q26 75 57 108
t74 33q41 0 65 -27zM306.5 49.5q25.5 19.5 25.5 62.5q0 30 -13 46.5t-39 16.5q-32 0 -55 -28.5t-48 -99.5q28 -17 65 -17q39 0 64.5 19.5z" />
    <glyph glyph-name="cdotaccent" unicode="&#x10b;" horiz-adv-x="378" 
d="M299.5 520q28.5 -12 55.5 -39l-23 -29q-22 21 -44.5 31t-50.5 10q-63 0 -99.5 -57t-36.5 -178q0 -119 35.5 -174t99.5 -55q53 0 99 43l23 -27q-54 -56 -122 -56q-86 0 -134.5 67.5t-48.5 201.5q0 133 49 203.5t134 70.5q35 0 63.5 -12zM259.5 733q9.5 -10 9.5 -24
t-9.5 -24t-24.5 -10t-24.5 10t-9.5 24t9.5 24t24.5 10t24.5 -10z" />
    <glyph glyph-name="uni0188" unicode="&#x188;" horiz-adv-x="378" 
d="M492 708l-21 -28q-15 11 -29 16.5t-31 5.5q-27 0 -41.5 -17.5t-14.5 -58.5v-145l-21 -25q-25 18 -47.5 27.5t-49.5 9.5q-63 0 -99.5 -57t-36.5 -178q0 -119 35.5 -174t99.5 -55q53 0 99 43l23 -27q-54 -56 -122 -56q-86 0 -134.5 67.5t-48.5 201.5q0 133 49 203.5
t134 70.5q43 0 75 -21v115q0 55 26.5 85t70.5 30q45 0 84 -33z" />
    <glyph glyph-name="uni0297" unicode="&#x297;" horiz-adv-x="396" 
d="M316.5 520q28.5 -12 55.5 -39l-23 -29q-22 21 -44 31t-51 10q-63 0 -100 -83.5t-37 -249.5q0 -164 37 -245.5t101 -81.5q50 0 97 42l23 -27q-53 -55 -121 -55q-87 0 -136 93.5t-49 272.5t49.5 276t134.5 97q35 0 63.5 -12z" />
    <glyph glyph-name="uni023C" unicode="&#x23c;" horiz-adv-x="378" 
d="M358 45q-54 -56 -122 -56q-32 0 -59 9l-15 -68l-25 5l17 74q-48 27 -74.5 89.5t-26.5 159.5q0 133 49 203.5t134 70.5q18 0 34 -3l14 62l25 -6l-14 -63q31 -12 60 -41l-23 -29q-23 22 -46 31l-100 -444q21 -10 50 -10q53 0 99 43zM163 53l99 438q-16 2 -25 2
q-63 0 -99.5 -57t-36.5 -178q0 -153 62 -205z" />
    <glyph glyph-name="d" unicode="d" horiz-adv-x="475" 
d="M388 735v-735h-41l-3 79q-46 -90 -128 -90q-76 0 -119.5 70.5t-43.5 199.5q0 83 21 145t59.5 95t89.5 33q74 0 120 -71v280zM291.5 54.5q29.5 26.5 51.5 78.5v276q-46 84 -115 84q-58 0 -92.5 -58.5t-34.5 -171.5q0 -116 31.5 -175.5t88.5 -59.5q41 0 70.5 26.5z" />
    <glyph glyph-name="eth" unicode="&#xf0;" horiz-adv-x="456" 
d="M365 511.5q33 -89.5 33 -225.5q0 -146 -47 -221.5t-127 -75.5q-79 0 -125 65t-46 178q0 64 19 117.5t55.5 85t86.5 31.5q40 0 72 -19.5t61 -58.5q-9 80 -34.5 139t-75.5 108l-65 -79l-33 14l71 87q-50 36 -102 49l9 36q56 -14 118 -57l57 71l29 -21l-58 -72
q69 -62 102 -151.5zM318 94.5q34 66.5 34 193.5q0 32 -1 45q-56 94 -132 94q-57 0 -88 -54t-31 -142q0 -98 32.5 -150.5t91.5 -52.5q60 0 94 66.5z" />
    <glyph glyph-name="uni0238" unicode="&#x238;" horiz-adv-x="693" 
d="M601.5 466.5q38.5 -65.5 38.5 -202.5q0 -135 -40.5 -205t-111.5 -70q-38 0 -68.5 24t-49.5 58l-5 -71h-34l-4 72q-21 -36 -50.5 -59.5t-68.5 -23.5q-71 0 -113 68.5t-42 201.5q0 130 43 201.5t118 71.5q66 0 112 -73v276l45 6v-285q51 76 121 76q71 0 109.5 -65.5z
M276 52.5q27 24.5 50 70.5v290q-26 39 -50 59.5t-56 20.5q-53 0 -86 -57t-33 -172q0 -121 30 -178.5t82 -57.5q36 0 63 24.5zM564 85q29 57 29 179q0 123 -27.5 176t-80.5 53q-35 0 -61.5 -21t-52.5 -60v-287q45 -97 112 -97q52 0 81 57z" />
    <glyph glyph-name="dcaron" unicode="&#x10f;" horiz-adv-x="475" 
d="M388 735v-735h-41l-3 79q-46 -90 -128 -90q-76 0 -119.5 70.5t-43.5 199.5q0 83 21 145t59.5 95t89.5 33q74 0 120 -71v280zM291.5 54.5q29.5 26.5 51.5 78.5v276q-46 84 -115 84q-58 0 -92.5 -58.5t-34.5 -171.5q0 -116 31.5 -175.5t88.5 -59.5q41 0 70.5 26.5zM465 578
l30 156l-42 5l-16 -157z" />
    <glyph glyph-name="uni1E13" unicode="&#x1e13;" horiz-adv-x="475" 
d="M388 735v-735h-41l-3 79q-46 -90 -128 -90q-76 0 -119.5 70.5t-43.5 199.5q0 83 21 145t59.5 95t89.5 33q74 0 120 -71v280zM291.5 54.5q29.5 26.5 51.5 78.5v276q-46 84 -115 84q-58 0 -92.5 -58.5t-34.5 -171.5q0 -116 31.5 -175.5t88.5 -59.5q41 0 70.5 26.5z
M146 -196l-20 20l105 106h27l106 -106l-21 -20l-98 85z" />
    <glyph glyph-name="dcroat" unicode="&#x111;" horiz-adv-x="479" 
d="M449 658v-38h-61v-620h-41l-3 79q-46 -90 -128 -90q-76 0 -119.5 70.5t-43.5 199.5q0 83 21 145t59.5 95t89.5 33q74 0 120 -71v159h-135v38h135v83l45 -6v-77h61zM291.5 54.5q29.5 26.5 51.5 78.5v276q-46 84 -115 84q-58 0 -92.5 -58.5t-34.5 -171.5
q0 -116 31.5 -175.5t88.5 -59.5q41 0 70.5 26.5z" />
    <glyph glyph-name="uni0221" unicode="&#x221;" horiz-adv-x="559" 
d="M559 168q23 -25 23 -64q0 -52 -33.5 -83.5t-85.5 -31.5q-41 0 -72 22l-31 -72l-30 14l36 83q-14 21 -20 48q-45 -95 -130 -95q-76 0 -119.5 70.5t-43.5 199.5q0 83 21 145t59.5 95t89.5 33q74 0 120 -71v280l45 -6v-622q0 -10 2 -24q21 52 46.5 78t63.5 26q36 0 59 -25z
M291.5 54.5q29.5 26.5 51.5 78.5v276q-46 84 -115 84q-58 0 -92.5 -58.5t-34.5 -171.5q0 -116 31.5 -175.5t88.5 -59.5q41 0 70.5 26.5zM521 49q21 20 21 55q0 24 -12 38.5t-33 14.5q-27 0 -44.5 -22.5t-44.5 -84.5q18 -21 57 -21q35 0 56 20z" />
    <glyph glyph-name="uni1E0B" unicode="&#x1e0b;" horiz-adv-x="475" 
d="M388 735v-735h-41l-3 79q-46 -90 -128 -90q-76 0 -119.5 70.5t-43.5 199.5q0 83 21 145t59.5 95t89.5 33q74 0 120 -71v280zM291.5 54.5q29.5 26.5 51.5 78.5v276q-46 84 -115 84q-58 0 -92.5 -58.5t-34.5 -171.5q0 -116 31.5 -175.5t88.5 -59.5q41 0 70.5 26.5z
M256.5 910q9.5 -10 9.5 -24t-9.5 -24t-24.5 -10t-24.5 10t-9.5 24t9.5 24t24.5 10t24.5 -10z" />
    <glyph glyph-name="uni1E0D" unicode="&#x1e0d;" horiz-adv-x="475" 
d="M388 735v-735h-41l-3 79q-46 -90 -128 -90q-76 0 -119.5 70.5t-43.5 199.5q0 83 21 145t59.5 95t89.5 33q74 0 120 -71v280zM291.5 54.5q29.5 26.5 51.5 78.5v276q-46 84 -115 84q-58 0 -92.5 -58.5t-34.5 -171.5q0 -116 31.5 -175.5t88.5 -59.5q41 0 70.5 26.5z
M219.5 -149q-9.5 10 -9.5 24t9.5 24t24.5 10t24.5 -10t9.5 -24t-9.5 -24t-24.5 -10t-24.5 10z" />
    <glyph glyph-name="uni018D" unicode="&#x18d;" horiz-adv-x="464" 
d="M346 -4q21 -30 21 -73q0 -56 -38 -93.5t-102 -37.5q-38 0 -68.5 11.5t-60.5 35.5l23 29q27 -20 50.5 -28.5t55.5 -8.5q45 0 69.5 24.5t24.5 67.5q0 27 -9 45.5t-32.5 35.5t-68.5 38q-84 39 -121 96t-37 158q0 111 47.5 173.5t133.5 62.5q83 0 130 -60.5t47 -174.5
q0 -90 -35 -151t-99 -95q48 -25 69 -55zM113 192.5q13 -40.5 44 -70t88 -55.5q119 64 119 230q0 97 -33.5 146.5t-96.5 49.5q-66 0 -100 -49.5t-34 -147.5q0 -63 13 -103.5z" />
    <glyph glyph-name="uni02A4" unicode="&#x2a4;" horiz-adv-x="735" 
d="M708 3q0 -92 -48 -148.5t-131 -56.5q-51 0 -89.5 21t-70.5 63l28 24q31 -37 61.5 -53t69.5 -16q65 0 99 44.5t34 122.5q0 82 -36.5 119t-114.5 37h-50v37l179 285h-251v-482h-41l-3 79q-46 -90 -128 -90q-76 0 -119.5 70.5t-43.5 199.5q0 83 21 145t59.5 95t89.5 33
q74 0 120 -71v280l45 -6v-213h300v-36l-183 -288h8q195 0 195 -195zM291.5 54.5q29.5 26.5 51.5 78.5v276q-46 84 -115 84q-58 0 -92.5 -58.5t-34.5 -171.5q0 -116 31.5 -175.5t88.5 -59.5q41 0 70.5 26.5z" />
    <glyph glyph-name="uni0257" unicode="&#x257;" horiz-adv-x="475" 
d="M524 708l-20 -28q-15 11 -29 16.5t-31 5.5q-57 0 -57 -76v-104h1v-522h-41l-3 79q-46 -90 -128 -90q-76 0 -119.5 70.5t-43.5 199.5q0 83 21 145t59.5 95t89.5 33q74 0 120 -71v60h-1v105q0 56 27 85.5t72 29.5q46 0 83 -33zM291.5 54.5q29.5 26.5 51.5 78.5v276
q-46 84 -115 84q-58 0 -92.5 -58.5t-34.5 -171.5q0 -116 31.5 -175.5t88.5 -59.5q41 0 70.5 26.5z" />
    <glyph glyph-name="uni1E0F" unicode="&#x1e0f;" horiz-adv-x="475" 
d="M388 735v-735h-41l-3 79q-46 -90 -128 -90q-76 0 -119.5 70.5t-43.5 199.5q0 83 21 145t59.5 95t89.5 33q74 0 120 -71v280zM291.5 54.5q29.5 26.5 51.5 78.5v276q-46 84 -115 84q-58 0 -92.5 -58.5t-34.5 -171.5q0 -116 31.5 -175.5t88.5 -59.5q41 0 70.5 26.5z
M342 -152h-193v37h193v-37z" />
    <glyph glyph-name="uni0256" unicode="&#x256;" horiz-adv-x="475" 
d="M526 -170q-34 -32 -85 -32q-44 0 -71 28t-27 80v171q-44 -88 -127 -88q-76 0 -119.5 70.5t-43.5 199.5q0 83 21 145t59.5 95t89.5 33q74 0 120 -71v280l45 -6v-830q0 -69 55 -69q34 0 61 23zM291.5 54.5q29.5 26.5 51.5 78.5v276q-46 84 -115 84q-58 0 -92.5 -58.5
t-34.5 -171.5q0 -116 31.5 -175.5t88.5 -59.5q41 0 70.5 26.5z" />
    <glyph glyph-name="uni018C" unicode="&#x18c;" horiz-adv-x="475" 
d="M388 0h-41l-3 79q-46 -90 -128 -90q-76 0 -119.5 70.5t-43.5 199.5q0 83 21 145t59.5 95t89.5 33q74 0 120 -71v236h-193v38h238v-735zM291.5 54.5q29.5 26.5 51.5 78.5v276q-46 84 -115 84q-58 0 -92.5 -58.5t-34.5 -171.5q0 -116 31.5 -175.5t88.5 -59.5
q41 0 70.5 26.5z" />
    <glyph glyph-name="uni01F3" unicode="&#x1f3;" horiz-adv-x="820" 
d="M388 735v-735h-41l-3 79q-46 -90 -128 -90q-76 0 -119.5 70.5t-43.5 199.5q0 83 21 145t59.5 95t89.5 33q74 0 120 -71v280zM291.5 54.5q29.5 26.5 51.5 78.5v276q-46 84 -115 84q-58 0 -92.5 -58.5t-34.5 -171.5q0 -116 31.5 -175.5t88.5 -59.5q41 0 70.5 26.5zM792 522
v-36l-246 -446h244l-5 -40h-288v36l247 446h-227v40h275z" />
    <glyph glyph-name="uni02A3" unicode="&#x2a3;" horiz-adv-x="718" 
d="M690 486l-254 -446h251l-4 -40h-336l-3 79q-46 -90 -128 -90q-76 0 -119.5 70.5t-43.5 199.5q0 83 21 145t59.5 95t89.5 33q74 0 120 -71v280l45 -6v-213h302v-36zM291.5 54.5q29.5 26.5 51.5 78.5v276q-46 84 -115 84q-58 0 -92.5 -58.5t-34.5 -171.5
q0 -116 31.5 -175.5t88.5 -59.5q41 0 70.5 26.5zM388 36l253 446h-253v-446z" />
    <glyph glyph-name="uni01C6" unicode="&#x1c6;" horiz-adv-x="820" 
d="M388 735v-735h-41l-3 79q-46 -90 -128 -90q-76 0 -119.5 70.5t-43.5 199.5q0 83 21 145t59.5 95t89.5 33q74 0 120 -71v280zM291.5 54.5q29.5 26.5 51.5 78.5v276q-46 84 -115 84q-58 0 -92.5 -58.5t-34.5 -171.5q0 -116 31.5 -175.5t88.5 -59.5q41 0 70.5 26.5zM792 522
v-36l-246 -446h244l-5 -40h-288v36l247 446h-227v40h275zM752 761l20 -20l-106 -106h-27l-105 106l20 20l99 -86z" />
    <glyph glyph-name="uni02A5" unicode="&#x2a5;" horiz-adv-x="729" 
d="M708 27.5q-37 -25.5 -117 -27.5q-2 -37 -2 -107h-34l-1 39q0 33 3 68h-210l-3 79q-46 -90 -128 -90q-76 0 -119.5 70.5t-43.5 199.5q0 83 21 145t59.5 95t89.5 33q74 0 120 -71v280l45 -6v-213h302v-36l-256 -446h126q7 79 34 119t72 40q35 0 57 -24t22 -65
q0 -57 -37 -82.5zM291.5 54.5q29.5 26.5 51.5 78.5v276q-46 84 -115 84q-58 0 -92.5 -58.5t-34.5 -171.5q0 -116 31.5 -175.5t88.5 -59.5q41 0 70.5 26.5zM388 482v-443l254 443h-254zM681.5 55.5q24.5 15.5 24.5 54.5q0 26 -10.5 40.5t-30.5 14.5q-28 0 -46 -28.5
t-24 -96.5q62 0 86.5 15.5z" />
    <glyph glyph-name="e" unicode="e" horiz-adv-x="439" 
d="M389 241h-290q8 -212 137 -212q34 0 60 12t54 38l24 -27q-30 -31 -63.5 -47t-74.5 -16q-86 0 -134.5 68.5t-48.5 199.5q0 133 46.5 204t127.5 71t122.5 -64t41.5 -186q0 -21 -2 -41zM347 297q0 196 -120 196q-56 0 -90.5 -51.5t-37.5 -164.5h248v20z" />
    <glyph glyph-name="eacute" unicode="&#xe9;" horiz-adv-x="439" 
d="M389 241h-290q8 -212 137 -212q34 0 60 12t54 38l24 -27q-30 -31 -63.5 -47t-74.5 -16q-86 0 -134.5 68.5t-48.5 199.5q0 133 46.5 204t127.5 71t122.5 -64t41.5 -186q0 -21 -2 -41zM347 297q0 196 -120 196q-56 0 -90.5 -51.5t-37.5 -164.5h248v20zM285 772l23 -40
l-159 -84l-16 25z" />
    <glyph glyph-name="ebreve" unicode="&#x115;" horiz-adv-x="439" 
d="M389 241h-290q8 -212 137 -212q34 0 60 12t54 38l24 -27q-30 -31 -63.5 -47t-74.5 -16q-86 0 -134.5 68.5t-48.5 199.5q0 133 46.5 204t127.5 71t122.5 -64t41.5 -186q0 -21 -2 -41zM347 297q0 196 -120 196q-56 0 -90.5 -51.5t-37.5 -164.5h248v20zM156 684
q-28 27 -33 75l30 7q16 -72 74 -72q59 0 74 72l30 -7q-5 -48 -33 -75t-71 -27t-71 27z" />
    <glyph glyph-name="ecaron" unicode="&#x11b;" horiz-adv-x="439" 
d="M389 241h-290q8 -212 137 -212q34 0 60 12t54 38l24 -27q-30 -31 -63.5 -47t-74.5 -16q-86 0 -134.5 68.5t-48.5 199.5q0 133 46.5 204t127.5 71t122.5 -64t41.5 -186q0 -21 -2 -41zM347 297q0 196 -120 196q-56 0 -90.5 -51.5t-37.5 -164.5h248v20zM326 761l20 -20
l-106 -106h-27l-105 106l20 20l99 -86z" />
    <glyph glyph-name="uni0229" unicode="&#x229;" horiz-adv-x="439" 
d="M389 241h-290q8 -212 137 -212q34 0 60 12t54 38l24 -27q-56 -57 -125 -63v-57q76 -10 76 -74q0 -37 -24.5 -58.5t-59.5 -21.5q-36 0 -65 20l17 28q22 -14 47 -14q20 0 33 12t13 34q0 24 -18 35.5t-56 11.5l5 85q-77 7 -120.5 75t-43.5 192q0 133 46.5 204t127.5 71
t122.5 -64t41.5 -186q0 -21 -2 -41zM347 297q0 196 -120 196q-56 0 -90.5 -51.5t-37.5 -164.5h248v20z" />
    <glyph glyph-name="ecircumflex" unicode="&#xea;" horiz-adv-x="439" 
d="M389 241h-290q8 -212 137 -212q34 0 60 12t54 38l24 -27q-30 -31 -63.5 -47t-74.5 -16q-86 0 -134.5 68.5t-48.5 199.5q0 133 46.5 204t127.5 71t122.5 -64t41.5 -186q0 -21 -2 -41zM347 297q0 196 -120 196q-56 0 -90.5 -51.5t-37.5 -164.5h248v20zM128 649l-20 20
l105 106h27l106 -106l-21 -20l-98 85z" />
    <glyph glyph-name="uni1EBF" unicode="&#x1ebf;" horiz-adv-x="439" 
d="M389 241h-290q8 -212 137 -212q34 0 60 12t54 38l24 -27q-30 -31 -63.5 -47t-74.5 -16q-86 0 -134.5 68.5t-48.5 199.5q0 133 46.5 204t127.5 71t122.5 -64t41.5 -186q0 -21 -2 -41zM347 297q0 196 -120 196q-56 0 -90.5 -51.5t-37.5 -164.5h248v20zM127 587l-20 21
l105 100h27l106 -100l-21 -21l-98 79zM386 831l35 -27l-102 -121l-22 18z" />
    <glyph glyph-name="uni1EC7" unicode="&#x1ec7;" horiz-adv-x="439" 
d="M389 241h-290q8 -212 137 -212q34 0 60 12t54 38l24 -27q-30 -31 -63.5 -47t-74.5 -16q-86 0 -134.5 68.5t-48.5 199.5q0 133 46.5 204t127.5 71t122.5 -64t41.5 -186q0 -21 -2 -41zM347 297q0 196 -120 196q-56 0 -90.5 -51.5t-37.5 -164.5h248v20zM128 649l-20 20
l105 106h27l106 -106l-21 -20l-98 85zM212.5 -149q-9.5 10 -9.5 24t9.5 24t24.5 10t24.5 -10t9.5 -24t-9.5 -24t-24.5 -10t-24.5 10z" />
    <glyph glyph-name="uni1EC1" unicode="&#x1ec1;" horiz-adv-x="439" 
d="M389 241h-290q8 -212 137 -212q34 0 60 12t54 38l24 -27q-30 -31 -63.5 -47t-74.5 -16q-86 0 -134.5 68.5t-48.5 199.5q0 133 46.5 204t127.5 71t122.5 -64t41.5 -186q0 -21 -2 -41zM347 297q0 196 -120 196q-56 0 -90.5 -51.5t-37.5 -164.5h248v20zM127 587l-20 21
l105 100h27l106 -100l-21 -21l-98 79zM69 831l90 -130l-23 -18l-101 121z" />
    <glyph glyph-name="uni1EC3" unicode="&#x1ec3;" horiz-adv-x="439" 
d="M389 241h-290q8 -212 137 -212q34 0 60 12t54 38l24 -27q-30 -31 -63.5 -47t-74.5 -16q-86 0 -134.5 68.5t-48.5 199.5q0 133 46.5 204t127.5 71t122.5 -64t41.5 -186q0 -21 -2 -41zM347 297q0 196 -120 196q-56 0 -90.5 -51.5t-37.5 -164.5h248v20zM127 587l-20 21
l105 100h27l106 -100l-21 -21l-98 79zM308 756q28 2 42 13t14 36q0 42 -39 42q-14 0 -23.5 -3t-21.5 -10l-14 28q30 20 65 20q34 0 54 -20.5t20 -54.5q0 -65 -60 -74v-55h-37v78z" />
    <glyph glyph-name="uni1EC5" unicode="&#x1ec5;" horiz-adv-x="439" 
d="M389 241h-290q8 -212 137 -212q34 0 60 12t54 38l24 -27q-30 -31 -63.5 -47t-74.5 -16q-86 0 -134.5 68.5t-48.5 199.5q0 133 46.5 204t127.5 71t122.5 -64t41.5 -186q0 -21 -2 -41zM347 297q0 196 -120 196q-56 0 -90.5 -51.5t-37.5 -164.5h248v20zM127 577l-20 21
l105 100h27l106 -100l-21 -21l-98 79zM248 747.5q-12 6.5 -30 18.5q-13 10 -22 14.5t-18 4.5q-14 0 -24 -8.5t-22 -28.5l-27 13q31 60 72 60q13 0 25.5 -6t27.5 -18q16 -11 25 -15.5t19 -4.5q13 0 23.5 9.5t23.5 32.5l26 -12q-27 -66 -72 -66q-15 0 -27 6.5z" />
    <glyph glyph-name="uni0205" unicode="&#x205;" horiz-adv-x="439" 
d="M389 241h-290q8 -212 137 -212q34 0 60 12t54 38l24 -27q-30 -31 -63.5 -47t-74.5 -16q-86 0 -134.5 68.5t-48.5 199.5q0 133 46.5 204t127.5 71t122.5 -64t41.5 -186q0 -21 -2 -41zM347 297q0 196 -120 196q-56 0 -90.5 -51.5t-37.5 -164.5h248v20zM134 803l63 -145
l-28 -13l-74 138zM236 802l58 -140l-28 -12l-68 132z" />
    <glyph glyph-name="edieresis" unicode="&#xeb;" horiz-adv-x="439" 
d="M389 241h-290q8 -212 137 -212q34 0 60 12t54 38l24 -27q-30 -31 -63.5 -47t-74.5 -16q-86 0 -134.5 68.5t-48.5 199.5q0 133 46.5 204t127.5 71t122.5 -64t41.5 -186q0 -21 -2 -41zM347 297q0 196 -120 196q-56 0 -90.5 -51.5t-37.5 -164.5h248v20zM174 722.5
q9 -9.5 9 -23.5t-9 -23.5t-23 -9.5t-23 9.5t-9 23.5t9 23.5t23 9.5t23 -9.5zM326.5 722.5q9.5 -9.5 9.5 -23.5t-9.5 -23.5t-23.5 -9.5t-23 9.5t-9 23.5t9 23.5t23 9.5t23.5 -9.5z" />
    <glyph glyph-name="edotaccent" unicode="&#x117;" horiz-adv-x="439" 
d="M389 241h-290q8 -212 137 -212q34 0 60 12t54 38l24 -27q-30 -31 -63.5 -47t-74.5 -16q-86 0 -134.5 68.5t-48.5 199.5q0 133 46.5 204t127.5 71t122.5 -64t41.5 -186q0 -21 -2 -41zM347 297q0 196 -120 196q-56 0 -90.5 -51.5t-37.5 -164.5h248v20zM251.5 733
q9.5 -10 9.5 -24t-9.5 -24t-24.5 -10t-24.5 10t-9.5 24t9.5 24t24.5 10t24.5 -10z" />
    <glyph glyph-name="uni1EB9" unicode="&#x1eb9;" horiz-adv-x="439" 
d="M389 241h-290q8 -212 137 -212q34 0 60 12t54 38l24 -27q-30 -31 -63.5 -47t-74.5 -16q-86 0 -134.5 68.5t-48.5 199.5q0 133 46.5 204t127.5 71t122.5 -64t41.5 -186q0 -21 -2 -41zM347 297q0 196 -120 196q-56 0 -90.5 -51.5t-37.5 -164.5h248v20zM212.5 -149
q-9.5 10 -9.5 24t9.5 24t24.5 10t24.5 -10t9.5 -24t-9.5 -24t-24.5 -10t-24.5 10z" />
    <glyph glyph-name="egrave" unicode="&#xe8;" horiz-adv-x="439" 
d="M389 241h-290q8 -212 137 -212q34 0 60 12t54 38l24 -27q-30 -31 -63.5 -47t-74.5 -16q-86 0 -134.5 68.5t-48.5 199.5q0 133 46.5 204t127.5 71t122.5 -64t41.5 -186q0 -21 -2 -41zM347 297q0 196 -120 196q-56 0 -90.5 -51.5t-37.5 -164.5h248v20zM166 772l151 -99
l-16 -25l-158 84z" />
    <glyph glyph-name="uni1EBB" unicode="&#x1ebb;" horiz-adv-x="439" 
d="M389 241h-290q8 -212 137 -212q34 0 60 12t54 38l24 -27q-30 -31 -63.5 -47t-74.5 -16q-86 0 -134.5 68.5t-48.5 199.5q0 133 46.5 204t127.5 71t122.5 -64t41.5 -186q0 -21 -2 -41zM347 297q0 196 -120 196q-56 0 -90.5 -51.5t-37.5 -164.5h248v20zM208 697q28 2 42 13
t14 36q0 42 -39 42q-14 0 -23.5 -3t-21.5 -10l-14 28q30 20 65 20q34 0 54 -20.5t20 -54.5q0 -65 -60 -74v-55h-37v78z" />
    <glyph glyph-name="uni0207" unicode="&#x207;" horiz-adv-x="439" 
d="M389 241h-290q8 -212 137 -212q34 0 60 12t54 38l24 -27q-30 -31 -63.5 -47t-74.5 -16q-86 0 -134.5 68.5t-48.5 199.5q0 133 46.5 204t127.5 71t122.5 -64t41.5 -186q0 -21 -2 -41zM347 297q0 196 -120 196q-56 0 -90.5 -51.5t-37.5 -164.5h248v20zM298 708
q28 -27 33 -75l-30 -7q-15 72 -74 72q-58 0 -74 -72l-30 7q5 48 33 75t71 27t71 -27z" />
    <glyph glyph-name="emacron" unicode="&#x113;" horiz-adv-x="439" 
d="M389 241h-290q8 -212 137 -212q34 0 60 12t54 38l24 -27q-30 -31 -63.5 -47t-74.5 -16q-86 0 -134.5 68.5t-48.5 199.5q0 133 46.5 204t127.5 71t122.5 -64t41.5 -186q0 -21 -2 -41zM347 297q0 196 -120 196q-56 0 -90.5 -51.5t-37.5 -164.5h248v20zM324 680h-193v37h193
v-37z" />
    <glyph glyph-name="eogonek" unicode="&#x119;" horiz-adv-x="439" 
d="M389 241h-290q8 -212 137 -212q34 0 60 12t54 38l24 -27q-34 -34 -70 -50q-52 -29 -73.5 -54.5t-21.5 -61.5q0 -25 14 -39.5t40 -14.5q21 0 46 7l-4 -40q-26 -6 -48 -6q-43 0 -66 24.5t-23 63.5q0 65 70 108h-2q-86 0 -134.5 68.5t-48.5 199.5q0 133 46.5 204t127.5 71
t122.5 -64t41.5 -186q0 -21 -2 -41zM347 297q0 196 -120 196q-56 0 -90.5 -51.5t-37.5 -164.5h248v20z" />
    <glyph glyph-name="uni025B" unicode="&#x25b;" horiz-adv-x="376" 
d="M345 486l-21 -29q-25 18 -50 27t-57 9q-48 0 -74.5 -26.5t-26.5 -72.5q0 -45 28 -73.5t75 -28.5h49l-5 -38h-47q-59 0 -87.5 -28t-28.5 -86q0 -53 30 -82t82 -29q38 0 65 12.5t55 37.5l25 -27q-30 -30 -65.5 -46.5t-81.5 -16.5q-70 0 -113.5 40.5t-43.5 110.5
q0 61 30 94.5t81 41.5q-94 25 -94 120q0 63 40 99.5t104 36.5q74 0 131 -46z" />
    <glyph glyph-name="uni029A" unicode="&#x29a;" horiz-adv-x="457" 
d="M97.5 31q-44.5 42 -44.5 119q0 61 29.5 91t84.5 37q-92 21 -92 116q0 63 39.5 100.5t103.5 37.5q88 0 137 -69t49 -203q0 -133 -48 -202t-138 -69q-76 0 -120.5 42zM322.5 85q34.5 56 34.5 175q0 233 -139 233q-46 0 -71.5 -27t-25.5 -72q0 -49 28.5 -75t80.5 -26h21
l3 -37h-30q-60 0 -92 -24.5t-32 -81.5q0 -63 31.5 -92t86.5 -29q70 0 104.5 56z" />
    <glyph glyph-name="uni025C" unicode="&#x25c;" horiz-adv-x="392" 
d="M278 495.5q39 -36.5 39 -99.5q0 -50 -23.5 -78.5t-70.5 -39.5q57 -8 86.5 -38t29.5 -90q0 -77 -44.5 -119t-116.5 -42q-93 0 -158 69l26 26q30 -28 60 -41.5t71 -13.5q53 0 84 29t31 92q0 57 -32 81.5t-98 24.5h-46l3 37h38q57 0 85.5 26.5t28.5 75.5q0 46 -25.5 72
t-70.5 26q-37 0 -62.5 -10t-56.5 -33l-23 28q33 28 67.5 41t77.5 13q61 0 100 -36.5z" />
    <glyph glyph-name="uni025E" unicode="&#x25e;" horiz-adv-x="457" 
d="M101 58q-48 69 -48 202q0 134 49 203t137 69q64 0 103.5 -37.5t39.5 -100.5q0 -95 -92 -116q55 -7 84.5 -37t29.5 -91q0 -77 -44.5 -119t-120.5 -42q-90 0 -138 69zM325.5 58q31.5 29 31.5 92q0 57 -32 81.5t-92 24.5h-30l3 37h21q52 0 80.5 26t28.5 75q0 45 -25.5 72
t-71.5 27q-139 0 -139 -233q0 -119 34.5 -175t104.5 -56q55 0 86.5 29z" />
    <glyph glyph-name="uni025D" unicode="&#x25d;" horiz-adv-x="544" 
d="M571 359q-36 -32 -82 -32q-45 0 -70.5 28t-25.5 80v47l-80 -49q4 -15 4 -37q0 -50 -23.5 -78.5t-70.5 -39.5q57 -8 86.5 -38t29.5 -90q0 -77 -44.5 -119t-116.5 -42q-93 0 -158 69l26 26q30 -28 60 -41.5t71 -13.5q53 0 84 29t31 92q0 57 -32 81.5t-98 24.5h-46l3 37h38
q57 0 85.5 26.5t28.5 75.5q0 46 -25.5 72t-70.5 26q-37 0 -62.5 -10t-56.5 -33l-23 28q33 28 67.5 41t77.5 13q40 0 72.5 -17t49.5 -48l92 55h43v-84q0 -73 56 -73q32 0 59 22z" />
    <glyph glyph-name="uni0258" unicode="&#x258;" horiz-adv-x="439" 
d="M342.5 464q43.5 -68 43.5 -207q0 -130 -49 -199t-133 -69q-42 0 -76 16t-63 47l24 27q27 -26 53 -38t62 -12q128 0 136 212h-290q-2 20 -2 41q0 121 44 185.5t125 64.5q82 0 125.5 -68zM92 277h248q-3 119 -34.5 167.5t-88.5 48.5q-61 0 -93 -50t-32 -146v-20z" />
    <glyph glyph-name="uni0283" unicode="&#x283;" horiz-adv-x="221" 
d="M269 708l-20 -28q-15 11 -29 16.5t-31 5.5q-57 0 -57 -76v-104h1v-616q0 -52 -27 -80t-71 -28q-51 0 -85 32l22 29q27 -23 61 -23q55 0 55 69v616h-1v105q0 56 27 85.5t72 29.5q46 0 83 -33z" />
    <glyph glyph-name="uni0286" unicode="&#x286;" horiz-adv-x="235" 
d="M232 -58l-13 -29q-29 16 -72 32q-1 -68 -32 -107.5t-88 -39.5q-43 0 -68.5 25.5t-25.5 67.5q0 48 30.5 75.5t81.5 27.5q25 0 57 -6v638q0 56 27 85.5t72 29.5q46 0 83 -33l-20 -28q-15 11 -29 16.5t-31 5.5q-57 0 -57 -76v-647q49 -16 85 -37zM102 -52v6q-25 7 -57 7
q-37 0 -55.5 -18t-18.5 -50q0 -28 14.5 -44.5t41.5 -16.5q75 0 75 116z" />
    <glyph glyph-name="uni01AA" unicode="&#x1aa;" horiz-adv-x="235" 
d="M286 -170q-34 -32 -85 -32q-44 0 -71 28t-27 80v94h-1v521q-24 -12 -49 -12q-42 0 -68 29t-26 85t26 87t69 31q44 0 68.5 -28.5t24.5 -77.5v-634h1v-96q0 -69 55 -69q34 0 61 23zM102 559v76q0 68 -48 68q-51 0 -51 -79q0 -43 14 -60t40 -17q23 0 45 12z" />
    <glyph glyph-name="uni0285" unicode="&#x285;" horiz-adv-x="322" 
d="M321 22q-34 -32 -85 -32q-44 0 -71 28t-27 80v319q0 76 -57 76q-17 0 -31 -5.5t-29 -16.5l-20 28q37 33 83 33q45 0 72 -29.5t27 -85.5v-320q0 -69 55 -69q34 0 61 23z" />
    <glyph glyph-name="uni0247" unicode="&#x247;" horiz-adv-x="439" 
d="M228 241l-45 -201q22 -11 53 -11q34 0 60.5 12.5t55.5 38.5l22 -27q-31 -31 -64.5 -47.5t-73.5 -16.5q-32 0 -62 11l-16 -70l-25 5l17 76q-47 28 -72 90t-25 156q0 132 46.5 203.5t127.5 71.5q23 0 39 -4l14 63l25 -6l-15 -66q50 -22 75.5 -82.5t25.5 -154.5
q0 -21 -2 -41h-161zM136.5 441.5q-34.5 -51.5 -37.5 -164.5h111l47 212q-12 4 -30 4q-56 0 -90.5 -51.5zM281 480l-45 -203h111v20q0 145 -66 183zM202 241h-103q6 -139 61 -186z" />
    <glyph glyph-name="uni1EBD" unicode="&#x1ebd;" horiz-adv-x="439" 
d="M389 241h-290q8 -212 137 -212q34 0 60 12t54 38l24 -27q-30 -31 -63.5 -47t-74.5 -16q-86 0 -134.5 68.5t-48.5 199.5q0 133 46.5 204t127.5 71t122.5 -64t41.5 -186q0 -21 -2 -41zM347 297q0 196 -120 196q-56 0 -90.5 -51.5t-37.5 -164.5h248v20zM249 677.5
q-12 6.5 -30 18.5q-13 10 -22 14.5t-18 4.5q-14 0 -24 -8.5t-22 -28.5l-27 13q31 60 72 60q13 0 25.5 -6t27.5 -18q16 -11 25 -15.5t19 -4.5q13 0 23.5 9.5t23.5 32.5l26 -12q-28 -66 -72 -66q-15 0 -27 6.5z" />
    <glyph glyph-name="uni01DD" unicode="&#x1dd;" horiz-adv-x="443" 
d="M347 467.5q43 -64.5 43 -203.5q0 -275 -173 -275q-80 0 -124.5 64.5t-44.5 191.5q0 16 2 36h294q-2 112 -34.5 162t-90.5 50q-34 0 -61.5 -12t-58.5 -37l-22 30q63 58 141 58q86 0 129 -64.5zM311 76.5q32 48.5 33 167.5h-251v-6q0 -210 124 -210q62 0 94 48.5z" />
    <glyph glyph-name="uni0259" unicode="&#x259;" horiz-adv-x="443" 
d="M347 467.5q43 -64.5 43 -203.5q0 -275 -173 -275q-80 0 -124.5 64.5t-44.5 191.5q0 16 2 36h294q-2 112 -34.5 162t-90.5 50q-34 0 -61.5 -12t-58.5 -37l-22 30q63 58 141 58q86 0 129 -64.5zM311 76.5q32 48.5 33 167.5h-251v-6q0 -210 124 -210q62 0 94 48.5z" />
    <glyph glyph-name="uni025A" unicode="&#x25a;" horiz-adv-x="590" 
d="M617 359q-36 -32 -82 -32q-45 0 -70.5 28t-25.5 80v47l-76 -46q27 -63 27 -172q0 -275 -173 -275q-80 0 -124.5 64.5t-44.5 191.5q0 16 2 36h294q-2 112 -34.5 162t-90.5 50q-34 0 -61.5 -12t-58.5 -37l-22 30q63 58 141 58q87 0 129 -65l91 55h43v-84q0 -73 56 -73
q32 0 59 22zM311 76.5q32 48.5 33 167.5h-251v-6q0 -210 124 -210q62 0 94 48.5z" />
    <glyph glyph-name="uni0292" unicode="&#x292;" horiz-adv-x="376" 
d="M349 3q0 -92 -48 -148.5t-131 -56.5q-51 0 -89.5 21t-70.5 63l28 24q31 -37 61.5 -53t69.5 -16q65 0 99 44.5t34 122.5q0 82 -36.5 119t-114.5 37h-50v37l179 285h-252v40h301v-36l-183 -288h8q195 0 195 -195z" />
    <glyph glyph-name="uni01EF" unicode="&#x1ef;" horiz-adv-x="376" 
d="M349 3q0 -92 -48 -148.5t-131 -56.5q-51 0 -89.5 21t-70.5 63l28 24q31 -37 61.5 -53t69.5 -16q65 0 99 44.5t34 122.5q0 82 -36.5 119t-114.5 37h-50v37l179 285h-252v40h301v-36l-183 -288h8q195 0 195 -195zM277 761l20 -20l-106 -106h-27l-105 106l20 20l99 -86z" />
    <glyph glyph-name="uni0293" unicode="&#x293;" horiz-adv-x="376" 
d="M319.5 -112q-29.5 -50 -85.5 -73l21 -55l-32 -14l-23 59q-27 -7 -64 -7q-73 0 -110 30.5t-37 86.5q0 45 24.5 73.5t65.5 28.5q30 0 52.5 -14t43.5 -49.5t44 -100.5q83 36 83 154q0 80 -36.5 116.5t-114.5 36.5h-50v37l179 285h-252v40h301v-36l-183 -288h9
q194 0 194 -191q0 -69 -29.5 -119zM56 -145q28 -18 80 -18q24 0 51 5q-22 56 -38.5 86t-32 42t-35.5 12q-25 0 -39 -17.5t-14 -48.5q0 -43 28 -61z" />
    <glyph glyph-name="uni01B9" unicode="&#x1b9;" horiz-adv-x="376" 
d="M366 -118q-32 -42 -71 -63t-91 -21q-82 0 -129.5 53t-47.5 143q0 96 49 150t146 54h8l-183 288v36h301v-40h-252l179 -285v-37h-50q-77 0 -114 -40.5t-37 -124.5q0 -77 33.5 -117.5t97.5 -40.5q41 0 71.5 16t61.5 53z" />
    <glyph glyph-name="uni01BA" unicode="&#x1ba;" horiz-adv-x="373" 
d="M50.5 -149.5q-23.5 27.5 -23.5 66.5q0 46 33.5 70t107.5 38q49 10 77 22.5t41.5 35.5t13.5 61q0 46 -25 67t-77 21h-104v38l174 212h-242v40h296v-36l-180 -216h57q73 0 110.5 -33t37.5 -94q0 -70 -39 -103.5t-120 -49.5q-46 -10 -69 -18t-34.5 -21t-11.5 -36
q0 -26 14 -44.5t48 -41.5l-14 -32q-47 26 -70.5 53.5z" />
    <glyph glyph-name="f" unicode="f" horiz-adv-x="263" 
d="M157.5 682.5q-19.5 -19.5 -19.5 -62.5v-98h115l-7 -38h-108v-484h-45v484h-73v38h73v101q0 55 31.5 86.5t85.5 31.5q52 0 100 -29l-16 -33q-40 23 -80 23q-37 0 -56.5 -19.5z" />
    <glyph glyph-name="uni1E1F" unicode="&#x1e1f;" horiz-adv-x="263" 
d="M157.5 682.5q-19.5 -19.5 -19.5 -62.5v-98h115l-7 -38h-108v-484h-45v484h-73v38h73v101q0 55 31.5 86.5t85.5 31.5q52 0 100 -29l-16 -33q-40 23 -80 23q-37 0 -56.5 -19.5zM234.5 910q9.5 -10 9.5 -24t-9.5 -24t-24.5 -10t-24.5 10t-9.5 24t9.5 24t24.5 10t24.5 -10z
" />
    <glyph glyph-name="uni02A9" unicode="&#x2a9;" horiz-adv-x="712" 
d="M598.5 492q30.5 -40 30.5 -110v-476q0 -52 -27 -80t-71 -28q-51 0 -85 32l22 29q27 -23 61 -23q55 0 55 69v471q0 118 -81 118q-75 0 -137 -117v-377h-45v484h-183v-484h-45v484h-73v38h73v101q0 55 31.5 86.5t85.5 31.5q52 0 100 -29l-16 -33q-40 23 -80 23
q-37 0 -56.5 -19.5t-19.5 -62.5v-98h222l4 -93q29 50 64 76.5t83 26.5q57 0 87.5 -40z" />
    <glyph glyph-name="g" unicode="g" horiz-adv-x="411" 
d="M402 516q-36 -13 -116 -15q73 -41 73 -146q0 -79 -41 -124t-114 -45q-32 0 -55 10q-17 -11 -26.5 -28t-9.5 -36q0 -60 79 -60h52q69 0 107.5 -35t38.5 -92q0 -68 -46.5 -107.5t-137.5 -39.5q-94 0 -136 35.5t-42 110.5h41q1 -58 31 -83t106 -25q72 0 105.5 28t33.5 78
q0 45 -27.5 68.5t-80.5 23.5h-46q-61 0 -90.5 24t-29.5 65q0 50 48 86q-73 46 -73 149q0 81 43 127.5t116 46.5q78 0 113 6.5t71 21.5zM120 460.5q-28 -35.5 -28 -102.5q0 -65 30 -101t81 -36q111 0 111 135q0 65 -28 102.5t-82 37.5q-56 0 -84 -35.5z" />
    <glyph glyph-name="g.ss04" horiz-adv-x="475" 
d="M388 522v-546q0 -83 -40 -130.5t-123 -47.5q-68 0 -122 36l18 30q24 -13 47 -20.5t55 -7.5q65 0 92.5 35.5t27.5 104.5v119q-45 -86 -126 -86q-77 0 -120.5 68t-43.5 192q0 122 45.5 192.5t126.5 70.5q40 0 71 -20.5t50 -51.5l3 62h39zM291.5 74.5q29.5 26.5 51.5 78.5
v256q-21 39 -48.5 61.5t-65.5 22.5q-58 0 -93 -56.5t-35 -163.5q0 -112 31.5 -168.5t88.5 -56.5q41 0 70.5 26.5z" />
    <glyph glyph-name="uni01F5" unicode="&#x1f5;" horiz-adv-x="411" 
d="M402 516q-36 -13 -116 -15q73 -41 73 -146q0 -79 -41 -124t-114 -45q-32 0 -55 10q-17 -11 -26.5 -28t-9.5 -36q0 -60 79 -60h52q69 0 107.5 -35t38.5 -92q0 -68 -46.5 -107.5t-137.5 -39.5q-94 0 -136 35.5t-42 110.5h41q1 -58 31 -83t106 -25q72 0 105.5 28t33.5 78
q0 45 -27.5 68.5t-80.5 23.5h-46q-61 0 -90.5 24t-29.5 65q0 50 48 86q-73 46 -73 149q0 81 43 127.5t116 46.5q78 0 113 6.5t71 21.5zM120 460.5q-28 -35.5 -28 -102.5q0 -65 30 -101t81 -36q111 0 111 135q0 65 -28 102.5t-82 37.5q-56 0 -84 -35.5zM264 772l23 -40
l-159 -84l-16 25z" />
    <glyph glyph-name="uni0263" unicode="&#x263;" horiz-adv-x="390" 
d="M220 50q25 -56 36.5 -95.5t11.5 -76.5t-19 -58.5t-54 -21.5q-34 0 -53.5 21t-19.5 59q0 34 12 74t37 97l-154 473h48l130 -439l131 439h46zM220 -59q-8 31 -25 76q-17 -47 -24.5 -76.5t-7.5 -60.5q0 -45 32 -45q33 0 33 45q0 30 -8 61z" />
    <glyph glyph-name="gbreve" unicode="&#x11f;" horiz-adv-x="411" 
d="M402 516q-36 -13 -116 -15q73 -41 73 -146q0 -79 -41 -124t-114 -45q-32 0 -55 10q-17 -11 -26.5 -28t-9.5 -36q0 -60 79 -60h52q69 0 107.5 -35t38.5 -92q0 -68 -46.5 -107.5t-137.5 -39.5q-94 0 -136 35.5t-42 110.5h41q1 -58 31 -83t106 -25q72 0 105.5 28t33.5 78
q0 45 -27.5 68.5t-80.5 23.5h-46q-61 0 -90.5 24t-29.5 65q0 50 48 86q-73 46 -73 149q0 81 43 127.5t116 46.5q78 0 113 6.5t71 21.5zM120 460.5q-28 -35.5 -28 -102.5q0 -65 30 -101t81 -36q111 0 111 135q0 65 -28 102.5t-82 37.5q-56 0 -84 -35.5zM135 684
q-28 27 -33 75l30 7q16 -72 74 -72q59 0 74 72l30 -7q-5 -48 -33 -75t-71 -27t-71 27z" />
    <glyph glyph-name="gcaron" unicode="&#x1e7;" horiz-adv-x="411" 
d="M402 516q-36 -13 -116 -15q73 -41 73 -146q0 -79 -41 -124t-114 -45q-32 0 -55 10q-17 -11 -26.5 -28t-9.5 -36q0 -60 79 -60h52q69 0 107.5 -35t38.5 -92q0 -68 -46.5 -107.5t-137.5 -39.5q-94 0 -136 35.5t-42 110.5h41q1 -58 31 -83t106 -25q72 0 105.5 28t33.5 78
q0 45 -27.5 68.5t-80.5 23.5h-46q-61 0 -90.5 24t-29.5 65q0 50 48 86q-73 46 -73 149q0 81 43 127.5t116 46.5q78 0 113 6.5t71 21.5zM120 460.5q-28 -35.5 -28 -102.5q0 -65 30 -101t81 -36q111 0 111 135q0 65 -28 102.5t-82 37.5q-56 0 -84 -35.5zM305 761l20 -20
l-106 -106h-27l-105 106l20 20l99 -86z" />
    <glyph glyph-name="gcircumflex" unicode="&#x11d;" horiz-adv-x="411" 
d="M402 516q-36 -13 -116 -15q73 -41 73 -146q0 -79 -41 -124t-114 -45q-32 0 -55 10q-17 -11 -26.5 -28t-9.5 -36q0 -60 79 -60h52q69 0 107.5 -35t38.5 -92q0 -68 -46.5 -107.5t-137.5 -39.5q-94 0 -136 35.5t-42 110.5h41q1 -58 31 -83t106 -25q72 0 105.5 28t33.5 78
q0 45 -27.5 68.5t-80.5 23.5h-46q-61 0 -90.5 24t-29.5 65q0 50 48 86q-73 46 -73 149q0 81 43 127.5t116 46.5q78 0 113 6.5t71 21.5zM120 460.5q-28 -35.5 -28 -102.5q0 -65 30 -101t81 -36q111 0 111 135q0 65 -28 102.5t-82 37.5q-56 0 -84 -35.5zM107 649l-20 20
l105 106h27l106 -106l-21 -20l-98 85z" />
    <glyph glyph-name="gcommaaccent" unicode="&#x123;" horiz-adv-x="411" 
d="M402 516q-36 -13 -116 -15q73 -41 73 -146q0 -79 -41 -124t-114 -45q-32 0 -55 10q-17 -11 -26.5 -28t-9.5 -36q0 -60 79 -60h52q69 0 107.5 -35t38.5 -92q0 -68 -46.5 -107.5t-137.5 -39.5q-94 0 -136 35.5t-42 110.5h41q1 -58 31 -83t106 -25q72 0 105.5 28t33.5 78
q0 45 -27.5 68.5t-80.5 23.5h-46q-61 0 -90.5 24t-29.5 65q0 50 48 86q-73 46 -73 149q0 81 43 127.5t116 46.5q78 0 113 6.5t71 21.5zM120 460.5q-28 -35.5 -28 -102.5q0 -65 30 -101t81 -36q111 0 111 135q0 65 -28 102.5t-82 37.5q-56 0 -84 -35.5zM180.5 601
q-9.5 10 -9.5 27q0 9 3 20t7 22.5t7 19.5l34 86h27l-29 -114q23 -11 23 -34q0 -16 -10 -26.5t-27 -10.5q-16 0 -25.5 10z" />
    <glyph glyph-name="gdotaccent" unicode="&#x121;" horiz-adv-x="411" 
d="M402 516q-36 -13 -116 -15q73 -41 73 -146q0 -79 -41 -124t-114 -45q-32 0 -55 10q-17 -11 -26.5 -28t-9.5 -36q0 -60 79 -60h52q69 0 107.5 -35t38.5 -92q0 -68 -46.5 -107.5t-137.5 -39.5q-94 0 -136 35.5t-42 110.5h41q1 -58 31 -83t106 -25q72 0 105.5 28t33.5 78
q0 45 -27.5 68.5t-80.5 23.5h-46q-61 0 -90.5 24t-29.5 65q0 50 48 86q-73 46 -73 149q0 81 43 127.5t116 46.5q78 0 113 6.5t71 21.5zM120 460.5q-28 -35.5 -28 -102.5q0 -65 30 -101t81 -36q111 0 111 135q0 65 -28 102.5t-82 37.5q-56 0 -84 -35.5zM230.5 733
q9.5 -10 9.5 -24t-9.5 -24t-24.5 -10t-24.5 10t-9.5 24t9.5 24t24.5 10t24.5 -10z" />
    <glyph glyph-name="uni0260" unicode="&#x260;" horiz-adv-x="475" 
d="M524 708l-20 -28q-15 11 -29 16.5t-31 5.5q-57 0 -57 -76v-104h1v-546q0 -83 -40 -130.5t-123 -47.5q-68 0 -122 36l18 30q24 -13 47 -20.5t55 -7.5q65 0 92.5 35.5t27.5 104.5v119q-45 -86 -126 -86q-77 0 -120.5 68t-43.5 192q0 122 45.5 192.5t126.5 70.5
q39 0 68.5 -19t49.5 -49v57h-1v105q0 56 27 85.5t72 29.5q46 0 83 -33zM291.5 74.5q29.5 26.5 51.5 78.5v256q-21 39 -48.5 61.5t-65.5 22.5q-58 0 -93 -56.5t-35 -163.5q0 -112 31.5 -168.5t88.5 -56.5q41 0 70.5 26.5z" />
    <glyph glyph-name="uni01BE" unicode="&#x1be;" horiz-adv-x="404" 
d="M310 348.5q41 -45.5 41 -141.5q0 -100 -47 -156.5t-128 -56.5q-48 0 -84.5 19.5t-71.5 60.5l27 25q30 -33 59.5 -49t68.5 -16q62 0 95.5 44t33.5 129q0 81 -33 120t-88 55l-54 16v164h-53v38h53v135l46 6v-141h99v-38h-99v-138l27 -9q67 -21 108 -66.5z" />
    <glyph glyph-name="uni0294" unicode="&#x294;" horiz-adv-x="356" 
d="M109 337l52 16q55 17 87.5 56t32.5 119q0 85 -32.5 129t-93.5 44q-40 0 -70.5 -16t-60.5 -49l-27 25q36 41 73.5 60.5t86.5 19.5q79 0 125 -56.5t46 -156.5q0 -97 -41 -142t-108 -67l-24 -8v-311h-46v337z" />
    <glyph glyph-name="uni0296" unicode="&#x296;" horiz-adv-x="404" 
d="M175 741v-317l27 -9q67 -21 108 -66.5t41 -141.5q0 -100 -47 -156.5t-128 -56.5q-48 0 -84.5 19.5t-71.5 60.5l27 25q30 -33 59.5 -49t68.5 -16q62 0 95.5 44t33.5 129q0 81 -33 120t-88 55l-54 16v337z" />
    <glyph glyph-name="uni0295" unicode="&#x295;" horiz-adv-x="356" 
d="M201 0v311l-25 8q-67 22 -108 67t-41 142q0 100 47 156.5t128 56.5q48 0 84.5 -19.5t71.5 -60.5l-26 -25q-31 33 -60.5 49t-68.5 16q-61 0 -94.5 -44t-33.5 -129q0 -80 32.5 -119t87.5 -56l51 -16v-337h-45z" />
    <glyph glyph-name="uni0242" unicode="&#x242;" horiz-adv-x="347" 
d="M103 181l58 18q101 31 101 151q0 68 -30.5 105t-83.5 37q-36 0 -63 -14.5t-55 -41.5l-26 27q32 33 66 51t80 18q72 0 115.5 -49.5t43.5 -131.5t-36 -124t-93 -60l-32 -10v-157h-45v181z" />
    <glyph glyph-name="uni02A1" unicode="&#x2a1;" horiz-adv-x="356" 
d="M155 311v-104h94v-37h-94v-170h-46v170h-56v37h56v130l52 16q55 17 87.5 56t32.5 119q0 85 -32.5 129t-93.5 44q-40 0 -70.5 -16t-60.5 -49l-27 25q36 41 73.5 60.5t86.5 19.5q79 0 125 -56.5t46 -156.5q0 -97 -41 -142t-108 -67z" />
    <glyph glyph-name="uni02A2" unicode="&#x2a2;" horiz-adv-x="356" 
d="M286.5 721.5q36.5 -19.5 71.5 -60.5l-26 -25q-31 33 -60.5 49t-68.5 16q-61 0 -94.5 -44t-33.5 -129q0 -80 32.5 -119t87.5 -56l51 -16v-130h56v-37h-56v-170h-45v170h-94v37h94v104l-25 8q-67 22 -108 67t-41 142q0 100 47 156.5t128 56.5q48 0 84.5 -19.5z" />
    <glyph glyph-name="uni0261" unicode="&#x261;" horiz-adv-x="475" 
d="M388 522v-546q0 -83 -40 -130.5t-123 -47.5q-68 0 -122 36l18 30q24 -13 47 -20.5t55 -7.5q65 0 92.5 35.5t27.5 104.5v119q-45 -86 -126 -86q-77 0 -120.5 68t-43.5 192q0 122 45.5 192.5t126.5 70.5q40 0 71 -20.5t50 -51.5l3 62h39zM291.5 74.5q29.5 26.5 51.5 78.5
v256q-21 39 -48.5 61.5t-65.5 22.5q-58 0 -93 -56.5t-35 -163.5q0 -112 31.5 -168.5t88.5 -56.5q41 0 70.5 26.5z" />
    <glyph glyph-name="uni01E5" unicode="&#x1e5;" horiz-adv-x="411" 
d="M436 -77h-47q-8 -58 -54 -91.5t-129 -33.5q-94 0 -136 35.5t-42 110.5h41q1 -58 31 -83t106 -25q66 0 100.5 23t40.5 64h-127v38h127q-12 73 -110 73h-46q-61 0 -90.5 24t-29.5 65q0 50 48 86q-73 46 -73 149q0 81 43 127.5t116 46.5q78 0 113 6.5t71 21.5l13 -44
q-36 -13 -116 -15q73 -41 73 -146q0 -79 -41 -124t-114 -45q-32 0 -55 10q-17 -11 -26.5 -28t-9.5 -36q0 -60 79 -60h52q64 0 102 -30t43 -81h47v-38zM122 257q30 -36 81 -36q111 0 111 135q0 65 -28 102.5t-82 37.5q-56 0 -84 -35.5t-28 -102.5q0 -65 30 -101z" />
    <glyph glyph-name="uni021D" unicode="&#x21d;" horiz-adv-x="379" 
d="M265 495q39 -37 39 -103q0 -53 -23 -82.5t-66 -41.5q51 -2 81 -32t30 -85q0 -82 -67 -143.5t-202 -100.5l-7 36q120 41 174 89.5t54 117.5q0 51 -26.5 73.5t-80.5 22.5h-64l4 37h44q48 0 75 27t27 80q0 50 -25.5 76.5t-70.5 26.5q-36 0 -60.5 -10t-56.5 -32l-24 27
q63 54 144 54q62 0 101 -37z" />
    <glyph glyph-name="h" unicode="h" horiz-adv-x="479" 
d="M365.5 492q30.5 -40 30.5 -110v-382h-45v376q0 118 -81 118q-41 0 -74 -30.5t-63 -86.5v-377h-45v735l45 6v-311q29 49 63.5 75.5t81.5 26.5q57 0 87.5 -40z" />
    <glyph glyph-name="hbar" unicode="&#x127;" horiz-adv-x="483" 
d="M369.5 492q30.5 -40 30.5 -110v-382h-45v376q0 118 -81 118q-41 0 -74 -30.5t-63 -86.5v-377h-45v621h-62v37h62v77l45 6v-83h138v-37h-138v-191q29 49 63.5 75.5t81.5 26.5q57 0 87.5 -40z" />
    <glyph glyph-name="uni021F" unicode="&#x21f;" horiz-adv-x="479" 
d="M365.5 492q30.5 -40 30.5 -110v-382h-45v376q0 118 -81 118q-41 0 -74 -30.5t-63 -86.5v-377h-45v735l45 6v-311q29 49 63.5 75.5t81.5 26.5q57 0 87.5 -40zM342 930l19 -21l-106 -101h-27l-105 101l19 21l100 -81z" />
    <glyph glyph-name="hcircumflex" unicode="&#x125;" horiz-adv-x="479" 
d="M365.5 492q30.5 -40 30.5 -110v-382h-45v376q0 118 -81 118q-41 0 -74 -30.5t-63 -86.5v-377h-45v735l45 6v-311q29 49 63.5 75.5t81.5 26.5q57 0 87.5 -40zM142 816l-20 21l105 100h27l106 -100l-21 -21l-98 79z" />
    <glyph glyph-name="uni1E25" unicode="&#x1e25;" horiz-adv-x="479" 
d="M365.5 492q30.5 -40 30.5 -110v-382h-45v376q0 118 -81 118q-41 0 -74 -30.5t-63 -86.5v-377h-45v735l45 6v-311q29 49 63.5 75.5t81.5 26.5q57 0 87.5 -40zM218.5 -149q-9.5 10 -9.5 24t9.5 24t24.5 10t24.5 -10t9.5 -24t-9.5 -24t-24.5 -10t-24.5 10z" />
    <glyph glyph-name="uni0267" unicode="&#x267;" horiz-adv-x="479" 
d="M365.5 490.5q30.5 -41.5 30.5 -118.5v-466q0 -52 -27 -80t-71 -28q-51 0 -85 32l22 29q27 -23 61 -23q55 0 55 69v461q0 66 -20.5 97t-60.5 31q-41 0 -74 -30.5t-63 -86.5v-377h-45v521h-1v94q0 60 31.5 93t86.5 33q52 0 100 -29l-17 -32q-42 22 -79 22q-77 0 -77 -87
v-93h1v-92q28 49 62.5 75.5t82.5 26.5q57 0 87.5 -41.5z" />
    <glyph glyph-name="uni0266" unicode="&#x266;" horiz-adv-x="479" 
d="M365.5 490.5q30.5 -41.5 30.5 -118.5v-372h-45v366q0 66 -20.5 97t-60.5 31q-41 0 -74 -30.5t-63 -86.5v-377h-45v521h-1v94q0 60 31.5 93t86.5 33q52 0 100 -29l-17 -32q-42 22 -79 22q-77 0 -77 -87v-93h1v-92q28 49 62.5 75.5t82.5 26.5q57 0 87.5 -41.5z" />
    <glyph glyph-name="uni0265" unicode="&#x265;" horiz-adv-x="479" 
d="M391 522v-724l-45 7v286q-28 -49 -63 -75t-82 -26q-57 0 -87.5 40t-30.5 110v382h45v-376q0 -118 81 -118q77 0 137 117v377h45z" />
    <glyph glyph-name="uni02AE" unicode="&#x2ae;" horiz-adv-x="547" 
d="M459 522v-724l-45 7v286q-28 -49 -63 -75t-82 -26q-57 0 -87.5 40t-30.5 110v283q0 69 -55 69q-34 0 -61 -23l-22 29q34 32 85 32q44 0 71 -28t27 -80v-276q0 -118 81 -118q41 0 74 30.5t63 86.5v377h45z" />
    <glyph glyph-name="uni02AF" unicode="&#x2af;" horiz-adv-x="547" 
d="M597 -170q-34 -32 -85 -32q-44 0 -71 28t-27 80v185q-28 -49 -63 -75t-82 -26q-57 0 -87.5 40t-30.5 110v283q0 69 -55 69q-34 0 -61 -23l-22 29q34 32 85 32q44 0 71 -28t27 -80v-276q0 -118 81 -118q41 0 74 30.5t63 86.5v377h45v-617q0 -69 55 -69q34 0 61 23z" />
    <glyph glyph-name="uni0195" unicode="&#x195;" horiz-adv-x="731" 
d="M662 257q0 -135 -49.5 -201.5t-126.5 -66.5q-59 0 -97 39.5t-38 109.5v238q0 118 -81 118q-41 0 -74 -30.5t-63 -86.5v-377h-45v735l45 6v-311q29 49 63.5 75.5t81.5 26.5q57 0 87.5 -40t30.5 -110v-242q0 -56 24.5 -83.5t66.5 -27.5q56 0 92.5 53t36.5 175t-21 265h44
q23 -140 23 -265z" />
    <glyph glyph-name="i" unicode="i" horiz-adv-x="221" 
d="M133 522v-522h-45v522h45zM134.5 733q9.5 -10 9.5 -24t-9.5 -24t-24.5 -10t-24.5 10t-9.5 24t9.5 24t24.5 10t24.5 -10z" />
    <glyph glyph-name="dotlessi" unicode="&#x131;" horiz-adv-x="221" 
d="M133 522v-522h-45v522h45z" />
    <glyph glyph-name="iacute" unicode="&#xed;" horiz-adv-x="221" 
d="M133 522v-522h-45v522h45zM168 772l23 -40l-159 -84l-16 25z" />
    <glyph glyph-name="ibreve" unicode="&#x12d;" horiz-adv-x="221" 
d="M133 522v-522h-45v522h45zM39 684q-28 27 -33 75l30 7q16 -72 74 -72q59 0 74 72l30 -7q-5 -48 -33 -75t-71 -27t-71 27z" />
    <glyph glyph-name="uni01D0" unicode="&#x1d0;" horiz-adv-x="221" 
d="M133 522v-522h-45v522h45zM209 761l20 -20l-106 -106h-27l-105 106l20 20l99 -86z" />
    <glyph glyph-name="icircumflex" unicode="&#xee;" horiz-adv-x="221" 
d="M133 522v-522h-45v522h45zM11 649l-20 20l105 106h27l106 -106l-21 -20l-98 85z" />
    <glyph glyph-name="uni0209" unicode="&#x209;" horiz-adv-x="221" 
d="M133 522v-522h-45v522h45zM17 803l63 -145l-28 -13l-74 138zM119 802l58 -140l-28 -12l-68 132z" />
    <glyph glyph-name="idieresis" unicode="&#xef;" horiz-adv-x="221" 
d="M133 522v-522h-45v522h45zM57 722.5q9 -9.5 9 -23.5t-9 -23.5t-23 -9.5t-23 9.5t-9 23.5t9 23.5t23 9.5t23 -9.5zM209.5 722.5q9.5 -9.5 9.5 -23.5t-9.5 -23.5t-23.5 -9.5t-23 9.5t-9 23.5t9 23.5t23 9.5t23.5 -9.5z" />
    <glyph glyph-name="uni1E2F" unicode="&#x1e2f;" horiz-adv-x="221" 
d="M133 522v-522h-45v522h45zM179 848l35 -27l-102 -121l-22 18zM57 692.5q9 -9.5 9 -23.5t-9 -23.5t-23 -9.5t-23 9.5t-9 23.5t9 23.5t23 9.5t23 -9.5zM209.5 692.5q9.5 -9.5 9.5 -23.5t-9.5 -23.5t-23.5 -9.5t-23 9.5t-9 23.5t9 23.5t23 9.5t23.5 -9.5z" />
    <glyph glyph-name="i.loclTRK" horiz-adv-x="221" 
d="M133 522v-522h-45v522h45zM134.5 733q9.5 -10 9.5 -24t-9.5 -24t-24.5 -10t-24.5 10t-9.5 24t9.5 24t24.5 10t24.5 -10z" />
    <glyph glyph-name="uni1ECB" unicode="&#x1ecb;" horiz-adv-x="221" 
d="M133 522v-522h-45v522h45zM134.5 733q9.5 -10 9.5 -24t-9.5 -24t-24.5 -10t-24.5 10t-9.5 24t9.5 24t24.5 10t24.5 -10zM85.5 -149q-9.5 10 -9.5 24t9.5 24t24.5 10t24.5 -10t9.5 -24t-9.5 -24t-24.5 -10t-24.5 10z" />
    <glyph glyph-name="igrave" unicode="&#xec;" horiz-adv-x="221" 
d="M133 522v-522h-45v522h45zM49 772l151 -99l-16 -25l-158 84z" />
    <glyph glyph-name="uni1EC9" unicode="&#x1ec9;" horiz-adv-x="221" 
d="M133 522v-522h-45v522h45zM91 697q28 2 42 13t14 36q0 42 -39 42q-14 0 -23.5 -3t-21.5 -10l-14 28q30 20 65 20q34 0 54 -20.5t20 -54.5q0 -65 -60 -74v-55h-37v78z" />
    <glyph glyph-name="uni020B" unicode="&#x20b;" horiz-adv-x="221" 
d="M133 522v-522h-45v522h45zM181 708q28 -27 33 -75l-30 -7q-15 72 -74 72q-58 0 -74 -72l-30 7q5 48 33 75t71 27t71 -27z" />
    <glyph glyph-name="ij" unicode="&#x133;" horiz-adv-x="442" 
d="M133 522v-522h-45v522h45zM134.5 733q9.5 -10 9.5 -24t-9.5 -24t-24.5 -10t-24.5 10t-9.5 24t9.5 24t24.5 10t24.5 -10zM354 -14q0 -53 -12 -86t-36 -55t-65 -45l-15 32q32 20 49 38t25.5 45.5t8.5 71.5v535h45v-536zM355.5 733q9.5 -10 9.5 -24t-9.5 -24t-24.5 -10
t-24.5 10t-9.5 24t9.5 24t24.5 10t24.5 -10z" />
    <glyph glyph-name="imacron" unicode="&#x12b;" horiz-adv-x="221" 
d="M133 522v-522h-45v522h45zM207 680h-193v37h193v-37z" />
    <glyph glyph-name="iogonek" unicode="&#x12f;" horiz-adv-x="221" 
d="M134.5 733q9.5 -10 9.5 -24t-9.5 -24t-24.5 -10t-24.5 10t-9.5 24t9.5 24t24.5 10t24.5 -10zM88 522h45v-522h-1q-54 -30 -77 -56t-23 -65q0 -52 53 -52q20 0 47 6l-4 -39q-24 -6 -47 -6q-44 0 -67 24t-23 64t23.5 70.5t73.5 58.5v517z" />
    <glyph glyph-name="uni0269" unicode="&#x269;" horiz-adv-x="232" 
d="M103.5 11q-20.5 22 -20.5 61v450h45v-449q0 -21 9 -33t27 -12q15 0 29 7l12 -33q-22 -13 -47 -13q-34 0 -54.5 22z" />
    <glyph glyph-name="uni0268" unicode="&#x268;" horiz-adv-x="235" 
d="M93.5 685q-9.5 10 -9.5 24t9.5 24t24.5 10t24.5 -10t9.5 -24t-9.5 -24t-24.5 -10t-24.5 10zM226 302v-39h-85v-263h-45v263h-86v39h86v220h45v-220h85z" />
    <glyph glyph-name="itilde" unicode="&#x129;" horiz-adv-x="221" 
d="M133 522v-522h-45v522h45zM132 677.5q-12 6.5 -30 18.5q-13 10 -22 14.5t-18 4.5q-14 0 -24 -8.5t-22 -28.5l-27 13q31 60 72 60q13 0 25.5 -6t27.5 -18q16 -11 25 -15.5t19 -4.5q13 0 23.5 9.5t23.5 32.5l26 -12q-28 -66 -72 -66q-15 0 -27 6.5z" />
    <glyph glyph-name="j" unicode="j" horiz-adv-x="221" 
d="M133 -14q0 -53 -12 -86t-36 -55t-65 -45l-15 32q32 20 49 38t25.5 45.5t8.5 71.5v535h45v-536zM134.5 733q9.5 -10 9.5 -24t-9.5 -24t-24.5 -10t-24.5 10t-9.5 24t9.5 24t24.5 10t24.5 -10z" />
    <glyph glyph-name="uni0237" unicode="&#x237;" horiz-adv-x="221" 
d="M133 -14q0 -53 -12 -86t-36 -55t-65 -45l-15 32q32 20 49 38t25.5 45.5t8.5 71.5v535h45v-536z" />
    <glyph glyph-name="uni01F0" unicode="&#x1f0;" horiz-adv-x="221" 
d="M133 -14q0 -53 -12 -86t-36 -55t-65 -45l-15 32q32 20 49 38t25.5 45.5t8.5 71.5v535h45v-536zM209 761l20 -20l-106 -106h-27l-105 106l20 20l99 -86z" />
    <glyph glyph-name="jcircumflex" unicode="&#x135;" horiz-adv-x="221" 
d="M133 -14q0 -53 -12 -86t-36 -55t-65 -45l-15 32q32 20 49 38t25.5 45.5t8.5 71.5v535h45v-536zM11 649l-20 20l105 106h27l106 -106l-21 -20l-98 85z" />
    <glyph glyph-name="uni029D" unicode="&#x29d;" horiz-adv-x="235" 
d="M219 -87q-29 16 -72 32q-1 -68 -32 -107.5t-88 -39.5q-43 0 -68.5 25.5t-25.5 67.5q0 48 30.5 75.5t81.5 27.5q25 0 57 -6v534h45v-543q49 -16 85 -37zM102 -52v6q-25 7 -57 7q-37 0 -55.5 -18t-18.5 -50q0 -28 14.5 -44.5t41.5 -16.5q75 0 75 116zM149.5 733
q9.5 -10 9.5 -24t-9.5 -24t-24.5 -10t-24.5 10t-9.5 24t9.5 24t24.5 10t24.5 -10z" />
    <glyph glyph-name="uni025F" unicode="&#x25f;" horiz-adv-x="240" 
d="M230 226h-84v-240q0 -53 -12 -86t-36 -55t-65 -45l-15 32q32 20 49 38t25.5 45.5t8.5 71.5v239h-86v38h86v258h45v-258h84v-38z" />
    <glyph glyph-name="uni0284" unicode="&#x284;" horiz-adv-x="250" 
d="M233 36v-36h-86v-14q0 -52 -12 -85.5t-35.5 -55.5t-64.5 -45l-16 32q32 19 49 37.5t25.5 46t8.5 71.5v13h-85v36h85v590q0 56 27 85.5t72 29.5q46 0 83 -33l-20 -28q-15 11 -29 16.5t-31 5.5q-57 0 -57 -76v-590h86z" />
    <glyph glyph-name="uni0249" unicode="&#x249;" horiz-adv-x="240" 
d="M230 226h-84v-240q0 -53 -12 -86t-36 -55t-65 -45l-15 32q32 20 49 38t25.5 45.5t8.5 71.5v239h-86v38h86v258h45v-258h84v-38zM147.5 733q9.5 -10 9.5 -24t-9.5 -24t-24.5 -10t-24.5 10t-9.5 24t9.5 24t24.5 10t24.5 -10z" />
    <glyph glyph-name="k" unicode="k" horiz-adv-x="398" 
d="M133 741v-741h-45v735zM373 522l-186 -235l205 -287h-52l-202 285l186 237h49z" />
    <glyph glyph-name="uni01E9" unicode="&#x1e9;" horiz-adv-x="398" 
d="M133 741v-741h-45v735zM373 522l-186 -235l205 -287h-52l-202 285l186 237h49zM320 930l19 -21l-106 -101h-27l-105 101l19 21l100 -81z" />
    <glyph glyph-name="kcommaaccent" unicode="&#x137;" horiz-adv-x="398" 
d="M133 741v-741h-45v735zM373 522l-186 -235l205 -287h-52l-202 285l186 237h49zM243.5 -98q9.5 -10 9.5 -27q0 -9 -3 -20t-7 -22.5t-7 -19.5l-34 -86h-27l29 114q-23 11 -23 34q0 16 10 26.5t27 10.5q16 0 25.5 -10z" />
    <glyph glyph-name="kgreenlandic" unicode="&#x138;" horiz-adv-x="398" 
d="M133 522v-522h-45v522h45zM373 522l-186 -245l205 -277h-52l-202 275l186 247h49z" />
    <glyph glyph-name="uni0199" unicode="&#x199;" horiz-adv-x="398" 
d="M132 522h1v-522h-45v521h-1v94q0 60 31.5 93t86.5 33q52 0 100 -29l-17 -32q-42 22 -79 22q-77 0 -77 -87v-93zM187 287l205 -287h-52l-202 285l186 237h49z" />
    <glyph glyph-name="uni029E" unicode="&#x29e;" horiz-adv-x="398" 
d="M26 0l185 235l-204 287h51l203 -285l-186 -237h-49zM266 -195v717h45v-724z" />
    <glyph glyph-name="l" unicode="l" horiz-adv-x="232" 
d="M103.5 11q-20.5 22 -20.5 61v663l45 6v-668q0 -21 9 -33t27 -12q15 0 29 7l12 -33q-22 -13 -47 -13q-34 0 -54.5 22z" />
    <glyph glyph-name="lacute" unicode="&#x13a;" horiz-adv-x="232" 
d="M103.5 11q-20.5 22 -20.5 61v663l45 6v-668q0 -21 9 -33t27 -12q15 0 29 7l12 -33q-22 -13 -47 -13q-34 0 -54.5 22zM171 926l21 -40l-160 -76l-13 27z" />
    <glyph glyph-name="uni019B" unicode="&#x19b;" horiz-adv-x="383" 
d="M286 258q25 -94 47.5 -143t56.5 -106l-41 -17q-34 58 -56.5 108.5t-46 140.5t-46.5 236l-132 -485l-42 11l147 514h19q-13 73 -30 109l-59 -72l-29 16l69 87q-26 35 -80 50l6 34q65 -16 101 -55l56 70l26 -21l-62 -77q28 -47 45 -150q26 -156 51 -250z" />
    <glyph glyph-name="uni019A" unicode="&#x19a;" horiz-adv-x="235" 
d="M141 353v-280q0 -21 9 -33t27 -12q15 0 29 7l12 -33q-22 -13 -47 -13q-34 0 -54.5 22t-20.5 61v281h-86v39h86v343l45 6v-349h85v-39h-85z" />
    <glyph glyph-name="uni026C" unicode="&#x26c;" horiz-adv-x="264" 
d="M236 2q-22 -13 -47 -13q-34 0 -54.5 22t-20.5 61v199q-53 0 -80 23.5t-27 69.5q0 40 23.5 63t58.5 23q11 0 25 -2v287l45 6v-435q31 1 65 9l7 -32q-39 -10 -72 -11v-199q0 -21 9 -33t27 -12q15 0 29 7zM114 306v109q-11 3 -22 3q-21 0 -34 -13.5t-13 -39.5q0 -59 69 -59z
" />
    <glyph glyph-name="lcaron" unicode="&#x13e;" horiz-adv-x="232" 
d="M103.5 11q-20.5 22 -20.5 61v663l45 6v-668q0 -21 9 -33t27 -12q15 0 29 7l12 -33q-22 -13 -47 -13q-34 0 -54.5 22zM206 578l30 156l-42 5l-16 -157z" />
    <glyph glyph-name="uni1E3D" unicode="&#x1e3d;" horiz-adv-x="232" 
d="M103.5 11q-20.5 22 -20.5 61v663l45 6v-668q0 -21 9 -33t27 -12q15 0 29 7l12 -33q-22 -13 -47 -13q-34 0 -54.5 22zM49 -196l-20 20l105 106h27l106 -106l-21 -20l-98 85z" />
    <glyph glyph-name="lcommaaccent" unicode="&#x13c;" horiz-adv-x="232" 
d="M103.5 11q-20.5 22 -20.5 61v663l45 6v-668q0 -21 9 -33t27 -12q15 0 29 7l12 -33q-22 -13 -47 -13q-34 0 -54.5 22zM172.5 -98q9.5 -10 9.5 -27q0 -9 -3 -20t-7 -22.5t-7 -19.5l-34 -86h-27l29 114q-23 11 -23 34q0 16 10 26.5t27 10.5q16 0 25.5 -10z" />
    <glyph glyph-name="uni0234" unicode="&#x234;" horiz-adv-x="299" 
d="M299 168q23 -25 23 -64q0 -52 -33.5 -83.5t-85.5 -31.5q-41 0 -72 22l-31 -72l-30 14l36 83q-23 33 -23 79v620l45 6v-628q0 -10 2 -26q21 53 46.5 79.5t63.5 26.5q36 0 59 -25zM261 49q21 20 21 55q0 24 -12 38.5t-33 14.5q-28 0 -45.5 -23t-43.5 -85q20 -20 57 -20
q35 0 56 20z" />
    <glyph glyph-name="ldot" unicode="&#x140;" horiz-adv-x="244" 
d="M103.5 11q-20.5 22 -20.5 61v663l45 6v-668q0 -21 9 -33t27 -12q15 0 29 7l12 -33q-22 -13 -47 -13q-34 0 -54.5 22zM251.5 400q9.5 -10 9.5 -24t-9.5 -24t-24.5 -10t-24.5 10t-9.5 24t9.5 24t24.5 10t24.5 -10z" />
    <glyph glyph-name="uni1E37" unicode="&#x1e37;" horiz-adv-x="232" 
d="M103.5 11q-20.5 22 -20.5 61v663l45 6v-668q0 -21 9 -33t27 -12q15 0 29 7l12 -33q-22 -13 -47 -13q-34 0 -54.5 22zM122.5 -149q-9.5 10 -9.5 24t9.5 24t24.5 10t24.5 -10t9.5 -24t-9.5 -24t-24.5 -10t-24.5 10z" />
    <glyph glyph-name="uni026E" unicode="&#x26e;" horiz-adv-x="513" 
d="M485 3q0 -92 -47.5 -148.5t-130.5 -56.5q-48 0 -84 18t-67 54l28 25q29 -31 57 -44.5t65 -13.5q64 0 98 44.5t34 122.5q0 83 -36 119.5t-114 36.5h-50v37l178 285h-288v-409q0 -21 9 -33t27 -12q15 0 29 7l12 -33q-22 -13 -47 -13q-34 0 -54.5 22t-20.5 61v663l45 6v-219
h337v-36l-182 -288h8q194 0 194 -195z" />
    <glyph glyph-name="uni026D" unicode="&#x26d;" horiz-adv-x="221" 
d="M271 -170q-34 -32 -85 -32q-44 0 -71 28t-27 80v829l45 6v-836q0 -69 55 -69q34 0 61 23z" />
    <glyph glyph-name="uni01C9" unicode="&#x1c9;" horiz-adv-x="453" 
d="M103.5 11q-20.5 22 -20.5 61v663l45 6v-668q0 -21 9 -33t27 -12q15 0 29 7l12 -33q-22 -13 -47 -13q-34 0 -54.5 22zM365 -14q0 -53 -12 -86t-36 -55t-65 -45l-15 32q32 20 49 38t25.5 45.5t8.5 71.5v535h45v-536zM366.5 733q9.5 -10 9.5 -24t-9.5 -24t-24.5 -10
t-24.5 10t-9.5 24t9.5 24t24.5 10t24.5 -10z" />
    <glyph glyph-name="uni026B" unicode="&#x26b;" horiz-adv-x="259" 
d="M150 329v-256q0 -21 9 -33t27 -12q15 0 29 7l12 -33q-22 -13 -47 -13q-34 0 -54.5 22t-20.5 61v284q-23 14 -38 14q-18 0 -30 -11t-25 -33l-29 16q17 31 37 48.5t49 17.5q19 0 36 -9v336l45 6v-369q30 -19 48 -19q16 0 27.5 10.5t25.5 32.5l28 -16q-17 -31 -36 -48
t-46 -17q-21 0 -47 14z" />
    <glyph glyph-name="uni02AA" unicode="&#x2aa;" horiz-adv-x="528" 
d="M134 35q-51 46 -51 125v575l45 6v-581q0 -61 38.5 -96t113.5 -35q159 0 159 113q0 44 -21 69t-82 48q-67 25 -93.5 56.5t-26.5 84.5q0 58 38.5 95t95.5 37q37 0 69 -14t62 -43l-22 -29q-27 24 -52.5 35.5t-55.5 11.5q-39 0 -64 -25t-25 -68q0 -41 20.5 -63t77.5 -44
q68 -25 96.5 -58.5t28.5 -90.5q0 -75 -53.5 -115t-152.5 -40q-94 0 -145 46z" />
    <glyph glyph-name="lslash" unicode="&#x142;" horiz-adv-x="246" 
d="M200 35l12 -33q-22 -13 -47 -13q-34 0 -54.5 22t-20.5 61v259l-48 -35l-18 28l66 49v362l45 6v-336l80 57l17 -29l-97 -70v-290q0 -21 9 -33t27 -12q15 0 29 7z" />
    <glyph glyph-name="uni02AB" unicode="&#x2ab;" horiz-adv-x="515" 
d="M488 486l-247 -446h244l-4 -40h-280q-20 -11 -43 -11q-34 0 -54.5 22t-20.5 61v663l45 6v-668q0 -21 9 -33t27 -12q13 0 29 7l246 447h-226v40h275v-36z" />
    <glyph glyph-name="m" unicode="m" horiz-adv-x="699" 
d="M585.5 491q29.5 -41 29.5 -109v-382h-44v376q0 58 -19 88t-55 30q-67 0 -123 -113v-381h-44v376q0 58 -19.5 88t-54.5 30q-68 0 -124 -113v-381h-44v522h39l3 -90q56 100 132 100q42 0 70 -27.5t37 -76.5q56 104 135 104q52 0 81.5 -41z" />
    <glyph glyph-name="uni1E3F" unicode="&#x1e3f;" horiz-adv-x="699" 
d="M585.5 491q29.5 -41 29.5 -109v-382h-44v376q0 58 -19 88t-55 30q-67 0 -123 -113v-381h-44v376q0 58 -19.5 88t-54.5 30q-68 0 -124 -113v-381h-44v522h39l3 -90q56 100 132 100q42 0 70 -27.5t37 -76.5q56 104 135 104q52 0 81.5 -41zM408 772l23 -40l-159 -84l-16 25z
" />
    <glyph glyph-name="uni1E41" unicode="&#x1e41;" horiz-adv-x="699" 
d="M585.5 491q29.5 -41 29.5 -109v-382h-44v376q0 58 -19 88t-55 30q-67 0 -123 -113v-381h-44v376q0 58 -19.5 88t-54.5 30q-68 0 -124 -113v-381h-44v522h39l3 -90q56 100 132 100q42 0 70 -27.5t37 -76.5q56 104 135 104q52 0 81.5 -41zM374.5 733q9.5 -10 9.5 -24
t-9.5 -24t-24.5 -10t-24.5 10t-9.5 24t9.5 24t24.5 10t24.5 -10z" />
    <glyph glyph-name="uni0271" unicode="&#x271;" horiz-adv-x="699" 
d="M585.5 491q29.5 -41 29.5 -109v-474q0 -53 -27 -81.5t-70 -28.5q-49 0 -85 32l21 29q15 -11 29 -17t32 -6q56 0 56 69v471q0 58 -19 88t-55 30q-67 0 -123 -113v-381h-44v376q0 58 -19.5 88t-54.5 30q-68 0 -124 -113v-381h-44v522h39l3 -90q56 100 132 100
q42 0 70 -27.5t37 -76.5q56 104 135 104q52 0 81.5 -41z" />
    <glyph glyph-name="uni0270" unicode="&#x270;" horiz-adv-x="699" 
d="M611 522v-724l-45 7v280q-54 -95 -129 -95q-42 0 -70 27.5t-37 76.5q-56 -104 -135 -104q-52 0 -81.5 41t-29.5 109v382h44v-376q0 -58 19 -88t55 -30q67 0 123 113v381h44v-376q0 -58 19.5 -88t54.5 -30q68 0 124 113v381h44z" />
    <glyph glyph-name="uni026F" unicode="&#x26f;" horiz-adv-x="699" 
d="M611 522v-522h-39l-3 90q-56 -100 -132 -100q-42 0 -70 27.5t-37 76.5q-56 -104 -135 -104q-52 0 -81.5 41t-29.5 109v382h44v-376q0 -58 19 -88t55 -30q67 0 123 113v381h44v-376q0 -58 19.5 -88t54.5 -30q68 0 124 113v381h44z" />
    <glyph glyph-name="n" unicode="n" horiz-adv-x="479" 
d="M365.5 492q30.5 -40 30.5 -110v-382h-45v376q0 118 -81 118q-75 0 -137 -117v-377h-45v522h39l4 -93q29 50 64 76.5t83 26.5q57 0 87.5 -40z" />
    <glyph glyph-name="nacute" unicode="&#x144;" horiz-adv-x="479" 
d="M365.5 492q30.5 -40 30.5 -110v-382h-45v376q0 118 -81 118q-75 0 -137 -117v-377h-45v522h39l4 -93q29 50 64 76.5t83 26.5q57 0 87.5 -40zM302 772l23 -40l-159 -84l-16 25z" />
    <glyph glyph-name="nacute.loclPLK" horiz-adv-x="479" 
d="M365.5 492q30.5 -40 30.5 -110v-382h-45v376q0 118 -81 118q-75 0 -137 -117v-377h-45v522h39l4 -93q29 50 64 76.5t83 26.5q57 0 87.5 -40zM295 757l38 -26l-98 -153l-23 16z" />
    <glyph glyph-name="napostrophe" unicode="&#x149;" horiz-adv-x="548" 
d="M110.5 731.5q9.5 -10.5 9.5 -26.5q0 -10 -3.5 -22t-7.5 -23t-6 -17l-29 -91h-27l24 119q-23 10 -23 34q0 16 10 26.5t27 10.5q16 0 25.5 -10.5zM434.5 492q30.5 -40 30.5 -110v-382h-45v376q0 118 -81 118q-75 0 -137 -117v-377h-45v522h39l4 -93q29 50 64 76.5t83 26.5
q57 0 87.5 -40z" />
    <glyph glyph-name="ncaron" unicode="&#x148;" horiz-adv-x="479" 
d="M365.5 492q30.5 -40 30.5 -110v-382h-45v376q0 118 -81 118q-75 0 -137 -117v-377h-45v522h39l4 -93q29 50 64 76.5t83 26.5q57 0 87.5 -40zM343 761l20 -20l-106 -106h-27l-105 106l20 20l99 -86z" />
    <glyph glyph-name="uni1E4B" unicode="&#x1e4b;" horiz-adv-x="479" 
d="M365.5 492q30.5 -40 30.5 -110v-382h-45v376q0 118 -81 118q-75 0 -137 -117v-377h-45v522h39l4 -93q29 50 64 76.5t83 26.5q57 0 87.5 -40zM141 -196l-20 20l105 106h27l106 -106l-21 -20l-98 85z" />
    <glyph glyph-name="ncommaaccent" unicode="&#x146;" horiz-adv-x="479" 
d="M365.5 492q30.5 -40 30.5 -110v-382h-45v376q0 118 -81 118q-75 0 -137 -117v-377h-45v522h39l4 -93q29 50 64 76.5t83 26.5q57 0 87.5 -40zM264.5 -98q9.5 -10 9.5 -27q0 -9 -3 -20t-7 -22.5t-7 -19.5l-34 -86h-27l29 114q-23 11 -23 34q0 16 10 26.5t27 10.5
q16 0 25.5 -10z" />
    <glyph glyph-name="uni0235" unicode="&#x235;" horiz-adv-x="567" 
d="M567.5 168q22.5 -25 22.5 -64q0 -52 -33 -83.5t-86 -31.5q-41 0 -72 22l-31 -72l-30 14l36 83q-23 33 -23 79v261q0 118 -81 118q-75 0 -137 -117v-377h-45v522h39l4 -93q29 50 64 76.5t83 26.5q57 0 87.5 -40t30.5 -110v-269q0 -10 2 -26q21 53 46.5 79.5t63.5 26.5
q37 0 59.5 -25zM529 49q21 20 21 55q0 24 -12 38.5t-33 14.5q-28 0 -45.5 -23t-43.5 -85q20 -20 57 -20q35 0 56 20z" />
    <glyph glyph-name="uni1E45" unicode="&#x1e45;" horiz-adv-x="479" 
d="M365.5 492q30.5 -40 30.5 -110v-382h-45v376q0 118 -81 118q-75 0 -137 -117v-377h-45v522h39l4 -93q29 50 64 76.5t83 26.5q57 0 87.5 -40zM268.5 733q9.5 -10 9.5 -24t-9.5 -24t-24.5 -10t-24.5 10t-9.5 24t9.5 24t24.5 10t24.5 -10z" />
    <glyph glyph-name="uni1E47" unicode="&#x1e47;" horiz-adv-x="479" 
d="M365.5 492q30.5 -40 30.5 -110v-382h-45v376q0 118 -81 118q-75 0 -137 -117v-377h-45v522h39l4 -93q29 50 64 76.5t83 26.5q57 0 87.5 -40zM214.5 -149q-9.5 10 -9.5 24t9.5 24t24.5 10t24.5 -10t9.5 -24t-9.5 -24t-24.5 -10t-24.5 10z" />
    <glyph glyph-name="uni01F9" unicode="&#x1f9;" horiz-adv-x="479" 
d="M365.5 492q30.5 -40 30.5 -110v-382h-45v376q0 118 -81 118q-75 0 -137 -117v-377h-45v522h39l4 -93q29 50 64 76.5t83 26.5q57 0 87.5 -40zM183 772l151 -99l-16 -25l-158 84z" />
    <glyph glyph-name="eng" unicode="&#x14b;" horiz-adv-x="479" 
d="M365.5 492q30.5 -40 30.5 -110v-476q0 -52 -27 -80t-71 -28q-51 0 -85 32l22 29q27 -23 61 -23q55 0 55 69v471q0 118 -81 118q-75 0 -137 -117v-377h-45v522h39l4 -93q29 50 64 76.5t83 26.5q57 0 87.5 -40z" />
    <glyph glyph-name="uni0272" unicode="&#x272;" horiz-adv-x="479" 
d="M365.5 492q30.5 -40 30.5 -110v-382h-45v376q0 118 -81 118q-75 0 -137 -117v-471q0 -52 -27 -80t-71 -28q-51 0 -85 32l22 29q27 -23 61 -23q55 0 55 69v617h39l4 -93q29 50 64 76.5t83 26.5q57 0 87.5 -40z" />
    <glyph glyph-name="uni0273" unicode="&#x273;" horiz-adv-x="478" 
d="M534 -170q-34 -32 -85 -32q-44 0 -71 28t-27 80v470q0 118 -81 118q-75 0 -137 -117v-377h-45v522h39l4 -93q29 50 64 76.5t83 26.5q57 0 87.5 -40t30.5 -110v-477q0 -69 55 -69q34 0 61 23z" />
    <glyph glyph-name="uni01CC" unicode="&#x1cc;" horiz-adv-x="700" 
d="M365.5 492q30.5 -40 30.5 -110v-382h-45v376q0 118 -81 118q-75 0 -137 -117v-377h-45v522h39l4 -93q29 50 64 76.5t83 26.5q57 0 87.5 -40zM612 -14q0 -53 -12 -86t-36 -55t-65 -45l-15 32q32 20 49 38t25.5 45.5t8.5 71.5v535h45v-536zM613.5 733q9.5 -10 9.5 -24
t-9.5 -24t-24.5 -10t-24.5 10t-9.5 24t9.5 24t24.5 10t24.5 -10z" />
    <glyph glyph-name="uni019E" unicode="&#x19e;" horiz-adv-x="479" 
d="M365.5 492q30.5 -40 30.5 -110v-584l-45 7v571q0 118 -81 118q-75 0 -137 -117v-377h-45v522h39l4 -93q29 50 64 76.5t83 26.5q57 0 87.5 -40z" />
    <glyph glyph-name="ntilde" unicode="&#xf1;" horiz-adv-x="479" 
d="M365.5 492q30.5 -40 30.5 -110v-382h-45v376q0 118 -81 118q-75 0 -137 -117v-377h-45v522h39l4 -93q29 50 64 76.5t83 26.5q57 0 87.5 -40zM266 677.5q-12 6.5 -30 18.5q-13 10 -22 14.5t-18 4.5q-14 0 -24 -8.5t-22 -28.5l-27 13q31 60 72 60q13 0 25.5 -6t27.5 -18
q16 -11 25 -15.5t19 -4.5q13 0 23.5 9.5t23.5 32.5l26 -12q-28 -66 -72 -66q-15 0 -27 6.5z" />
    <glyph glyph-name="o" unicode="o" horiz-adv-x="467" 
d="M367 464.5q47 -67.5 47 -201.5q0 -133 -48 -203.5t-133 -70.5t-132.5 70t-47.5 201q0 133 48 202.5t133 69.5q86 0 133 -67.5zM135 436.5q-35 -56.5 -35 -176.5q0 -117 34.5 -174t98.5 -57q134 0 134 234q0 230 -133 230q-64 0 -99 -56.5z" />
    <glyph glyph-name="oacute" unicode="&#xf3;" horiz-adv-x="467" 
d="M367 464.5q47 -67.5 47 -201.5q0 -133 -48 -203.5t-133 -70.5t-132.5 70t-47.5 201q0 133 48 202.5t133 69.5q86 0 133 -67.5zM135 436.5q-35 -56.5 -35 -176.5q0 -117 34.5 -174t98.5 -57q134 0 134 234q0 230 -133 230q-64 0 -99 -56.5zM292 772l23 -40l-159 -84
l-16 25z" />
    <glyph glyph-name="oacute.loclPLK" horiz-adv-x="467" 
d="M367 464.5q47 -67.5 47 -201.5q0 -133 -48 -203.5t-133 -70.5t-132.5 70t-47.5 201q0 133 48 202.5t133 69.5q86 0 133 -67.5zM135 436.5q-35 -56.5 -35 -176.5q0 -117 34.5 -174t98.5 -57q134 0 134 234q0 230 -133 230q-64 0 -99 -56.5zM285 757l38 -26l-98 -153
l-23 16z" />
    <glyph glyph-name="uni0275" unicode="&#x275;" horiz-adv-x="467" 
d="M367 464.5q47 -67.5 47 -201.5q0 -133 -48 -203.5t-133 -70.5t-132.5 70t-47.5 201q0 133 48 202.5t133 69.5q86 0 133 -67.5zM100 284h268q-6 209 -134 209q-127 0 -134 -209zM368 246h-268q4 -218 133 -218t135 218z" />
    <glyph glyph-name="obreve" unicode="&#x14f;" horiz-adv-x="467" 
d="M367 464.5q47 -67.5 47 -201.5q0 -133 -48 -203.5t-133 -70.5t-132.5 70t-47.5 201q0 133 48 202.5t133 69.5q86 0 133 -67.5zM135 436.5q-35 -56.5 -35 -176.5q0 -117 34.5 -174t98.5 -57q134 0 134 234q0 230 -133 230q-64 0 -99 -56.5zM163 684q-28 27 -33 75l30 7
q16 -72 74 -72q59 0 74 72l30 -7q-5 -48 -33 -75t-71 -27t-71 27z" />
    <glyph glyph-name="uni01D2" unicode="&#x1d2;" horiz-adv-x="467" 
d="M367 464.5q47 -67.5 47 -201.5q0 -133 -48 -203.5t-133 -70.5t-132.5 70t-47.5 201q0 133 48 202.5t133 69.5q86 0 133 -67.5zM135 436.5q-35 -56.5 -35 -176.5q0 -117 34.5 -174t98.5 -57q134 0 134 234q0 230 -133 230q-64 0 -99 -56.5zM333 761l20 -20l-106 -106h-27
l-105 106l20 20l99 -86z" />
    <glyph glyph-name="ocircumflex" unicode="&#xf4;" horiz-adv-x="467" 
d="M367 464.5q47 -67.5 47 -201.5q0 -133 -48 -203.5t-133 -70.5t-132.5 70t-47.5 201q0 133 48 202.5t133 69.5q86 0 133 -67.5zM135 436.5q-35 -56.5 -35 -176.5q0 -117 34.5 -174t98.5 -57q134 0 134 234q0 230 -133 230q-64 0 -99 -56.5zM135 649l-20 20l105 106h27
l106 -106l-21 -20l-98 85z" />
    <glyph glyph-name="uni1ED1" unicode="&#x1ed1;" horiz-adv-x="467" 
d="M367 464.5q47 -67.5 47 -201.5q0 -133 -48 -203.5t-133 -70.5t-132.5 70t-47.5 201q0 133 48 202.5t133 69.5q86 0 133 -67.5zM135 436.5q-35 -56.5 -35 -176.5q0 -117 34.5 -174t98.5 -57q134 0 134 234q0 230 -133 230q-64 0 -99 -56.5zM134 587l-20 21l105 100h27
l106 -100l-21 -21l-98 79zM393 831l35 -27l-102 -121l-22 18z" />
    <glyph glyph-name="uni1ED9" unicode="&#x1ed9;" horiz-adv-x="467" 
d="M367 464.5q47 -67.5 47 -201.5q0 -133 -48 -203.5t-133 -70.5t-132.5 70t-47.5 201q0 133 48 202.5t133 69.5q86 0 133 -67.5zM135 436.5q-35 -56.5 -35 -176.5q0 -117 34.5 -174t98.5 -57q134 0 134 234q0 230 -133 230q-64 0 -99 -56.5zM135 649l-20 20l105 106h27
l106 -106l-21 -20l-98 85zM209.5 -149q-9.5 10 -9.5 24t9.5 24t24.5 10t24.5 -10t9.5 -24t-9.5 -24t-24.5 -10t-24.5 10z" />
    <glyph glyph-name="uni1ED3" unicode="&#x1ed3;" horiz-adv-x="467" 
d="M367 464.5q47 -67.5 47 -201.5q0 -133 -48 -203.5t-133 -70.5t-132.5 70t-47.5 201q0 133 48 202.5t133 69.5q86 0 133 -67.5zM135 436.5q-35 -56.5 -35 -176.5q0 -117 34.5 -174t98.5 -57q134 0 134 234q0 230 -133 230q-64 0 -99 -56.5zM134 587l-20 21l105 100h27
l106 -100l-21 -21l-98 79zM76 831l90 -130l-23 -18l-101 121z" />
    <glyph glyph-name="uni1ED5" unicode="&#x1ed5;" horiz-adv-x="467" 
d="M367 464.5q47 -67.5 47 -201.5q0 -133 -48 -203.5t-133 -70.5t-132.5 70t-47.5 201q0 133 48 202.5t133 69.5q86 0 133 -67.5zM135 436.5q-35 -56.5 -35 -176.5q0 -117 34.5 -174t98.5 -57q134 0 134 234q0 230 -133 230q-64 0 -99 -56.5zM134 587l-20 21l105 100h27
l106 -100l-21 -21l-98 79zM315 756q28 2 42 13t14 36q0 42 -39 42q-14 0 -23.5 -3t-21.5 -10l-14 28q30 20 65 20q34 0 54 -20.5t20 -54.5q0 -65 -60 -74v-55h-37v78z" />
    <glyph glyph-name="uni1ED7" unicode="&#x1ed7;" horiz-adv-x="467" 
d="M367 464.5q47 -67.5 47 -201.5q0 -133 -48 -203.5t-133 -70.5t-132.5 70t-47.5 201q0 133 48 202.5t133 69.5q86 0 133 -67.5zM135 436.5q-35 -56.5 -35 -176.5q0 -117 34.5 -174t98.5 -57q134 0 134 234q0 230 -133 230q-64 0 -99 -56.5zM134 577l-20 21l105 100h27
l106 -100l-21 -21l-98 79zM255 747.5q-12 6.5 -30 18.5q-13 10 -22 14.5t-18 4.5q-14 0 -24 -8.5t-22 -28.5l-27 13q31 60 72 60q13 0 25.5 -6t27.5 -18q16 -11 25 -15.5t19 -4.5q13 0 23.5 9.5t23.5 32.5l26 -12q-27 -66 -72 -66q-15 0 -27 6.5z" />
    <glyph glyph-name="uni020D" unicode="&#x20d;" horiz-adv-x="467" 
d="M367 464.5q47 -67.5 47 -201.5q0 -133 -48 -203.5t-133 -70.5t-132.5 70t-47.5 201q0 133 48 202.5t133 69.5q86 0 133 -67.5zM135 436.5q-35 -56.5 -35 -176.5q0 -117 34.5 -174t98.5 -57q134 0 134 234q0 230 -133 230q-64 0 -99 -56.5zM141 803l63 -145l-28 -13
l-74 138zM243 802l58 -140l-28 -12l-68 132z" />
    <glyph glyph-name="odieresis" unicode="&#xf6;" horiz-adv-x="467" 
d="M367 464.5q47 -67.5 47 -201.5q0 -133 -48 -203.5t-133 -70.5t-132.5 70t-47.5 201q0 133 48 202.5t133 69.5q86 0 133 -67.5zM135 436.5q-35 -56.5 -35 -176.5q0 -117 34.5 -174t98.5 -57q134 0 134 234q0 230 -133 230q-64 0 -99 -56.5zM181 722.5q9 -9.5 9 -23.5
t-9 -23.5t-23 -9.5t-23 9.5t-9 23.5t9 23.5t23 9.5t23 -9.5zM333.5 722.5q9.5 -9.5 9.5 -23.5t-9.5 -23.5t-23.5 -9.5t-23 9.5t-9 23.5t9 23.5t23 9.5t23.5 -9.5z" />
    <glyph glyph-name="uni022B" unicode="&#x22b;" horiz-adv-x="467" 
d="M367 464.5q47 -67.5 47 -201.5q0 -133 -48 -203.5t-133 -70.5t-132.5 70t-47.5 201q0 133 48 202.5t133 69.5q86 0 133 -67.5zM135 436.5q-35 -56.5 -35 -176.5q0 -117 34.5 -174t98.5 -57q134 0 134 234q0 230 -133 230q-64 0 -99 -56.5zM181 692.5q9 -9.5 9 -23.5
t-9 -23.5t-23 -9.5t-23 9.5t-9 23.5t9 23.5t23 9.5t23 -9.5zM333.5 692.5q9.5 -9.5 9.5 -23.5t-9.5 -23.5t-23.5 -9.5t-23 9.5t-9 23.5t9 23.5t23 9.5t23.5 -9.5zM331 767h-193v37h193v-37z" />
    <glyph glyph-name="uni022F" unicode="&#x22f;" horiz-adv-x="467" 
d="M367 464.5q47 -67.5 47 -201.5q0 -133 -48 -203.5t-133 -70.5t-132.5 70t-47.5 201q0 133 48 202.5t133 69.5q86 0 133 -67.5zM135 436.5q-35 -56.5 -35 -176.5q0 -117 34.5 -174t98.5 -57q134 0 134 234q0 230 -133 230q-64 0 -99 -56.5zM258.5 733q9.5 -10 9.5 -24
t-9.5 -24t-24.5 -10t-24.5 10t-9.5 24t9.5 24t24.5 10t24.5 -10z" />
    <glyph glyph-name="uni0231" unicode="&#x231;" horiz-adv-x="467" 
d="M367 464.5q47 -67.5 47 -201.5q0 -133 -48 -203.5t-133 -70.5t-132.5 70t-47.5 201q0 133 48 202.5t133 69.5q86 0 133 -67.5zM135 436.5q-35 -56.5 -35 -176.5q0 -117 34.5 -174t98.5 -57q134 0 134 234q0 230 -133 230q-64 0 -99 -56.5zM259.5 683q9.5 -10 9.5 -24
t-9.5 -24t-24.5 -10t-24.5 10t-9.5 24t9.5 24t24.5 10t24.5 -10zM331 754h-193v37h193v-37z" />
    <glyph glyph-name="uni1ECD" unicode="&#x1ecd;" horiz-adv-x="467" 
d="M367 464.5q47 -67.5 47 -201.5q0 -133 -48 -203.5t-133 -70.5t-132.5 70t-47.5 201q0 133 48 202.5t133 69.5q86 0 133 -67.5zM135 436.5q-35 -56.5 -35 -176.5q0 -117 34.5 -174t98.5 -57q134 0 134 234q0 230 -133 230q-64 0 -99 -56.5zM209.5 -149q-9.5 10 -9.5 24
t9.5 24t24.5 10t24.5 -10t9.5 -24t-9.5 -24t-24.5 -10t-24.5 10z" />
    <glyph glyph-name="ograve" unicode="&#xf2;" horiz-adv-x="467" 
d="M367 464.5q47 -67.5 47 -201.5q0 -133 -48 -203.5t-133 -70.5t-132.5 70t-47.5 201q0 133 48 202.5t133 69.5q86 0 133 -67.5zM135 436.5q-35 -56.5 -35 -176.5q0 -117 34.5 -174t98.5 -57q134 0 134 234q0 230 -133 230q-64 0 -99 -56.5zM173 772l151 -99l-16 -25
l-158 84z" />
    <glyph glyph-name="uni1ECF" unicode="&#x1ecf;" horiz-adv-x="467" 
d="M367 464.5q47 -67.5 47 -201.5q0 -133 -48 -203.5t-133 -70.5t-132.5 70t-47.5 201q0 133 48 202.5t133 69.5q86 0 133 -67.5zM135 436.5q-35 -56.5 -35 -176.5q0 -117 34.5 -174t98.5 -57q134 0 134 234q0 230 -133 230q-64 0 -99 -56.5zM215 697q28 2 42 13t14 36
q0 42 -39 42q-14 0 -23.5 -3t-21.5 -10l-14 28q30 20 65 20q34 0 54 -20.5t20 -54.5q0 -65 -60 -74v-55h-37v78z" />
    <glyph glyph-name="ohorn" unicode="&#x1a1;" horiz-adv-x="479" 
d="M436 463q-17 -21 -52 -28q30 -68 30 -172q0 -133 -48 -203.5t-133 -70.5t-132.5 70t-47.5 201q0 133 48 202.5t133 69.5q88 0 134 -69q25 5 36 18.5t11 40.5q0 34 -11 72l33 11q16 -42 16 -83q0 -38 -17 -59zM367 263q0 230 -133 230q-64 0 -99 -56.5t-35 -176.5
q0 -117 34.5 -174t98.5 -57q134 0 134 234z" />
    <glyph glyph-name="uni1EDB" unicode="&#x1edb;" horiz-adv-x="479" 
d="M315 732l-159 -84l-16 25l152 99zM436 463q-17 -21 -52 -28q30 -68 30 -172q0 -133 -48 -203.5t-133 -70.5t-132.5 70t-47.5 201q0 133 48 202.5t133 69.5q88 0 134 -69q25 5 36 18.5t11 40.5q0 34 -11 72l33 11q16 -42 16 -83q0 -38 -17 -59zM367 263q0 230 -133 230
q-64 0 -99 -56.5t-35 -176.5q0 -117 34.5 -174t98.5 -57q134 0 134 234z" />
    <glyph glyph-name="uni1EE3" unicode="&#x1ee3;" horiz-adv-x="479" 
d="M436 463q-17 -21 -52 -28q30 -68 30 -172q0 -133 -48 -203.5t-133 -70.5t-132.5 70t-47.5 201q0 133 48 202.5t133 69.5q88 0 134 -69q25 5 36 18.5t11 40.5q0 34 -11 72l33 11q16 -42 16 -83q0 -38 -17 -59zM367 263q0 230 -133 230q-64 0 -99 -56.5t-35 -176.5
q0 -117 34.5 -174t98.5 -57q134 0 134 234zM258.5 -101q9.5 -10 9.5 -24t-9.5 -24t-24.5 -10t-24.5 10t-9.5 24t9.5 24t24.5 10t24.5 -10z" />
    <glyph glyph-name="uni1EDD" unicode="&#x1edd;" horiz-adv-x="479" 
d="M324 673l-16 -25l-158 84l23 40zM436 463q-17 -21 -52 -28q30 -68 30 -172q0 -133 -48 -203.5t-133 -70.5t-132.5 70t-47.5 201q0 133 48 202.5t133 69.5q88 0 134 -69q25 5 36 18.5t11 40.5q0 34 -11 72l33 11q16 -42 16 -83q0 -38 -17 -59zM367 263q0 230 -133 230
q-64 0 -99 -56.5t-35 -176.5q0 -117 34.5 -174t98.5 -57q134 0 134 234z" />
    <glyph glyph-name="uni1EDF" unicode="&#x1edf;" horiz-adv-x="479" 
d="M208.5 785q-9.5 -3 -21.5 -10l-14 28q30 20 65 20q34 0 54 -20.5t20 -54.5q0 -65 -60 -74v-55h-37v78q28 2 42 13t14 36q0 42 -39 42q-14 0 -23.5 -3zM436 463q-17 -21 -52 -28q30 -68 30 -172q0 -133 -48 -203.5t-133 -70.5t-132.5 70t-47.5 201q0 133 48 202.5
t133 69.5q88 0 134 -69q25 5 36 18.5t11 40.5q0 34 -11 72l33 11q16 -42 16 -83q0 -38 -17 -59zM367 263q0 230 -133 230q-64 0 -99 -56.5t-35 -176.5q0 -117 34.5 -174t98.5 -57q134 0 134 234z" />
    <glyph glyph-name="uni1EE1" unicode="&#x1ee1;" horiz-adv-x="479" 
d="M162 706.5q-10 -8.5 -22 -28.5l-27 13q31 60 72 60q13 0 25.5 -6t27.5 -18q16 -11 25 -15.5t19 -4.5q13 0 23.5 9.5t23.5 32.5l26 -12q-27 -66 -72 -66q-15 0 -27 6.5t-30 18.5q-13 10 -22 14.5t-18 4.5q-14 0 -24 -8.5zM436 463q-17 -21 -52 -28q30 -68 30 -172
q0 -133 -48 -203.5t-133 -70.5t-132.5 70t-47.5 201q0 133 48 202.5t133 69.5q88 0 134 -69q25 5 36 18.5t11 40.5q0 34 -11 72l33 11q16 -42 16 -83q0 -38 -17 -59zM367 263q0 230 -133 230q-64 0 -99 -56.5t-35 -176.5q0 -117 34.5 -174t98.5 -57q134 0 134 234z" />
    <glyph glyph-name="ohungarumlaut" unicode="&#x151;" horiz-adv-x="467" 
d="M367 464.5q47 -67.5 47 -201.5q0 -133 -48 -203.5t-133 -70.5t-132.5 70t-47.5 201q0 133 48 202.5t133 69.5q86 0 133 -67.5zM135 436.5q-35 -56.5 -35 -176.5q0 -117 34.5 -174t98.5 -57q134 0 134 234q0 230 -133 230q-64 0 -99 -56.5zM327 803l39 -20l-74 -138
l-28 13zM225 802l38 -20l-68 -132l-28 12z" />
    <glyph glyph-name="uni01A3" unicode="&#x1a3;" horiz-adv-x="627" 
d="M509.5 498.5q29.5 -33.5 29.5 -95.5v-605l-45 7v598q0 91 -71 91q-34 0 -67 -15q58 -69 58 -216q0 -133 -48 -203.5t-133 -70.5t-132.5 70t-47.5 201q0 133 48 202.5t133 69.5q55 0 95 -28q46 28 97 28q54 0 83.5 -33.5zM367 263q0 230 -133 230q-64 0 -99 -56.5
t-35 -176.5q0 -117 34.5 -174t98.5 -57q134 0 134 234z" />
    <glyph glyph-name="uni020F" unicode="&#x20f;" horiz-adv-x="467" 
d="M367 464.5q47 -67.5 47 -201.5q0 -133 -48 -203.5t-133 -70.5t-132.5 70t-47.5 201q0 133 48 202.5t133 69.5q86 0 133 -67.5zM135 436.5q-35 -56.5 -35 -176.5q0 -117 34.5 -174t98.5 -57q134 0 134 234q0 230 -133 230q-64 0 -99 -56.5zM305 708q28 -27 33 -75l-30 -7
q-15 72 -74 72q-58 0 -74 -72l-30 7q5 48 33 75t71 27t71 -27z" />
    <glyph glyph-name="omacron" unicode="&#x14d;" horiz-adv-x="467" 
d="M367 464.5q47 -67.5 47 -201.5q0 -133 -48 -203.5t-133 -70.5t-132.5 70t-47.5 201q0 133 48 202.5t133 69.5q86 0 133 -67.5zM135 436.5q-35 -56.5 -35 -176.5q0 -117 34.5 -174t98.5 -57q134 0 134 234q0 230 -133 230q-64 0 -99 -56.5zM331 680h-193v37h193v-37z" />
    <glyph glyph-name="uni1E53" unicode="&#x1e53;" horiz-adv-x="467" 
d="M367 464.5q47 -67.5 47 -201.5q0 -133 -48 -203.5t-133 -70.5t-132.5 70t-47.5 201q0 133 48 202.5t133 69.5q86 0 133 -67.5zM135 436.5q-35 -56.5 -35 -176.5q0 -117 34.5 -174t98.5 -57q134 0 134 234q0 230 -133 230q-64 0 -99 -56.5zM331 622h-193v37h193v-37z
M301 832l21 -40l-160 -76l-13 27z" />
    <glyph glyph-name="uni1E51" unicode="&#x1e51;" horiz-adv-x="467" 
d="M367 464.5q47 -67.5 47 -201.5q0 -133 -48 -203.5t-133 -70.5t-132.5 70t-47.5 201q0 133 48 202.5t133 69.5q86 0 133 -67.5zM135 436.5q-35 -56.5 -35 -176.5q0 -117 34.5 -174t98.5 -57q134 0 134 234q0 230 -133 230q-64 0 -99 -56.5zM331 622h-193v37h193v-37z
M171 832l151 -90l-14 -26l-159 75z" />
    <glyph glyph-name="uniA7B7" unicode="&#xa7b7;" horiz-adv-x="637" 
d="M572 236q0 -247 -143 -247q-48 0 -76 26.5t-34 76.5q-9 -50 -37.5 -76.5t-75.5 -26.5q-141 0 -141 249q0 83 13 150t34 134h45q-46 -146 -46 -286q0 -113 25.5 -160t73.5 -47q87 0 87 140v183l44 7v-191q0 -139 84 -139q48 0 75 44.5t27 161.5q0 74 -11.5 143t-33.5 144
h45q45 -135 45 -286z" />
    <glyph glyph-name="uni0277" unicode="&#x277;" horiz-adv-x="614" 
d="M498.5 455.5q62.5 -76.5 62.5 -219.5q0 -247 -144 -247q-47 0 -75 26.5t-35 76.5q-9 -50 -37 -76.5t-75 -26.5q-142 0 -142 249q0 142 63.5 218t191.5 76t190.5 -76.5zM488 74q27 45 27 161q0 130 -49.5 194t-157.5 64t-158.5 -64t-50.5 -193q0 -112 25.5 -159.5
t73.5 -47.5q87 0 87 140v138l44 6v-145q0 -139 85 -139q47 0 74 45z" />
    <glyph glyph-name="uni01EB" unicode="&#x1eb;" horiz-adv-x="467" 
d="M215.5 -56.5q-22.5 -26.5 -22.5 -64.5q0 -52 53 -52q20 0 47 6l-4 -39q-24 -6 -47 -6q-44 0 -67 24t-23 64q0 35 17.5 62t53.5 51q-80 5 -125 74.5t-45 196.5q0 133 48 202.5t133 69.5q86 0 133 -67.5t47 -201.5q0 -108 -32 -175.5t-91 -88.5q-53 -29 -75.5 -55.5z
M134.5 86q34.5 -57 98.5 -57q134 0 134 234q0 230 -133 230q-64 0 -99 -56.5t-35 -176.5q0 -117 34.5 -174z" />
    <glyph glyph-name="uni01ED" unicode="&#x1ed;" horiz-adv-x="467" 
d="M331 717v-37h-193v37h193zM215.5 -56.5q-22.5 -26.5 -22.5 -64.5q0 -52 53 -52q20 0 47 6l-4 -39q-24 -6 -47 -6q-44 0 -67 24t-23 64q0 35 17.5 62t53.5 51q-80 5 -125 74.5t-45 196.5q0 133 48 202.5t133 69.5q86 0 133 -67.5t47 -201.5q0 -108 -32 -175.5t-91 -88.5
q-53 -29 -75.5 -55.5zM134.5 86q34.5 -57 98.5 -57q134 0 134 234q0 230 -133 230q-64 0 -99 -56.5t-35 -176.5q0 -117 34.5 -174z" />
    <glyph glyph-name="uni0254" unicode="&#x254;" horiz-adv-x="377" 
d="M20 47l24 27q26 -23 49 -34t53 -11q131 0 131 234q0 120 -32 175t-93 55q-32 0 -56 -10t-49 -31l-24 26q54 54 130 54q81 0 126 -66.5t45 -202.5t-47 -205t-130 -69q-71 0 -127 58z" />
    <glyph glyph-name="oslash" unicode="&#xf8;" horiz-adv-x="467" 
d="M414 263q0 -133 -48 -203.5t-133 -70.5q-26 0 -52 8l-33 -120l-38 10l37 126q-46 29 -70 91.5t-24 155.5q0 133 48 202.5t133 69.5q29 0 53 -7l34 120l37 -10l-36 -127q92 -58 92 -245zM163 50l114 436q-18 7 -43 7q-65 0 -100 -56.5t-35 -176.5q0 -162 64 -210zM368 263
q0 160 -62 208l-115 -436q18 -7 42 -7q135 0 135 235z" />
    <glyph glyph-name="oslashacute" unicode="&#x1ff;" horiz-adv-x="467" 
d="M414 263q0 -133 -48 -203.5t-133 -70.5q-26 0 -52 8l-33 -120l-38 10l37 126q-46 29 -70 91.5t-24 155.5q0 133 48 202.5t133 69.5q29 0 53 -7l34 120l37 -10l-36 -127q92 -58 92 -245zM163 50l114 436q-18 7 -43 7q-65 0 -100 -56.5t-35 -176.5q0 -162 64 -210zM368 263
q0 160 -62 208l-115 -436q18 -7 42 -7q135 0 135 235zM292 772l23 -40l-159 -84l-16 25z" />
    <glyph glyph-name="otilde" unicode="&#xf5;" horiz-adv-x="467" 
d="M367 464.5q47 -67.5 47 -201.5q0 -133 -48 -203.5t-133 -70.5t-132.5 70t-47.5 201q0 133 48 202.5t133 69.5q86 0 133 -67.5zM135 436.5q-35 -56.5 -35 -176.5q0 -117 34.5 -174t98.5 -57q134 0 134 234q0 230 -133 230q-64 0 -99 -56.5zM256 677.5q-12 6.5 -30 18.5
q-13 10 -22 14.5t-18 4.5q-14 0 -24 -8.5t-22 -28.5l-27 13q31 60 72 60q13 0 25.5 -6t27.5 -18q16 -11 25 -15.5t19 -4.5q13 0 23.5 9.5t23.5 32.5l26 -12q-28 -66 -72 -66q-15 0 -27 6.5z" />
    </font>
</defs>
</svg>
