<?xml version="1.0" standalone="no"?>
<!DOCTYPE svg PUBLIC "-//W3C//DTD SVG 1.1//EN" "http://www.w3.org/Graphics/SVG/1.1/DTD/svg11.dtd" >
<svg>
<metadata>
Created by FontForge 20120731 at Fri May  5 09:45:05 2017
 By www-data
Digitized data copyright 2012-2016, The Mozilla Foundation and Telefonica S.A.
</metadata>
<defs>
<font id="FiraSansCondensed-Thin" horiz-adv-x="504" >
  <font-face 
    font-family="Fira Sans Condensed Thin"
    font-weight="250"
    font-stretch="condensed"
    units-per-em="1000"
    panose-1="2 11 3 3 5 0 0 2 0 4"
    ascent="800"
    descent="-200"
    x-height="519"
    cap-height="681"
    bbox="-641 -350 1360 1050"
    underline-thickness="50"
    underline-position="-50"
    unicode-range="U+000D-FEFF"
  />
<missing-glyph horiz-adv-x="666" 
d="M543 1050v-1400h-420v1400h420zM504 1012h-341v-1324h341v1324zM409.5 419q25.5 -32 25.5 -83q0 -53 -22.5 -82t-72.5 -36v-45q0 -11 -7.5 -17.5t-17.5 -6.5t-17.5 6.5t-7.5 17.5v84q53 3 72 19.5t19 57.5q0 33 -13 51t-48 18q-29 0 -52 -11q-8 -3 -13 -3
q-11 0 -17.5 6.5t-6.5 16.5q0 19 29.5 29t63.5 10q60 0 85.5 -32zM340 110q10 -10 10 -25q0 -16 -10 -26.5t-25 -10.5t-25 10.5t-10 26.5q0 15 10 25t25 10t25 -10z" />
    <glyph glyph-name="fi" unicode="fi" horiz-adv-x="495" 
d="M351 699l-9 -18q-61 35 -118 35q-47 0 -70.5 -22t-23.5 -77v-98h260v-519h-22v499h-238v-499h-22v499h-80v20h80v102q0 59 30 87.5t86 28.5q64 0 127 -38z" />
    <glyph glyph-name="fl" unicode="fl" horiz-adv-x="517" 
d="M478 0q-24 -10 -43 -10q-31 0 -48.5 19.5t-17.5 57.5v622q-36 14 -68 20.5t-68 6.5q-103 0 -103 -96v-101h132l-4 -20h-128v-499h-22v499h-80v20h80v104q0 54 32.5 84t90.5 30q36 0 68 -7t71 -21l21 3v-645q0 -57 46 -57q18 0 34 8z" />
    <glyph glyph-name=".notdef" horiz-adv-x="666" 
d="M543 1050v-1400h-420v1400h420zM504 1012h-341v-1324h341v1324zM409.5 419q25.5 -32 25.5 -83q0 -53 -22.5 -82t-72.5 -36v-45q0 -11 -7.5 -17.5t-17.5 -6.5t-17.5 6.5t-7.5 17.5v84q53 3 72 19.5t19 57.5q0 33 -13 51t-48 18q-29 0 -52 -11q-8 -3 -13 -3
q-11 0 -17.5 6.5t-6.5 16.5q0 19 29.5 29t63.5 10q60 0 85.5 -32zM340 110q10 -10 10 -25q0 -16 -10 -26.5t-25 -10.5t-25 10.5t-10 26.5q0 15 10 25t25 10t25 -10z" />
    <glyph glyph-name="nonmarkingreturn" unicode="&#xd;" horiz-adv-x="265" 
 />
    <glyph glyph-name="space" unicode=" " horiz-adv-x="265" 
 />
    <glyph glyph-name="A" unicode="A" horiz-adv-x="509" 
d="M458 0l-62 203h-284l-62 -203h-22l212 681h28l213 -681h-23zM119 224h270l-135 439z" />
    <glyph glyph-name="Aacute" unicode="&#xc1;" horiz-adv-x="509" 
d="M458 0l-62 203h-284l-62 -203h-22l212 681h28l213 -681h-23zM119 224h270l-135 439zM327 859l11 -22l-161 -73l-7 15z" />
    <glyph glyph-name="Abreve" unicode="&#x102;" horiz-adv-x="509" 
d="M458 0l-62 203h-284l-62 -203h-22l212 681h28l213 -681h-23zM119 224h270l-135 439zM189 792.5q-27 21.5 -33 54.5l16 4q9 -27 30.5 -43t52.5 -16q30 0 52 16t31 43l15 -4q-6 -33 -32.5 -54.5t-65.5 -21.5t-66 21.5z" />
    <glyph glyph-name="uni1EAE" unicode="&#x1eae;" horiz-adv-x="509" 
d="M458 0l-62 203h-284l-62 -203h-22l212 681h28l213 -681h-23zM119 224h270l-135 439zM189 758.5q-27 21.5 -33 54.5l16 4q9 -27 30.5 -43t52.5 -16q30 0 52 16t31 43l15 -4q-6 -33 -32.5 -54.5t-65.5 -21.5t-66 21.5zM332 972l19 -15l-94 -114l-13 10z" />
    <glyph glyph-name="uni1EB6" unicode="&#x1eb6;" horiz-adv-x="509" 
d="M458 0l-62 203h-284l-62 -203h-22l212 681h28l213 -681h-23zM119 224h270l-135 439zM189 792.5q-27 21.5 -33 54.5l16 4q9 -27 30.5 -43t52.5 -16q30 0 52 16t31 43l15 -4q-6 -33 -32.5 -54.5t-65.5 -21.5t-66 21.5zM240.5 -132q-5.5 6 -5.5 14t5.5 13.5t14.5 5.5
t14.5 -5.5t5.5 -13.5t-5.5 -14t-14.5 -6t-14.5 6z" />
    <glyph glyph-name="uni1EB0" unicode="&#x1eb0;" horiz-adv-x="509" 
d="M458 0l-62 203h-284l-62 -203h-22l212 681h28l213 -681h-23zM119 224h270l-135 439zM188 758.5q-27 21.5 -33 54.5l16 4q9 -27 30.5 -43t52.5 -16q30 0 52 16t31 43l15 -4q-6 -33 -32.5 -54.5t-65.5 -21.5t-66 21.5zM186 972l89 -119l-13 -10l-94 114z" />
    <glyph glyph-name="uni1EB2" unicode="&#x1eb2;" horiz-adv-x="509" 
d="M458 0l-62 203h-284l-62 -203h-22l212 681h28l213 -681h-23zM119 224h270l-135 439zM190 758.5q-27 21.5 -33 54.5l16 4q9 -27 30.5 -43t52.5 -16q30 0 52 16t31 43l15 -4q-6 -33 -32.5 -54.5t-65.5 -21.5t-66 21.5zM242 874q60 2 60 52q0 22 -12.5 34t-34.5 12
q-27 0 -50 -14l-9 16q28 18 61 18q31 0 49.5 -18t18.5 -48q0 -59 -62 -66v-43h-21v57z" />
    <glyph glyph-name="uni1EB4" unicode="&#x1eb4;" horiz-adv-x="509" 
d="M458 0l-62 203h-284l-62 -203h-22l212 681h28l213 -681h-23zM119 224h270l-135 439zM191 758.5q-27 21.5 -33 54.5l16 4q9 -27 30.5 -43t52.5 -16q30 0 52 16t31 43l15 -4q-6 -33 -32.5 -54.5t-65.5 -21.5t-66 21.5zM282 881q-13 6 -33 18q-15 10 -25 15t-20 5
q-15 0 -27 -8t-26 -27l-14 8q16 23 32 34.5t35 11.5q12 0 23 -5t30 -16q16 -11 28.5 -16.5t24.5 -5.5q15 0 27 9t26 31l14 -7q-15 -28 -31 -40.5t-36 -12.5q-15 0 -28 6z" />
    <glyph glyph-name="uni01CD" unicode="&#x1cd;" horiz-adv-x="509" 
d="M458 0l-62 203h-284l-62 -203h-22l212 681h28l213 -681h-23zM119 224h270l-135 439zM358 863l11 -12l-109 -91h-12l-108 91l10 12l104 -80z" />
    <glyph glyph-name="Acircumflex" unicode="&#xc2;" horiz-adv-x="509" 
d="M458 0l-62 203h-284l-62 -203h-22l212 681h28l213 -681h-23zM119 224h270l-135 439zM151 767l-11 12l108 90h12l109 -90l-11 -12l-104 79z" />
    <glyph glyph-name="uni1EA4" unicode="&#x1ea4;" horiz-adv-x="509" 
d="M458 0l-62 203h-284l-62 -203h-22l212 681h28l213 -681h-23zM119 224h270l-135 439zM153 738l-11 12l108 90h12l109 -90l-11 -12l-104 79zM419 953l19 -15l-94 -114l-13 10z" />
    <glyph glyph-name="uni1EAC" unicode="&#x1eac;" horiz-adv-x="509" 
d="M458 0l-62 203h-284l-62 -203h-22l212 681h28l213 -681h-23zM119 224h270l-135 439zM151 767l-11 12l108 90h12l109 -90l-11 -12l-104 79zM240.5 -132q-5.5 6 -5.5 14t5.5 13.5t14.5 5.5t14.5 -5.5t5.5 -13.5t-5.5 -14t-14.5 -6t-14.5 6z" />
    <glyph glyph-name="uni1EA6" unicode="&#x1ea6;" horiz-adv-x="509" 
d="M458 0l-62 203h-284l-62 -203h-22l212 681h28l213 -681h-23zM119 224h270l-135 439zM151 738l-11 12l108 90h12l109 -90l-11 -12l-104 79zM95 953l89 -119l-13 -10l-94 114z" />
    <glyph glyph-name="uni1EA8" unicode="&#x1ea8;" horiz-adv-x="509" 
d="M458 0l-62 203h-284l-62 -203h-22l212 681h28l213 -681h-23zM119 224h270l-135 439zM151 738l-11 12l108 90h12l109 -90l-11 -12l-104 79zM339 861q60 2 60 52q0 22 -12.5 34t-34.5 12q-27 0 -50 -14l-9 16q28 18 61 18q31 0 49.5 -18t18.5 -48q0 -59 -62 -66v-43h-21v57
z" />
    <glyph glyph-name="uni1EAA" unicode="&#x1eaa;" horiz-adv-x="509" 
d="M458 0l-62 203h-284l-62 -203h-22l212 681h28l213 -681h-23zM119 224h270l-135 439zM151 738l-11 12l108 90h12l109 -90l-11 -12l-104 79zM279 892q-13 6 -33 18q-15 10 -25 15t-20 5q-15 0 -27 -8t-26 -27l-14 8q16 23 32 34.5t35 11.5q12 0 23 -5t30 -16
q16 -11 28.5 -16.5t24.5 -5.5q15 0 27 9t26 31l14 -7q-15 -28 -31 -40.5t-36 -12.5q-15 0 -28 6z" />
    <glyph glyph-name="uni0200" unicode="&#x200;" horiz-adv-x="509" 
d="M458 0l-62 203h-284l-62 -203h-22l212 681h28l213 -681h-23zM119 224h270l-135 439zM149 917l65 -131l-16 -8l-70 129zM249 916l59 -127l-15 -7l-65 123z" />
    <glyph glyph-name="Adieresis" unicode="&#xc4;" horiz-adv-x="509" 
d="M458 0l-62 203h-284l-62 -203h-22l212 681h28l213 -681h-23zM119 224h270l-135 439zM196.5 832.5q5.5 -5.5 5.5 -14.5q0 -8 -5.5 -13.5t-14.5 -5.5q-8 0 -13.5 5.5t-5.5 13.5t5.5 14t13.5 6q9 0 14.5 -5.5zM347.5 832q5.5 -6 5.5 -14t-5.5 -13.5t-14.5 -5.5t-14.5 5.5
t-5.5 13.5t5.5 14t14.5 6t14.5 -6z" />
    <glyph glyph-name="uni01DE" unicode="&#x1de;" horiz-adv-x="509" 
d="M458 0l-62 203h-284l-62 -203h-22l212 681h28l213 -681h-23zM119 224h270l-135 439zM193.5 775.5q5.5 -5.5 5.5 -14.5q0 -8 -5.5 -13.5t-14.5 -5.5q-8 0 -13.5 5.5t-5.5 13.5t5.5 14t13.5 6q9 0 14.5 -5.5zM344.5 775q5.5 -6 5.5 -14t-5.5 -13.5t-14.5 -5.5t-14.5 5.5
t-5.5 13.5t5.5 14t14.5 6t14.5 -6zM350 850h-189v21h189v-21z" />
    <glyph glyph-name="uni0226" unicode="&#x226;" horiz-adv-x="509" 
d="M458 0l-62 203h-284l-62 -203h-22l212 681h28l213 -681h-23zM119 224h270l-135 439zM270.5 844q5.5 -6 5.5 -14t-5.5 -13.5t-14.5 -5.5t-14.5 5.5t-5.5 13.5t5.5 14t14.5 6t14.5 -6z" />
    <glyph glyph-name="uni1EA0" unicode="&#x1ea0;" horiz-adv-x="509" 
d="M458 0l-62 203h-284l-62 -203h-22l212 681h28l213 -681h-23zM119 224h270l-135 439zM240.5 -132q-5.5 6 -5.5 14t5.5 13.5t14.5 5.5t14.5 -5.5t5.5 -13.5t-5.5 -14t-14.5 -6t-14.5 6z" />
    <glyph glyph-name="uni01E0" unicode="&#x1e0;" horiz-adv-x="509" 
d="M458 0l-62 203h-284l-62 -203h-22l212 681h28l213 -681h-23zM119 224h270l-135 439zM269.5 780q5.5 -6 5.5 -14t-5.5 -13.5t-14.5 -5.5t-14.5 5.5t-5.5 13.5t5.5 14t14.5 6t14.5 -6zM350 849h-189v21h189v-21z" />
    <glyph glyph-name="Agrave" unicode="&#xc0;" horiz-adv-x="509" 
d="M458 0l-62 203h-284l-62 -203h-22l212 681h28l213 -681h-23zM119 224h270l-135 439zM184 859l156 -81l-7 -15l-161 74z" />
    <glyph glyph-name="uni1EA2" unicode="&#x1ea2;" horiz-adv-x="509" 
d="M458 0l-62 203h-284l-62 -203h-22l212 681h28l213 -681h-23zM119 224h270l-135 439zM245 839q60 2 60 52q0 22 -12.5 34t-34.5 12q-27 0 -50 -14l-9 16q28 18 61 18q31 0 49.5 -18t18.5 -48q0 -59 -62 -66v-43h-21v57z" />
    <glyph glyph-name="uni0202" unicode="&#x202;" horiz-adv-x="509" 
d="M458 0l-62 203h-284l-62 -203h-22l212 681h28l213 -681h-23zM119 224h270l-135 439zM320.5 863.5q26.5 -23.5 32.5 -62.5l-16 -4q-8 34 -29 51.5t-53 17.5q-67 0 -83 -69l-16 4q6 39 32.5 62.5t66.5 23.5q39 0 65.5 -23.5z" />
    <glyph glyph-name="uni2C6D" unicode="&#x2c6d;" horiz-adv-x="597" 
d="M493 43q10 -16 36 -29l-8 -19q-31 13 -44.5 32.5t-15.5 53.5q-31 -45 -70 -68t-92 -23q-67 0 -118.5 37.5t-81 114t-29.5 187.5q0 118 30 199.5t82.5 122t120.5 40.5q97 0 159 -77l1 67h20v-589q0 -33 10 -49zM461 112v472q-27 41 -67.5 63.5t-89.5 22.5
q-62 0 -109.5 -37.5t-74.5 -113.5t-27 -190q0 -157 57 -237t149 -80q101 0 162 100z" />
    <glyph glyph-name="Amacron" unicode="&#x100;" horiz-adv-x="509" 
d="M458 0l-62 203h-284l-62 -203h-22l212 681h28l213 -681h-23zM119 224h270l-135 439zM350 811h-189v21h189v-21z" />
    <glyph glyph-name="Aogonek" unicode="&#x104;" horiz-adv-x="509" 
d="M384 -166q16 -15 47 -15q23 0 50 7l-2 -22q-27 -7 -49 -7q-41 0 -63 22t-22 58q0 41 28.5 71t82.5 57l-60 198h-284l-62 -203h-22l212 681h28l213 -681q-56 -27 -84.5 -54.5t-28.5 -68.5q0 -28 16 -43zM119 224h270l-135 439z" />
    <glyph glyph-name="Aring" unicode="&#xc5;" horiz-adv-x="509" 
d="M458 0l-62 203h-284l-62 -203h-22l212 681h28l213 -681h-23zM119 224h270l-135 439zM308 906q20 -21 20 -57q0 -37 -20 -58t-53 -21t-52.5 21t-19.5 57q0 37 19.5 58t52.5 21t53 -21zM216.5 893.5q-13.5 -15.5 -13.5 -45.5t13.5 -45t38.5 -15q26 0 39.5 15.5t13.5 45.5
q0 60 -53 60q-25 0 -38.5 -15.5z" />
    <glyph glyph-name="Aringacute" unicode="&#x1fa;" horiz-adv-x="509" 
d="M458 0l-62 203h-284l-62 -203h-22l212 681h28l213 -681h-23zM119 224h270l-135 439zM310 866q20 -21 20 -57q0 -37 -20 -58t-53 -21t-52.5 21t-19.5 57q0 37 19.5 58t52.5 21t53 -21zM218.5 853.5q-13.5 -15.5 -13.5 -45.5t13.5 -45t38.5 -15q26 0 39.5 15.5t13.5 45.5
q0 60 -53 60q-25 0 -38.5 -15.5zM330 1002l11 -22l-161 -73l-7 15z" />
    <glyph glyph-name="uni023A" unicode="&#x23a;" horiz-adv-x="509" 
d="M458 0l-62 203h-157l-63 -269l-17 4l63 265h-110l-62 -203h-22l212 681h28l38 -122l42 178l16 -4l-48 -205l165 -528h-23zM119 224h108l70 298l-43 141zM244 224h145l-82 267z" />
    <glyph glyph-name="Atilde" unicode="&#xc3;" horiz-adv-x="509" 
d="M458 0l-62 203h-284l-62 -203h-22l212 681h28l213 -681h-23zM119 224h270l-135 439zM280 810q-13 6 -33 18q-15 10 -25 15t-20 5q-15 0 -27 -8t-26 -27l-14 8q16 23 32 34.5t35 11.5q12 0 23.5 -5t29.5 -16q17 -11 28.5 -16.5t24.5 -5.5q15 0 27 9t26 31l14 -7
q-15 -28 -31 -40.5t-36 -12.5q-15 0 -28 6z" />
    <glyph glyph-name="AE" unicode="&#xc6;" horiz-adv-x="682" 
d="M435 21h208v-21h-226l-46 196h-271l-67 -196h-22l237 681h347l-3 -21h-308l69 -290h235v-21h-231zM108 218h258l-105 445z" />
    <glyph glyph-name="AEacute" unicode="&#x1fc;" horiz-adv-x="682" 
d="M435 21h208v-21h-226l-46 196h-271l-67 -196h-22l237 681h347l-3 -21h-308l69 -290h235v-21h-231zM108 218h258l-105 445zM475 859l11 -22l-161 -73l-7 15z" />
    <glyph glyph-name="uni01E2" unicode="&#x1e2;" horiz-adv-x="682" 
d="M435 21h208v-21h-226l-46 196h-271l-67 -196h-22l237 681h347l-3 -21h-308l69 -290h235v-21h-231zM108 218h258l-105 445zM498 811h-189v21h189v-21z" />
    <glyph glyph-name="B" unicode="B" horiz-adv-x="529" 
d="M430.5 312q43.5 -44 43.5 -128q0 -91 -55.5 -137.5t-154.5 -46.5h-154v681h123q101 0 155.5 -43t54.5 -125q0 -64 -33 -102.5t-93 -49.5q70 -5 113.5 -49zM133 660v-290h139q68 0 107.5 39.5t39.5 102.5q0 73 -46.5 110.5t-136.5 37.5h-103zM402 61.5q49 40.5 49 122.5
q0 81 -46.5 123.5t-127.5 42.5h-144v-329h132q88 0 137 40.5z" />
    <glyph glyph-name="uni1E02" unicode="&#x1e02;" horiz-adv-x="529" 
d="M430.5 312q43.5 -44 43.5 -128q0 -91 -55.5 -137.5t-154.5 -46.5h-154v681h123q101 0 155.5 -43t54.5 -125q0 -64 -33 -102.5t-93 -49.5q70 -5 113.5 -49zM133 660v-290h139q68 0 107.5 39.5t39.5 102.5q0 73 -46.5 110.5t-136.5 37.5h-103zM402 61.5q49 40.5 49 122.5
q0 81 -46.5 123.5t-127.5 42.5h-144v-329h132q88 0 137 40.5zM275.5 844q5.5 -6 5.5 -14t-5.5 -13.5t-14.5 -5.5t-14.5 5.5t-5.5 13.5t5.5 14t14.5 6t14.5 -6z" />
    <glyph glyph-name="uni1E04" unicode="&#x1e04;" horiz-adv-x="529" 
d="M430.5 312q43.5 -44 43.5 -128q0 -91 -55.5 -137.5t-154.5 -46.5h-154v681h123q101 0 155.5 -43t54.5 -125q0 -64 -33 -102.5t-93 -49.5q70 -5 113.5 -49zM133 660v-290h139q68 0 107.5 39.5t39.5 102.5q0 73 -46.5 110.5t-136.5 37.5h-103zM402 61.5q49 40.5 49 122.5
q0 81 -46.5 123.5t-127.5 42.5h-144v-329h132q88 0 137 40.5zM264.5 -132q-5.5 6 -5.5 14t5.5 13.5t14.5 5.5t14.5 -5.5t5.5 -13.5t-5.5 -14t-14.5 -6t-14.5 6z" />
    <glyph glyph-name="uniA7B4" unicode="&#xa7b4;" horiz-adv-x="529" 
d="M431 314q43 -42 43 -123q0 -93 -53.5 -142t-143.5 -49q-77 0 -144 29v-221h-23v873h123q101 0 155.5 -43t54.5 -125q0 -65 -33 -103t-93 -49q71 -5 114 -47zM404 64q47 43 47 127q0 78 -46 118.5t-128 40.5h-67l3 20h59q68 0 107.5 39t39.5 103q0 73 -46.5 110.5
t-136.5 37.5h-103v-610q68 -29 144 -29q80 0 127 43z" />
    <glyph glyph-name="uni0181" unicode="&#x181;" horiz-adv-x="568" 
d="M469.5 312q43.5 -44 43.5 -128q0 -91 -55.5 -137.5t-154.5 -46.5h-154v661h-27q-40 0 -60 -20.5t-20 -55.5q0 -23 6 -40.5t18 -36.5l-17 -10q-14 22 -21.5 40.5t-7.5 46.5q0 45 26.5 70.5t77.5 25.5h148q101 0 155.5 -43t54.5 -125q0 -64 -33 -102.5t-93 -49.5
q70 -5 113.5 -49zM172 660v-290h139q68 0 107.5 39.5t39.5 102.5q0 73 -46.5 110.5t-136.5 37.5h-103zM441 61.5q49 40.5 49 122.5q0 81 -46.5 123.5t-127.5 42.5h-144v-329h132q88 0 137 40.5z" />
    <glyph glyph-name="uni0181.ss02" horiz-adv-x="508" 
d="M399 356q54 -49 54 -145q0 -106 -55.5 -158.5t-153.5 -52.5h-134v681h286l-4 -21h-259v-255h110q102 0 156 -49zM382 68q47 47 47 143q0 87 -47 130t-137 43h-112v-363h116q86 0 133 47z" />
    <glyph glyph-name="uni0243" unicode="&#x243;" horiz-adv-x="525" 
d="M427.5 312q43.5 -44 43.5 -128q0 -91 -55.5 -137.5t-154.5 -46.5h-154v183h-83v21h83v477h123q101 0 155.5 -43t54.5 -125q0 -64 -33 -102.5t-93 -49.5q70 -5 113.5 -49zM130 660v-290h139q68 0 107.5 39.5t39.5 102.5q0 73 -46.5 110.5t-136.5 37.5h-103zM399 61.5
q49 40.5 49 122.5q0 81 -46.5 123.5t-127.5 42.5h-144v-146h171v-21h-171v-162h132q88 0 137 40.5z" />
    <glyph glyph-name="uni0182" unicode="&#x182;" horiz-adv-x="508" 
d="M399 356q54 -49 54 -145q0 -106 -55.5 -158.5t-153.5 -52.5h-134v681h286l-4 -21h-259v-255h110q102 0 156 -49zM382 68q47 47 47 143q0 87 -47 130t-137 43h-112v-363h116q86 0 133 47z" />
    <glyph glyph-name="C" unicode="C" horiz-adv-x="485" 
d="M391 676.5q34 -14.5 64 -43.5l-12 -15q-32 27 -61.5 39.5t-70.5 12.5q-98 0 -158 -81.5t-60 -248.5q0 -108 28 -181.5t76.5 -110t111.5 -36.5q46 0 77 14.5t63 42.5l14 -16q-67 -63 -155 -63q-70 0 -124 39.5t-84 118t-30 192.5q0 117 31 196t85 117t124 38
q47 0 81 -14.5z" />
    <glyph glyph-name="Cacute" unicode="&#x106;" horiz-adv-x="485" 
d="M391 676.5q34 -14.5 64 -43.5l-12 -15q-32 27 -61.5 39.5t-70.5 12.5q-98 0 -158 -81.5t-60 -248.5q0 -108 28 -181.5t76.5 -110t111.5 -36.5q46 0 77 14.5t63 42.5l14 -16q-67 -63 -155 -63q-70 0 -124 39.5t-84 118t-30 192.5q0 117 31 196t85 117t124 38
q47 0 81 -14.5zM380 859l11 -22l-161 -73l-7 15z" />
    <glyph glyph-name="Cacute.loclPLK" horiz-adv-x="485" 
d="M391 676.5q34 -14.5 64 -43.5l-12 -15q-32 27 -61.5 39.5t-70.5 12.5q-98 0 -158 -81.5t-60 -248.5q0 -108 28 -181.5t76.5 -110t111.5 -36.5q46 0 77 14.5t63 42.5l14 -16q-67 -63 -155 -63q-70 0 -124 39.5t-84 118t-30 192.5q0 117 31 196t85 117t124 38
q47 0 81 -14.5zM371 887l20 -14l-94 -142l-13 9z" />
    <glyph glyph-name="Ccaron" unicode="&#x10c;" horiz-adv-x="485" 
d="M391 676.5q34 -14.5 64 -43.5l-12 -15q-32 27 -61.5 39.5t-70.5 12.5q-98 0 -158 -81.5t-60 -248.5q0 -108 28 -181.5t76.5 -110t111.5 -36.5q46 0 77 14.5t63 42.5l14 -16q-67 -63 -155 -63q-70 0 -124 39.5t-84 118t-30 192.5q0 117 31 196t85 117t124 38
q47 0 81 -14.5zM411 863l11 -12l-109 -91h-12l-108 91l10 12l104 -80z" />
    <glyph glyph-name="Ccedilla" unicode="&#xc7;" horiz-adv-x="485" 
d="M391 -141q0 -34 -22.5 -52.5t-54.5 -18.5q-35 0 -62 18l10 16q23 -15 52 -15q24 0 39.5 13t15.5 39t-19.5 38t-61.5 13l5 80q-66 5 -116.5 46t-78.5 118t-28 186q0 117 31 196t85 117t124 38q47 0 81 -14.5t64 -43.5l-12 -15q-32 27 -61.5 39.5t-70.5 12.5
q-98 0 -158 -81.5t-60 -248.5q0 -108 28 -181.5t76.5 -110t111.5 -36.5q46 0 77 14.5t63 42.5l14 -16q-31 -29 -68 -46t-85 -17l-1 -64q82 -6 82 -67z" />
    <glyph glyph-name="Ccircumflex" unicode="&#x108;" horiz-adv-x="485" 
d="M391 676.5q34 -14.5 64 -43.5l-12 -15q-32 27 -61.5 39.5t-70.5 12.5q-98 0 -158 -81.5t-60 -248.5q0 -108 28 -181.5t76.5 -110t111.5 -36.5q46 0 77 14.5t63 42.5l14 -16q-67 -63 -155 -63q-70 0 -124 39.5t-84 118t-30 192.5q0 117 31 196t85 117t124 38
q47 0 81 -14.5zM204 767l-11 12l108 90h12l109 -90l-11 -12l-104 79z" />
    <glyph glyph-name="Cdotaccent" unicode="&#x10a;" horiz-adv-x="485" 
d="M391 676.5q34 -14.5 64 -43.5l-12 -15q-32 27 -61.5 39.5t-70.5 12.5q-98 0 -158 -81.5t-60 -248.5q0 -108 28 -181.5t76.5 -110t111.5 -36.5q46 0 77 14.5t63 42.5l14 -16q-67 -63 -155 -63q-70 0 -124 39.5t-84 118t-30 192.5q0 117 31 196t85 117t124 38
q47 0 81 -14.5zM323.5 844q5.5 -6 5.5 -14t-5.5 -13.5t-14.5 -5.5t-14.5 5.5t-5.5 13.5t5.5 14t14.5 6t14.5 -6z" />
    <glyph glyph-name="uniA7B3" unicode="&#xa7b3;" horiz-adv-x="431" 
d="M227 322l190 -421h-25l-179 407l-174 -407h-25l186 420l-164 360h26l152 -346l150 346h25z" />
    <glyph glyph-name="uni0187" unicode="&#x187;" horiz-adv-x="485" 
d="M603 784l-11 -15q-17 12 -32.5 18.5t-36.5 6.5q-31 0 -49.5 -20.5t-18.5 -65.5v-75l-13 -14q-31 26 -60.5 38.5t-70.5 12.5q-98 0 -158 -81.5t-60 -248.5q0 -108 28 -181.5t76.5 -110t111.5 -36.5q46 0 77 14.5t63 42.5l14 -16q-67 -63 -155 -63q-70 0 -124 39.5t-84 118
t-30 192.5q0 117 31 196t85 117t124 38q73 0 123 -42v60q0 51 24.5 78t65.5 27q44 0 80 -30z" />
    <glyph glyph-name="uni023B" unicode="&#x23b;" horiz-adv-x="485" 
d="M308 -10q-48 0 -91 20l-18 -76l-16 4l19 80q-62 36 -97 118t-35 204q0 117 31 196t85 117t124 38q24 0 49 -5l12 51l17 -4l-12 -51q42 -14 79 -49l-12 -15q-37 32 -72 43l-149 -629q42 -20 87 -20q46 0 77 14.5t63 42.5l14 -16q-67 -63 -155 -63zM123 151.5
q30 -75.5 84 -110.5l147 625q-17 4 -43 4q-98 0 -158 -81.5t-60 -248.5q0 -113 30 -188.5z" />
    <glyph glyph-name="D" unicode="D" horiz-adv-x="559" 
d="M414 609.5q75 -71.5 75 -261.5q0 -193 -76.5 -270.5t-188.5 -77.5h-114v681h110q119 0 194 -71.5zM133 660v-639h92q104 0 172 72.5t68 254.5t-68.5 247t-177.5 65h-86z" />
    <glyph glyph-name="uni01F1" unicode="&#x1f1;" horiz-adv-x="993" 
d="M414 609.5q75 -71.5 75 -261.5q0 -193 -76.5 -270.5t-188.5 -77.5h-114v681h110q119 0 194 -71.5zM133 660v-639h92q104 0 172 72.5t68 254.5t-68.5 247t-177.5 65h-86zM948 681v-19l-352 -640h340l-3 -22h-362v21l352 639h-318v21h343z" />
    <glyph glyph-name="uni01C4" unicode="&#x1c4;" horiz-adv-x="993" 
d="M414 609.5q75 -71.5 75 -261.5q0 -193 -76.5 -270.5t-188.5 -77.5h-114v681h110q119 0 194 -71.5zM133 660v-639h92q104 0 172 72.5t68 254.5t-68.5 247t-177.5 65h-86zM948 681v-19l-352 -640h340l-3 -22h-362v21l352 639h-318v21h343zM867 863l11 -12l-109 -91h-12
l-108 91l10 12l104 -80z" />
    <glyph glyph-name="uni0189" unicode="&#x189;" horiz-adv-x="557" 
d="M412 609.5q75 -71.5 75 -261.5q0 -193 -76.5 -270.5t-188.5 -77.5h-114v341h-84v22h84v318h110q119 0 194 -71.5zM395 93.5q68 72.5 68 254.5t-68.5 247t-177.5 65h-86v-297h171v-22h-171v-320h92q104 0 172 72.5z" />
    <glyph glyph-name="Eth" unicode="&#xd0;" horiz-adv-x="557" 
d="M412 609.5q75 -71.5 75 -261.5q0 -193 -76.5 -270.5t-188.5 -77.5h-114v341h-84v22h84v318h110q119 0 194 -71.5zM395 93.5q68 72.5 68 254.5t-68.5 247t-177.5 65h-86v-297h171v-22h-171v-320h92q104 0 172 72.5z" />
    <glyph glyph-name="Dcaron" unicode="&#x10e;" horiz-adv-x="559" 
d="M414 609.5q75 -71.5 75 -261.5q0 -193 -76.5 -270.5t-188.5 -77.5h-114v681h110q119 0 194 -71.5zM133 660v-639h92q104 0 172 72.5t68 254.5t-68.5 247t-177.5 65h-86zM368 863l11 -12l-109 -91h-12l-108 91l10 12l104 -80z" />
    <glyph glyph-name="uni1E12" unicode="&#x1e12;" horiz-adv-x="559" 
d="M414 609.5q75 -71.5 75 -261.5q0 -193 -76.5 -270.5t-188.5 -77.5h-114v681h110q119 0 194 -71.5zM133 660v-639h92q104 0 172 72.5t68 254.5t-68.5 247t-177.5 65h-86zM170 -183l-11 12l108 96h13l108 -96l-12 -12l-103 85z" />
    <glyph glyph-name="Dcroat" unicode="&#x110;" horiz-adv-x="557" 
d="M412 609.5q75 -71.5 75 -261.5q0 -193 -76.5 -270.5t-188.5 -77.5h-114v341h-84v22h84v318h110q119 0 194 -71.5zM395 93.5q68 72.5 68 254.5t-68.5 247t-177.5 65h-86v-297h171v-22h-171v-320h92q104 0 172 72.5z" />
    <glyph glyph-name="uni1E0A" unicode="&#x1e0a;" horiz-adv-x="559" 
d="M414 609.5q75 -71.5 75 -261.5q0 -193 -76.5 -270.5t-188.5 -77.5h-114v681h110q119 0 194 -71.5zM133 660v-639h92q104 0 172 72.5t68 254.5t-68.5 247t-177.5 65h-86zM280.5 844q5.5 -6 5.5 -14t-5.5 -13.5t-14.5 -5.5t-14.5 5.5t-5.5 13.5t5.5 14t14.5 6t14.5 -6z" />
    <glyph glyph-name="uni1E0C" unicode="&#x1e0c;" horiz-adv-x="559" 
d="M414 609.5q75 -71.5 75 -261.5q0 -193 -76.5 -270.5t-188.5 -77.5h-114v681h110q119 0 194 -71.5zM133 660v-639h92q104 0 172 72.5t68 254.5t-68.5 247t-177.5 65h-86zM258.5 -132q-5.5 6 -5.5 14t5.5 13.5t14.5 5.5t14.5 -5.5t5.5 -13.5t-5.5 -14t-14.5 -6t-14.5 6z
" />
    <glyph glyph-name="uni018A" unicode="&#x18a;" horiz-adv-x="598" 
d="M453 609.5q75 -71.5 75 -261.5q0 -193 -76.5 -270.5t-188.5 -77.5h-114v661h-27q-40 0 -60 -20.5t-20 -55.5q0 -23 6 -40.5t18 -36.5l-17 -10q-14 22 -21.5 40.5t-7.5 46.5q0 45 26.5 70.5t77.5 25.5h135q119 0 194 -71.5zM436 93.5q68 72.5 68 254.5t-68.5 247
t-177.5 65h-86v-639h92q104 0 172 72.5z" />
    <glyph glyph-name="uni1E0E" unicode="&#x1e0e;" horiz-adv-x="559" 
d="M414 609.5q75 -71.5 75 -261.5q0 -193 -76.5 -270.5t-188.5 -77.5h-114v681h110q119 0 194 -71.5zM133 660v-639h92q104 0 172 72.5t68 254.5t-68.5 247t-177.5 65h-86zM368 -139h-189v21h189v-21z" />
    <glyph glyph-name="uni018B" unicode="&#x18b;" horiz-adv-x="508" 
d="M397 680v-680h-136q-97 0 -151.5 50t-54.5 149q0 100 56.5 153t161.5 53h102v255h-262v21h285zM375 21v363h-102q-96 0 -145.5 -47t-49.5 -138q0 -90 47.5 -134t136.5 -44h113z" />
    <glyph glyph-name="uni01F2" unicode="&#x1f2;" horiz-adv-x="919" 
d="M414 609.5q75 -71.5 75 -261.5q0 -193 -76.5 -270.5t-188.5 -77.5h-114v681h110q119 0 194 -71.5zM133 660v-639h92q104 0 172 72.5t68 254.5t-68.5 247t-177.5 65h-86zM886 519v-18l-283 -480h277l-2 -21h-301v18l284 481h-260v20h285z" />
    <glyph glyph-name="uni01C5" unicode="&#x1c5;" horiz-adv-x="919" 
d="M414 609.5q75 -71.5 75 -261.5q0 -193 -76.5 -270.5t-188.5 -77.5h-114v681h110q119 0 194 -71.5zM133 660v-639h92q104 0 172 72.5t68 254.5t-68.5 247t-177.5 65h-86zM886 519v-18l-283 -480h277l-2 -21h-301v18l284 481h-260v20h285zM845 749l12 -12l-109 -96h-12
l-108 96l11 12l103 -85z" />
    <glyph glyph-name="E" unicode="E" horiz-adv-x="446" 
d="M400 681l-3 -21h-264v-290h228v-21h-228v-328h274v-21h-297v681h290z" />
    <glyph glyph-name="Eacute" unicode="&#xc9;" horiz-adv-x="446" 
d="M400 681l-3 -21h-264v-290h228v-21h-228v-328h274v-21h-297v681h290zM330 859l11 -22l-161 -73l-7 15z" />
    <glyph glyph-name="Ebreve" unicode="&#x114;" horiz-adv-x="446" 
d="M400 681l-3 -21h-264v-290h228v-21h-228v-328h274v-21h-297v681h290zM192 792.5q-27 21.5 -33 54.5l16 4q9 -27 30.5 -43t52.5 -16q30 0 52 16t31 43l15 -4q-6 -33 -32.5 -54.5t-65.5 -21.5t-66 21.5z" />
    <glyph glyph-name="Ecaron" unicode="&#x11a;" horiz-adv-x="446" 
d="M400 681l-3 -21h-264v-290h228v-21h-228v-328h274v-21h-297v681h290zM361 863l11 -12l-109 -91h-12l-108 91l10 12l104 -80z" />
    <glyph glyph-name="uni0228" unicode="&#x228;" horiz-adv-x="446" 
d="M258 0l-1 -74q82 -6 82 -67q0 -34 -22.5 -52.5t-54.5 -18.5q-35 0 -62 18l10 16q23 -15 52 -15q24 0 39.5 13t15.5 39t-19.5 38t-61.5 13l5 90h-131v681h290l-3 -21h-264v-290h228v-21h-228v-328h274v-21h-149z" />
    <glyph glyph-name="Ecircumflex" unicode="&#xca;" horiz-adv-x="446" 
d="M400 681l-3 -21h-264v-290h228v-21h-228v-328h274v-21h-297v681h290zM154 767l-11 12l108 90h12l109 -90l-11 -12l-104 79z" />
    <glyph glyph-name="uni1EBE" unicode="&#x1ebe;" horiz-adv-x="446" 
d="M400 681l-3 -21h-264v-290h228v-21h-228v-328h274v-21h-297v681h290zM156 738l-11 12l108 90h12l109 -90l-11 -12l-104 79zM422 953l19 -15l-94 -114l-13 10z" />
    <glyph glyph-name="uni1EC6" unicode="&#x1ec6;" horiz-adv-x="446" 
d="M400 681l-3 -21h-264v-290h228v-21h-228v-328h274v-21h-297v681h290zM154 767l-11 12l108 90h12l109 -90l-11 -12l-104 79zM240.5 -132q-5.5 6 -5.5 14t5.5 13.5t14.5 5.5t14.5 -5.5t5.5 -13.5t-5.5 -14t-14.5 -6t-14.5 6z" />
    <glyph glyph-name="uni1EC0" unicode="&#x1ec0;" horiz-adv-x="446" 
d="M400 681l-3 -21h-264v-290h228v-21h-228v-328h274v-21h-297v681h290zM154 738l-11 12l108 90h12l109 -90l-11 -12l-104 79zM98 953l89 -119l-13 -10l-94 114z" />
    <glyph glyph-name="uni1EC2" unicode="&#x1ec2;" horiz-adv-x="446" 
d="M400 681l-3 -21h-264v-290h228v-21h-228v-328h274v-21h-297v681h290zM154 738l-11 12l108 90h12l109 -90l-11 -12l-104 79zM342 861q60 2 60 52q0 22 -12.5 34t-34.5 12q-27 0 -50 -14l-9 16q28 18 61 18q31 0 49.5 -18t18.5 -48q0 -59 -62 -66v-43h-21v57z" />
    <glyph glyph-name="uni1EC4" unicode="&#x1ec4;" horiz-adv-x="446" 
d="M400 681l-3 -21h-264v-290h228v-21h-228v-328h274v-21h-297v681h290zM154 738l-11 12l108 90h12l109 -90l-11 -12l-104 79zM282 892q-13 6 -33 18q-15 10 -25 15t-20 5q-15 0 -27 -8t-26 -27l-14 8q16 23 32 34.5t35 11.5q12 0 23 -5t30 -16q16 -11 28.5 -16.5t24.5 -5.5
q15 0 27 9t26 31l14 -7q-15 -28 -31 -40.5t-36 -12.5q-15 0 -28 6z" />
    <glyph glyph-name="uni0204" unicode="&#x204;" horiz-adv-x="446" 
d="M400 681l-3 -21h-264v-290h228v-21h-228v-328h274v-21h-297v681h290zM152 917l65 -131l-16 -8l-70 129zM252 916l59 -127l-15 -7l-65 123z" />
    <glyph glyph-name="Edieresis" unicode="&#xcb;" horiz-adv-x="446" 
d="M400 681l-3 -21h-264v-290h228v-21h-228v-328h274v-21h-297v681h290zM199.5 832.5q5.5 -5.5 5.5 -14.5q0 -8 -5.5 -13.5t-14.5 -5.5q-8 0 -13.5 5.5t-5.5 13.5t5.5 14t13.5 6q9 0 14.5 -5.5zM350.5 832q5.5 -6 5.5 -14t-5.5 -13.5t-14.5 -5.5t-14.5 5.5t-5.5 13.5t5.5 14
t14.5 6t14.5 -6z" />
    <glyph glyph-name="Edotaccent" unicode="&#x116;" horiz-adv-x="446" 
d="M400 681l-3 -21h-264v-290h228v-21h-228v-328h274v-21h-297v681h290zM273.5 844q5.5 -6 5.5 -14t-5.5 -13.5t-14.5 -5.5t-14.5 5.5t-5.5 13.5t5.5 14t14.5 6t14.5 -6z" />
    <glyph glyph-name="uni1EB8" unicode="&#x1eb8;" horiz-adv-x="446" 
d="M400 681l-3 -21h-264v-290h228v-21h-228v-328h274v-21h-297v681h290zM240.5 -132q-5.5 6 -5.5 14t5.5 13.5t14.5 5.5t14.5 -5.5t5.5 -13.5t-5.5 -14t-14.5 -6t-14.5 6z" />
    <glyph glyph-name="Egrave" unicode="&#xc8;" horiz-adv-x="446" 
d="M400 681l-3 -21h-264v-290h228v-21h-228v-328h274v-21h-297v681h290zM187 859l156 -81l-7 -15l-161 74z" />
    <glyph glyph-name="uni1EBA" unicode="&#x1eba;" horiz-adv-x="446" 
d="M400 681l-3 -21h-264v-290h228v-21h-228v-328h274v-21h-297v681h290zM248 839q60 2 60 52q0 22 -12.5 34t-34.5 12q-27 0 -50 -14l-9 16q28 18 61 18q31 0 49.5 -18t18.5 -48q0 -59 -62 -66v-43h-21v57z" />
    <glyph glyph-name="uni0206" unicode="&#x206;" horiz-adv-x="446" 
d="M400 681l-3 -21h-264v-290h228v-21h-228v-328h274v-21h-297v681h290zM323.5 863.5q26.5 -23.5 32.5 -62.5l-16 -4q-8 34 -29 51.5t-53 17.5q-67 0 -83 -69l-16 4q6 39 32.5 62.5t66.5 23.5q39 0 65.5 -23.5z" />
    <glyph glyph-name="Emacron" unicode="&#x112;" horiz-adv-x="446" 
d="M400 681l-3 -21h-264v-290h228v-21h-228v-328h274v-21h-297v681h290zM353 811h-189v21h189v-21z" />
    <glyph glyph-name="Eogonek" unicode="&#x118;" horiz-adv-x="446" 
d="M407 21v-21h-24q-56 -27 -84.5 -54.5t-28.5 -68.5q0 -28 16 -43t47 -15q23 0 50 7l-2 -22q-27 -7 -49 -7q-41 0 -63 22t-22 58q0 39 25.5 68t75.5 55h-238v681h290l-3 -21h-264v-290h228v-21h-228v-328h274z" />
    <glyph glyph-name="uni0190" unicode="&#x190;" horiz-adv-x="464" 
d="M335 670q42 -21 80 -62l-14 -14q-35 37 -73.5 56.5t-85.5 19.5q-67 0 -106 -39t-39 -103q0 -71 42 -109.5t111 -38.5h50l-3 -21l-51 1q-79 1 -123.5 -43t-44.5 -123q0 -86 47 -134t124 -48q52 0 93 21t77 63l16 -13q-79 -93 -186 -93q-87 0 -140.5 54.5t-53.5 150.5
q0 79 40.5 124.5t102.5 51.5q-55 10 -89.5 49t-34.5 107q0 74 45 119t122 45q52 0 94 -21z" />
    <glyph glyph-name="uni018E" unicode="&#x18e;" horiz-adv-x="446" 
d="M46 681h290v-681h-297v21h274v328h-228v21h228v290h-267v21z" />
    <glyph glyph-name="uni01A9" unicode="&#x1a9;" horiz-adv-x="437" 
d="M390 681v-21h-311l207 -316v-10l-207 -313h311v-21h-343v12l215 327l-215 330v12h343z" />
    <glyph glyph-name="uni0246" unicode="&#x246;" horiz-adv-x="446" 
d="M407 21v-21h-219l-16 -66l-16 3l15 63h-61v681h222l13 56l15 -4l-12 -52h52l-3 -21h-54l-68 -290h86v-21h-91l-78 -328h215zM133 660v-290h125l69 290h-194zM133 21h43l77 328h-120v-328z" />
    <glyph glyph-name="uni1EBC" unicode="&#x1ebc;" horiz-adv-x="446" 
d="M400 681l-3 -21h-264v-290h228v-21h-228v-328h274v-21h-297v681h290zM283 810q-13 6 -33 18q-15 10 -25 15t-20 5q-15 0 -27 -8t-26 -27l-14 8q16 23 32 34.5t35 11.5q12 0 23.5 -5t29.5 -16q17 -11 28.5 -16.5t24.5 -5.5q15 0 27 9t26 31l14 -7q-15 -28 -31 -40.5
t-36 -12.5q-15 0 -28 6z" />
    <glyph glyph-name="uni01B7" unicode="&#x1b7;" horiz-adv-x="426" 
d="M331 325q50 -48 50 -143q0 -86 -49 -139t-136 -53q-58 0 -100 20.5t-76 61.5l15 13q34 -39 71.5 -56t89.5 -17q78 0 120 46.5t42 122.5q0 88 -44.5 129.5t-130.5 41.5h-67v21l214 288h-297v20h325v-19l-217 -289h43q97 0 147 -48z" />
    <glyph glyph-name="uni01EE" unicode="&#x1ee;" horiz-adv-x="426" 
d="M331 325q50 -48 50 -143q0 -86 -49 -139t-136 -53q-58 0 -100 20.5t-76 61.5l15 13q34 -39 71.5 -56t89.5 -17q78 0 120 46.5t42 122.5q0 88 -44.5 129.5t-130.5 41.5h-67v21l214 288h-297v20h325v-19l-217 -289h43q97 0 147 -48zM299 863l11 -12l-109 -91h-12l-108 91
l10 12l104 -80z" />
    <glyph glyph-name="uni01B8" unicode="&#x1b8;" horiz-adv-x="426" 
d="M406 72q-36 -41 -78.5 -61.5t-102.5 -20.5q-83 0 -131.5 51t-48.5 136q0 95 50.5 145.5t147.5 50.5h42l-217 289v19h325v-20h-297l214 -288v-21h-67q-85 0 -130 -43.5t-45 -131.5q0 -77 41.5 -121t116.5 -44q54 0 91.5 17t72.5 56z" />
    <glyph glyph-name="F" unicode="F" horiz-adv-x="425" 
d="M110 0v681h286l-3 -21h-260v-304h224v-21h-224v-335h-23z" />
    <glyph glyph-name="uni1E1E" unicode="&#x1e1e;" horiz-adv-x="425" 
d="M110 0v681h286l-3 -21h-260v-304h224v-21h-224v-335h-23zM277.5 844q5.5 -6 5.5 -14t-5.5 -13.5t-14.5 -5.5t-14.5 5.5t-5.5 13.5t5.5 14t14.5 6t14.5 -6z" />
    <glyph glyph-name="uni0191" unicode="&#x191;" horiz-adv-x="425" 
d="M133 660v-304h224v-21h-224v-335h-1v-95q0 -50 -24 -76t-64 -26q-47 0 -81 30l11 16q15 -12 31 -18.5t38 -6.5q30 0 48.5 19.5t18.5 61.5v776h286l-3 -21h-260z" />
    <glyph glyph-name="G" unicode="G" horiz-adv-x="546" 
d="M395.5 677q35.5 -14 70.5 -45l-14 -16q-33 28 -65 41t-73 13q-58 0 -108 -33t-81.5 -106t-31.5 -186q0 -168 59.5 -250.5t164.5 -82.5q43 0 76.5 10.5t64.5 30.5v280h-130l-3 21h155v-313q-77 -51 -162 -51q-115 0 -181.5 89t-66.5 266q0 117 34.5 195t90 114.5
t119.5 36.5q46 0 81.5 -14z" />
    <glyph glyph-name="uni01F4" unicode="&#x1f4;" horiz-adv-x="546" 
d="M395.5 677q35.5 -14 70.5 -45l-14 -16q-33 28 -65 41t-73 13q-58 0 -108 -33t-81.5 -106t-31.5 -186q0 -168 59.5 -250.5t164.5 -82.5q43 0 76.5 10.5t64.5 30.5v280h-130l-3 21h155v-313q-77 -51 -162 -51q-115 0 -181.5 89t-66.5 266q0 117 34.5 195t90 114.5
t119.5 36.5q46 0 81.5 -14zM383 859l11 -22l-161 -73l-7 15z" />
    <glyph glyph-name="uni0194" unicode="&#x194;" horiz-adv-x="488" 
d="M258 54q30 -76 41 -110.5t11 -67.5t-17 -53t-48 -20q-30 0 -47.5 20t-17.5 53q0 32 10.5 65.5t40.5 112.5l-203 627h23l194 -610l192 610h23zM280 -67.5q-8 28.5 -28 85.5q-1 4 -3 8.5t-4 10.5l-8 -22q-20 -57 -27.5 -84t-7.5 -54q0 -54 43 -54t43 54q0 27 -8 55.5z" />
    <glyph glyph-name="Gbreve" unicode="&#x11e;" horiz-adv-x="546" 
d="M395.5 677q35.5 -14 70.5 -45l-14 -16q-33 28 -65 41t-73 13q-58 0 -108 -33t-81.5 -106t-31.5 -186q0 -168 59.5 -250.5t164.5 -82.5q43 0 76.5 10.5t64.5 30.5v280h-130l-3 21h155v-313q-77 -51 -162 -51q-115 0 -181.5 89t-66.5 266q0 117 34.5 195t90 114.5
t119.5 36.5q46 0 81.5 -14zM245 792.5q-27 21.5 -33 54.5l16 4q9 -27 30.5 -43t52.5 -16q30 0 52 16t31 43l15 -4q-6 -33 -32.5 -54.5t-65.5 -21.5t-66 21.5z" />
    <glyph glyph-name="Gcaron" unicode="&#x1e6;" horiz-adv-x="546" 
d="M395.5 677q35.5 -14 70.5 -45l-14 -16q-33 28 -65 41t-73 13q-58 0 -108 -33t-81.5 -106t-31.5 -186q0 -168 59.5 -250.5t164.5 -82.5q43 0 76.5 10.5t64.5 30.5v280h-130l-3 21h155v-313q-77 -51 -162 -51q-115 0 -181.5 89t-66.5 266q0 117 34.5 195t90 114.5
t119.5 36.5q46 0 81.5 -14zM414 863l11 -12l-109 -91h-12l-108 91l10 12l104 -80z" />
    <glyph glyph-name="Gcircumflex" unicode="&#x11c;" horiz-adv-x="546" 
d="M395.5 677q35.5 -14 70.5 -45l-14 -16q-33 28 -65 41t-73 13q-58 0 -108 -33t-81.5 -106t-31.5 -186q0 -168 59.5 -250.5t164.5 -82.5q43 0 76.5 10.5t64.5 30.5v280h-130l-3 21h155v-313q-77 -51 -162 -51q-115 0 -181.5 89t-66.5 266q0 117 34.5 195t90 114.5
t119.5 36.5q46 0 81.5 -14zM207 767l-11 12l108 90h12l109 -90l-11 -12l-104 79z" />
    <glyph glyph-name="Gcommaaccent" unicode="&#x122;" horiz-adv-x="546" 
d="M395.5 677q35.5 -14 70.5 -45l-14 -16q-33 28 -65 41t-73 13q-58 0 -108 -33t-81.5 -106t-31.5 -186q0 -168 59.5 -250.5t164.5 -82.5q43 0 76.5 10.5t64.5 30.5v280h-130l-3 21h155v-313q-77 -51 -162 -51q-115 0 -181.5 89t-66.5 266q0 117 34.5 195t90 114.5
t119.5 36.5q46 0 81.5 -14zM319.5 -102.5q6.5 -6.5 6.5 -16.5t-5.5 -24t-7.5 -20l-32 -95h-15l28 116q-16 6 -16 23q0 10 6.5 16.5t17.5 6.5t17.5 -6.5z" />
    <glyph glyph-name="Gdotaccent" unicode="&#x120;" horiz-adv-x="546" 
d="M395.5 677q35.5 -14 70.5 -45l-14 -16q-33 28 -65 41t-73 13q-58 0 -108 -33t-81.5 -106t-31.5 -186q0 -168 59.5 -250.5t164.5 -82.5q43 0 76.5 10.5t64.5 30.5v280h-130l-3 21h155v-313q-77 -51 -162 -51q-115 0 -181.5 89t-66.5 266q0 117 34.5 195t90 114.5
t119.5 36.5q46 0 81.5 -14zM326.5 844q5.5 -6 5.5 -14t-5.5 -13.5t-14.5 -5.5t-14.5 5.5t-5.5 13.5t5.5 14t14.5 6t14.5 -6z" />
    <glyph glyph-name="uni0193" unicode="&#x193;" horiz-adv-x="496" 
d="M614 784l-12 -15q-32 25 -68 25q-31 0 -49.5 -20.5t-18.5 -65.5v-76l-13 -14q-33 27 -65.5 39.5t-73.5 12.5q-57 0 -107.5 -33.5t-82 -106.5t-31.5 -185q0 -167 59.5 -250t165.5 -83q42 0 75.5 10.5t64.5 30.5v280h-130l-3 21h155v-313q-77 -51 -162 -51
q-115 0 -181.5 89.5t-66.5 265.5q0 116 34.5 194t90 115t119.5 37q38 0 69.5 -10.5t60.5 -31.5v60q0 51 24.5 78t65.5 27q44 0 80 -30z" />
    <glyph glyph-name="uni0241" unicode="&#x241;" horiz-adv-x="405" 
d="M146 289l64 18q67 19 102 60.5t35 125.5q0 79 -41 128t-114 49q-47 0 -85 -19.5t-75 -56.5l-15 14q40 42 81.5 62.5t94.5 20.5q82 0 129.5 -55.5t47.5 -142.5q0 -95 -41 -140t-116 -66l-44 -13v-274h-23v289z" />
    <glyph glyph-name="uni01E4" unicode="&#x1e4;" horiz-adv-x="558" 
d="M548 212h-68v-171q-77 -51 -162 -51q-115 0 -181.5 89t-66.5 266q0 117 34.5 195t89.5 114.5t119 36.5q46 0 82 -14t71 -45l-14 -15q-33 28 -65.5 40.5t-73.5 12.5q-57 0 -107 -33t-81.5 -106t-31.5 -186q0 -168 59.5 -250.5t164.5 -82.5q43 0 76.5 10.5t64.5 30.5v159
h-130v21h130v100h-130l-3 21h155v-121h68v-21z" />
    <glyph glyph-name="uni021C" unicode="&#x21c;" horiz-adv-x="444" 
d="M326.5 644q44.5 -47 44.5 -124q0 -69 -34.5 -109t-92.5 -50q66 -6 106 -46t40 -111q0 -69 -31.5 -120.5t-103.5 -92t-195 -71.5l-2 22q115 29 182.5 66t96.5 84.5t29 111.5q0 69 -44 108t-125 38l-52 -1l3 21h45q70 0 112 39t42 112q0 68 -37.5 108.5t-104.5 40.5
q-48 0 -86 -19.5t-76 -57.5l-14 15q41 42 82.5 62.5t94.5 20.5q76 0 120.5 -47z" />
    <glyph glyph-name="H" unicode="H" horiz-adv-x="594" 
d="M462 0v349h-329v-349h-23v681h23v-311h329v311h22v-681h-22z" />
    <glyph glyph-name="Hbar" unicode="&#x126;" horiz-adv-x="598" 
d="M540 538v-18h-54v-520h-22v349h-329v-349h-23v520h-54v18h54v143h23v-143h329v143h22v-143h54zM464 370v150h-329v-150h329z" />
    <glyph glyph-name="uni021E" unicode="&#x21e;" horiz-adv-x="594" 
d="M462 0v349h-329v-349h-23v681h23v-311h329v311h22v-681h-22zM399 863l11 -12l-109 -91h-12l-108 91l10 12l104 -80z" />
    <glyph glyph-name="Hcircumflex" unicode="&#x124;" horiz-adv-x="594" 
d="M462 0v349h-329v-349h-23v681h23v-311h329v311h22v-681h-22zM192 767l-11 12l108 90h12l109 -90l-11 -12l-104 79z" />
    <glyph glyph-name="uni1E24" unicode="&#x1e24;" horiz-adv-x="594" 
d="M462 0v349h-329v-349h-23v681h23v-311h329v311h22v-681h-22zM282.5 -132q-5.5 6 -5.5 14t5.5 13.5t14.5 5.5t14.5 -5.5t5.5 -13.5t-5.5 -14t-14.5 -6t-14.5 6z" />
    <glyph glyph-name="uniA7AA" unicode="&#xa7aa;" horiz-adv-x="634" 
d="M524 681v-681h-22v349h-329v-349h-23v661h-28q-40 0 -60 -20.5t-20 -55.5q0 -23 6 -40.5t18 -36.5l-17 -10q-14 22 -21.5 40.5t-7.5 46.5q0 45 26.5 70.5t77.5 25.5h49v-311h329v311h22z" />
    <glyph glyph-name="uniA78D" unicode="&#xa78d;" horiz-adv-x="519" 
d="M409 681v-681h-22v318q-70 -87 -172 -87q-76 0 -122 45.5t-46 126.5v278h23v-277q0 -73 39.5 -112.5t107.5 -39.5q52 0 96.5 25t73.5 68v336h22z" />
    <glyph glyph-name="uniA78D.ss02" horiz-adv-x="514" 
d="M381 0v272h-324v409h22v-388h302v388h23v-681h-23z" />
    <glyph glyph-name="uni01F6" unicode="&#x1f6;" horiz-adv-x="865" 
d="M780 260q0 -136 -49 -203t-128 -67q-62 0 -101.5 40.5t-39.5 113.5v205h-329v-349h-23v681h23v-310h329v310h22v-536q0 -66 32.5 -100t86.5 -34q68 0 111 59t43 190q0 117 -23 259h22q24 -148 24 -259z" />
    <glyph glyph-name="I" unicode="I" horiz-adv-x="243" 
d="M133 681v-681h-23v681h23z" />
    <glyph glyph-name="IJ" unicode="&#x132;" horiz-adv-x="494" 
d="M133 681v-681h-23v681h23zM389 87q0 -52 -9.5 -84t-35 -55.5t-74.5 -47.5l-7 16q43 22 64.5 44t30 51.5t8.5 77.5v592h23v-594z" />
    <glyph glyph-name="Iacute" unicode="&#xcd;" horiz-adv-x="243" 
d="M133 681v-681h-23v681h23zM193 859l11 -22l-161 -73l-7 15z" />
    <glyph glyph-name="Ibreve" unicode="&#x12c;" horiz-adv-x="243" 
d="M133 681v-681h-23v681h23zM55 792.5q-27 21.5 -33 54.5l16 4q9 -27 30.5 -43t52.5 -16q30 0 52 16t31 43l15 -4q-6 -33 -32.5 -54.5t-65.5 -21.5t-66 21.5z" />
    <glyph glyph-name="uni01CF" unicode="&#x1cf;" horiz-adv-x="243" 
d="M133 681v-681h-23v681h23zM224 863l11 -12l-109 -91h-12l-108 91l10 12l104 -80z" />
    <glyph glyph-name="Icircumflex" unicode="&#xce;" horiz-adv-x="243" 
d="M133 681v-681h-23v681h23zM17 767l-11 12l108 90h12l109 -90l-11 -12l-104 79z" />
    <glyph glyph-name="uni0208" unicode="&#x208;" horiz-adv-x="243" 
d="M133 681v-681h-23v681h23zM15 917l65 -131l-16 -8l-70 129zM115 916l59 -127l-15 -7l-65 123z" />
    <glyph glyph-name="Idieresis" unicode="&#xcf;" horiz-adv-x="243" 
d="M133 681v-681h-23v681h23zM62.5 832.5q5.5 -5.5 5.5 -14.5q0 -8 -5.5 -13.5t-14.5 -5.5q-8 0 -13.5 5.5t-5.5 13.5t5.5 14t13.5 6q9 0 14.5 -5.5zM213.5 832q5.5 -6 5.5 -14t-5.5 -13.5t-14.5 -5.5t-14.5 5.5t-5.5 13.5t5.5 14t14.5 6t14.5 -6z" />
    <glyph glyph-name="uni1E2E" unicode="&#x1e2e;" horiz-adv-x="243" 
d="M133 681v-681h-23v681h23zM190 921l19 -15l-94 -114l-13 10zM59.5 775.5q5.5 -5.5 5.5 -13.5q0 -9 -5.5 -14.5t-14.5 -5.5q-8 0 -13.5 6t-5.5 14t5.5 13.5t13.5 5.5q9 0 14.5 -5.5zM210.5 775.5q5.5 -5.5 5.5 -13.5t-5.5 -14t-14.5 -6t-14.5 6t-5.5 14t5.5 13.5t14.5 5.5
t14.5 -5.5z" />
    <glyph glyph-name="Idotaccent" unicode="&#x130;" horiz-adv-x="243" 
d="M133 681v-681h-23v681h23zM136.5 844q5.5 -6 5.5 -14t-5.5 -13.5t-14.5 -5.5t-14.5 5.5t-5.5 13.5t5.5 14t14.5 6t14.5 -6z" />
    <glyph glyph-name="uni1ECA" unicode="&#x1eca;" horiz-adv-x="243" 
d="M133 681v-681h-23v681h23zM107.5 -132q-5.5 6 -5.5 14t5.5 13.5t14.5 5.5t14.5 -5.5t5.5 -13.5t-5.5 -14t-14.5 -6t-14.5 6z" />
    <glyph glyph-name="Igrave" unicode="&#xcc;" horiz-adv-x="243" 
d="M133 681v-681h-23v681h23zM50 859l156 -81l-7 -15l-161 74z" />
    <glyph glyph-name="uni1EC8" unicode="&#x1ec8;" horiz-adv-x="243" 
d="M133 681v-681h-23v681h23zM111 839q60 2 60 52q0 22 -12.5 34t-34.5 12q-27 0 -50 -14l-9 16q28 18 61 18q31 0 49.5 -18t18.5 -48q0 -59 -62 -66v-43h-21v57z" />
    <glyph glyph-name="uni020A" unicode="&#x20a;" horiz-adv-x="243" 
d="M133 681v-681h-23v681h23zM186.5 863.5q26.5 -23.5 32.5 -62.5l-16 -4q-8 34 -29 51.5t-53 17.5q-67 0 -83 -69l-16 4q6 39 32.5 62.5t66.5 23.5q39 0 65.5 -23.5z" />
    <glyph glyph-name="Imacron" unicode="&#x12a;" horiz-adv-x="243" 
d="M133 681v-681h-23v681h23zM216 811h-189v21h189v-21z" />
    <glyph glyph-name="Iogonek" unicode="&#x12e;" horiz-adv-x="243" 
d="M48.5 -54.5q-28.5 -27.5 -28.5 -68.5q0 -28 16 -43t47 -15q23 0 50 7l-2 -22q-27 -7 -49 -7q-41 0 -63 22t-22 58q0 42 28.5 72t84.5 57v675h23v-681q-56 -27 -84.5 -54.5z" />
    <glyph glyph-name="uni0196" unicode="&#x196;" horiz-adv-x="293" 
d="M269 20q-34 -30 -81 -30q-40 0 -64 26t-24 76v589h23v-494h-1v-95q0 -42 18.5 -61.5t48.5 -19.5q22 0 38 6.5t31 18.5z" />
    <glyph glyph-name="uni0197" unicode="&#x197;" horiz-adv-x="281" 
d="M251 371v-21h-99v-350h-23v350h-98v21h98v310h23v-310h99z" />
    <glyph glyph-name="Itilde" unicode="&#x128;" horiz-adv-x="243" 
d="M133 681v-681h-23v681h23zM146 810q-13 6 -33 18q-15 10 -25 15t-20 5q-15 0 -27 -8t-26 -27l-14 8q16 23 32 34.5t35 11.5q12 0 23.5 -5t29.5 -16q17 -11 28.5 -16.5t24.5 -5.5q15 0 27 9t26 31l14 -7q-15 -28 -31 -40.5t-36 -12.5q-15 0 -28 6z" />
    <glyph glyph-name="J" unicode="J" horiz-adv-x="251" 
d="M146 87q0 -52 -9.5 -84t-35 -55.5t-74.5 -47.5l-7 16q43 22 64.5 44t30 51.5t8.5 77.5v592h23v-594z" />
    <glyph glyph-name="Jcircumflex" unicode="&#x134;" horiz-adv-x="251" 
d="M146 87q0 -52 -9.5 -84t-35 -55.5t-74.5 -47.5l-7 16q43 22 64.5 44t30 51.5t8.5 77.5v592h23v-594zM30 767l-11 12l108 90h12l109 -90l-11 -12l-104 79z" />
    <glyph glyph-name="uniA7B2" unicode="&#xa7b2;" horiz-adv-x="264" 
d="M230 -78q-42 22 -76 31v-1q0 -72 -30 -110.5t-91 -38.5q-46 0 -72 23.5t-26 64.5q0 44 32 69.5t86 25.5q44 0 78 -8v703h23v-708q45 -13 84 -34zM107.5 -145.5q23.5 31.5 23.5 99.5v4q-37 9 -78 9q-47 0 -71.5 -20t-24.5 -56q0 -33 19.5 -50.5t56.5 -17.5q51 0 74.5 31.5
z" />
    <glyph glyph-name="uni0248" unicode="&#x248;" horiz-adv-x="268" 
d="M244 332h-98v-245q0 -52 -9.5 -84t-35 -55.5t-74.5 -47.5l-7 16q43 22 64.5 44t30 51.5t8.5 77.5v243h-99v21h99v328h23v-328h98v-21z" />
    <glyph glyph-name="K" unicode="K" horiz-adv-x="467" 
d="M133 681v-681h-23v681h23zM444 681l-281 -314l295 -367h-26l-296 367l282 314h26z" />
    <glyph glyph-name="uni01E8" unicode="&#x1e8;" horiz-adv-x="467" 
d="M133 681v-681h-23v681h23zM444 681l-281 -314l295 -367h-26l-296 367l282 314h26zM364 863l11 -12l-109 -91h-12l-108 91l10 12l104 -80z" />
    <glyph glyph-name="Kcommaaccent" unicode="&#x136;" horiz-adv-x="467" 
d="M133 681v-681h-23v681h23zM444 681l-281 -314l295 -367h-26l-296 367l282 314h26zM282.5 -102.5q6.5 -6.5 6.5 -16.5t-5.5 -24t-7.5 -20l-32 -95h-15l28 116q-16 6 -16 23q0 10 6.5 16.5t17.5 6.5t17.5 -6.5z" />
    <glyph glyph-name="uni0198" unicode="&#x198;" horiz-adv-x="498" 
d="M136 367l182 261q23 34 45 48.5t52 14.5q41 0 74 -35l-13 -13q-14 14 -28 21.5t-33 7.5q-23 0 -40.5 -11.5t-40.5 -44.5l-171 -249l295 -367h-26zM133 681v-681h-23v681h23z" />
    <glyph glyph-name="L" unicode="L" horiz-adv-x="411" 
d="M133 681v-659h259l-4 -22h-278v681h23z" />
    <glyph glyph-name="uni01C7" unicode="&#x1c7;" horiz-adv-x="647" 
d="M133 681v-659h259l-4 -22h-278v681h23zM542 87q0 -52 -9.5 -84t-35 -55.5t-74.5 -47.5l-7 16q43 22 64.5 44t30 51.5t8.5 77.5v592h23v-594z" />
    <glyph glyph-name="Lacute" unicode="&#x139;" horiz-adv-x="411" 
d="M133 681v-659h259l-4 -22h-278v681h23zM194 859l11 -22l-161 -73l-7 15z" />
    <glyph glyph-name="uni023D" unicode="&#x23d;" horiz-adv-x="430" 
d="M152 22h259l-4 -22h-278v352h-98v21h98v308h23v-308h99v-21h-99v-330z" />
    <glyph glyph-name="uniA7AD" unicode="&#xa7ad;" horiz-adv-x="434" 
d="M415 22l-4 -22h-278v279q-52 0 -79.5 21t-27.5 63q0 37 22.5 58.5t58.5 21.5q12 0 26 -2v240h23v-382q49 1 105 10l2 -18q-62 -10 -107 -11v-258h259zM69.5 314.5q21.5 -15.5 63.5 -15.5v123q-14 2 -25 2q-27 0 -43.5 -15.5t-16.5 -44.5q0 -34 21.5 -49.5z" />
    <glyph glyph-name="Lcaron" unicode="&#x13d;" horiz-adv-x="411" 
d="M133 681v-659h259l-4 -22h-278v681h23zM215 537l25 145l-23 2l-17 -144z" />
    <glyph glyph-name="uni1E3C" unicode="&#x1e3c;" horiz-adv-x="411" 
d="M133 681v-659h259l-4 -22h-278v681h23zM149 -183l-11 12l108 96h13l108 -96l-12 -12l-103 85z" />
    <glyph glyph-name="Lcommaaccent" unicode="&#x13b;" horiz-adv-x="411" 
d="M133 681v-659h259l-4 -22h-278v681h23zM267.5 -102.5q6.5 -6.5 6.5 -16.5t-5.5 -24t-7.5 -20l-32 -95h-15l28 116q-16 6 -16 23q0 10 6.5 16.5t17.5 6.5t17.5 -6.5z" />
    <glyph glyph-name="Ldot" unicode="&#x13f;" horiz-adv-x="411" 
d="M133 681v-659h259l-4 -22h-278v681h23zM332.5 368q5.5 -6 5.5 -14t-5.5 -13.5t-14.5 -5.5t-14.5 5.5t-5.5 13.5t5.5 14t14.5 6t14.5 -6z" />
    <glyph glyph-name="uni1E36" unicode="&#x1e36;" horiz-adv-x="411" 
d="M133 681v-659h259l-4 -22h-278v681h23zM237.5 -132q-5.5 6 -5.5 14t5.5 13.5t14.5 5.5t14.5 -5.5t5.5 -13.5t-5.5 -14t-14.5 -6t-14.5 6z" />
    <glyph glyph-name="uni01C8" unicode="&#x1c8;" horiz-adv-x="629" 
d="M133 681v-659h259l-4 -22h-278v681h23zM524 -11q0 -54 -11 -87t-32 -54t-60 -43l-7 16q34 20 52 39.5t27 49.5t9 80v529h22v-530zM526.5 718q5.5 -6 5.5 -14t-5.5 -13.5t-14.5 -5.5t-14.5 5.5t-5.5 13.5t5.5 14t14.5 6t14.5 -6z" />
    <glyph glyph-name="Lslash" unicode="&#x141;" horiz-adv-x="416" 
d="M138 22h259l-4 -22h-278v308l-66 -46l-9 17l75 51v351h23v-335l179 124l9 -17l-188 -130v-301z" />
    <glyph glyph-name="M" unicode="M" horiz-adv-x="688" 
d="M617 0h-21l-35 345l-30 315l-176 -576h-23l-179 576q-3 -49 -24 -253q-1 -20 -5 -53l-32 -354h-22l66 681h33l175 -569l173 569h33z" />
    <glyph glyph-name="uni1E3E" unicode="&#x1e3e;" horiz-adv-x="688" 
d="M617 0h-21l-35 345l-30 315l-176 -576h-23l-179 576q-3 -49 -24 -253q-1 -20 -5 -53l-32 -354h-22l66 681h33l175 -569l173 569h33zM415 859l11 -22l-161 -73l-7 15z" />
    <glyph glyph-name="uni1E40" unicode="&#x1e40;" horiz-adv-x="688" 
d="M617 0h-21l-35 345l-30 315l-176 -576h-23l-179 576q-3 -49 -24 -253q-1 -20 -5 -53l-32 -354h-22l66 681h33l175 -569l173 569h33zM358.5 844q5.5 -6 5.5 -14t-5.5 -13.5t-14.5 -5.5t-14.5 5.5t-5.5 13.5t5.5 14t14.5 6t14.5 -6z" />
    <glyph glyph-name="uni019C" unicode="&#x19c;" horiz-adv-x="830" 
d="M720 681v-681h-20l-2 108q-29 -54 -70 -86t-92 -32q-53 0 -87 32t-45 90q-31 -56 -73 -89t-94 -33q-64 0 -100.5 46.5t-36.5 128.5v516h23v-519q0 -71 30 -111t85 -40q51 0 90 34.5t72 97.5q-1 7 -1 23v515h23v-519q0 -71 30 -111t85 -40q96 0 160 133v537h23z" />
    <glyph glyph-name="N" unicode="N" horiz-adv-x="596" 
d="M486 0h-29l-328 655q3 -51 3 -178v-477h-22v681h29l328 -655q-3 120 -3 179v476h22v-681z" />
    <glyph glyph-name="uni01CA" unicode="&#x1ca;" horiz-adv-x="847" 
d="M486 0h-29l-328 655q3 -51 3 -178v-477h-22v681h29l328 -655q-3 120 -3 179v476h22v-681zM742 87q0 -52 -9.5 -84t-35 -55.5t-74.5 -47.5l-7 16q43 22 64.5 44t30 51.5t8.5 77.5v592h23v-594z" />
    <glyph glyph-name="Nacute" unicode="&#x143;" horiz-adv-x="596" 
d="M486 0h-29l-328 655q3 -51 3 -178v-477h-22v681h29l328 -655q-3 120 -3 179v476h22v-681zM376 859l11 -22l-161 -73l-7 15z" />
    <glyph glyph-name="Nacute.loclPLK" horiz-adv-x="596" 
d="M486 0h-29l-328 655q3 -51 3 -178v-477h-22v681h29l328 -655q-3 120 -3 179v476h22v-681zM367 887l20 -14l-94 -142l-13 9z" />
    <glyph glyph-name="Ncaron" unicode="&#x147;" horiz-adv-x="596" 
d="M486 0h-29l-328 655q3 -51 3 -178v-477h-22v681h29l328 -655q-3 120 -3 179v476h22v-681zM407 863l11 -12l-109 -91h-12l-108 91l10 12l104 -80z" />
    <glyph glyph-name="uni1E4A" unicode="&#x1e4a;" horiz-adv-x="596" 
d="M486 0h-29l-328 655q3 -51 3 -178v-477h-22v681h29l328 -655q-3 120 -3 179v476h22v-681zM194 -183l-11 12l108 96h13l108 -96l-12 -12l-103 85z" />
    <glyph glyph-name="Ncommaaccent" unicode="&#x145;" horiz-adv-x="596" 
d="M486 0h-29l-328 655q3 -51 3 -178v-477h-22v681h29l328 -655q-3 120 -3 179v476h22v-681zM312.5 -102.5q6.5 -6.5 6.5 -16.5t-5.5 -24t-7.5 -20l-32 -95h-15l28 116q-16 6 -16 23q0 10 6.5 16.5t17.5 6.5t17.5 -6.5z" />
    <glyph glyph-name="uni1E44" unicode="&#x1e44;" horiz-adv-x="596" 
d="M486 0h-29l-328 655q3 -51 3 -178v-477h-22v681h29l328 -655q-3 120 -3 179v476h22v-681zM319.5 844q5.5 -6 5.5 -14t-5.5 -13.5t-14.5 -5.5t-14.5 5.5t-5.5 13.5t5.5 14t14.5 6t14.5 -6z" />
    <glyph glyph-name="uni1E46" unicode="&#x1e46;" horiz-adv-x="596" 
d="M486 0h-29l-328 655q3 -51 3 -178v-477h-22v681h29l328 -655q-3 120 -3 179v476h22v-681zM282.5 -132q-5.5 6 -5.5 14t5.5 13.5t14.5 5.5t14.5 -5.5t5.5 -13.5t-5.5 -14t-14.5 -6t-14.5 6z" />
    <glyph glyph-name="uni01F8" unicode="&#x1f8;" horiz-adv-x="596" 
d="M486 0h-29l-328 655q3 -51 3 -178v-477h-22v681h29l328 -655q-3 120 -3 179v476h22v-681zM233 859l156 -81l-7 -15l-161 74z" />
    <glyph glyph-name="Eng" unicode="&#x14a;" horiz-adv-x="596" 
d="M486 0h-1v-95q0 -50 -24 -76t-64 -26q-47 0 -81 30l11 16q15 -12 31 -18.5t38 -6.5q30 0 48.5 19.5t18.5 61.5v95h-6l-328 655q3 -51 3 -178v-477h-22v681h29l328 -655q-3 120 -3 179v476h22v-681z" />
    <glyph glyph-name="Eng.ss01" horiz-adv-x="585" 
d="M483 0h-1v-95q0 -50 -24 -76t-64 -26q-47 0 -81 30l11 16q15 -12 31 -18.5t38 -6.5q30 0 48.5 19.5t18.5 61.5v600q0 83 -34 124t-96 41t-109 -34t-88 -93v-543h-23v681h20l2 -108q84 118 199 118q72 0 112 -46.5t40 -135.5v-509z" />
    <glyph glyph-name="uni019D" unicode="&#x19d;" horiz-adv-x="596" 
d="M486 681v-681h-29l-328 655q3 -51 3 -178v-572q0 -50 -24.5 -76t-64.5 -26q-45 0 -81 30l12 15q31 -25 69 -25q30 0 48.5 19.5t18.5 62.5v776h29l328 -655q-3 120 -3 179v476h22z" />
    <glyph glyph-name="uni019D.ss01" horiz-adv-x="585" 
d="M443 644.5q40 -46.5 40 -135.5v-509h-23v505q0 83 -34 124t-96 41t-109 -34t-88 -93v-543h-1v-95q0 -50 -24 -76t-64 -26q-47 0 -81 30l11 16q15 -12 31 -18.5t38 -6.5q30 0 48.5 19.5t18.5 61.5v776h20l2 -108q84 118 199 118q72 0 112 -46.5z" />
    <glyph glyph-name="uni01CB" unicode="&#x1cb;" horiz-adv-x="829" 
d="M486 0h-29l-328 655q3 -51 3 -178v-477h-22v681h29l328 -655q-3 120 -3 179v476h22v-681zM724 -11q0 -54 -11 -87t-32 -54t-60 -43l-7 16q34 20 52 39.5t27 49.5t9 80v529h22v-530zM726.5 718q5.5 -6 5.5 -14t-5.5 -13.5t-14.5 -5.5t-14.5 5.5t-5.5 13.5t5.5 14t14.5 6
t14.5 -6z" />
    <glyph glyph-name="uni0220" unicode="&#x220;" horiz-adv-x="585" 
d="M443 644.5q40 -46.5 40 -135.5v-701h-23v697q0 83 -34 124t-96 41t-109 -34t-88 -93v-543h-23v681h20l2 -108q84 118 199 118q72 0 112 -46.5z" />
    <glyph glyph-name="Ntilde" unicode="&#xd1;" horiz-adv-x="596" 
d="M486 0h-29l-328 655q3 -51 3 -178v-477h-22v681h29l328 -655q-3 120 -3 179v476h22v-681zM329 810q-13 6 -33 18q-15 10 -25 15t-20 5q-15 0 -27 -8t-26 -27l-14 8q16 23 32 34.5t35 11.5q12 0 23.5 -5t29.5 -16q17 -11 28.5 -16.5t24.5 -5.5q15 0 27 9t26 31l14 -7
q-15 -28 -31 -40.5t-36 -12.5q-15 0 -28 6z" />
    <glyph glyph-name="O" unicode="O" horiz-adv-x="620" 
d="M486.5 601.5q64.5 -89.5 64.5 -261.5q0 -169 -63.5 -259.5t-177.5 -90.5q-73 0 -127 40t-83.5 118.5t-29.5 190.5q0 113 30 192t84 119.5t126 40.5q112 0 176.5 -89.5zM151.5 585.5q-58.5 -84.5 -58.5 -246.5q0 -160 58.5 -243.5t158.5 -83.5q104 0 160.5 83t56.5 245
q0 164 -57.5 247t-159.5 83q-100 0 -158.5 -84.5z" />
    <glyph glyph-name="uni0222" unicode="&#x222;" horiz-adv-x="567" 
d="M461.5 316.5q36.5 -50.5 36.5 -125.5q0 -90 -55 -145.5t-159 -55.5q-103 0 -158.5 55t-55.5 144q0 73 37.5 124.5t105.5 69.5q-99 30 -99 154v144h22v-144q0 -144 148 -144q150 0 150 144v144h22v-144q0 -55 -24 -96t-76 -57q69 -17 105.5 -67.5zM426.5 60.5
q47.5 48.5 47.5 130.5q0 86 -47.5 133.5t-142.5 47.5q-92 0 -141.5 -49t-49.5 -134q0 -81 49 -129t142 -48q95 0 142.5 48.5z" />
    <glyph glyph-name="Oacute" unicode="&#xd3;" horiz-adv-x="620" 
d="M486.5 601.5q64.5 -89.5 64.5 -261.5q0 -169 -63.5 -259.5t-177.5 -90.5q-73 0 -127 40t-83.5 118.5t-29.5 190.5q0 113 30 192t84 119.5t126 40.5q112 0 176.5 -89.5zM151.5 585.5q-58.5 -84.5 -58.5 -246.5q0 -160 58.5 -243.5t158.5 -83.5q104 0 160.5 83t56.5 245
q0 164 -57.5 247t-159.5 83q-100 0 -158.5 -84.5zM382 859l11 -22l-161 -73l-7 15z" />
    <glyph glyph-name="Oacute.loclPLK" horiz-adv-x="620" 
d="M486.5 601.5q64.5 -89.5 64.5 -261.5q0 -169 -63.5 -259.5t-177.5 -90.5q-73 0 -127 40t-83.5 118.5t-29.5 190.5q0 113 30 192t84 119.5t126 40.5q112 0 176.5 -89.5zM151.5 585.5q-58.5 -84.5 -58.5 -246.5q0 -160 58.5 -243.5t158.5 -83.5q104 0 160.5 83t56.5 245
q0 164 -57.5 247t-159.5 83q-100 0 -158.5 -84.5zM373 887l20 -14l-94 -142l-13 9z" />
    <glyph glyph-name="Obreve" unicode="&#x14e;" horiz-adv-x="620" 
d="M486.5 601.5q64.5 -89.5 64.5 -261.5q0 -169 -63.5 -259.5t-177.5 -90.5q-73 0 -127 40t-83.5 118.5t-29.5 190.5q0 113 30 192t84 119.5t126 40.5q112 0 176.5 -89.5zM151.5 585.5q-58.5 -84.5 -58.5 -246.5q0 -160 58.5 -243.5t158.5 -83.5q104 0 160.5 83t56.5 245
q0 164 -57.5 247t-159.5 83q-100 0 -158.5 -84.5zM244 792.5q-27 21.5 -33 54.5l16 4q9 -27 30.5 -43t52.5 -16q30 0 52 16t31 43l15 -4q-6 -33 -32.5 -54.5t-65.5 -21.5t-66 21.5z" />
    <glyph glyph-name="uni01D1" unicode="&#x1d1;" horiz-adv-x="620" 
d="M486.5 601.5q64.5 -89.5 64.5 -261.5q0 -169 -63.5 -259.5t-177.5 -90.5q-73 0 -127 40t-83.5 118.5t-29.5 190.5q0 113 30 192t84 119.5t126 40.5q112 0 176.5 -89.5zM151.5 585.5q-58.5 -84.5 -58.5 -246.5q0 -160 58.5 -243.5t158.5 -83.5q104 0 160.5 83t56.5 245
q0 164 -57.5 247t-159.5 83q-100 0 -158.5 -84.5zM413 863l11 -12l-109 -91h-12l-108 91l10 12l104 -80z" />
    <glyph glyph-name="uni019F" unicode="&#x19f;" horiz-adv-x="620" 
d="M486.5 601.5q64.5 -89.5 64.5 -261.5q0 -169 -63.5 -259.5t-177.5 -90.5q-73 0 -127 39.5t-83.5 118t-29.5 191.5t30 192t84 119.5t126 40.5q112 0 176.5 -89.5zM155 590q-58 -80 -62 -233h434q-3 155 -60.5 234t-156.5 79q-97 0 -155 -80zM470 94q56 82 57 243h-434
q1 -159 59 -242t158 -83q104 0 160 82z" />
    <glyph glyph-name="Ocircumflex" unicode="&#xd4;" horiz-adv-x="620" 
d="M486.5 601.5q64.5 -89.5 64.5 -261.5q0 -169 -63.5 -259.5t-177.5 -90.5q-73 0 -127 40t-83.5 118.5t-29.5 190.5q0 113 30 192t84 119.5t126 40.5q112 0 176.5 -89.5zM151.5 585.5q-58.5 -84.5 -58.5 -246.5q0 -160 58.5 -243.5t158.5 -83.5q104 0 160.5 83t56.5 245
q0 164 -57.5 247t-159.5 83q-100 0 -158.5 -84.5zM206 767l-11 12l108 90h12l109 -90l-11 -12l-104 79z" />
    <glyph glyph-name="uni1ED0" unicode="&#x1ed0;" horiz-adv-x="620" 
d="M486.5 601.5q64.5 -89.5 64.5 -261.5q0 -169 -63.5 -259.5t-177.5 -90.5q-73 0 -127 40t-83.5 118.5t-29.5 190.5q0 113 30 192t84 119.5t126 40.5q112 0 176.5 -89.5zM151.5 585.5q-58.5 -84.5 -58.5 -246.5q0 -160 58.5 -243.5t158.5 -83.5q104 0 160.5 83t56.5 245
q0 164 -57.5 247t-159.5 83q-100 0 -158.5 -84.5zM208 738l-11 12l108 90h12l109 -90l-11 -12l-104 79zM474 953l19 -15l-94 -114l-13 10z" />
    <glyph glyph-name="uni1ED8" unicode="&#x1ed8;" horiz-adv-x="620" 
d="M486.5 601.5q64.5 -89.5 64.5 -261.5q0 -169 -63.5 -259.5t-177.5 -90.5q-73 0 -127 40t-83.5 118.5t-29.5 190.5q0 113 30 192t84 119.5t126 40.5q112 0 176.5 -89.5zM151.5 585.5q-58.5 -84.5 -58.5 -246.5q0 -160 58.5 -243.5t158.5 -83.5q104 0 160.5 83t56.5 245
q0 164 -57.5 247t-159.5 83q-100 0 -158.5 -84.5zM206 767l-11 12l108 90h12l109 -90l-11 -12l-104 79zM295.5 -132q-5.5 6 -5.5 14t5.5 13.5t14.5 5.5t14.5 -5.5t5.5 -13.5t-5.5 -14t-14.5 -6t-14.5 6z" />
    <glyph glyph-name="uni1ED2" unicode="&#x1ed2;" horiz-adv-x="620" 
d="M486.5 601.5q64.5 -89.5 64.5 -261.5q0 -169 -63.5 -259.5t-177.5 -90.5q-73 0 -127 40t-83.5 118.5t-29.5 190.5q0 113 30 192t84 119.5t126 40.5q112 0 176.5 -89.5zM151.5 585.5q-58.5 -84.5 -58.5 -246.5q0 -160 58.5 -243.5t158.5 -83.5q104 0 160.5 83t56.5 245
q0 164 -57.5 247t-159.5 83q-100 0 -158.5 -84.5zM206 738l-11 12l108 90h12l109 -90l-11 -12l-104 79zM150 953l89 -119l-13 -10l-94 114z" />
    <glyph glyph-name="uni1ED4" unicode="&#x1ed4;" horiz-adv-x="620" 
d="M486.5 601.5q64.5 -89.5 64.5 -261.5q0 -169 -63.5 -259.5t-177.5 -90.5q-73 0 -127 40t-83.5 118.5t-29.5 190.5q0 113 30 192t84 119.5t126 40.5q112 0 176.5 -89.5zM151.5 585.5q-58.5 -84.5 -58.5 -246.5q0 -160 58.5 -243.5t158.5 -83.5q104 0 160.5 83t56.5 245
q0 164 -57.5 247t-159.5 83q-100 0 -158.5 -84.5zM206 738l-11 12l108 90h12l109 -90l-11 -12l-104 79zM394 861q60 2 60 52q0 22 -12.5 34t-34.5 12q-27 0 -50 -14l-9 16q28 18 61 18q31 0 49.5 -18t18.5 -48q0 -59 -62 -66v-43h-21v57z" />
    <glyph glyph-name="uni1ED6" unicode="&#x1ed6;" horiz-adv-x="620" 
d="M486.5 601.5q64.5 -89.5 64.5 -261.5q0 -169 -63.5 -259.5t-177.5 -90.5q-73 0 -127 40t-83.5 118.5t-29.5 190.5q0 113 30 192t84 119.5t126 40.5q112 0 176.5 -89.5zM151.5 585.5q-58.5 -84.5 -58.5 -246.5q0 -160 58.5 -243.5t158.5 -83.5q104 0 160.5 83t56.5 245
q0 164 -57.5 247t-159.5 83q-100 0 -158.5 -84.5zM206 738l-11 12l108 90h12l109 -90l-11 -12l-104 79zM334 892q-13 6 -33 18q-15 10 -25 15t-20 5q-15 0 -27 -8t-26 -27l-14 8q16 23 32 34.5t35 11.5q12 0 23 -5t30 -16q16 -11 28.5 -16.5t24.5 -5.5q15 0 27 9t26 31
l14 -7q-15 -28 -31 -40.5t-36 -12.5q-15 0 -28 6z" />
    <glyph glyph-name="uni020C" unicode="&#x20c;" horiz-adv-x="620" 
d="M486.5 601.5q64.5 -89.5 64.5 -261.5q0 -169 -63.5 -259.5t-177.5 -90.5q-73 0 -127 40t-83.5 118.5t-29.5 190.5q0 113 30 192t84 119.5t126 40.5q112 0 176.5 -89.5zM151.5 585.5q-58.5 -84.5 -58.5 -246.5q0 -160 58.5 -243.5t158.5 -83.5q104 0 160.5 83t56.5 245
q0 164 -57.5 247t-159.5 83q-100 0 -158.5 -84.5zM204 917l65 -131l-16 -8l-70 129zM304 916l59 -127l-15 -7l-65 123z" />
    <glyph glyph-name="Odieresis" unicode="&#xd6;" horiz-adv-x="620" 
d="M486.5 601.5q64.5 -89.5 64.5 -261.5q0 -169 -63.5 -259.5t-177.5 -90.5q-73 0 -127 40t-83.5 118.5t-29.5 190.5q0 113 30 192t84 119.5t126 40.5q112 0 176.5 -89.5zM151.5 585.5q-58.5 -84.5 -58.5 -246.5q0 -160 58.5 -243.5t158.5 -83.5q104 0 160.5 83t56.5 245
q0 164 -57.5 247t-159.5 83q-100 0 -158.5 -84.5zM251.5 832.5q5.5 -5.5 5.5 -14.5q0 -8 -5.5 -13.5t-14.5 -5.5q-8 0 -13.5 5.5t-5.5 13.5t5.5 14t13.5 6q9 0 14.5 -5.5zM402.5 832q5.5 -6 5.5 -14t-5.5 -13.5t-14.5 -5.5t-14.5 5.5t-5.5 13.5t5.5 14t14.5 6t14.5 -6z" />
    <glyph glyph-name="uni022A" unicode="&#x22a;" horiz-adv-x="620" 
d="M486.5 601.5q64.5 -89.5 64.5 -261.5q0 -169 -63.5 -259.5t-177.5 -90.5q-73 0 -127 40t-83.5 118.5t-29.5 190.5q0 113 30 192t84 119.5t126 40.5q112 0 176.5 -89.5zM151.5 585.5q-58.5 -84.5 -58.5 -246.5q0 -160 58.5 -243.5t158.5 -83.5q104 0 160.5 83t56.5 245
q0 164 -57.5 247t-159.5 83q-100 0 -158.5 -84.5zM248.5 775.5q5.5 -5.5 5.5 -14.5q0 -8 -5.5 -13.5t-14.5 -5.5q-8 0 -13.5 5.5t-5.5 13.5t5.5 14t13.5 6q9 0 14.5 -5.5zM399.5 775q5.5 -6 5.5 -14t-5.5 -13.5t-14.5 -5.5t-14.5 5.5t-5.5 13.5t5.5 14t14.5 6t14.5 -6z
M405 850h-189v21h189v-21z" />
    <glyph glyph-name="uni022E" unicode="&#x22e;" horiz-adv-x="620" 
d="M486.5 601.5q64.5 -89.5 64.5 -261.5q0 -169 -63.5 -259.5t-177.5 -90.5q-73 0 -127 40t-83.5 118.5t-29.5 190.5q0 113 30 192t84 119.5t126 40.5q112 0 176.5 -89.5zM151.5 585.5q-58.5 -84.5 -58.5 -246.5q0 -160 58.5 -243.5t158.5 -83.5q104 0 160.5 83t56.5 245
q0 164 -57.5 247t-159.5 83q-100 0 -158.5 -84.5zM325.5 844q5.5 -6 5.5 -14t-5.5 -13.5t-14.5 -5.5t-14.5 5.5t-5.5 13.5t5.5 14t14.5 6t14.5 -6z" />
    <glyph glyph-name="uni0230" unicode="&#x230;" horiz-adv-x="620" 
d="M486.5 601.5q64.5 -89.5 64.5 -261.5q0 -169 -63.5 -259.5t-177.5 -90.5q-73 0 -127 40t-83.5 118.5t-29.5 190.5q0 113 30 192t84 119.5t126 40.5q112 0 176.5 -89.5zM151.5 585.5q-58.5 -84.5 -58.5 -246.5q0 -160 58.5 -243.5t158.5 -83.5q104 0 160.5 83t56.5 245
q0 164 -57.5 247t-159.5 83q-100 0 -158.5 -84.5zM324.5 780q5.5 -6 5.5 -14t-5.5 -13.5t-14.5 -5.5t-14.5 5.5t-5.5 13.5t5.5 14t14.5 6t14.5 -6zM405 849h-189v21h189v-21z" />
    <glyph glyph-name="uni1ECC" unicode="&#x1ecc;" horiz-adv-x="620" 
d="M486.5 601.5q64.5 -89.5 64.5 -261.5q0 -169 -63.5 -259.5t-177.5 -90.5q-73 0 -127 40t-83.5 118.5t-29.5 190.5q0 113 30 192t84 119.5t126 40.5q112 0 176.5 -89.5zM151.5 585.5q-58.5 -84.5 -58.5 -246.5q0 -160 58.5 -243.5t158.5 -83.5q104 0 160.5 83t56.5 245
q0 164 -57.5 247t-159.5 83q-100 0 -158.5 -84.5zM295.5 -132q-5.5 6 -5.5 14t5.5 13.5t14.5 5.5t14.5 -5.5t5.5 -13.5t-5.5 -14t-14.5 -6t-14.5 6z" />
    <glyph glyph-name="Ograve" unicode="&#xd2;" horiz-adv-x="620" 
d="M486.5 601.5q64.5 -89.5 64.5 -261.5q0 -169 -63.5 -259.5t-177.5 -90.5q-73 0 -127 40t-83.5 118.5t-29.5 190.5q0 113 30 192t84 119.5t126 40.5q112 0 176.5 -89.5zM151.5 585.5q-58.5 -84.5 -58.5 -246.5q0 -160 58.5 -243.5t158.5 -83.5q104 0 160.5 83t56.5 245
q0 164 -57.5 247t-159.5 83q-100 0 -158.5 -84.5zM239 859l156 -81l-7 -15l-161 74z" />
    <glyph glyph-name="uni1ECE" unicode="&#x1ece;" horiz-adv-x="620" 
d="M486.5 601.5q64.5 -89.5 64.5 -261.5q0 -169 -63.5 -259.5t-177.5 -90.5q-73 0 -127 40t-83.5 118.5t-29.5 190.5q0 113 30 192t84 119.5t126 40.5q112 0 176.5 -89.5zM151.5 585.5q-58.5 -84.5 -58.5 -246.5q0 -160 58.5 -243.5t158.5 -83.5q104 0 160.5 83t56.5 245
q0 164 -57.5 247t-159.5 83q-100 0 -158.5 -84.5zM300 839q60 2 60 52q0 22 -12.5 34t-34.5 12q-27 0 -50 -14l-9 16q28 18 61 18q31 0 49.5 -18t18.5 -48q0 -59 -62 -66v-43h-21v57z" />
    <glyph glyph-name="Ohorn" unicode="&#x1a0;" horiz-adv-x="620" 
d="M551 340q0 -169 -63.5 -259.5t-177.5 -90.5q-73 0 -127 40t-83.5 118.5t-29.5 190.5q0 113 30 192t84 119.5t126 40.5q97 0 158 -66q29 4 41.5 18.5t12.5 42.5q0 33 -13 72l17 7q16 -40 16 -79q0 -35 -15.5 -53t-46.5 -23q71 -92 71 -270zM470.5 95q56.5 83 56.5 245
q0 164 -57.5 247t-159.5 83q-100 0 -158.5 -84.5t-58.5 -246.5q0 -160 58.5 -243.5t158.5 -83.5q104 0 160.5 83z" />
    <glyph glyph-name="uni1EDA" unicode="&#x1eda;" horiz-adv-x="620" 
d="M393 837l-161 -73l-7 15l157 80zM551 340q0 -169 -63.5 -259.5t-177.5 -90.5q-73 0 -127 40t-83.5 118.5t-29.5 190.5q0 113 30 192t84 119.5t126 40.5q97 0 158 -66q29 4 41.5 18.5t12.5 42.5q0 33 -13 72l17 7q16 -40 16 -79q0 -35 -15.5 -53t-46.5 -23q71 -92 71 -270
zM470.5 95q56.5 83 56.5 245q0 164 -57.5 247t-159.5 83q-100 0 -158.5 -84.5t-58.5 -246.5q0 -160 58.5 -243.5t158.5 -83.5q104 0 160.5 83z" />
    <glyph glyph-name="uni1EE2" unicode="&#x1ee2;" horiz-adv-x="620" 
d="M551 340q0 -169 -63.5 -259.5t-177.5 -90.5q-73 0 -127 40t-83.5 118.5t-29.5 190.5q0 113 30 192t84 119.5t126 40.5q97 0 158 -66q29 4 41.5 18.5t12.5 42.5q0 33 -13 72l17 7q16 -40 16 -79q0 -35 -15.5 -53t-46.5 -23q71 -92 71 -270zM470.5 95q56.5 83 56.5 245
q0 164 -57.5 247t-159.5 83q-100 0 -158.5 -84.5t-58.5 -246.5q0 -160 58.5 -243.5t158.5 -83.5q104 0 160.5 83zM324.5 -104.5q5.5 -5.5 5.5 -13.5t-5.5 -14t-14.5 -6t-14.5 6t-5.5 14t5.5 13.5t14.5 5.5t14.5 -5.5z" />
    <glyph glyph-name="uni1EDC" unicode="&#x1edc;" horiz-adv-x="620" 
d="M395 778l-7 -15l-161 74l12 22zM551 340q0 -169 -63.5 -259.5t-177.5 -90.5q-73 0 -127 40t-83.5 118.5t-29.5 190.5q0 113 30 192t84 119.5t126 40.5q97 0 158 -66q29 4 41.5 18.5t12.5 42.5q0 33 -13 72l17 7q16 -40 16 -79q0 -35 -15.5 -53t-46.5 -23q71 -92 71 -270z
M470.5 95q56.5 83 56.5 245q0 164 -57.5 247t-159.5 83q-100 0 -158.5 -84.5t-58.5 -246.5q0 -160 58.5 -243.5t158.5 -83.5q104 0 160.5 83z" />
    <glyph glyph-name="uni1EDE" unicode="&#x1ede;" horiz-adv-x="620" 
d="M263 923l-9 16q28 18 61 18q31 0 49.5 -18t18.5 -48q0 -59 -62 -66v-43h-21v57q60 2 60 52q0 22 -12.5 34t-34.5 12q-27 0 -50 -14zM551 340q0 -169 -63.5 -259.5t-177.5 -90.5q-73 0 -127 40t-83.5 118.5t-29.5 190.5q0 113 30 192t84 119.5t126 40.5q97 0 158 -66
q29 4 41.5 18.5t12.5 42.5q0 33 -13 72l17 7q16 -40 16 -79q0 -35 -15.5 -53t-46.5 -23q71 -92 71 -270zM470.5 95q56.5 83 56.5 245q0 164 -57.5 247t-159.5 83q-100 0 -158.5 -84.5t-58.5 -246.5q0 -160 58.5 -243.5t158.5 -83.5q104 0 160.5 83z" />
    <glyph glyph-name="uni1EE0" unicode="&#x1ee0;" horiz-adv-x="620" 
d="M230 840q-12 -8 -26 -27l-14 8q16 23 32 34.5t35 11.5q12 0 23 -5t30 -16q16 -11 28.5 -16.5t24.5 -5.5q15 0 27 9t26 31l14 -7q-15 -28 -31 -40.5t-36 -12.5q-15 0 -28 6t-33 18q-15 10 -25 15t-20 5q-15 0 -27 -8zM551 340q0 -169 -63.5 -259.5t-177.5 -90.5
q-73 0 -127 40t-83.5 118.5t-29.5 190.5q0 113 30 192t84 119.5t126 40.5q97 0 158 -66q29 4 41.5 18.5t12.5 42.5q0 33 -13 72l17 7q16 -40 16 -79q0 -35 -15.5 -53t-46.5 -23q71 -92 71 -270zM470.5 95q56.5 83 56.5 245q0 164 -57.5 247t-159.5 83q-100 0 -158.5 -84.5
t-58.5 -246.5q0 -160 58.5 -243.5t158.5 -83.5q104 0 160.5 83z" />
    <glyph glyph-name="Ohungarumlaut" unicode="&#x150;" horiz-adv-x="620" 
d="M486.5 601.5q64.5 -89.5 64.5 -261.5q0 -169 -63.5 -259.5t-177.5 -90.5q-73 0 -127 40t-83.5 118.5t-29.5 190.5q0 113 30 192t84 119.5t126 40.5q112 0 176.5 -89.5zM151.5 585.5q-58.5 -84.5 -58.5 -246.5q0 -160 58.5 -243.5t158.5 -83.5q104 0 160.5 83t56.5 245
q0 164 -57.5 247t-159.5 83q-100 0 -158.5 -84.5zM406 917l21 -10l-70 -129l-16 8zM306 916l21 -11l-65 -123l-15 7z" />
    <glyph glyph-name="uni01A2" unicode="&#x1a2;" horiz-adv-x="794" 
d="M657 661q28 -30 28 -90v-763h-23v762q0 102 -85 102q-32 0 -59.5 -10t-57.5 -29q44 -44 67.5 -117.5t23.5 -175.5q0 -169 -63.5 -259.5t-177.5 -90.5q-73 0 -127 40t-83.5 118.5t-29.5 190.5q0 113 30 192t84 119.5t126 40.5q79 0 136 -45q32 21 63.5 33t67.5 12
q52 0 80 -30zM469.5 587q-57.5 83 -159.5 83q-100 0 -158.5 -84.5t-58.5 -246.5q0 -160 58.5 -243.5t158.5 -83.5q104 0 160.5 83t56.5 245q0 164 -57.5 247z" />
    <glyph glyph-name="uni020E" unicode="&#x20e;" horiz-adv-x="620" 
d="M486.5 601.5q64.5 -89.5 64.5 -261.5q0 -169 -63.5 -259.5t-177.5 -90.5q-73 0 -127 40t-83.5 118.5t-29.5 190.5q0 113 30 192t84 119.5t126 40.5q112 0 176.5 -89.5zM151.5 585.5q-58.5 -84.5 -58.5 -246.5q0 -160 58.5 -243.5t158.5 -83.5q104 0 160.5 83t56.5 245
q0 164 -57.5 247t-159.5 83q-100 0 -158.5 -84.5zM375.5 863.5q26.5 -23.5 32.5 -62.5l-16 -4q-8 34 -29 51.5t-53 17.5q-67 0 -83 -69l-16 4q6 39 32.5 62.5t66.5 23.5q39 0 65.5 -23.5z" />
    <glyph glyph-name="Omacron" unicode="&#x14c;" horiz-adv-x="620" 
d="M486.5 601.5q64.5 -89.5 64.5 -261.5q0 -169 -63.5 -259.5t-177.5 -90.5q-73 0 -127 40t-83.5 118.5t-29.5 190.5q0 113 30 192t84 119.5t126 40.5q112 0 176.5 -89.5zM151.5 585.5q-58.5 -84.5 -58.5 -246.5q0 -160 58.5 -243.5t158.5 -83.5q104 0 160.5 83t56.5 245
q0 164 -57.5 247t-159.5 83q-100 0 -158.5 -84.5zM405 811h-189v21h189v-21z" />
    <glyph glyph-name="uni1E52" unicode="&#x1e52;" horiz-adv-x="620" 
d="M486.5 601.5q64.5 -89.5 64.5 -261.5q0 -169 -63.5 -259.5t-177.5 -90.5q-73 0 -127 40t-83.5 118.5t-29.5 190.5q0 113 30 192t84 119.5t126 40.5q112 0 176.5 -89.5zM151.5 585.5q-58.5 -84.5 -58.5 -246.5q0 -160 58.5 -243.5t158.5 -83.5q104 0 160.5 83t56.5 245
q0 164 -57.5 247t-159.5 83q-100 0 -158.5 -84.5zM405 767h-189v21h189v-21zM380 939l11 -22l-161 -73l-7 15z" />
    <glyph glyph-name="uni1E50" unicode="&#x1e50;" horiz-adv-x="620" 
d="M243 939l156 -81l-7 -15l-161 74zM408 767h-189v21h189v-21zM486.5 601.5q64.5 -89.5 64.5 -261.5q0 -169 -63.5 -259.5t-177.5 -90.5q-73 0 -127 40t-83.5 118.5t-29.5 190.5q0 113 30 192t84 119.5t126 40.5q112 0 176.5 -89.5zM151.5 585.5q-58.5 -84.5 -58.5 -246.5
q0 -160 58.5 -243.5t158.5 -83.5q104 0 160.5 83t56.5 245q0 164 -57.5 247t-159.5 83q-100 0 -158.5 -84.5z" />
    <glyph glyph-name="uniA7B6" unicode="&#xa7b6;" horiz-adv-x="757" 
d="M665.5 485q15.5 -88 15.5 -200q0 -164 -44.5 -229.5t-124.5 -65.5q-58 0 -90.5 31t-43.5 94q-12 -63 -45.5 -94t-90.5 -31q-83 0 -124.5 68t-41.5 228q0 111 16 197.5t51 197.5h24q-35 -108 -51.5 -197.5t-16.5 -197.5q0 -106 17.5 -166.5t48.5 -84t77 -23.5
q59 0 91.5 39.5t32.5 132.5v212h24v-213q0 -93 32 -132t90 -39q70 0 108 60t38 213q0 109 -16 199t-50 197h24q34 -108 49.5 -196z" />
    <glyph glyph-name="uni01EA" unicode="&#x1ea;" horiz-adv-x="620" 
d="M293 -55q-28 -27 -28 -68q0 -28 16 -43t47 -15q23 0 50 7l-2 -22q-27 -7 -49 -7q-41 0 -63 22t-22 58t21.5 63t62.5 50h-16q-73 0 -127 40t-83.5 118.5t-29.5 190.5q0 113 30 192t84 119.5t126 40.5q112 0 176.5 -89.5t64.5 -261.5q0 -143 -46 -230t-130 -111
q-54 -27 -82 -54zM151.5 95.5q58.5 -83.5 158.5 -83.5q104 0 160.5 83t56.5 245q0 164 -57.5 247t-159.5 83q-100 0 -158.5 -84.5t-58.5 -246.5q0 -160 58.5 -243.5z" />
    <glyph glyph-name="uni01EC" unicode="&#x1ec;" horiz-adv-x="620" 
d="M405 832v-21h-189v21h189zM293 -55q-28 -27 -28 -68q0 -28 16 -43t47 -15q23 0 50 7l-2 -22q-27 -7 -49 -7q-41 0 -63 22t-22 58t21.5 63t62.5 50h-16q-73 0 -127 40t-83.5 118.5t-29.5 190.5q0 113 30 192t84 119.5t126 40.5q112 0 176.5 -89.5t64.5 -261.5
q0 -143 -46 -230t-130 -111q-54 -27 -82 -54zM151.5 95.5q58.5 -83.5 158.5 -83.5q104 0 160.5 83t56.5 245q0 164 -57.5 247t-159.5 83q-100 0 -158.5 -84.5t-58.5 -246.5q0 -160 58.5 -243.5z" />
    <glyph glyph-name="uni0186" unicode="&#x186;" horiz-adv-x="485" 
d="M355 603.5q61 -87.5 61 -263.5q0 -113 -30.5 -192t-83.5 -118.5t-121 -39.5q-51 0 -89 17t-69 47l13 15q33 -28 66 -42.5t78 -14.5q61 0 109 36.5t75.5 110t27.5 181.5q0 169 -54.5 249.5t-148.5 80.5q-44 0 -78.5 -13t-68.5 -40l-12 16q70 58 160 58q104 0 165 -87.5z
" />
    <glyph glyph-name="Oslash" unicode="&#xd8;" horiz-adv-x="620" 
d="M513 553.5q38 -83.5 38 -213.5q0 -169 -63.5 -259.5t-177.5 -90.5q-41 0 -80 14l-29 -115l-22 7l33 116q-67 34 -104.5 117t-37.5 210q0 113 30 192t84 119.5t126 40.5q44 0 79 -13l31 120l22 -6l-35 -122q68 -33 106 -116.5zM126 142q33 -77 94 -109l164 624
q-32 13 -74 13q-100 0 -158.5 -84.5t-58.5 -246.5q0 -120 33 -197zM470.5 95q56.5 83 56.5 245q0 123 -32.5 200.5t-93.5 108.5l-165 -623q32 -14 74 -14q104 0 160.5 83z" />
    <glyph glyph-name="Oslashacute" unicode="&#x1fe;" horiz-adv-x="620" 
d="M513 553.5q38 -83.5 38 -213.5q0 -169 -63.5 -259.5t-177.5 -90.5q-41 0 -80 14l-29 -115l-22 7l33 116q-67 34 -104.5 117t-37.5 210q0 113 30 192t84 119.5t126 40.5q44 0 79 -13l31 120l22 -6l-35 -122q68 -33 106 -116.5zM126 142q33 -77 94 -109l164 624
q-32 13 -74 13q-100 0 -158.5 -84.5t-58.5 -246.5q0 -120 33 -197zM470.5 95q56.5 83 56.5 245q0 123 -32.5 200.5t-93.5 108.5l-165 -623q32 -14 74 -14q104 0 160.5 83zM375 869l11 -22l-161 -73l-7 15z" />
    <glyph glyph-name="Otilde" unicode="&#xd5;" horiz-adv-x="620" 
d="M486.5 601.5q64.5 -89.5 64.5 -261.5q0 -169 -63.5 -259.5t-177.5 -90.5q-73 0 -127 40t-83.5 118.5t-29.5 190.5q0 113 30 192t84 119.5t126 40.5q112 0 176.5 -89.5zM151.5 585.5q-58.5 -84.5 -58.5 -246.5q0 -160 58.5 -243.5t158.5 -83.5q104 0 160.5 83t56.5 245
q0 164 -57.5 247t-159.5 83q-100 0 -158.5 -84.5zM335 810q-13 6 -33 18q-15 10 -25 15t-20 5q-15 0 -27 -8t-26 -27l-14 8q16 23 32 34.5t35 11.5q12 0 23.5 -5t29.5 -16q17 -11 28.5 -16.5t24.5 -5.5q15 0 27 9t26 31l14 -7q-15 -28 -31 -40.5t-36 -12.5q-15 0 -28 6z" />
    <glyph glyph-name="uni1E4C" unicode="&#x1e4c;" horiz-adv-x="620" 
d="M486.5 601.5q64.5 -89.5 64.5 -261.5q0 -169 -63.5 -259.5t-177.5 -90.5q-73 0 -127 40t-83.5 118.5t-29.5 190.5q0 113 30 192t84 119.5t126 40.5q112 0 176.5 -89.5zM151.5 585.5q-58.5 -84.5 -58.5 -246.5q0 -160 58.5 -243.5t158.5 -83.5q104 0 160.5 83t56.5 245
q0 164 -57.5 247t-159.5 83q-100 0 -158.5 -84.5zM335 763q-13 6 -33 18q-15 10 -25 15t-20 5q-15 0 -27 -8t-26 -27l-14 8q16 23 32 34.5t35 11.5q12 0 23.5 -5t29.5 -16q17 -11 28.5 -16.5t24.5 -5.5q15 0 27 9t26 31l14 -7q-15 -28 -31 -40.5t-36 -12.5q-15 0 -28 6z
M382 956l11 -22l-161 -73l-7 15z" />
    <glyph glyph-name="uni022C" unicode="&#x22c;" horiz-adv-x="620" 
d="M486.5 601.5q64.5 -89.5 64.5 -261.5q0 -169 -63.5 -259.5t-177.5 -90.5q-73 0 -127 40t-83.5 118.5t-29.5 190.5q0 113 30 192t84 119.5t126 40.5q112 0 176.5 -89.5zM151.5 585.5q-58.5 -84.5 -58.5 -246.5q0 -160 58.5 -243.5t158.5 -83.5q104 0 160.5 83t56.5 245
q0 164 -57.5 247t-159.5 83q-100 0 -158.5 -84.5zM335 763q-13 6 -33 18q-15 10 -25 15t-20 5q-15 0 -27 -8t-26 -27l-14 8q16 23 32 34.5t35 11.5q12 0 23.5 -5t29.5 -16q17 -11 28.5 -16.5t24.5 -5.5q15 0 27 9t26 31l14 -7q-15 -28 -31 -40.5t-36 -12.5q-15 0 -28 6z
M402 878h-189v21h189v-21z" />
    <glyph glyph-name="OE" unicode="&#x152;" horiz-adv-x="763" 
d="M724 0h-366q-27 -10 -59 -10q-68 0 -119.5 41t-80.5 119.5t-29 188.5t29 189.5t81 121t119 41.5q37 0 64 -10h354l-3 -21h-310q58 -35 91 -109t36 -181h147v-21h-147q-1 -128 -35 -211t-96 -117h324v-21zM119 161.5q26 -73.5 72.5 -111.5t107.5 -38q98 0 153 87t55 253
q0 101 -26 172.5t-73 108.5t-109 37q-61 0 -107.5 -38.5t-72.5 -113t-26 -179.5q0 -104 26 -177.5z" />
    <glyph glyph-name="P" unicode="P" horiz-adv-x="501" 
d="M394.5 633.5q57.5 -47.5 57.5 -149.5q0 -105 -61.5 -153.5t-176.5 -48.5h-81v-282h-23v681h108q119 0 176.5 -47.5zM375 345q54 42 54 138q0 94 -51 135.5t-160 41.5h-85v-357h83q105 0 159 42z" />
    <glyph glyph-name="uni1E54" unicode="&#x1e54;" horiz-adv-x="501" 
d="M394.5 633.5q57.5 -47.5 57.5 -149.5q0 -105 -61.5 -153.5t-176.5 -48.5h-81v-282h-23v681h108q119 0 176.5 -47.5zM375 345q54 42 54 138q0 94 -51 135.5t-160 41.5h-85v-357h83q105 0 159 42zM324 859l11 -22l-161 -73l-7 15z" />
    <glyph glyph-name="uni1E56" unicode="&#x1e56;" horiz-adv-x="501" 
d="M394.5 633.5q57.5 -47.5 57.5 -149.5q0 -105 -61.5 -153.5t-176.5 -48.5h-81v-282h-23v681h108q119 0 176.5 -47.5zM375 345q54 42 54 138q0 94 -51 135.5t-160 41.5h-85v-357h83q105 0 159 42zM267.5 844q5.5 -6 5.5 -14t-5.5 -13.5t-14.5 -5.5t-14.5 5.5t-5.5 13.5
t5.5 14t14.5 6t14.5 -6z" />
    <glyph glyph-name="uni01A4" unicode="&#x1a4;" horiz-adv-x="540" 
d="M433.5 633.5q57.5 -47.5 57.5 -149.5q0 -105 -61.5 -153.5t-176.5 -48.5h-81v-282h-23v661h-27q-40 0 -60 -20.5t-20 -55.5q0 -23 6 -40.5t18 -36.5l-17 -10q-14 22 -21.5 40.5t-7.5 46.5q0 45 26.5 70.5t77.5 25.5h133q119 0 176.5 -47.5zM414 345q54 42 54 138
q0 94 -51 135.5t-160 41.5h-85v-357h83q105 0 159 42z" />
    <glyph glyph-name="Thorn" unicode="&#xde;" horiz-adv-x="501" 
d="M395 506q57 -48 57 -151q0 -109 -60.5 -158.5t-174.5 -49.5h-84v-147h-23v681h23v-127h87q118 0 175 -48zM375.5 211q53.5 43 53.5 144q0 95 -50.5 136.5t-158.5 41.5h-87v-365h85q104 0 157.5 43z" />
    <glyph glyph-name="Q" unicode="Q" horiz-adv-x="620" 
d="M483 -11q48 -15 85 -52l-16 -18q-45 42 -99 57.5t-143 15.5q-111 0 -175.5 89t-64.5 258q0 113 30 192t84 119.5t126 40.5q112 0 176.5 -89.5t64.5 -261.5q0 -152 -47.5 -233.5t-130.5 -100.5q62 -2 110 -17zM151.5 95.5q58.5 -83.5 158.5 -83.5q104 0 160.5 83t56.5 245
q0 164 -57.5 247t-159.5 83q-100 0 -158.5 -84.5t-58.5 -246.5q0 -160 58.5 -243.5z" />
    <glyph glyph-name="uni024A" unicode="&#x24a;" horiz-adv-x="586" 
d="M621 -167q-34 -30 -81 -30q-40 0 -64 26t-24 76v166q-60 -81 -157 -81q-65 0 -116 37.5t-80 114t-29 187.5q0 118 29.5 199t81 122t117.5 41q96 0 155 -73l2 63h19v-776q0 -42 18.5 -61.5t48.5 -19.5q22 0 38 6.5t31 18.5zM452 103v487q-28 38 -67 59t-87 21
q-60 0 -106 -37.5t-72.5 -114t-26.5 -189.5q0 -105 26.5 -176.5t72 -106t103.5 -34.5q100 0 157 91z" />
    <glyph glyph-name="R" unicode="R" horiz-adv-x="516" 
d="M451 0l-170 325l-19 -1h-129v-324h-23v681h126q111 0 161.5 -45t50.5 -132q0 -75 -38 -119t-105 -56l172 -329h-26zM378.5 384.5q46.5 39.5 46.5 119.5q0 77 -44 116.5t-148 39.5h-100v-315h115q84 0 130.5 39.5z" />
    <glyph glyph-name="Racute" unicode="&#x154;" horiz-adv-x="516" 
d="M451 0l-170 325l-19 -1h-129v-324h-23v681h126q111 0 161.5 -45t50.5 -132q0 -75 -38 -119t-105 -56l172 -329h-26zM378.5 384.5q46.5 39.5 46.5 119.5q0 77 -44 116.5t-148 39.5h-100v-315h115q84 0 130.5 39.5zM328 859l11 -22l-161 -73l-7 15z" />
    <glyph glyph-name="Rcaron" unicode="&#x158;" horiz-adv-x="516" 
d="M451 0l-170 325l-19 -1h-129v-324h-23v681h126q111 0 161.5 -45t50.5 -132q0 -75 -38 -119t-105 -56l172 -329h-26zM378.5 384.5q46.5 39.5 46.5 119.5q0 77 -44 116.5t-148 39.5h-100v-315h115q84 0 130.5 39.5zM359 863l11 -12l-109 -91h-12l-108 91l10 12l104 -80z
" />
    <glyph glyph-name="Rcommaaccent" unicode="&#x156;" horiz-adv-x="516" 
d="M451 0l-170 325l-19 -1h-129v-324h-23v681h126q111 0 161.5 -45t50.5 -132q0 -75 -38 -119t-105 -56l172 -329h-26zM378.5 384.5q46.5 39.5 46.5 119.5q0 77 -44 116.5t-148 39.5h-100v-315h115q84 0 130.5 39.5zM289.5 -102.5q6.5 -6.5 6.5 -16.5t-5.5 -24t-7.5 -20
l-32 -95h-15l28 116q-16 6 -16 23q0 10 6.5 16.5t17.5 6.5t17.5 -6.5z" />
    <glyph glyph-name="uni0210" unicode="&#x210;" horiz-adv-x="516" 
d="M451 0l-170 325l-19 -1h-129v-324h-23v681h126q111 0 161.5 -45t50.5 -132q0 -75 -38 -119t-105 -56l172 -329h-26zM378.5 384.5q46.5 39.5 46.5 119.5q0 77 -44 116.5t-148 39.5h-100v-315h115q84 0 130.5 39.5zM150 917l65 -131l-16 -8l-70 129zM250 916l59 -127
l-15 -7l-65 123z" />
    <glyph glyph-name="uni1E5A" unicode="&#x1e5a;" horiz-adv-x="516" 
d="M451 0l-170 325l-19 -1h-129v-324h-23v681h126q111 0 161.5 -45t50.5 -132q0 -75 -38 -119t-105 -56l172 -329h-26zM378.5 384.5q46.5 39.5 46.5 119.5q0 77 -44 116.5t-148 39.5h-100v-315h115q84 0 130.5 39.5zM259.5 -132q-5.5 6 -5.5 14t5.5 13.5t14.5 5.5t14.5 -5.5
t5.5 -13.5t-5.5 -14t-14.5 -6t-14.5 6z" />
    <glyph glyph-name="uni0212" unicode="&#x212;" horiz-adv-x="516" 
d="M451 0l-170 325l-19 -1h-129v-324h-23v681h126q111 0 161.5 -45t50.5 -132q0 -75 -38 -119t-105 -56l172 -329h-26zM378.5 384.5q46.5 39.5 46.5 119.5q0 77 -44 116.5t-148 39.5h-100v-315h115q84 0 130.5 39.5zM321.5 863.5q26.5 -23.5 32.5 -62.5l-16 -4
q-8 34 -29 51.5t-53 17.5q-67 0 -83 -69l-16 4q6 39 32.5 62.5t66.5 23.5q39 0 65.5 -23.5z" />
    <glyph glyph-name="uni024C" unicode="&#x24c;" horiz-adv-x="512" 
d="M448 0l-170 325l-19 -1h-129v-324h-23v324h-83v21h83v336h126q111 0 161.5 -45t50.5 -132q0 -75 -38 -119t-105 -56l172 -329h-26zM375.5 384.5q46.5 39.5 46.5 119.5q0 77 -44 116.5t-148 39.5h-100v-315h115q84 0 130.5 39.5z" />
    <glyph glyph-name="uni2C64" unicode="&#x2c64;" horiz-adv-x="516" 
d="M132 0v-95q0 -42 18.5 -61.5t48.5 -19.5q22 0 38 6.5t31 18.5l11 -16q-34 -30 -81 -30q-40 0 -64 26t-24 76v776h126q111 0 161.5 -45t50.5 -132q0 -75 -38 -119t-105 -56l172 -329h-26l-170 325l-19 -1h-129v-324h-1zM133 660v-315h115q84 0 130.5 39.5t46.5 119.5
q0 77 -44 116.5t-148 39.5h-100z" />
    <glyph glyph-name="uni2C64.ss01" horiz-adv-x="356" 
d="M346 682l-5 -20q-23 7 -54 7q-55 0 -93 -37t-61 -115v-517h-1v-95q0 -42 18.5 -61.5t48.5 -19.5q22 0 38 6.5t31 18.5l11 -16q-34 -30 -81 -30q-40 0 -64 26t-24 76v776h20l1 -119q21 64 60.5 96.5t96.5 32.5q33 0 58 -9z" />
    <glyph glyph-name="S" unicode="S" horiz-adv-x="483" 
d="M329.5 673.5q37.5 -17.5 72.5 -51.5l-15 -15q-34 33 -68 48t-80 15q-65 0 -105 -38.5t-40 -97.5q0 -40 14.5 -67.5t47.5 -48t91 -41.5q93 -32 133.5 -74.5t40.5 -120.5q0 -55 -24 -98.5t-67 -68.5t-98 -25q-57 0 -101 21t-83 61l15 14q37 -37 75.5 -55.5t92.5 -18.5
q75 0 121 47t46 122q0 48 -16 80t-49.5 54t-93.5 43q-93 33 -130.5 72t-37.5 104q0 43 21 79t59.5 57t87.5 21q53 0 90.5 -17.5z" />
    <glyph glyph-name="Sacute" unicode="&#x15a;" horiz-adv-x="483" 
d="M329.5 673.5q37.5 -17.5 72.5 -51.5l-15 -15q-34 33 -68 48t-80 15q-65 0 -105 -38.5t-40 -97.5q0 -40 14.5 -67.5t47.5 -48t91 -41.5q93 -32 133.5 -74.5t40.5 -120.5q0 -55 -24 -98.5t-67 -68.5t-98 -25q-57 0 -101 21t-83 61l15 14q37 -37 75.5 -55.5t92.5 -18.5
q75 0 121 47t46 122q0 48 -16 80t-49.5 54t-93.5 43q-93 33 -130.5 72t-37.5 104q0 43 21 79t59.5 57t87.5 21q53 0 90.5 -17.5zM315 859l11 -22l-161 -73l-7 15z" />
    <glyph glyph-name="Sacute.loclPLK" horiz-adv-x="483" 
d="M329.5 673.5q37.5 -17.5 72.5 -51.5l-15 -15q-34 33 -68 48t-80 15q-65 0 -105 -38.5t-40 -97.5q0 -40 14.5 -67.5t47.5 -48t91 -41.5q93 -32 133.5 -74.5t40.5 -120.5q0 -55 -24 -98.5t-67 -68.5t-98 -25q-57 0 -101 21t-83 61l15 14q37 -37 75.5 -55.5t92.5 -18.5
q75 0 121 47t46 122q0 48 -16 80t-49.5 54t-93.5 43q-93 33 -130.5 72t-37.5 104q0 43 21 79t59.5 57t87.5 21q53 0 90.5 -17.5zM306 887l20 -14l-94 -142l-13 9z" />
    <glyph glyph-name="uniA78B" unicode="&#xa78b;" horiz-adv-x="178" 
d="M80 361l-3 320h24l-3 -320h-18z" />
    <glyph glyph-name="Scaron" unicode="&#x160;" horiz-adv-x="483" 
d="M329.5 673.5q37.5 -17.5 72.5 -51.5l-15 -15q-34 33 -68 48t-80 15q-65 0 -105 -38.5t-40 -97.5q0 -40 14.5 -67.5t47.5 -48t91 -41.5q93 -32 133.5 -74.5t40.5 -120.5q0 -55 -24 -98.5t-67 -68.5t-98 -25q-57 0 -101 21t-83 61l15 14q37 -37 75.5 -55.5t92.5 -18.5
q75 0 121 47t46 122q0 48 -16 80t-49.5 54t-93.5 43q-93 33 -130.5 72t-37.5 104q0 43 21 79t59.5 57t87.5 21q53 0 90.5 -17.5zM346 863l11 -12l-109 -91h-12l-108 91l10 12l104 -80z" />
    <glyph glyph-name="Scedilla" unicode="&#x15e;" horiz-adv-x="483" 
d="M398 85q-23 -43 -64.5 -68.5t-94.5 -26.5l-1 -64q82 -6 82 -67q0 -34 -22.5 -52.5t-54.5 -18.5q-35 0 -62 18l10 16q22 -15 52 -15q24 0 39.5 13t15.5 39t-19.5 38t-61.5 13l5 80q-54 2 -95.5 23t-78.5 59l15 14q37 -37 75.5 -55.5t92.5 -18.5q75 0 121 47t46 122
q0 48 -16 80t-49.5 54t-93.5 43q-93 33 -130.5 72t-37.5 104q0 43 21 79t59.5 57t87.5 21q53 0 90.5 -17.5t72.5 -51.5l-15 -15q-34 33 -68 48t-80 15q-65 0 -105 -38.5t-40 -97.5q0 -40 14.5 -67.5t47.5 -48t91 -41.5q93 -32 133.5 -74.5t40.5 -120.5q0 -54 -23 -97z" />
    <glyph glyph-name="Scircumflex" unicode="&#x15c;" horiz-adv-x="483" 
d="M329.5 673.5q37.5 -17.5 72.5 -51.5l-15 -15q-34 33 -68 48t-80 15q-65 0 -105 -38.5t-40 -97.5q0 -40 14.5 -67.5t47.5 -48t91 -41.5q93 -32 133.5 -74.5t40.5 -120.5q0 -55 -24 -98.5t-67 -68.5t-98 -25q-57 0 -101 21t-83 61l15 14q37 -37 75.5 -55.5t92.5 -18.5
q75 0 121 47t46 122q0 48 -16 80t-49.5 54t-93.5 43q-93 33 -130.5 72t-37.5 104q0 43 21 79t59.5 57t87.5 21q53 0 90.5 -17.5zM139 767l-11 12l108 90h12l109 -90l-11 -12l-104 79z" />
    <glyph glyph-name="Scommaaccent" unicode="&#x218;" horiz-adv-x="483" 
d="M329.5 673.5q37.5 -17.5 72.5 -51.5l-15 -15q-34 33 -68 48t-80 15q-65 0 -105 -38.5t-40 -97.5q0 -40 14.5 -67.5t47.5 -48t91 -41.5q93 -32 133.5 -74.5t40.5 -120.5q0 -55 -24 -98.5t-67 -68.5t-98 -25q-57 0 -101 21t-83 61l15 14q37 -37 75.5 -55.5t92.5 -18.5
q75 0 121 47t46 122q0 48 -16 80t-49.5 54t-93.5 43q-93 33 -130.5 72t-37.5 104q0 43 21 79t59.5 57t87.5 21q53 0 90.5 -17.5zM251.5 -102.5q6.5 -6.5 6.5 -16.5t-5.5 -24t-7.5 -20l-32 -95h-15l28 116q-16 6 -16 23q0 10 6.5 16.5t17.5 6.5t17.5 -6.5z" />
    <glyph glyph-name="uni1E60" unicode="&#x1e60;" horiz-adv-x="483" 
d="M329.5 673.5q37.5 -17.5 72.5 -51.5l-15 -15q-34 33 -68 48t-80 15q-65 0 -105 -38.5t-40 -97.5q0 -40 14.5 -67.5t47.5 -48t91 -41.5q93 -32 133.5 -74.5t40.5 -120.5q0 -55 -24 -98.5t-67 -68.5t-98 -25q-57 0 -101 21t-83 61l15 14q37 -37 75.5 -55.5t92.5 -18.5
q75 0 121 47t46 122q0 48 -16 80t-49.5 54t-93.5 43q-93 33 -130.5 72t-37.5 104q0 43 21 79t59.5 57t87.5 21q53 0 90.5 -17.5zM258.5 844q5.5 -6 5.5 -14t-5.5 -13.5t-14.5 -5.5t-14.5 5.5t-5.5 13.5t5.5 14t14.5 6t14.5 -6z" />
    <glyph glyph-name="uni1E62" unicode="&#x1e62;" horiz-adv-x="483" 
d="M329.5 673.5q37.5 -17.5 72.5 -51.5l-15 -15q-34 33 -68 48t-80 15q-65 0 -105 -38.5t-40 -97.5q0 -40 14.5 -67.5t47.5 -48t91 -41.5q93 -32 133.5 -74.5t40.5 -120.5q0 -55 -24 -98.5t-67 -68.5t-98 -25q-57 0 -101 21t-83 61l15 14q37 -37 75.5 -55.5t92.5 -18.5
q75 0 121 47t46 122q0 48 -16 80t-49.5 54t-93.5 43q-93 33 -130.5 72t-37.5 104q0 43 21 79t59.5 57t87.5 21q53 0 90.5 -17.5zM221.5 -132q-5.5 6 -5.5 14t5.5 13.5t14.5 5.5t14.5 -5.5t5.5 -13.5t-5.5 -14t-14.5 -6t-14.5 6z" />
    <glyph glyph-name="uni1E9E" unicode="&#x1e9e;" horiz-adv-x="574" 
d="M389.5 676q47.5 -15 98.5 -45v-18l-189 -231q112 -14 166 -63.5t54 -139.5q0 -87 -45 -138t-124 -51q-60 0 -102 22l9 18q43 -19 92 -19q69 0 108 44t39 124q0 85 -53 129t-168 56v21l191 235q-45 24 -87 37t-89 13q-76 0 -116.5 -41.5t-40.5 -124.5v-504h-23v506
q0 88 47.5 136.5t132.5 48.5q52 0 99.5 -15z" />
    <glyph glyph-name="uni018F" unicode="&#x18f;" horiz-adv-x="581" 
d="M453.5 607.5q57.5 -83.5 57.5 -270.5q0 -177 -60.5 -262t-165.5 -85q-106 0 -165.5 84.5t-59.5 250.5q0 21 1 34h427q-4 166 -55 238.5t-145 72.5q-51 0 -91.5 -17t-82.5 -56l-14 15q43 41 87.5 60t100.5 19q108 0 165.5 -83.5zM433 90.5q54 78.5 55 248.5h-404
q-1 -166 52 -246.5t150 -80.5q93 0 147 78.5z" />
    <glyph glyph-name="T" unicode="T" horiz-adv-x="429" 
d="M418 681l-4 -21h-188v-660h-23v660h-188v21h403z" />
    <glyph glyph-name="Tbar" unicode="&#x166;" horiz-adv-x="429" 
d="M414 660h-188v-280h112v-20h-112v-360h-23v360h-111v20h111v280h-188v21h403z" />
    <glyph glyph-name="Tcaron" unicode="&#x164;" horiz-adv-x="429" 
d="M418 681l-4 -21h-188v-660h-23v660h-188v21h403zM318 863l11 -12l-109 -91h-12l-108 91l10 12l104 -80z" />
    <glyph glyph-name="uni0162" unicode="&#x162;" horiz-adv-x="429" 
d="M225 -74q82 -5 82 -66q0 -34 -22.5 -53t-54.5 -19q-35 0 -62 18l9 17q22 -15 53 -15q23 0 39 13t16 39q0 25 -19.5 37t-61.5 13l5 90h-6v660h-188v21h403l-4 -21h-188v-660z" />
    <glyph glyph-name="uni1E70" unicode="&#x1e70;" horiz-adv-x="429" 
d="M418 681l-4 -21h-188v-660h-23v660h-188v21h403zM112 -183l-11 12l108 96h13l108 -96l-12 -12l-103 85z" />
    <glyph glyph-name="uni021A" unicode="&#x21a;" horiz-adv-x="429" 
d="M418 681l-4 -21h-188v-660h-23v660h-188v21h403zM230.5 -102.5q6.5 -6.5 6.5 -16.5t-5.5 -24t-7.5 -20l-32 -95h-15l28 116q-16 6 -16 23q0 10 6.5 16.5t17.5 6.5t17.5 -6.5z" />
    <glyph glyph-name="uni023E" unicode="&#x23e;" horiz-adv-x="429" 
d="M414 659h-106l-82 -310v-349h-23v261l-86 -327l-16 4l102 388v333h-188v22h281l15 56l16 -4l-14 -52h105zM226 414l64 245h-64v-245z" />
    <glyph glyph-name="uni1E6A" unicode="&#x1e6a;" horiz-adv-x="429" 
d="M418 681l-4 -21h-188v-660h-23v660h-188v21h403zM230.5 844q5.5 -6 5.5 -14t-5.5 -13.5t-14.5 -5.5t-14.5 5.5t-5.5 13.5t5.5 14t14.5 6t14.5 -6z" />
    <glyph glyph-name="uni1E6C" unicode="&#x1e6c;" horiz-adv-x="429" 
d="M418 681l-4 -21h-188v-660h-23v660h-188v21h403zM200.5 -132q-5.5 6 -5.5 14t5.5 13.5t14.5 5.5t14.5 -5.5t5.5 -13.5t-5.5 -14t-14.5 -6t-14.5 6z" />
    <glyph glyph-name="uni01AC" unicode="&#x1ac;" horiz-adv-x="448" 
d="M433 659h-188v-659h-23v659h-99q-41 0 -61 -19.5t-20 -54.5q0 -23 6 -40.5t18 -36.5l-17 -10q-14 22 -21.5 40.5t-7.5 46.5q0 45 27 70.5t81 25.5h309z" />
    <glyph glyph-name="uni1E6E" unicode="&#x1e6e;" horiz-adv-x="429" 
d="M418 681l-4 -21h-188v-660h-23v660h-188v21h403zM310 -139h-189v21h189v-21z" />
    <glyph glyph-name="uni01BC" unicode="&#x1bc;" horiz-adv-x="436" 
d="M360 661h-261v-275q25 19 52.5 29t63.5 10q79 0 123.5 -54t44.5 -152q0 -104 -48.5 -166.5t-132.5 -62.5q-52 0 -91.5 19.5t-72.5 57.5l17 13q29 -35 64.5 -52t83.5 -17q73 0 115 56t42 152q0 91 -39 138t-108 47q-35 0 -61 -9.5t-57 -30.5h-17v317h286z" />
    <glyph glyph-name="uni0184" unicode="&#x184;" horiz-adv-x="496" 
d="M398.5 359q54.5 -49 54.5 -147q0 -107 -55.5 -159.5t-156.5 -52.5h-131v587l-30 22q25 31 33 72h20v-273h107q104 0 158.5 -49zM382 68.5q47 47.5 47 144.5q0 174 -187 174h-109v-366h113q89 0 136 47.5z" />
    <glyph glyph-name="uni01A7" unicode="&#x1a7;" horiz-adv-x="477" 
d="M368.5 649q42.5 -42 42.5 -109q0 -47 -16 -78.5t-52 -55t-100 -47.5q-60 -22 -93.5 -45.5t-49 -56t-15.5 -82.5q0 -75 44 -119t114 -44q56 0 95.5 19t75.5 56l15 -15q-39 -40 -83 -61t-103 -21q-52 0 -93.5 23t-65 65t-23.5 97q0 80 40.5 124.5t133.5 78.5q59 21 91.5 42
t47 49t14.5 71q0 59 -36 94.5t-99 35.5q-48 0 -84.5 -15.5t-73.5 -48.5l-14 16q40 35 79 52t93 17q73 0 115.5 -42z" />
    <glyph glyph-name="uni01AE" unicode="&#x1ae;" horiz-adv-x="429" 
d="M244.5 -156.5q18.5 -19.5 48.5 -19.5q22 0 38 6.5t31 18.5l11 -16q-34 -30 -81 -30q-40 0 -64 26t-24 76v95h-1v660h-188v21h403l-4 -21h-188v-755q0 -42 18.5 -61.5z" />
    <glyph glyph-name="U" unicode="U" horiz-adv-x="575" 
d="M475 188q0 -89 -46.5 -143.5t-140.5 -54.5q-95 0 -141.5 54.5t-46.5 143.5v493h23v-491q0 -82 40 -130t125 -48q84 0 124 48.5t40 129.5v491h23v-493z" />
    <glyph glyph-name="Uacute" unicode="&#xda;" horiz-adv-x="575" 
d="M475 188q0 -89 -46.5 -143.5t-140.5 -54.5q-95 0 -141.5 54.5t-46.5 143.5v493h23v-491q0 -82 40 -130t125 -48q84 0 124 48.5t40 129.5v491h23v-493zM360 859l11 -22l-161 -73l-7 15z" />
    <glyph glyph-name="uni0244" unicode="&#x244;" horiz-adv-x="599" 
d="M541 520h-54v-332q0 -89 -46.5 -143.5t-140.5 -54.5q-95 0 -141.5 54.5t-46.5 143.5v332h-54v18h54v143h23v-143h329v143h23v-143h54v-18zM464 520h-329v-330q0 -82 40 -130t125 -48q84 0 124 48.5t40 129.5v330z" />
    <glyph glyph-name="Ubreve" unicode="&#x16c;" horiz-adv-x="575" 
d="M475 188q0 -89 -46.5 -143.5t-140.5 -54.5q-95 0 -141.5 54.5t-46.5 143.5v493h23v-491q0 -82 40 -130t125 -48q84 0 124 48.5t40 129.5v491h23v-493zM222 792.5q-27 21.5 -33 54.5l16 4q9 -27 30.5 -43t52.5 -16q30 0 52 16t31 43l15 -4q-6 -33 -32.5 -54.5t-65.5 -21.5
t-66 21.5z" />
    <glyph glyph-name="uni01D3" unicode="&#x1d3;" horiz-adv-x="575" 
d="M475 188q0 -89 -46.5 -143.5t-140.5 -54.5q-95 0 -141.5 54.5t-46.5 143.5v493h23v-491q0 -82 40 -130t125 -48q84 0 124 48.5t40 129.5v491h23v-493zM391 863l11 -12l-109 -91h-12l-108 91l10 12l104 -80z" />
    <glyph glyph-name="Ucircumflex" unicode="&#xdb;" horiz-adv-x="575" 
d="M475 188q0 -89 -46.5 -143.5t-140.5 -54.5q-95 0 -141.5 54.5t-46.5 143.5v493h23v-491q0 -82 40 -130t125 -48q84 0 124 48.5t40 129.5v491h23v-493zM184 767l-11 12l108 90h12l109 -90l-11 -12l-104 79z" />
    <glyph glyph-name="uni0214" unicode="&#x214;" horiz-adv-x="575" 
d="M475 188q0 -89 -46.5 -143.5t-140.5 -54.5q-95 0 -141.5 54.5t-46.5 143.5v493h23v-491q0 -82 40 -130t125 -48q84 0 124 48.5t40 129.5v491h23v-493zM182 917l65 -131l-16 -8l-70 129zM282 916l59 -127l-15 -7l-65 123z" />
    <glyph glyph-name="Udieresis" unicode="&#xdc;" horiz-adv-x="575" 
d="M475 188q0 -89 -46.5 -143.5t-140.5 -54.5q-95 0 -141.5 54.5t-46.5 143.5v493h23v-491q0 -82 40 -130t125 -48q84 0 124 48.5t40 129.5v491h23v-493zM229.5 832.5q5.5 -5.5 5.5 -14.5q0 -8 -5.5 -13.5t-14.5 -5.5q-8 0 -13.5 5.5t-5.5 13.5t5.5 14t13.5 6q9 0 14.5 -5.5
zM380.5 832q5.5 -6 5.5 -14t-5.5 -13.5t-14.5 -5.5t-14.5 5.5t-5.5 13.5t5.5 14t14.5 6t14.5 -6z" />
    <glyph glyph-name="uni01D7" unicode="&#x1d7;" horiz-adv-x="575" 
d="M475 188q0 -89 -46.5 -143.5t-140.5 -54.5q-95 0 -141.5 54.5t-46.5 143.5v493h23v-491q0 -82 40 -130t125 -48q84 0 124 48.5t40 129.5v491h23v-493zM357 921l19 -15l-94 -114l-13 10zM226.5 775.5q5.5 -5.5 5.5 -13.5q0 -9 -5.5 -14.5t-14.5 -5.5q-8 0 -13.5 6t-5.5 14
t5.5 13.5t13.5 5.5q9 0 14.5 -5.5zM377.5 775.5q5.5 -5.5 5.5 -13.5t-5.5 -14t-14.5 -6t-14.5 6t-5.5 14t5.5 13.5t14.5 5.5t14.5 -5.5z" />
    <glyph glyph-name="uni01D9" unicode="&#x1d9;" horiz-adv-x="575" 
d="M475 188q0 -89 -46.5 -143.5t-140.5 -54.5q-95 0 -141.5 54.5t-46.5 143.5v493h23v-491q0 -82 40 -130t125 -48q84 0 124 48.5t40 129.5v491h23v-493zM390 894l11 -12l-109 -91h-12l-108 91l10 12l104 -80zM226.5 775.5q5.5 -5.5 5.5 -13.5q0 -9 -5.5 -14.5t-14.5 -5.5
q-8 0 -13.5 6t-5.5 14t5.5 13.5t13.5 5.5q9 0 14.5 -5.5zM377 775.5q5 -5.5 5 -13.5q0 -9 -5 -14.5t-14 -5.5t-14.5 6t-5.5 14t5.5 13.5t14.5 5.5t14 -5.5z" />
    <glyph glyph-name="uni01DB" unicode="&#x1db;" horiz-adv-x="575" 
d="M475 188q0 -89 -46.5 -143.5t-140.5 -54.5q-95 0 -141.5 54.5t-46.5 143.5v493h23v-491q0 -82 40 -130t125 -48q84 0 124 48.5t40 129.5v491h23v-493zM224 921l89 -119l-13 -10l-94 114zM226.5 775.5q5.5 -5.5 5.5 -13.5q0 -9 -5.5 -14.5t-14.5 -5.5q-8 0 -13.5 6
t-5.5 14t5.5 13.5t13.5 5.5q9 0 14.5 -5.5zM377.5 775.5q5.5 -5.5 5.5 -13.5t-5.5 -14t-14.5 -6t-14.5 6t-5.5 14t5.5 13.5t14.5 5.5t14.5 -5.5z" />
    <glyph glyph-name="uni01D5" unicode="&#x1d5;" horiz-adv-x="575" 
d="M475 188q0 -89 -46.5 -143.5t-140.5 -54.5q-95 0 -141.5 54.5t-46.5 143.5v493h23v-491q0 -82 40 -130t125 -48q84 0 124 48.5t40 129.5v491h23v-493zM226.5 775.5q5.5 -5.5 5.5 -14.5q0 -8 -5.5 -13.5t-14.5 -5.5q-8 0 -13.5 5.5t-5.5 13.5t5.5 14t13.5 6q9 0 14.5 -5.5
zM377.5 775q5.5 -6 5.5 -14t-5.5 -13.5t-14.5 -5.5t-14.5 5.5t-5.5 13.5t5.5 14t14.5 6t14.5 -6zM383 850h-189v21h189v-21z" />
    <glyph glyph-name="uni1EE4" unicode="&#x1ee4;" horiz-adv-x="575" 
d="M475 188q0 -89 -46.5 -143.5t-140.5 -54.5q-95 0 -141.5 54.5t-46.5 143.5v493h23v-491q0 -82 40 -130t125 -48q84 0 124 48.5t40 129.5v491h23v-493zM273.5 -132q-5.5 6 -5.5 14t5.5 13.5t14.5 5.5t14.5 -5.5t5.5 -13.5t-5.5 -14t-14.5 -6t-14.5 6z" />
    <glyph glyph-name="Ugrave" unicode="&#xd9;" horiz-adv-x="575" 
d="M475 188q0 -89 -46.5 -143.5t-140.5 -54.5q-95 0 -141.5 54.5t-46.5 143.5v493h23v-491q0 -82 40 -130t125 -48q84 0 124 48.5t40 129.5v491h23v-493zM217 859l156 -81l-7 -15l-161 74z" />
    <glyph glyph-name="uni1EE6" unicode="&#x1ee6;" horiz-adv-x="575" 
d="M475 188q0 -89 -46.5 -143.5t-140.5 -54.5q-95 0 -141.5 54.5t-46.5 143.5v493h23v-491q0 -82 40 -130t125 -48q84 0 124 48.5t40 129.5v491h23v-493zM278 839q60 2 60 52q0 22 -12.5 34t-34.5 12q-27 0 -50 -14l-9 16q28 18 61 18q31 0 49.5 -18t18.5 -48q0 -59 -62 -66
v-43h-21v57z" />
    <glyph glyph-name="Uhorn" unicode="&#x1af;" horiz-adv-x="575" 
d="M529 630.5q-18 -18.5 -54 -21.5v-421q0 -89 -46.5 -143.5t-140.5 -54.5q-95 0 -141.5 54.5t-46.5 143.5v493h23v-491q0 -82 40 -130t125 -48q84 0 124 48.5t40 129.5v491h23v-56q28 5 40 19t12 42q0 33 -13 72l17 7q16 -40 16 -79q0 -37 -18 -55.5z" />
    <glyph glyph-name="uni1EE8" unicode="&#x1ee8;" horiz-adv-x="575" 
d="M371 837l-161 -73l-7 15l157 80zM529 630.5q-18 -18.5 -54 -21.5v-421q0 -89 -46.5 -143.5t-140.5 -54.5q-95 0 -141.5 54.5t-46.5 143.5v493h23v-491q0 -82 40 -130t125 -48q84 0 124 48.5t40 129.5v491h23v-56q28 5 40 19t12 42q0 33 -13 72l17 7q16 -40 16 -79
q0 -37 -18 -55.5z" />
    <glyph glyph-name="uni1EF0" unicode="&#x1ef0;" horiz-adv-x="575" 
d="M529 630.5q-18 -18.5 -54 -21.5v-421q0 -89 -46.5 -143.5t-140.5 -54.5q-95 0 -141.5 54.5t-46.5 143.5v493h23v-491q0 -82 40 -130t125 -48q84 0 124 48.5t40 129.5v491h23v-56q28 5 40 19t12 42q0 33 -13 72l17 7q16 -40 16 -79q0 -37 -18 -55.5zM302.5 -104.5
q5.5 -5.5 5.5 -13.5t-5.5 -14t-14.5 -6t-14.5 6t-5.5 14t5.5 13.5t14.5 5.5t14.5 -5.5z" />
    <glyph glyph-name="uni1EEA" unicode="&#x1eea;" horiz-adv-x="575" 
d="M373 778l-7 -15l-161 74l12 22zM529 630.5q-18 -18.5 -54 -21.5v-421q0 -89 -46.5 -143.5t-140.5 -54.5q-95 0 -141.5 54.5t-46.5 143.5v493h23v-491q0 -82 40 -130t125 -48q84 0 124 48.5t40 129.5v491h23v-56q28 5 40 19t12 42q0 33 -13 72l17 7q16 -40 16 -79
q0 -37 -18 -55.5z" />
    <glyph glyph-name="uni1EEC" unicode="&#x1eec;" horiz-adv-x="575" 
d="M241 923l-9 16q28 18 61 18q31 0 49.5 -18t18.5 -48q0 -59 -62 -66v-43h-21v57q60 2 60 52q0 22 -12.5 34t-34.5 12q-27 0 -50 -14zM529 630.5q-18 -18.5 -54 -21.5v-421q0 -89 -46.5 -143.5t-140.5 -54.5q-95 0 -141.5 54.5t-46.5 143.5v493h23v-491q0 -82 40 -130
t125 -48q84 0 124 48.5t40 129.5v491h23v-56q28 5 40 19t12 42q0 33 -13 72l17 7q16 -40 16 -79q0 -37 -18 -55.5z" />
    <glyph glyph-name="uni1EEE" unicode="&#x1eee;" horiz-adv-x="575" 
d="M208 840q-12 -8 -26 -27l-14 8q16 23 32 34.5t35 11.5q12 0 23 -5t30 -16q16 -11 28.5 -16.5t24.5 -5.5q15 0 27 9t26 31l14 -7q-15 -28 -31 -40.5t-36 -12.5q-15 0 -28 6t-33 18q-15 10 -25 15t-20 5q-15 0 -27 -8zM529 630.5q-18 -18.5 -54 -21.5v-421
q0 -89 -46.5 -143.5t-140.5 -54.5q-95 0 -141.5 54.5t-46.5 143.5v493h23v-491q0 -82 40 -130t125 -48q84 0 124 48.5t40 129.5v491h23v-56q28 5 40 19t12 42q0 33 -13 72l17 7q16 -40 16 -79q0 -37 -18 -55.5z" />
    <glyph glyph-name="Uhungarumlaut" unicode="&#x170;" horiz-adv-x="575" 
d="M475 188q0 -89 -46.5 -143.5t-140.5 -54.5q-95 0 -141.5 54.5t-46.5 143.5v493h23v-491q0 -82 40 -130t125 -48q84 0 124 48.5t40 129.5v491h23v-493zM384 917l21 -10l-70 -129l-16 8zM284 916l21 -11l-65 -123l-15 7z" />
    <glyph glyph-name="uni0216" unicode="&#x216;" horiz-adv-x="575" 
d="M475 188q0 -89 -46.5 -143.5t-140.5 -54.5q-95 0 -141.5 54.5t-46.5 143.5v493h23v-491q0 -82 40 -130t125 -48q84 0 124 48.5t40 129.5v491h23v-493zM353.5 863.5q26.5 -23.5 32.5 -62.5l-16 -4q-8 34 -29 51.5t-53 17.5q-67 0 -83 -69l-16 4q6 39 32.5 62.5t66.5 23.5
q39 0 65.5 -23.5z" />
    <glyph glyph-name="Umacron" unicode="&#x16a;" horiz-adv-x="575" 
d="M475 188q0 -89 -46.5 -143.5t-140.5 -54.5q-95 0 -141.5 54.5t-46.5 143.5v493h23v-491q0 -82 40 -130t125 -48q84 0 124 48.5t40 129.5v491h23v-493zM383 811h-189v21h189v-21z" />
    <glyph glyph-name="Uogonek" unicode="&#x172;" horiz-adv-x="575" 
d="M475 681v-493q0 -72 -31 -122.5t-94 -67.5q-54 -26 -81 -53t-27 -66q0 -28 17 -44t48 -16q21 0 48 7l-2 -22q-27 -7 -49 -7q-41 0 -63 22.5t-22 59.5q0 35 22.5 62t65.5 50q-6 -1 -19 -1q-95 0 -141.5 54.5t-46.5 143.5v493h23v-491q0 -82 40 -130t125 -48q84 0 124 48.5
t40 129.5v491h23z" />
    <glyph glyph-name="uni01B1" unicode="&#x1b1;" horiz-adv-x="620" 
d="M183 28q-54 38 -83.5 111t-29.5 175q0 236 133 346h-112v21h146v-20q-65 -45 -104.5 -129t-39.5 -218q0 -146 58.5 -224.5t158.5 -78.5t158.5 78.5t58.5 225.5q0 134 -39.5 217.5t-103.5 128.5v20h146v-21h-112q60 -48 96.5 -129.5t36.5 -215.5q0 -103 -30 -176t-84 -111
t-127 -38t-127 38z" />
    <glyph glyph-name="Uring" unicode="&#x16e;" horiz-adv-x="575" 
d="M475 188q0 -89 -46.5 -143.5t-140.5 -54.5q-95 0 -141.5 54.5t-46.5 143.5v493h23v-491q0 -82 40 -130t125 -48q84 0 124 48.5t40 129.5v491h23v-493zM341 906q20 -21 20 -57q0 -37 -20 -58t-53 -21t-52.5 21t-19.5 57q0 37 19.5 58t52.5 21t53 -21zM249.5 893.5
q-13.5 -15.5 -13.5 -45.5t13.5 -45t38.5 -15q26 0 39.5 15.5t13.5 45.5q0 60 -53 60q-25 0 -38.5 -15.5z" />
    <glyph glyph-name="Utilde" unicode="&#x168;" horiz-adv-x="575" 
d="M475 188q0 -89 -46.5 -143.5t-140.5 -54.5q-95 0 -141.5 54.5t-46.5 143.5v493h23v-491q0 -82 40 -130t125 -48q84 0 124 48.5t40 129.5v491h23v-493zM313 810q-13 6 -33 18q-15 10 -25 15t-20 5q-15 0 -27 -8t-26 -27l-14 8q16 23 32 34.5t35 11.5q12 0 23.5 -5
t29.5 -16q17 -11 28.5 -16.5t24.5 -5.5q15 0 27 9t26 31l14 -7q-15 -28 -31 -40.5t-36 -12.5q-15 0 -28 6z" />
    <glyph glyph-name="uni1E78" unicode="&#x1e78;" horiz-adv-x="575" 
d="M475 188q0 -89 -46.5 -143.5t-140.5 -54.5q-95 0 -141.5 54.5t-46.5 143.5v493h23v-491q0 -82 40 -130t125 -48q84 0 124 48.5t40 129.5v491h23v-493zM313 763q-13 6 -33 18q-15 10 -25 15t-20 5q-15 0 -27 -8t-26 -27l-14 8q16 23 32 34.5t35 11.5q12 0 23.5 -5
t29.5 -16q17 -11 28.5 -16.5t24.5 -5.5q15 0 27 9t26 31l14 -7q-15 -28 -31 -40.5t-36 -12.5q-15 0 -28 6zM360 956l11 -22l-161 -73l-7 15z" />
    <glyph glyph-name="V" unicode="V" horiz-adv-x="488" 
d="M460 681l-202 -681h-28l-202 681h23l194 -659l192 659h23z" />
    <glyph glyph-name="uni01B2" unicode="&#x1b2;" horiz-adv-x="575" 
d="M475 607v-336q0 -137 -57.5 -209t-152.5 -72q-76 0 -120.5 47t-44.5 127v517h23v-515q0 -73 37.5 -113.5t104.5 -40.5q86 0 136.5 66t50.5 195v334q0 65 -48 65q-23 0 -40 -11l-9 17q23 13 50 13q70 0 70 -84z" />
    <glyph glyph-name="uni0245" unicode="&#x245;" horiz-adv-x="509" 
d="M268 681l213 -681h-23l-204 663l-204 -663h-22l212 681h28z" />
    <glyph glyph-name="W" unicode="W" horiz-adv-x="717" 
d="M681 681l-143 -681h-27l-153 659l-152 -659h-27l-143 681h23l134 -657l151 657h28l153 -657l133 657h23z" />
    <glyph glyph-name="Wacute" unicode="&#x1e82;" horiz-adv-x="717" 
d="M681 681l-143 -681h-27l-153 659l-152 -659h-27l-143 681h23l134 -657l151 657h28l153 -657l133 657h23zM430 859l11 -22l-161 -73l-7 15z" />
    <glyph glyph-name="Wcircumflex" unicode="&#x174;" horiz-adv-x="717" 
d="M681 681l-143 -681h-27l-153 659l-152 -659h-27l-143 681h23l134 -657l151 657h28l153 -657l133 657h23zM254 767l-11 12l108 90h12l109 -90l-11 -12l-104 79z" />
    <glyph glyph-name="Wdieresis" unicode="&#x1e84;" horiz-adv-x="717" 
d="M681 681l-143 -681h-27l-153 659l-152 -659h-27l-143 681h23l134 -657l151 657h28l153 -657l133 657h23zM299.5 832.5q5.5 -5.5 5.5 -14.5q0 -8 -5.5 -13.5t-14.5 -5.5q-8 0 -13.5 5.5t-5.5 13.5t5.5 14t13.5 6q9 0 14.5 -5.5zM450.5 832q5.5 -6 5.5 -14t-5.5 -13.5
t-14.5 -5.5t-14.5 5.5t-5.5 13.5t5.5 14t14.5 6t14.5 -6z" />
    <glyph glyph-name="Wgrave" unicode="&#x1e80;" horiz-adv-x="717" 
d="M681 681l-143 -681h-27l-153 659l-152 -659h-27l-143 681h23l134 -657l151 657h28l153 -657l133 657h23zM287 859l156 -81l-7 -15l-161 74z" />
    <glyph glyph-name="uni2C72" unicode="&#x2c72;" horiz-adv-x="743" 
d="M179 0h27l152 659l153 -659h27l123 605q8 37 23.5 52t41.5 15q20 0 33 -7t29 -23l12 13q-16 17 -33.5 26.5t-40.5 9.5q-68 0 -84 -78l-117 -589l-153 657h-28l-151 -658l-134 658h-23z" />
    <glyph glyph-name="uni01F7" unicode="&#x1f7;" horiz-adv-x="501" 
d="M408.5 644q43.5 -47 43.5 -128q0 -100 -57 -156.5t-164 -97.5l-98 -38v-224h-23v681h23v-63q34 34 72 53.5t88 19.5q72 0 115.5 -47zM378.5 372q50.5 52 50.5 144q0 73 -37 113.5t-99 40.5q-51 0 -88.5 -20t-71.5 -55v-350l100 39q95 36 145.5 88z" />
    <glyph glyph-name="X" unicode="X" horiz-adv-x="438" 
d="M231 370l193 -370h-24l-183 355l-179 -355h-24l189 369l-167 312h25l156 -297l155 297h24z" />
    <glyph glyph-name="Y" unicode="Y" horiz-adv-x="446" 
d="M427 681l-191 -410v-271h-23v270l-194 411h24l182 -389l178 389h24z" />
    <glyph glyph-name="Yacute" unicode="&#xdd;" horiz-adv-x="446" 
d="M427 681l-191 -410v-271h-23v270l-194 411h24l182 -389l178 389h24zM295 859l11 -22l-161 -73l-7 15z" />
    <glyph glyph-name="Ycircumflex" unicode="&#x176;" horiz-adv-x="446" 
d="M427 681l-191 -410v-271h-23v270l-194 411h24l182 -389l178 389h24zM119 767l-11 12l108 90h12l109 -90l-11 -12l-104 79z" />
    <glyph glyph-name="Ydieresis" unicode="&#x178;" horiz-adv-x="446" 
d="M427 681l-191 -410v-271h-23v270l-194 411h24l182 -389l178 389h24zM164.5 832.5q5.5 -5.5 5.5 -14.5q0 -8 -5.5 -13.5t-14.5 -5.5q-8 0 -13.5 5.5t-5.5 13.5t5.5 14t13.5 6q9 0 14.5 -5.5zM315.5 832q5.5 -6 5.5 -14t-5.5 -13.5t-14.5 -5.5t-14.5 5.5t-5.5 13.5t5.5 14
t14.5 6t14.5 -6z" />
    <glyph glyph-name="uni1EF4" unicode="&#x1ef4;" horiz-adv-x="446" 
d="M427 681l-191 -410v-271h-23v270l-194 411h24l182 -389l178 389h24zM210.5 -132q-5.5 6 -5.5 14t5.5 13.5t14.5 5.5t14.5 -5.5t5.5 -13.5t-5.5 -14t-14.5 -6t-14.5 6z" />
    <glyph glyph-name="Ygrave" unicode="&#x1ef2;" horiz-adv-x="446" 
d="M427 681l-191 -410v-271h-23v270l-194 411h24l182 -389l178 389h24zM152 859l156 -81l-7 -15l-161 74z" />
    <glyph glyph-name="uni01B3" unicode="&#x1b3;" horiz-adv-x="464" 
d="M213 270l-194 411h24l182 -390l136 328q16 37 35.5 54.5t50.5 17.5q23 0 40.5 -9.5t33.5 -26.5l-12 -13q-16 16 -29 23t-33 7q-24 0 -38.5 -13.5t-29.5 -49.5l-143 -339v-270h-23v270z" />
    <glyph glyph-name="uni1EF6" unicode="&#x1ef6;" horiz-adv-x="446" 
d="M427 681l-191 -410v-271h-23v270l-194 411h24l182 -389l178 389h24zM213 839q60 2 60 52q0 22 -12.5 34t-34.5 12q-27 0 -50 -14l-9 16q28 18 61 18q31 0 49.5 -18t18.5 -48q0 -59 -62 -66v-43h-21v57z" />
    <glyph glyph-name="uni0232" unicode="&#x232;" horiz-adv-x="446" 
d="M427 681l-191 -410v-271h-23v270l-194 411h24l182 -389l178 389h24zM318 811h-189v21h189v-21z" />
    <glyph glyph-name="uni01A6" unicode="&#x1a6;" horiz-adv-x="516" 
d="M451 -132l-170 325l-19 -1h-129v-192h-23v681h23v-132h103q111 0 161.5 -45.5t50.5 -132.5q0 -75 -38 -118.5t-105 -55.5l172 -329h-26zM378.5 252q46.5 39 46.5 119q0 78 -44 118t-148 39l-100 -1v-314h115q84 0 130.5 39z" />
    <glyph glyph-name="uni024E" unicode="&#x24e;" horiz-adv-x="447" 
d="M428 584v-17h-54l-138 -296v-271h-23v270l-140 297h-54v17h46l-46 97h24l45 -97h271l44 97h24l-45 -97h46zM225 291l126 276h-255z" />
    <glyph glyph-name="uni1EF8" unicode="&#x1ef8;" horiz-adv-x="446" 
d="M427 681l-191 -410v-271h-23v270l-194 411h24l182 -389l178 389h24zM248 810q-13 6 -33 18q-15 10 -25 15t-20 5q-15 0 -27 -8t-26 -27l-14 8q16 23 32 34.5t35 11.5q12 0 23.5 -5t29.5 -16q17 -11 28.5 -16.5t24.5 -5.5q15 0 27 9t26 31l14 -7q-15 -28 -31 -40.5
t-36 -12.5q-15 0 -28 6z" />
    <glyph glyph-name="Z" unicode="Z" horiz-adv-x="459" 
d="M414 681v-19l-352 -640h340l-3 -22h-362v21l352 639h-318v21h343z" />
    <glyph glyph-name="Zacute" unicode="&#x179;" horiz-adv-x="459" 
d="M414 681v-19l-352 -640h340l-3 -22h-362v21l352 639h-318v21h343zM302 859l11 -22l-161 -73l-7 15z" />
    <glyph glyph-name="Zacute.loclPLK" horiz-adv-x="459" 
d="M414 681v-19l-352 -640h340l-3 -22h-362v21l352 639h-318v21h343zM293 887l20 -14l-94 -142l-13 9z" />
    <glyph glyph-name="Zcaron" unicode="&#x17d;" horiz-adv-x="459" 
d="M414 681v-19l-352 -640h340l-3 -22h-362v21l352 639h-318v21h343zM333 863l11 -12l-109 -91h-12l-108 91l10 12l104 -80z" />
    <glyph glyph-name="Zdotaccent" unicode="&#x17b;" horiz-adv-x="459" 
d="M414 681v-19l-352 -640h340l-3 -22h-362v21l352 639h-318v21h343zM245.5 844q5.5 -6 5.5 -14t-5.5 -13.5t-14.5 -5.5t-14.5 5.5t-5.5 13.5t5.5 14t14.5 6t14.5 -6z" />
    <glyph glyph-name="uni1E92" unicode="&#x1e92;" horiz-adv-x="459" 
d="M414 681v-19l-352 -640h340l-3 -22h-362v21l352 639h-318v21h343zM217.5 -132q-5.5 6 -5.5 14t5.5 13.5t14.5 5.5t14.5 -5.5t5.5 -13.5t-5.5 -14t-14.5 -6t-14.5 6z" />
    <glyph glyph-name="uni0224" unicode="&#x224;" horiz-adv-x="459" 
d="M414 662l-352 -640h339v-117q0 -50 -24.5 -76t-64.5 -26q-45 0 -81 30l11 16q15 -12 31.5 -18.5t38.5 -6.5q30 0 48 19.5t18 61.5v95h-341v21l352 639h-318v21h343v-19z" />
    <glyph glyph-name="uni01B5" unicode="&#x1b5;" horiz-adv-x="459" 
d="M414 681v-19l-170 -309h105v-21h-116l-171 -310h340l-3 -22h-362v21l171 311h-101v21h113l169 307h-318v21h343z" />
    <glyph glyph-name="uni0299" unicode="&#x299;" horiz-adv-x="483" 
d="M386.5 245q31.5 -33 31.5 -93q0 -74 -49 -113t-131 -39h-133v515q76 14 133 14q75 0 114 -36.5t39 -95.5q0 -49 -24.5 -78.5t-68.5 -37.5q57 -3 88.5 -36zM127 498v-208h134q51 0 79.5 28.5t28.5 78.5q0 51 -32.5 82t-98.5 31q-47 0 -111 -12zM352.5 52q43.5 32 43.5 100
q0 118 -130 118h-139v-250h110q72 0 115.5 32z" />
    <glyph glyph-name="uni0262" unicode="&#x262;" horiz-adv-x="494" 
d="M335.5 519q31.5 -12 61.5 -37l-14 -16q-28 23 -56 34t-63 11q-47 0 -87 -25.5t-64.5 -81t-24.5 -140.5q0 -251 180 -251q65 0 119 32v207h-112l-2 20h136v-239q-30 -20 -66.5 -30.5t-74.5 -10.5q-94 0 -148.5 66.5t-54.5 205.5q0 89 27.5 149t73 89t99.5 29
q39 0 70.5 -12z" />
    <glyph glyph-name="uni029B" unicode="&#x29b;" horiz-adv-x="494" 
d="M545 706l-12 -14q-32 25 -68 25q-31 0 -49.5 -20.5t-18.5 -65.5v-149l-13 -13q-29 21 -57.5 31.5t-62.5 10.5q-47 0 -87 -25.5t-64.5 -81t-24.5 -140.5q0 -251 180 -251q67 0 119 32v207h-112l-2 20h136v-239q-30 -20 -66.5 -30.5t-74.5 -10.5q-94 0 -148.5 66.5
t-54.5 205.5q0 89 27.5 149t73 89t99.5 29q33 0 59 -8t51 -26v134q0 51 24 78.5t66 27.5q43 0 80 -31z" />
    <glyph glyph-name="uni029C" unicode="&#x29c;" horiz-adv-x="525" 
d="M397 0v262h-270v-262h-22v519h22v-237h270v237h22v-519h-22z" />
    <glyph glyph-name="uni026A" unicode="&#x26a;" horiz-adv-x="280" 
d="M250 499h-99v-478h99v-21h-220v21h99v478h-99v20h220v-20z" />
    <glyph glyph-name="uni029F" unicode="&#x29f;" horiz-adv-x="361" 
d="M127 519v-498h222l-4 -21h-240v519h22z" />
    <glyph glyph-name="uni0274" unicode="&#x274;" horiz-adv-x="525" 
d="M420 0h-29l-266 497q2 -68 2 -161v-336h-22v519h29l267 -497q-2 70 -2 157v340h21v-519z" />
    <glyph glyph-name="uni0276" unicode="&#x276;" horiz-adv-x="644" 
d="M600 0h-293q-28 -10 -56 -10q-87 0 -136.5 69.5t-49.5 199.5q0 132 50.5 201t137.5 69q29 0 57 -10h285l-3 -20h-244q40 -25 65 -79.5t28 -134.5h120v-20h-120q-1 -98 -27 -157.5t-70 -86.5h256v-21zM131 74q43 -63 120 -63q79 0 123.5 66.5t44.5 191.5q0 114 -45.5 177
t-120.5 63q-77 0 -121 -62.5t-44 -187.5q0 -122 43 -185z" />
    <glyph glyph-name="uni0280" unicode="&#x280;" horiz-adv-x="471" 
d="M383 0l-136 235q-6 -1 -18 -1h-102v-234h-22v519h104q180 0 180 -143q0 -57 -31.5 -92.5t-88.5 -45.5l139 -238h-25zM329 285q37 31 37 91q0 61 -36.5 92t-120.5 31h-82v-245h100q65 0 102 31z" />
    <glyph glyph-name="uni0281" unicode="&#x281;" horiz-adv-x="471" 
d="M357.5 237q31.5 -35 31.5 -91q0 -71 -43.5 -108.5t-136.5 -37.5h-104v519h22v-234h102q12 0 18 -1l136 235h25l-138 -237q56 -10 87.5 -45zM329.5 52.5q36.5 31.5 36.5 93.5q0 60 -36 89.5t-103 29.5h-100v-244h82q84 0 120.5 31.5z" />
    <glyph glyph-name="uni028F" unicode="&#x28f;" horiz-adv-x="360" 
d="M349 519l-157 -307v-212h-22v211l-159 308h23l148 -289l144 289h23z" />
    <glyph glyph-name="a" unicode="a" horiz-adv-x="476" 
d="M380 36q9 -21 32 -30l-5 -16q-29 10 -42 32.5t-14 66.5q-26 -50 -62.5 -74.5t-87.5 -24.5q-66 0 -104 42.5t-38 111.5q0 79 50.5 121.5t138.5 42.5h101v66q0 67 -27.5 101t-89.5 34q-61 0 -131 -32l-8 18q74 34 139 34q139 0 139 -153v-274q0 -45 9 -66zM349 121v167h-98
q-82 0 -125 -36.5t-43 -107.5q0 -62 31.5 -97.5t86.5 -35.5q99 0 148 110z" />
    <glyph glyph-name="a.ss04" horiz-adv-x="516" 
d="M417.5 43q9.5 -18 35.5 -29l-7 -19q-31 13 -44.5 33.5t-15.5 57.5q-50 -96 -144 -96q-83 0 -130 68.5t-47 199.5q0 126 49.5 198.5t134.5 72.5q49 0 83 -23.5t55 -58.5l2 72h19v-421q0 -37 9.5 -55zM326 38.5q34 27.5 60 82.5v297q-49 91 -137 91q-72 0 -116.5 -65
t-44.5 -182q0 -124 40.5 -187.5t113.5 -63.5q50 0 84 27.5z" />
    <glyph glyph-name="aacute" unicode="&#xe1;" horiz-adv-x="476" 
d="M380 36q9 -21 32 -30l-5 -16q-29 10 -42 32.5t-14 66.5q-26 -50 -62.5 -74.5t-87.5 -24.5q-66 0 -104 42.5t-38 111.5q0 79 50.5 121.5t138.5 42.5h101v66q0 67 -27.5 101t-89.5 34q-61 0 -131 -32l-8 18q74 34 139 34q139 0 139 -153v-274q0 -45 9 -66zM349 121v167h-98
q-82 0 -125 -36.5t-43 -107.5q0 -62 31.5 -97.5t86.5 -35.5q99 0 148 110zM297 760l11 -22l-161 -84l-8 15z" />
    <glyph glyph-name="abreve" unicode="&#x103;" horiz-adv-x="476" 
d="M380 36q9 -21 32 -30l-5 -16q-29 10 -42 32.5t-14 66.5q-26 -50 -62.5 -74.5t-87.5 -24.5q-66 0 -104 42.5t-38 111.5q0 79 50.5 121.5t138.5 42.5h101v66q0 67 -27.5 101t-89.5 34q-61 0 -131 -32l-8 18q74 34 139 34q139 0 139 -153v-274q0 -45 9 -66zM349 121v167h-98
q-82 0 -125 -36.5t-43 -107.5q0 -62 31.5 -97.5t86.5 -35.5q99 0 148 110zM164.5 685.5q-26.5 23.5 -32.5 62.5l16 4q16 -69 83 -69q32 0 53 17.5t29 51.5l16 -4q-6 -39 -32.5 -62.5t-65.5 -23.5q-40 0 -66.5 23.5z" />
    <glyph glyph-name="uni1EAF" unicode="&#x1eaf;" horiz-adv-x="476" 
d="M380 36q9 -21 32 -30l-5 -16q-29 10 -42 32.5t-14 66.5q-26 -50 -62.5 -74.5t-87.5 -24.5q-66 0 -104 42.5t-38 111.5q0 79 50.5 121.5t138.5 42.5h101v66q0 67 -27.5 101t-89.5 34q-61 0 -131 -32l-8 18q74 34 139 34q139 0 139 -153v-274q0 -45 9 -66zM349 121v167h-98
q-82 0 -125 -36.5t-43 -107.5q0 -62 31.5 -97.5t86.5 -35.5q99 0 148 110zM162 616.5q-27 21.5 -33 54.5l16 4q9 -27 30.5 -43t52.5 -16q30 0 52 16t31 43l15 -4q-6 -33 -32.5 -54.5t-65.5 -21.5t-66 21.5zM303 829l19 -15l-94 -114l-13 10z" />
    <glyph glyph-name="uni1EB7" unicode="&#x1eb7;" horiz-adv-x="476" 
d="M380 36q9 -21 32 -30l-5 -16q-29 10 -42 32.5t-14 66.5q-26 -50 -62.5 -74.5t-87.5 -24.5q-66 0 -104 42.5t-38 111.5q0 79 50.5 121.5t138.5 42.5h101v66q0 67 -27.5 101t-89.5 34q-61 0 -131 -32l-8 18q74 34 139 34q139 0 139 -153v-274q0 -45 9 -66zM349 121v167h-98
q-82 0 -125 -36.5t-43 -107.5q0 -62 31.5 -97.5t86.5 -35.5q99 0 148 110zM164.5 685.5q-26.5 23.5 -32.5 62.5l16 4q16 -69 83 -69q32 0 53 17.5t29 51.5l16 -4q-6 -39 -32.5 -62.5t-65.5 -23.5q-40 0 -66.5 23.5zM214.5 -132q-5.5 6 -5.5 14t5.5 13.5t14.5 5.5t14.5 -5.5
t5.5 -13.5t-5.5 -14t-14.5 -6t-14.5 6z" />
    <glyph glyph-name="uni1EB1" unicode="&#x1eb1;" horiz-adv-x="476" 
d="M380 36q9 -21 32 -30l-5 -16q-29 10 -42 32.5t-14 66.5q-26 -50 -62.5 -74.5t-87.5 -24.5q-66 0 -104 42.5t-38 111.5q0 79 50.5 121.5t138.5 42.5h101v66q0 67 -27.5 101t-89.5 34q-61 0 -131 -32l-8 18q74 34 139 34q139 0 139 -153v-274q0 -45 9 -66zM349 121v167h-98
q-82 0 -125 -36.5t-43 -107.5q0 -62 31.5 -97.5t86.5 -35.5q99 0 148 110zM168 616.5q-27 21.5 -33 54.5l16 4q9 -27 30.5 -43t52.5 -16q30 0 52 16t31 43l15 -4q-6 -33 -32.5 -54.5t-65.5 -21.5t-66 21.5zM164 829l89 -119l-13 -10l-94 114z" />
    <glyph glyph-name="uni1EB3" unicode="&#x1eb3;" horiz-adv-x="476" 
d="M380 36q9 -21 32 -30l-5 -16q-29 10 -42 32.5t-14 66.5q-26 -50 -62.5 -74.5t-87.5 -24.5q-66 0 -104 42.5t-38 111.5q0 79 50.5 121.5t138.5 42.5h101v66q0 67 -27.5 101t-89.5 34q-61 0 -131 -32l-8 18q74 34 139 34q139 0 139 -153v-274q0 -45 9 -66zM349 121v167h-98
q-82 0 -125 -36.5t-43 -107.5q0 -62 31.5 -97.5t86.5 -35.5q99 0 148 110zM165 616.5q-27 21.5 -33 54.5l16 4q9 -27 30.5 -43t52.5 -16q30 0 52 16t31 43l15 -4q-6 -33 -32.5 -54.5t-65.5 -21.5t-66 21.5zM219 747q60 4 60 52q0 23 -12.5 35t-34.5 12q-25 0 -50 -15l-9 16
q29 19 61 19q31 0 49.5 -18t18.5 -48q0 -59 -62 -67v-56h-21v70z" />
    <glyph glyph-name="uni1EB5" unicode="&#x1eb5;" horiz-adv-x="476" 
d="M380 36q9 -21 32 -30l-5 -16q-29 10 -42 32.5t-14 66.5q-26 -50 -62.5 -74.5t-87.5 -24.5q-66 0 -104 42.5t-38 111.5q0 79 50.5 121.5t138.5 42.5h101v66q0 67 -27.5 101t-89.5 34q-61 0 -131 -32l-8 18q74 34 139 34q139 0 139 -153v-274q0 -45 9 -66zM349 121v167h-98
q-82 0 -125 -36.5t-43 -107.5q0 -62 31.5 -97.5t86.5 -35.5q99 0 148 110zM167 616.5q-27 21.5 -33 54.5l16 4q9 -27 30.5 -43t52.5 -16q30 0 52 16t31 43l15 -4q-6 -33 -32.5 -54.5t-65.5 -21.5t-66 21.5zM257 739q-13 6 -33 18q-15 10 -25 15t-20 5q-15 0 -27 -8t-26 -27
l-14 8q16 23 32 34.5t35 11.5q12 0 23 -5t30 -16q16 -11 28.5 -16.5t24.5 -5.5q15 0 27 9t26 31l14 -7q-15 -28 -31 -40.5t-36 -12.5q-15 0 -28 6z" />
    <glyph glyph-name="uni01CE" unicode="&#x1ce;" horiz-adv-x="476" 
d="M380 36q9 -21 32 -30l-5 -16q-29 10 -42 32.5t-14 66.5q-26 -50 -62.5 -74.5t-87.5 -24.5q-66 0 -104 42.5t-38 111.5q0 79 50.5 121.5t138.5 42.5h101v66q0 67 -27.5 101t-89.5 34q-61 0 -131 -32l-8 18q74 34 139 34q139 0 139 -153v-274q0 -45 9 -66zM349 121v167h-98
q-82 0 -125 -36.5t-43 -107.5q0 -62 31.5 -97.5t86.5 -35.5q99 0 148 110zM334 749l12 -12l-109 -96h-12l-108 96l11 12l103 -85z" />
    <glyph glyph-name="acircumflex" unicode="&#xe2;" horiz-adv-x="476" 
d="M380 36q9 -21 32 -30l-5 -16q-29 10 -42 32.5t-14 66.5q-26 -50 -62.5 -74.5t-87.5 -24.5q-66 0 -104 42.5t-38 111.5q0 79 50.5 121.5t138.5 42.5h101v66q0 67 -27.5 101t-89.5 34q-61 0 -131 -32l-8 18q74 34 139 34q139 0 139 -153v-274q0 -45 9 -66zM349 121v167h-98
q-82 0 -125 -36.5t-43 -107.5q0 -62 31.5 -97.5t86.5 -35.5q99 0 148 110zM127 654l-11 12l108 96h13l108 -96l-12 -12l-103 85z" />
    <glyph glyph-name="uni1EA5" unicode="&#x1ea5;" horiz-adv-x="476" 
d="M380 36q9 -21 32 -30l-5 -16q-29 10 -42 32.5t-14 66.5q-26 -50 -62.5 -74.5t-87.5 -24.5q-66 0 -104 42.5t-38 111.5q0 79 50.5 121.5t138.5 42.5h101v66q0 67 -27.5 101t-89.5 34q-61 0 -131 -32l-8 18q74 34 139 34q139 0 139 -153v-274q0 -45 9 -66zM349 121v167h-98
q-82 0 -125 -36.5t-43 -107.5q0 -62 31.5 -97.5t86.5 -35.5q99 0 148 110zM127 587l-11 12l108 90h12l109 -90l-11 -12l-104 79zM393 802l19 -15l-94 -114l-13 10z" />
    <glyph glyph-name="uni1EAD" unicode="&#x1ead;" horiz-adv-x="476" 
d="M380 36q9 -21 32 -30l-5 -16q-29 10 -42 32.5t-14 66.5q-26 -50 -62.5 -74.5t-87.5 -24.5q-66 0 -104 42.5t-38 111.5q0 79 50.5 121.5t138.5 42.5h101v66q0 67 -27.5 101t-89.5 34q-61 0 -131 -32l-8 18q74 34 139 34q139 0 139 -153v-274q0 -45 9 -66zM349 121v167h-98
q-82 0 -125 -36.5t-43 -107.5q0 -62 31.5 -97.5t86.5 -35.5q99 0 148 110zM127 654l-11 12l108 96h13l108 -96l-12 -12l-103 85zM214.5 -132q-5.5 6 -5.5 14t5.5 13.5t14.5 5.5t14.5 -5.5t5.5 -13.5t-5.5 -14t-14.5 -6t-14.5 6z" />
    <glyph glyph-name="uni1EA7" unicode="&#x1ea7;" horiz-adv-x="476" 
d="M380 36q9 -21 32 -30l-5 -16q-29 10 -42 32.5t-14 66.5q-26 -50 -62.5 -74.5t-87.5 -24.5q-66 0 -104 42.5t-38 111.5q0 79 50.5 121.5t138.5 42.5h101v66q0 67 -27.5 101t-89.5 34q-61 0 -131 -32l-8 18q74 34 139 34q139 0 139 -153v-274q0 -45 9 -66zM349 121v167h-98
q-82 0 -125 -36.5t-43 -107.5q0 -62 31.5 -97.5t86.5 -35.5q99 0 148 110zM127 587l-11 12l108 90h12l109 -90l-11 -12l-104 79zM71 802l89 -119l-13 -10l-94 114z" />
    <glyph glyph-name="uni1EA9" unicode="&#x1ea9;" horiz-adv-x="476" 
d="M380 36q9 -21 32 -30l-5 -16q-29 10 -42 32.5t-14 66.5q-26 -50 -62.5 -74.5t-87.5 -24.5q-66 0 -104 42.5t-38 111.5q0 79 50.5 121.5t138.5 42.5h101v66q0 67 -27.5 101t-89.5 34q-61 0 -131 -32l-8 18q74 34 139 34q139 0 139 -153v-274q0 -45 9 -66zM349 121v167h-98
q-82 0 -125 -36.5t-43 -107.5q0 -62 31.5 -97.5t86.5 -35.5q99 0 148 110zM127 587l-11 12l108 90h12l109 -90l-11 -12l-104 79zM313 734q60 4 60 52q0 23 -12.5 35t-34.5 12q-25 0 -50 -15l-9 16q29 19 61 19q31 0 49.5 -18t18.5 -48q0 -59 -62 -67v-56h-21v70z" />
    <glyph glyph-name="uni1EAB" unicode="&#x1eab;" horiz-adv-x="476" 
d="M380 36q9 -21 32 -30l-5 -16q-29 10 -42 32.5t-14 66.5q-26 -50 -62.5 -74.5t-87.5 -24.5q-66 0 -104 42.5t-38 111.5q0 79 50.5 121.5t138.5 42.5h101v66q0 67 -27.5 101t-89.5 34q-61 0 -131 -32l-8 18q74 34 139 34q139 0 139 -153v-274q0 -45 9 -66zM349 121v167h-98
q-82 0 -125 -36.5t-43 -107.5q0 -62 31.5 -97.5t86.5 -35.5q99 0 148 110zM127 578l-11 12l108 90h12l109 -90l-11 -12l-104 79zM255 733q-13 6 -33 18q-15 10 -25 15t-20 5q-15 0 -27 -8t-26 -27l-14 8q16 23 32 34.5t35 11.5q12 0 23 -5t30 -16q16 -11 28.5 -16.5
t24.5 -5.5q15 0 27 9t26 31l14 -7q-15 -28 -31 -40.5t-36 -12.5q-15 0 -28 6z" />
    <glyph glyph-name="uni0201" unicode="&#x201;" horiz-adv-x="476" 
d="M380 36q9 -21 32 -30l-5 -16q-29 10 -42 32.5t-14 66.5q-26 -50 -62.5 -74.5t-87.5 -24.5q-66 0 -104 42.5t-38 111.5q0 79 50.5 121.5t138.5 42.5h101v66q0 67 -27.5 101t-89.5 34q-61 0 -131 -32l-8 18q74 34 139 34q139 0 139 -153v-274q0 -45 9 -66zM349 121v167h-98
q-82 0 -125 -36.5t-43 -107.5q0 -62 31.5 -97.5t86.5 -35.5q99 0 148 110zM131 791l65 -131l-16 -8l-70 129zM231 790l59 -127l-15 -7l-65 123z" />
    <glyph glyph-name="adieresis" unicode="&#xe4;" horiz-adv-x="476" 
d="M380 36q9 -21 32 -30l-5 -16q-29 10 -42 32.5t-14 66.5q-26 -50 -62.5 -74.5t-87.5 -24.5q-66 0 -104 42.5t-38 111.5q0 79 50.5 121.5t138.5 42.5h101v66q0 67 -27.5 101t-89.5 34q-61 0 -131 -32l-8 18q74 34 139 34q139 0 139 -153v-274q0 -45 9 -66zM349 121v167h-98
q-82 0 -125 -36.5t-43 -107.5q0 -62 31.5 -97.5t86.5 -35.5q99 0 148 110zM169.5 706.5q5.5 -5.5 5.5 -14.5q0 -8 -5.5 -13.5t-14.5 -5.5q-8 0 -13.5 5.5t-5.5 13.5t5.5 14t13.5 6q9 0 14.5 -5.5zM320.5 706q5.5 -6 5.5 -14t-5.5 -13.5t-14.5 -5.5t-14.5 5.5t-5.5 13.5
t5.5 14t14.5 6t14.5 -6z" />
    <glyph glyph-name="uni01DF" unicode="&#x1df;" horiz-adv-x="476" 
d="M380 36q9 -21 32 -30l-5 -16q-29 10 -42 32.5t-14 66.5q-26 -50 -62.5 -74.5t-87.5 -24.5q-66 0 -104 42.5t-38 111.5q0 79 50.5 121.5t138.5 42.5h101v66q0 67 -27.5 101t-89.5 34q-61 0 -131 -32l-8 18q74 34 139 34q139 0 139 -153v-274q0 -45 9 -66zM349 121v167h-98
q-82 0 -125 -36.5t-43 -107.5q0 -62 31.5 -97.5t86.5 -35.5q99 0 148 110zM170.5 676.5q5.5 -5.5 5.5 -14.5q0 -8 -5.5 -13.5t-14.5 -5.5q-8 0 -13.5 5.5t-5.5 13.5t5.5 14t13.5 6q9 0 14.5 -5.5zM321.5 676q5.5 -6 5.5 -14t-5.5 -13.5t-14.5 -5.5t-14.5 5.5t-5.5 13.5
t5.5 14t14.5 6t14.5 -6zM326 753h-189v21h189v-21z" />
    <glyph glyph-name="uni0227" unicode="&#x227;" horiz-adv-x="476" 
d="M380 36q9 -21 32 -30l-5 -16q-29 10 -42 32.5t-14 66.5q-26 -50 -62.5 -74.5t-87.5 -24.5q-66 0 -104 42.5t-38 111.5q0 79 50.5 121.5t138.5 42.5h101v66q0 67 -27.5 101t-89.5 34q-61 0 -131 -32l-8 18q74 34 139 34q139 0 139 -153v-274q0 -45 9 -66zM349 121v167h-98
q-82 0 -125 -36.5t-43 -107.5q0 -62 31.5 -97.5t86.5 -35.5q99 0 148 110zM245.5 718q5.5 -6 5.5 -14t-5.5 -13.5t-14.5 -5.5t-14.5 5.5t-5.5 13.5t5.5 14t14.5 6t14.5 -6z" />
    <glyph glyph-name="uni1EA1" unicode="&#x1ea1;" horiz-adv-x="476" 
d="M380 36q9 -21 32 -30l-5 -16q-29 10 -42 32.5t-14 66.5q-26 -50 -62.5 -74.5t-87.5 -24.5q-66 0 -104 42.5t-38 111.5q0 79 50.5 121.5t138.5 42.5h101v66q0 67 -27.5 101t-89.5 34q-61 0 -131 -32l-8 18q74 34 139 34q139 0 139 -153v-274q0 -45 9 -66zM349 121v167h-98
q-82 0 -125 -36.5t-43 -107.5q0 -62 31.5 -97.5t86.5 -35.5q99 0 148 110zM214.5 -132q-5.5 6 -5.5 14t5.5 13.5t14.5 5.5t14.5 -5.5t5.5 -13.5t-5.5 -14t-14.5 -6t-14.5 6z" />
    <glyph glyph-name="uni01E1" unicode="&#x1e1;" horiz-adv-x="476" 
d="M380 36q9 -21 32 -30l-5 -16q-29 10 -42 32.5t-14 66.5q-26 -50 -62.5 -74.5t-87.5 -24.5q-66 0 -104 42.5t-38 111.5q0 79 50.5 121.5t138.5 42.5h101v66q0 67 -27.5 101t-89.5 34q-61 0 -131 -32l-8 18q74 34 139 34q139 0 139 -153v-274q0 -45 9 -66zM349 121v167h-98
q-82 0 -125 -36.5t-43 -107.5q0 -62 31.5 -97.5t86.5 -35.5q99 0 148 110zM246.5 665q5.5 -6 5.5 -14t-5.5 -13.5t-14.5 -5.5t-14.5 5.5t-5.5 13.5t5.5 14t14.5 6t14.5 -6zM326 745h-189v21h189v-21z" />
    <glyph glyph-name="agrave" unicode="&#xe0;" horiz-adv-x="476" 
d="M380 36q9 -21 32 -30l-5 -16q-29 10 -42 32.5t-14 66.5q-26 -50 -62.5 -74.5t-87.5 -24.5q-66 0 -104 42.5t-38 111.5q0 79 50.5 121.5t138.5 42.5h101v66q0 67 -27.5 101t-89.5 34q-61 0 -131 -32l-8 18q74 34 139 34q139 0 139 -153v-274q0 -45 9 -66zM349 121v167h-98
q-82 0 -125 -36.5t-43 -107.5q0 -62 31.5 -97.5t86.5 -35.5q99 0 148 110zM160 760l158 -91l-9 -15l-161 84z" />
    <glyph glyph-name="uni1EA3" unicode="&#x1ea3;" horiz-adv-x="476" 
d="M380 36q9 -21 32 -30l-5 -16q-29 10 -42 32.5t-14 66.5q-26 -50 -62.5 -74.5t-87.5 -24.5q-66 0 -104 42.5t-38 111.5q0 79 50.5 121.5t138.5 42.5h101v66q0 67 -27.5 101t-89.5 34q-61 0 -131 -32l-8 18q74 34 139 34q139 0 139 -153v-274q0 -45 9 -66zM349 121v167h-98
q-82 0 -125 -36.5t-43 -107.5q0 -62 31.5 -97.5t86.5 -35.5q99 0 148 110zM220 692q60 4 60 52q0 23 -12.5 35t-34.5 12q-25 0 -50 -15l-9 16q29 19 61 19q31 0 49.5 -18t18.5 -48q0 -59 -62 -67v-56h-21v70z" />
    <glyph glyph-name="uni0203" unicode="&#x203;" horiz-adv-x="476" 
d="M380 36q9 -21 32 -30l-5 -16q-29 10 -42 32.5t-14 66.5q-26 -50 -62.5 -74.5t-87.5 -24.5q-66 0 -104 42.5t-38 111.5q0 79 50.5 121.5t138.5 42.5h101v66q0 67 -27.5 101t-89.5 34q-61 0 -131 -32l-8 18q74 34 139 34q139 0 139 -153v-274q0 -45 9 -66zM349 121v167h-98
q-82 0 -125 -36.5t-43 -107.5q0 -62 31.5 -97.5t86.5 -35.5q99 0 148 110zM296.5 701.5q26.5 -23.5 32.5 -62.5l-16 -4q-8 34 -29 51.5t-53 17.5q-67 0 -83 -69l-16 4q6 39 32.5 62.5t66.5 23.5q39 0 65.5 -23.5z" />
    <glyph glyph-name="uni0251" unicode="&#x251;" horiz-adv-x="516" 
d="M417.5 43q9.5 -18 35.5 -29l-7 -19q-31 13 -44.5 33.5t-15.5 57.5q-50 -96 -144 -96q-83 0 -130 68.5t-47 199.5q0 126 49.5 198.5t134.5 72.5q49 0 83 -23.5t55 -58.5l2 72h19v-421q0 -37 9.5 -55zM326 38.5q34 27.5 60 82.5v297q-49 91 -137 91q-72 0 -116.5 -65
t-44.5 -182q0 -124 40.5 -187.5t113.5 -63.5q50 0 84 27.5z" />
    <glyph glyph-name="uni0252" unicode="&#x252;" horiz-adv-x="516" 
d="M404 460.5q47 -68.5 47 -199.5q0 -126 -49.5 -198.5t-134.5 -72.5q-49 0 -83 23.5t-55 58.5l-2 -72h-19v421q0 37 -9.5 55t-35.5 29l7 19q31 -13 44.5 -33.5t15.5 -57.5q50 96 144 96q83 0 130 -68.5zM383.5 75q44.5 65 44.5 182q0 124 -40.5 187.5t-113.5 63.5
q-50 0 -84 -27.5t-60 -82.5v-297q49 -91 137 -91q72 0 116.5 65z" />
    <glyph glyph-name="amacron" unicode="&#x101;" horiz-adv-x="476" 
d="M380 36q9 -21 32 -30l-5 -16q-29 10 -42 32.5t-14 66.5q-26 -50 -62.5 -74.5t-87.5 -24.5q-66 0 -104 42.5t-38 111.5q0 79 50.5 121.5t138.5 42.5h101v66q0 67 -27.5 101t-89.5 34q-61 0 -131 -32l-8 18q74 34 139 34q139 0 139 -153v-274q0 -45 9 -66zM349 121v167h-98
q-82 0 -125 -36.5t-43 -107.5q0 -62 31.5 -97.5t86.5 -35.5q99 0 148 110zM326 685h-189v21h189v-21z" />
    <glyph glyph-name="aogonek" unicode="&#x105;" horiz-adv-x="476" 
d="M322.5 -64.5q-28.5 -27.5 -28.5 -68.5q0 -28 16 -43t47 -15q23 0 50 7l-2 -22q-27 -7 -49 -7q-41 0 -63 22t-22 58q0 42 30 73t88 58q-20 12 -28.5 33t-9.5 58q-26 -50 -62.5 -74.5t-87.5 -24.5q-66 0 -104 42.5t-38 111.5q0 79 50.5 121.5t138.5 42.5h101v66
q0 67 -27.5 101t-89.5 34q-61 0 -131 -32l-8 18q74 34 139 34q139 0 139 -153v-274q0 -45 9 -66t32 -30l-5 -16q-56 -27 -84.5 -54.5zM349 121v167h-98q-82 0 -125 -36.5t-43 -107.5q0 -62 31.5 -97.5t86.5 -35.5q99 0 148 110z" />
    <glyph glyph-name="aring" unicode="&#xe5;" horiz-adv-x="476" 
d="M380 36q9 -21 32 -30l-5 -16q-29 10 -42 32.5t-14 66.5q-26 -50 -62.5 -74.5t-87.5 -24.5q-66 0 -104 42.5t-38 111.5q0 79 50.5 121.5t138.5 42.5h101v66q0 67 -27.5 101t-89.5 34q-61 0 -131 -32l-8 18q74 34 139 34q139 0 139 -153v-274q0 -45 9 -66zM349 121v167h-98
q-82 0 -125 -36.5t-43 -107.5q0 -62 31.5 -97.5t86.5 -35.5q99 0 148 110zM284 780q20 -21 20 -57q0 -37 -20 -58t-53 -21t-52.5 21t-19.5 57q0 37 19.5 58t52.5 21t53 -21zM192.5 767.5q-13.5 -15.5 -13.5 -45.5t13.5 -45t38.5 -15q26 0 39.5 15.5t13.5 45.5q0 60 -53 60
q-25 0 -38.5 -15.5z" />
    <glyph glyph-name="aringacute" unicode="&#x1fb;" horiz-adv-x="476" 
d="M315 833l-161 -73l-7 15l157 80zM178.5 724q19.5 21 52.5 21t53 -21t20 -57q0 -37 -20 -58t-53 -21t-52.5 21t-19.5 57q0 37 19.5 58zM231 727q-25 0 -38.5 -15.5t-13.5 -45.5t13.5 -45t38.5 -15q26 0 39.5 15.5t13.5 45.5q0 60 -53 60zM380 36q9 -21 32 -30l-5 -16
q-29 10 -42 32.5t-14 66.5q-26 -50 -62.5 -74.5t-87.5 -24.5q-66 0 -104 42.5t-38 111.5q0 79 50.5 121.5t138.5 42.5h101v66q0 67 -27.5 101t-89.5 34q-61 0 -131 -32l-8 18q74 34 139 34q139 0 139 -153v-274q0 -45 9 -66zM349 121v167h-98q-82 0 -125 -36.5t-43 -107.5
q0 -62 31.5 -97.5t86.5 -35.5q99 0 148 110z" />
    <glyph glyph-name="uni2C65" unicode="&#x2c65;" horiz-adv-x="476" 
d="M380 36q9 -21 32 -30l-5 -16q-29 10 -42 32.5t-14 66.5q-26 -50 -62.5 -74.5t-87.5 -24.5q-14 0 -20 1l-14 -57l-15 3l14 57q-50 10 -78.5 50.5t-28.5 99.5q0 78 49 120t135 44l47 190q-24 11 -58 11q-61 0 -131 -32l-8 18q74 34 139 34q35 0 63 -10l17 67l15 -3l-17 -71
q61 -33 61 -136v-274q0 -45 9 -66zM304 491l-45 -183h90v66q0 86 -45 117zM349 121v167h-95l-68 -276q5 -1 15 -1q99 0 148 110zM106 57q23 -34 65 -43l67 274q-75 -3 -115 -39.5t-40 -104.5q0 -53 23 -87z" />
    <glyph glyph-name="atilde" unicode="&#xe3;" horiz-adv-x="476" 
d="M380 36q9 -21 32 -30l-5 -16q-29 10 -42 32.5t-14 66.5q-26 -50 -62.5 -74.5t-87.5 -24.5q-66 0 -104 42.5t-38 111.5q0 79 50.5 121.5t138.5 42.5h101v66q0 67 -27.5 101t-89.5 34q-61 0 -131 -32l-8 18q74 34 139 34q139 0 139 -153v-274q0 -45 9 -66zM349 121v167h-98
q-82 0 -125 -36.5t-43 -107.5q0 -62 31.5 -97.5t86.5 -35.5q99 0 148 110zM256 684q-13 6 -33 18q-15 10 -25 15t-20 5q-15 0 -27 -8t-26 -27l-14 8q16 23 32 34.5t35 11.5q12 0 23.5 -5t29.5 -16q17 -11 28.5 -16.5t24.5 -5.5q15 0 27 9t26 31l14 -7q-15 -28 -31 -40.5
t-36 -12.5q-15 0 -28 6z" />
    <glyph glyph-name="uni0250" unicode="&#x250;" horiz-adv-x="476" 
d="M375 42l8 -18q-74 -34 -139 -34q-139 0 -139 153v274q0 45 -9 66t-32 30l5 16q29 -10 42 -32.5t14 -66.5q26 50 62.5 74.5t87.5 24.5q66 0 104 -42.5t38 -111.5q0 -79 -50.5 -121.5t-138.5 -42.5h-101v-66q0 -67 27.5 -101t89.5 -34q61 0 131 32zM127 398v-167h98
q82 0 125 36.5t43 107.5q0 62 -31.5 97.5t-86.5 35.5q-99 0 -148 -110z" />
    <glyph glyph-name="ae" unicode="&#xe6;" horiz-adv-x="759" 
d="M698 246h-327q3 -117 47.5 -176t117.5 -59q40 0 69.5 13.5t61.5 41.5l13 -15q-34 -31 -67.5 -46t-76.5 -15q-57 0 -98.5 30.5t-64.5 89.5q-40 -65 -80 -92.5t-93 -27.5q-66 0 -103.5 42t-37.5 112q0 78 50.5 121t137.5 43h102v62q0 70 -27.5 104.5t-91.5 34.5
q-55 0 -129 -32l-7 18q74 34 136 34q69 0 102 -35t37 -105q22 69 63 104.5t99 35.5q83 0 125.5 -64.5t42.5 -180.5q0 -27 -1 -38zM677 292q0 102 -36 159.5t-109 57.5q-71 0 -115 -62t-46 -182h306v27zM289.5 40q38.5 29 75.5 92q-16 56 -16 123v33h-101q-78 0 -122 -37
t-44 -107q0 -62 32 -97.5t87 -35.5q50 0 88.5 29z" />
    <glyph glyph-name="aeacute" unicode="&#x1fd;" horiz-adv-x="759" 
d="M698 246h-327q3 -117 47.5 -176t117.5 -59q40 0 69.5 13.5t61.5 41.5l13 -15q-34 -31 -67.5 -46t-76.5 -15q-57 0 -98.5 30.5t-64.5 89.5q-40 -65 -80 -92.5t-93 -27.5q-66 0 -103.5 42t-37.5 112q0 78 50.5 121t137.5 43h102v62q0 70 -27.5 104.5t-91.5 34.5
q-55 0 -129 -32l-7 18q74 34 136 34q69 0 102 -35t37 -105q22 69 63 104.5t99 35.5q83 0 125.5 -64.5t42.5 -180.5q0 -27 -1 -38zM677 292q0 102 -36 159.5t-109 57.5q-71 0 -115 -62t-46 -182h306v27zM289.5 40q38.5 29 75.5 92q-16 56 -16 123v33h-101q-78 0 -122 -37
t-44 -107q0 -62 32 -97.5t87 -35.5q50 0 88.5 29zM447 760l11 -22l-161 -84l-8 15z" />
    <glyph glyph-name="uni01E3" unicode="&#x1e3;" horiz-adv-x="759" 
d="M698 246h-327q3 -117 47.5 -176t117.5 -59q40 0 69.5 13.5t61.5 41.5l13 -15q-34 -31 -67.5 -46t-76.5 -15q-57 0 -98.5 30.5t-64.5 89.5q-40 -65 -80 -92.5t-93 -27.5q-66 0 -103.5 42t-37.5 112q0 78 50.5 121t137.5 43h102v62q0 70 -27.5 104.5t-91.5 34.5
q-55 0 -129 -32l-7 18q74 34 136 34q69 0 102 -35t37 -105q22 69 63 104.5t99 35.5q83 0 125.5 -64.5t42.5 -180.5q0 -27 -1 -38zM677 292q0 102 -36 159.5t-109 57.5q-71 0 -115 -62t-46 -182h306v27zM289.5 40q38.5 29 75.5 92q-16 56 -16 123v33h-101q-78 0 -122 -37
t-44 -107q0 -62 32 -97.5t87 -35.5q50 0 88.5 29zM476 685h-189v21h189v-21z" />
    <glyph glyph-name="b" unicode="b" horiz-adv-x="511" 
d="M401.5 462q42.5 -67 42.5 -198q0 -132 -44.5 -203t-127.5 -71q-46 0 -83 25t-62 65l-2 -80h-20v733l22 3v-301q61 94 151 94q81 0 123.5 -67zM383 75.5q38 64.5 38 188.5q0 245 -144 245q-48 0 -82.5 -25t-67.5 -75v-302q59 -96 144 -96q74 0 112 64.5z" />
    <glyph glyph-name="uni1E03" unicode="&#x1e03;" horiz-adv-x="511" 
d="M401.5 462q42.5 -67 42.5 -198q0 -132 -44.5 -203t-127.5 -71q-46 0 -83 25t-62 65l-2 -80h-20v733l22 3v-301q61 94 151 94q81 0 123.5 -67zM383 75.5q38 64.5 38 188.5q0 245 -144 245q-48 0 -82.5 -25t-67.5 -75v-302q59 -96 144 -96q74 0 112 64.5zM279.5 895
q5.5 -6 5.5 -14t-5.5 -13.5t-14.5 -5.5t-14.5 5.5t-5.5 13.5t5.5 14t14.5 6t14.5 -6z" />
    <glyph glyph-name="uni1E05" unicode="&#x1e05;" horiz-adv-x="511" 
d="M401.5 462q42.5 -67 42.5 -198q0 -132 -44.5 -203t-127.5 -71q-46 0 -83 25t-62 65l-2 -80h-20v733l22 3v-301q61 94 151 94q81 0 123.5 -67zM383 75.5q38 64.5 38 188.5q0 245 -144 245q-48 0 -82.5 -25t-67.5 -75v-302q59 -96 144 -96q74 0 112 64.5zM250.5 -132
q-5.5 6 -5.5 14t5.5 13.5t14.5 5.5t14.5 -5.5t5.5 -13.5t-5.5 -14t-14.5 -6t-14.5 6z" />
    <glyph glyph-name="uniA7B5" unicode="&#xa7b5;" horiz-adv-x="517" 
d="M412.5 345.5q52.5 -51.5 52.5 -145.5q0 -65 -24 -112.5t-64 -72.5t-89 -25q-51 0 -90 19.5t-70 61.5v-263l-23 -5v738q0 95 45 145.5t120 50.5q67 0 110 -43.5t44 -123.5q0 -77 -39 -120.5t-109 -50.5q84 -2 136.5 -53.5zM367 34q35 23 55.5 65t20.5 99q-1 92 -54 141.5
t-146 49.5h-46l3 20h44q64 0 111 37.5t47 121.5q0 74 -36 111t-96 37q-65 0 -103.5 -43.5t-38.5 -132.5v-444q36 -45 72.5 -65t87.5 -20q44 0 79 23z" />
    <glyph glyph-name="uni0253" unicode="&#x253;" horiz-adv-x="511" 
d="M401.5 462q42.5 -67 42.5 -198q0 -132 -44.5 -203t-127.5 -71q-46 0 -83 25t-62 65l-2 -80h-20v524h1v95q0 57 30.5 87.5t81.5 30.5q56 0 105 -31l-9 -17q-51 27 -94 27t-67.5 -24.5t-24.5 -74.5v-99h-1v-83q61 94 152 94q80 0 122.5 -67zM383 75.5q38 64.5 38 188.5
q0 123 -36.5 184t-106.5 61q-48 0 -83 -25t-68 -75v-302q59 -96 145 -96q73 0 111 64.5z" />
    <glyph glyph-name="uni02AD" unicode="&#x2ad;" horiz-adv-x="282" 
d="M30 401v110h222v-111h-21v91h-180v-90h-21zM30 1v110h222v-111h-21v91h-180v-90h-21z" />
    <glyph glyph-name="uni0298" unicode="&#x298;" horiz-adv-x="710" 
d="M506 651q64 -40 99.5 -119t35.5 -192q0 -111 -34.5 -189.5t-99 -119.5t-152.5 -41q-86 0 -150 40.5t-99.5 118.5t-35.5 189t35.5 190.5t100 121t149.5 41.5q87 0 151 -40zM216.5 633q-59.5 -38 -92 -113t-32.5 -182q0 -105 32.5 -178.5t92 -111t138.5 -37.5
q125 0 194.5 84.5t69.5 244.5q0 162 -70.5 246.5t-193.5 84.5q-79 0 -138.5 -38zM369.5 353q5.5 -6 5.5 -14t-5.5 -13.5t-14.5 -5.5t-14.5 5.5t-5.5 13.5t5.5 14t14.5 6t14.5 -6z" />
    <glyph glyph-name="uni02AC" unicode="&#x2ac;" horiz-adv-x="412" 
d="M365 660l-67 -260h-26l-65 241l-66 -241h-26l-68 260h21l61 -244l66 244h24l66 -244l60 244h20zM365 260l-67 -260h-26l-65 241l-66 -241h-26l-68 260h21l61 -244l66 244h24l66 -244l60 244h20z" />
    <glyph glyph-name="uni0180" unicode="&#x180;" horiz-adv-x="515" 
d="M405.5 462q42.5 -67 42.5 -198q0 -132 -44.5 -203t-127.5 -71q-46 0 -83 25t-62 65l-2 -80h-20v629h-67v20h67v84l22 3v-87h164v-20h-164v-194q61 94 151 94q81 0 123.5 -67zM387 75.5q38 64.5 38 188.5q0 245 -144 245q-48 0 -82.5 -25t-67.5 -75v-302q59 -96 144 -96
q74 0 112 64.5z" />
    <glyph glyph-name="uni0183" unicode="&#x183;" horiz-adv-x="511" 
d="M401.5 462q42.5 -67 42.5 -198q0 -132 -44.5 -203t-127.5 -71q-46 0 -83 25t-62 65l-2 -80h-20v732h242l-5 -21h-215v-276q61 94 151 94q81 0 123.5 -67zM383 75.5q38 64.5 38 188.5q0 245 -144 245q-48 0 -82.5 -25t-67.5 -75v-302q59 -96 144 -96q74 0 112 64.5z" />
    <glyph glyph-name="c" unicode="c" horiz-adv-x="415" 
d="M321.5 517q28.5 -12 55.5 -38l-13 -15q-23 23 -49 34t-59 11q-77 0 -122.5 -64t-45.5 -188q0 -122 45.5 -184t121.5 -62q64 0 114 47l13 -14q-56 -54 -126 -54q-87 0 -139 69t-52 198q0 130 51.5 201t139.5 71q37 0 65.5 -12z" />
    <glyph glyph-name="cacute" unicode="&#x107;" horiz-adv-x="415" 
d="M321.5 517q28.5 -12 55.5 -38l-13 -15q-23 23 -49 34t-59 11q-77 0 -122.5 -64t-45.5 -188q0 -122 45.5 -184t121.5 -62q64 0 114 47l13 -14q-56 -54 -126 -54q-87 0 -139 69t-52 198q0 130 51.5 201t139.5 71q37 0 65.5 -12zM319 760l11 -22l-161 -84l-8 15z" />
    <glyph glyph-name="cacute.loclPLK" horiz-adv-x="415" 
d="M321.5 517q28.5 -12 55.5 -38l-13 -15q-23 23 -49 34t-59 11q-77 0 -122.5 -64t-45.5 -188q0 -122 45.5 -184t121.5 -62q64 0 114 47l13 -14q-56 -54 -126 -54q-87 0 -139 69t-52 198q0 130 51.5 201t139.5 71q37 0 65.5 -12zM317 744l21 -14l-96 -151l-13 9z" />
    <glyph glyph-name="ccaron" unicode="&#x10d;" horiz-adv-x="415" 
d="M321.5 517q28.5 -12 55.5 -38l-13 -15q-23 23 -49 34t-59 11q-77 0 -122.5 -64t-45.5 -188q0 -122 45.5 -184t121.5 -62q64 0 114 47l13 -14q-56 -54 -126 -54q-87 0 -139 69t-52 198q0 130 51.5 201t139.5 71q37 0 65.5 -12zM356 749l12 -12l-109 -96h-12l-108 96l11 12
l103 -85z" />
    <glyph glyph-name="ccedilla" unicode="&#xe7;" horiz-adv-x="415" 
d="M340 -141q0 -34 -22.5 -52.5t-54.5 -18.5q-35 0 -62 18l10 16q23 -15 52 -15q24 0 39.5 13t15.5 39t-19.5 38t-61.5 13l5 80q-81 6 -129 74.5t-48 192.5q0 130 51.5 201t139.5 71q37 0 65.5 -12t55.5 -38l-13 -15q-23 23 -49 34t-59 11q-77 0 -122.5 -64t-45.5 -188
q0 -122 45.5 -184t121.5 -62q64 0 114 47l13 -14q-54 -53 -123 -54l-1 -64q82 -6 82 -67z" />
    <glyph glyph-name="ccircumflex" unicode="&#x109;" horiz-adv-x="415" 
d="M321.5 517q28.5 -12 55.5 -38l-13 -15q-23 23 -49 34t-59 11q-77 0 -122.5 -64t-45.5 -188q0 -122 45.5 -184t121.5 -62q64 0 114 47l13 -14q-56 -54 -126 -54q-87 0 -139 69t-52 198q0 130 51.5 201t139.5 71q37 0 65.5 -12zM149 654l-11 12l108 96h13l108 -96l-12 -12
l-103 85z" />
    <glyph glyph-name="uni0255" unicode="&#x255;" horiz-adv-x="427" 
d="M373 175.5q24 -26.5 24 -68.5q0 -53 -36.5 -85t-100.5 -32q-28 0 -51 6.5t-45 20.5l-30 -72l-18 8l31 75q-39 34 -60.5 92t-21.5 137q0 130 51.5 201t139.5 71q37 0 65.5 -12t55.5 -38l-13 -15q-23 23 -49 34t-59 11q-77 0 -122.5 -64t-45.5 -188q0 -144 68 -209
q33 82 68.5 118t81.5 36q43 0 67 -26.5zM342.5 35q32.5 24 32.5 72q0 35 -17.5 55t-51.5 20q-41 0 -71 -32.5t-63 -112.5q20 -13 41 -19.5t48 -6.5q49 0 81.5 24z" />
    <glyph glyph-name="cdotaccent" unicode="&#x10b;" horiz-adv-x="415" 
d="M321.5 517q28.5 -12 55.5 -38l-13 -15q-23 23 -49 34t-59 11q-77 0 -122.5 -64t-45.5 -188q0 -122 45.5 -184t121.5 -62q64 0 114 47l13 -14q-56 -54 -126 -54q-87 0 -139 69t-52 198q0 130 51.5 201t139.5 71q37 0 65.5 -12zM267.5 718q5.5 -6 5.5 -14t-5.5 -13.5
t-14.5 -5.5t-14.5 5.5t-5.5 13.5t5.5 14t14.5 6t14.5 -6z" />
    <glyph glyph-name="uni0188" unicode="&#x188;" horiz-adv-x="415" 
d="M524 706l-11 -14q-15 12 -31.5 18.5t-37.5 6.5q-31 0 -49 -20.5t-18 -65.5v-151l-2 1l2 -2l-12 -13q-25 21 -51 32t-58 11q-77 0 -122.5 -64t-45.5 -188q0 -122 45.5 -184t121.5 -62q64 0 114 47l13 -14q-56 -54 -126 -54q-87 0 -139 69t-52 198q0 130 51.5 201t139.5 71
q55 0 99 -32v134q0 51 24 78.5t65 27.5q45 0 80 -31z" />
    <glyph glyph-name="uni0297" unicode="&#x297;" horiz-adv-x="435" 
d="M341.5 517q28.5 -12 55.5 -38l-13 -15q-23 23 -48.5 34t-57.5 11q-78 0 -124 -89.5t-46 -258.5q0 -167 45.5 -254.5t123.5 -87.5q62 0 112 47l13 -14q-55 -53 -125 -53q-89 0 -140.5 93.5t-51.5 268.5q0 116 23.5 199t67 126t102.5 43q35 0 63.5 -12z" />
    <glyph glyph-name="uni023C" unicode="&#x23c;" horiz-adv-x="415" 
d="M256 -10q-38 0 -72 14l-17 -70l-16 3l18 75q-49 28 -76.5 90t-27.5 155q0 130 51.5 201t139.5 71q24 0 41 -4l15 61l15 -3l-15 -62q33 -11 65 -42l-13 -15q-25 25 -57 37l-118 -476q31 -14 66 -14q64 0 114 47l13 -14q-56 -54 -126 -54zM111 115.5q23 -56.5 64 -82.5
l117 472q-15 4 -36 4q-77 0 -122.5 -64t-45.5 -188q0 -85 23 -141.5z" />
    <glyph glyph-name="d" unicode="d" horiz-adv-x="515" 
d="M410 733v-733h-20l-2 88q-50 -98 -147 -98q-80 0 -127 70.5t-47 197.5q0 124 49 197.5t134 73.5q88 0 138 -83v290zM328 39.5q34 28.5 60 84.5v291q-50 94 -138 94q-73 0 -116.5 -66.5t-43.5 -184.5q1 -119 41 -183t111 -64q52 0 86 28.5z" />
    <glyph glyph-name="eth" unicode="&#xf0;" horiz-adv-x="490" 
d="M383.5 519q36.5 -87 36.5 -218q0 -157 -47 -234t-132 -77q-83 0 -129.5 64.5t-46.5 175.5q0 63 20 116t58.5 84t91.5 31q90 0 160 -97q-7 94 -38.5 164t-93.5 123l-75 -85l-17 7l78 89q-25 19 -57 34t-63 22l5 20q70 -18 128 -62l60 70l15 -11l-61 -70q71 -59 107.5 -146
zM356.5 84q40.5 73 40.5 219q0 25 -1 33q-72 105 -160 105q-69 0 -108.5 -60t-39.5 -152q0 -102 40.5 -160t112.5 -58q75 0 115.5 73z" />
    <glyph glyph-name="uni0238" unicode="&#x238;" horiz-adv-x="757" 
d="M649 462.5q41 -66.5 41 -198.5t-42.5 -203t-118.5 -71q-43 0 -78.5 26.5t-58.5 67.5l-3 -84h-16l-3 86q-22 -42 -56.5 -69t-81.5 -27q-74 0 -119.5 69.5t-45.5 198.5q0 126 46.5 198.5t126.5 72.5t130 -84v288l22 3v-295q25 39 61 63.5t79 24.5q76 0 117 -66.5z
M310.5 38.5q32.5 27.5 59.5 78.5v300q-30 44 -59.5 68t-70.5 24q-43 0 -77 -29t-53.5 -86t-19.5 -136q1 -120 39.5 -183.5t103.5 -63.5q45 0 77.5 27.5zM630.5 75q36.5 64 36.5 189q0 123 -35 184t-100 61q-43 0 -76.5 -25t-63.5 -69v-298q55 -106 136 -106q66 0 102.5 64z
" />
    <glyph glyph-name="dcaron" unicode="&#x10f;" horiz-adv-x="515" 
d="M410 733v-733h-20l-2 88q-50 -98 -147 -98q-80 0 -127 70.5t-47 197.5q0 124 49 197.5t134 73.5q88 0 138 -83v290zM328 39.5q34 28.5 60 84.5v291q-50 94 -138 94q-73 0 -116.5 -66.5t-43.5 -184.5q1 -119 41 -183t111 -64q52 0 86 28.5zM491 588l25 145l-23 2l-17 -144
z" />
    <glyph glyph-name="uni1E13" unicode="&#x1e13;" horiz-adv-x="515" 
d="M410 733v-733h-20l-2 88q-50 -98 -147 -98q-80 0 -127 70.5t-47 197.5q0 124 49 197.5t134 73.5q88 0 138 -83v290zM328 39.5q34 28.5 60 84.5v291q-50 94 -138 94q-73 0 -116.5 -66.5t-43.5 -184.5q1 -119 41 -183t111 -64q52 0 86 28.5zM161 -183l-11 12l108 96h13
l108 -96l-12 -12l-103 85z" />
    <glyph glyph-name="dcroat" unicode="&#x111;" horiz-adv-x="520" 
d="M478 649v-20h-68v-629h-20l-2 88q-50 -98 -147 -98q-80 0 -127 70.5t-47 197.5q0 124 49 197.5t134 73.5q88 0 138 -83v183h-155v20h155v87l22 -3v-84h68zM328 39.5q34 28.5 60 84.5v291q-50 94 -138 94q-73 0 -116.5 -66.5t-43.5 -184.5q1 -119 41 -183t111 -64
q52 0 86 28.5z" />
    <glyph glyph-name="uni0221" unicode="&#x221;" horiz-adv-x="589" 
d="M597 158q22 -24 22 -60q0 -48 -33.5 -78t-84.5 -30q-58 0 -89 39l-38 -84l-18 9l45 93q-11 23 -12 43q-50 -100 -148 -100q-80 0 -127 70.5t-47 197.5q0 124 49 197.5t134 73.5q88 0 138 -83v290l22 -3v-627q0 -19 4 -32q25 53 53.5 80.5t70.5 27.5q37 0 59 -24z
M328 39.5q34 28.5 60 84.5v291q-50 94 -138 94q-73 0 -116.5 -66.5t-43.5 -184.5q1 -119 41 -183t110 -64q53 0 87 28.5zM571 34.5q27 23.5 27 63.5q0 29 -16.5 46.5t-44.5 17.5q-38 0 -62.5 -26t-51.5 -85q22 -40 78 -40q43 0 70 23.5z" />
    <glyph glyph-name="uni1E0B" unicode="&#x1e0b;" horiz-adv-x="515" 
d="M410 733v-733h-20l-2 88q-50 -98 -147 -98q-80 0 -127 70.5t-47 197.5q0 124 49 197.5t134 73.5q88 0 138 -83v290zM328 39.5q34 28.5 60 84.5v291q-50 94 -138 94q-73 0 -116.5 -66.5t-43.5 -184.5q1 -119 41 -183t111 -64q52 0 86 28.5zM265.5 895q5.5 -6 5.5 -14
t-5.5 -13.5t-14.5 -5.5t-14.5 5.5t-5.5 13.5t5.5 14t14.5 6t14.5 -6z" />
    <glyph glyph-name="uni1E0D" unicode="&#x1e0d;" horiz-adv-x="515" 
d="M410 733v-733h-20l-2 88q-50 -98 -147 -98q-80 0 -127 70.5t-47 197.5q0 124 49 197.5t134 73.5q88 0 138 -83v290zM328 39.5q34 28.5 60 84.5v291q-50 94 -138 94q-73 0 -116.5 -66.5t-43.5 -184.5q1 -119 41 -183t111 -64q52 0 86 28.5zM249.5 -132q-5.5 6 -5.5 14
t5.5 13.5t14.5 5.5t14.5 -5.5t5.5 -13.5t-5.5 -14t-14.5 -6t-14.5 6z" />
    <glyph glyph-name="uni018D" unicode="&#x18d;" horiz-adv-x="502" 
d="M363.5 -9q24.5 -29 25.5 -74q0 -53 -39 -88t-102 -35q-40 0 -71 11t-63 34l13 15q29 -21 56.5 -30t63.5 -9q55 0 87 28t32 74q0 29 -11 49.5t-37.5 38.5t-77.5 39q-64 26 -101.5 58t-55.5 79t-18 116q0 110 50 171t139 61q86 0 134.5 -60.5t48.5 -171.5
q0 -94 -40.5 -156.5t-114.5 -94.5q57 -26 81.5 -55zM104 188q16 -43 53 -74t104 -59q70 28 111.5 88t41.5 154q0 102 -42.5 156.5t-117.5 54.5q-80 0 -123 -54.5t-43 -156.5q0 -66 16 -109z" />
    <glyph glyph-name="uni02A4" unicode="&#x2a4;" horiz-adv-x="774" 
d="M741 2q0 -89 -49 -144t-133 -55q-53 0 -92.5 20.5t-73.5 61.5l15 12q33 -38 68.5 -55.5t82.5 -17.5q76 0 117.5 48.5t41.5 129.5q0 89 -44.5 130t-136.5 41h-47v21l201 305h-281v-499h-20l-2 88q-50 -98 -147 -98q-80 0 -127 70.5t-47 197.5q0 124 49 197.5t134 73.5
q88 0 138 -83v290l22 -3v-214h307v-18l-203 -307h22q205 0 205 -192zM328 39.5q34 28.5 60 84.5v291q-50 94 -138 94q-73 0 -116.5 -66.5t-43.5 -184.5q1 -119 41 -183t111 -64q52 0 86 28.5z" />
    <glyph glyph-name="uni0257" unicode="&#x257;" horiz-adv-x="515" 
d="M557 706l-11 -14q-15 12 -31.5 18.5t-37.5 6.5q-31 0 -49 -20.5t-18 -65.5v-631h-20l-2 88q-50 -98 -147 -98q-80 0 -127 70.5t-47 197.5q0 123 48.5 197t133.5 74q89 0 139 -83v185q0 51 24 78.5t65 27.5q45 0 80 -31zM328 39.5q34 28.5 60 84.5v292q-50 93 -138 93
q-73 0 -116.5 -67t-43.5 -184q1 -119 41 -183t110 -64q53 0 87 28.5z" />
    <glyph glyph-name="uni1E0F" unicode="&#x1e0f;" horiz-adv-x="515" 
d="M410 733v-733h-20l-2 88q-50 -98 -147 -98q-80 0 -127 70.5t-47 197.5q0 124 49 197.5t134 73.5q88 0 138 -83v290zM328 39.5q34 28.5 60 84.5v291q-50 94 -138 94q-73 0 -116.5 -66.5t-43.5 -184.5q1 -119 41 -183t111 -64q52 0 86 28.5zM359 -139h-189v21h189v-21z" />
    <glyph glyph-name="uni0256" unicode="&#x256;" horiz-adv-x="515" 
d="M557 -167q-34 -30 -81 -30q-40 0 -64 26t-24 76v183q-50 -98 -147 -98q-80 0 -127 70.5t-47 197.5q0 124 49 197.5t134 73.5q88 0 138 -83v290l22 -3v-828q0 -43 18.5 -62.5t48.5 -19.5q22 0 38 6.5t31 18.5zM328 39.5q34 28.5 60 84.5v292q-50 93 -138 93
q-73 0 -116.5 -66.5t-43.5 -184.5q1 -119 41 -183t110 -64q53 0 87 28.5z" />
    <glyph glyph-name="uni018C" unicode="&#x18c;" horiz-adv-x="515" 
d="M410 0h-20l-2 88q-50 -98 -147 -98q-80 0 -127 70.5t-47 197.5q0 124 49 197.5t134 73.5q88 0 138 -83v265h-218v21h240v-732zM328 39.5q34 28.5 60 84.5v292q-50 93 -138 93q-73 0 -116.5 -66.5t-43.5 -184.5q1 -119 41 -183t110 -64q53 0 87 28.5z" />
    <glyph glyph-name="uni01F3" unicode="&#x1f3;" horiz-adv-x="885" 
d="M410 733v-733h-20l-2 88q-50 -98 -147 -98q-80 0 -127 70.5t-47 197.5q0 124 49 197.5t134 73.5q88 0 138 -83v290zM328 39.5q34 28.5 60 84.5v291q-50 94 -138 94q-73 0 -116.5 -66.5t-43.5 -184.5q1 -119 41 -183t111 -64q52 0 86 28.5zM852 519v-18l-283 -480h277
l-2 -21h-301v18l284 481h-260v20h285z" />
    <glyph glyph-name="uni02A3" unicode="&#x2a3;" horiz-adv-x="764" 
d="M732 501l-297 -480h290l-2 -21h-333l-2 88q-50 -98 -147 -98q-80 0 -127 70.5t-47 197.5q0 124 49 197.5t134 73.5q88 0 138 -83v290l22 -3v-214h322v-18zM328 39.5q34 28.5 60 84.5v291q-50 94 -138 94q-73 0 -116.5 -66.5t-43.5 -184.5q1 -119 41 -183t111 -64
q52 0 86 28.5zM410 20l296 479h-296v-479z" />
    <glyph glyph-name="uni01C6" unicode="&#x1c6;" horiz-adv-x="885" 
d="M410 733v-733h-20l-2 88q-50 -98 -147 -98q-80 0 -127 70.5t-47 197.5q0 124 49 197.5t134 73.5q88 0 138 -83v290zM328 39.5q34 28.5 60 84.5v291q-50 94 -138 94q-73 0 -116.5 -66.5t-43.5 -184.5q1 -119 41 -183t111 -64q52 0 86 28.5zM852 519v-18l-283 -480h277
l-2 -21h-301v18l284 481h-260v20h285zM811 749l12 -12l-109 -96h-12l-108 96l11 12l103 -85z" />
    <glyph glyph-name="uni02A5" unicode="&#x2a5;" horiz-adv-x="767" 
d="M741 25.5q-40 -24.5 -130 -25.5q-2 -42 -2 -61l1 -41h-20l-1 42q0 20 2 60h-201l-2 88q-50 -98 -147 -98q-80 0 -127 70.5t-47 197.5q0 124 49 197.5t134 73.5q88 0 138 -83v290l22 -3v-214h319v-18l-294 -480h157q4 84 31.5 127.5t77.5 43.5q35 0 57.5 -23.5t22.5 -63.5
q0 -55 -40 -79.5zM328 39.5q34 28.5 60 84.5v291q-50 94 -138 94q-73 0 -116.5 -66.5t-43.5 -184.5q1 -119 41 -183t111 -64q52 0 86 28.5zM410 499v-479l293 479h-293zM638.5 136.5q-22.5 -35.5 -26.5 -115.5q80 -1 113.5 18.5t33.5 65.5q0 31 -15.5 49t-42.5 18
q-40 0 -62.5 -35.5z" />
    <glyph glyph-name="e" unicode="e" horiz-adv-x="476" 
d="M414 246h-326q2 -118 46.5 -176.5t118.5 -58.5q39 0 68.5 13.5t61.5 41.5l13 -15q-33 -30 -66.5 -45.5t-76.5 -15.5q-87 0 -137.5 69t-50.5 196q0 131 49 202.5t132 71.5q84 0 127 -65t43 -180q0 -16 -2 -38zM394 292q0 101 -37 159t-110 58q-70 0 -113.5 -61.5
t-45.5 -182.5h305q1 8 1 27z" />
    <glyph glyph-name="eacute" unicode="&#xe9;" horiz-adv-x="476" 
d="M414 246h-326q2 -118 46.5 -176.5t118.5 -58.5q39 0 68.5 13.5t61.5 41.5l13 -15q-33 -30 -66.5 -45.5t-76.5 -15.5q-87 0 -137.5 69t-50.5 196q0 131 49 202.5t132 71.5q84 0 127 -65t43 -180q0 -16 -2 -38zM394 292q0 101 -37 159t-110 58q-70 0 -113.5 -61.5
t-45.5 -182.5h305q1 8 1 27zM313 760l11 -22l-161 -84l-8 15z" />
    <glyph glyph-name="ebreve" unicode="&#x115;" horiz-adv-x="476" 
d="M414 246h-326q2 -118 46.5 -176.5t118.5 -58.5q39 0 68.5 13.5t61.5 41.5l13 -15q-33 -30 -66.5 -45.5t-76.5 -15.5q-87 0 -137.5 69t-50.5 196q0 131 49 202.5t132 71.5q84 0 127 -65t43 -180q0 -16 -2 -38zM394 292q0 101 -37 159t-110 58q-70 0 -113.5 -61.5
t-45.5 -182.5h305q1 8 1 27zM180.5 685.5q-26.5 23.5 -32.5 62.5l16 4q16 -69 83 -69q32 0 53 17.5t29 51.5l16 -4q-6 -39 -32.5 -62.5t-65.5 -23.5q-40 0 -66.5 23.5z" />
    <glyph glyph-name="ecaron" unicode="&#x11b;" horiz-adv-x="476" 
d="M414 246h-326q2 -118 46.5 -176.5t118.5 -58.5q39 0 68.5 13.5t61.5 41.5l13 -15q-33 -30 -66.5 -45.5t-76.5 -15.5q-87 0 -137.5 69t-50.5 196q0 131 49 202.5t132 71.5q84 0 127 -65t43 -180q0 -16 -2 -38zM394 292q0 101 -37 159t-110 58q-70 0 -113.5 -61.5
t-45.5 -182.5h305q1 8 1 27zM350 749l12 -12l-109 -96h-12l-108 96l11 12l103 -85z" />
    <glyph glyph-name="uni0229" unicode="&#x229;" horiz-adv-x="476" 
d="M414 246h-326q2 -118 46.5 -176.5t118.5 -58.5q39 0 68.5 13.5t61.5 41.5l13 -15q-32 -29 -64 -44.5t-73 -16.5l-1 -64q82 -6 82 -67q0 -34 -22.5 -52.5t-54.5 -18.5q-35 0 -62 18l10 16q23 -15 52 -15q24 0 39.5 13t15.5 39t-19.5 38t-61.5 13l5 80q-82 5 -129.5 73.5
t-47.5 191.5q0 131 49 202.5t132 71.5q84 0 127 -65t43 -180q0 -16 -2 -38zM394 292q0 101 -37 159t-110 58q-70 0 -113.5 -61.5t-45.5 -182.5h305q1 8 1 27z" />
    <glyph glyph-name="ecircumflex" unicode="&#xea;" horiz-adv-x="476" 
d="M414 246h-326q2 -118 46.5 -176.5t118.5 -58.5q39 0 68.5 13.5t61.5 41.5l13 -15q-33 -30 -66.5 -45.5t-76.5 -15.5q-87 0 -137.5 69t-50.5 196q0 131 49 202.5t132 71.5q84 0 127 -65t43 -180q0 -16 -2 -38zM394 292q0 101 -37 159t-110 58q-70 0 -113.5 -61.5
t-45.5 -182.5h305q1 8 1 27zM143 654l-11 12l108 96h13l108 -96l-12 -12l-103 85z" />
    <glyph glyph-name="uni1EBF" unicode="&#x1ebf;" horiz-adv-x="476" 
d="M414 246h-326q2 -118 46.5 -176.5t118.5 -58.5q39 0 68.5 13.5t61.5 41.5l13 -15q-33 -30 -66.5 -45.5t-76.5 -15.5q-87 0 -137.5 69t-50.5 196q0 131 49 202.5t132 71.5q84 0 127 -65t43 -180q0 -16 -2 -38zM394 292q0 101 -37 159t-110 58q-70 0 -113.5 -61.5
t-45.5 -182.5h305q1 8 1 27zM143 587l-11 12l108 90h12l109 -90l-11 -12l-104 79zM409 802l19 -15l-94 -114l-13 10z" />
    <glyph glyph-name="uni1EC7" unicode="&#x1ec7;" horiz-adv-x="476" 
d="M414 246h-326q2 -118 46.5 -176.5t118.5 -58.5q39 0 68.5 13.5t61.5 41.5l13 -15q-33 -30 -66.5 -45.5t-76.5 -15.5q-87 0 -137.5 69t-50.5 196q0 131 49 202.5t132 71.5q84 0 127 -65t43 -180q0 -16 -2 -38zM394 292q0 101 -37 159t-110 58q-70 0 -113.5 -61.5
t-45.5 -182.5h305q1 8 1 27zM143 654l-11 12l108 96h13l108 -96l-12 -12l-103 85zM240.5 -132q-5.5 6 -5.5 14t5.5 13.5t14.5 5.5t14.5 -5.5t5.5 -13.5t-5.5 -14t-14.5 -6t-14.5 6z" />
    <glyph glyph-name="uni1EC1" unicode="&#x1ec1;" horiz-adv-x="476" 
d="M414 246h-326q2 -118 46.5 -176.5t118.5 -58.5q39 0 68.5 13.5t61.5 41.5l13 -15q-33 -30 -66.5 -45.5t-76.5 -15.5q-87 0 -137.5 69t-50.5 196q0 131 49 202.5t132 71.5q84 0 127 -65t43 -180q0 -16 -2 -38zM394 292q0 101 -37 159t-110 58q-70 0 -113.5 -61.5
t-45.5 -182.5h305q1 8 1 27zM143 587l-11 12l108 90h12l109 -90l-11 -12l-104 79zM87 802l89 -119l-13 -10l-94 114z" />
    <glyph glyph-name="uni1EC3" unicode="&#x1ec3;" horiz-adv-x="476" 
d="M414 246h-326q2 -118 46.5 -176.5t118.5 -58.5q39 0 68.5 13.5t61.5 41.5l13 -15q-33 -30 -66.5 -45.5t-76.5 -15.5q-87 0 -137.5 69t-50.5 196q0 131 49 202.5t132 71.5q84 0 127 -65t43 -180q0 -16 -2 -38zM394 292q0 101 -37 159t-110 58q-70 0 -113.5 -61.5
t-45.5 -182.5h305q1 8 1 27zM143 587l-11 12l108 90h12l109 -90l-11 -12l-104 79zM329 734q60 4 60 52q0 23 -12.5 35t-34.5 12q-25 0 -50 -15l-9 16q29 19 61 19q31 0 49.5 -18t18.5 -48q0 -59 -62 -67v-56h-21v70z" />
    <glyph glyph-name="uni1EC5" unicode="&#x1ec5;" horiz-adv-x="476" 
d="M414 246h-326q2 -118 46.5 -176.5t118.5 -58.5q39 0 68.5 13.5t61.5 41.5l13 -15q-33 -30 -66.5 -45.5t-76.5 -15.5q-87 0 -137.5 69t-50.5 196q0 131 49 202.5t132 71.5q84 0 127 -65t43 -180q0 -16 -2 -38zM394 292q0 101 -37 159t-110 58q-70 0 -113.5 -61.5
t-45.5 -182.5h305q1 8 1 27zM143 578l-11 12l108 90h12l109 -90l-11 -12l-104 79zM271 733q-13 6 -33 18q-15 10 -25 15t-20 5q-15 0 -27 -8t-26 -27l-14 8q16 23 32 34.5t35 11.5q12 0 23 -5t30 -16q16 -11 28.5 -16.5t24.5 -5.5q15 0 27 9t26 31l14 -7q-15 -28 -31 -40.5
t-36 -12.5q-15 0 -28 6z" />
    <glyph glyph-name="uni0205" unicode="&#x205;" horiz-adv-x="476" 
d="M414 246h-326q2 -118 46.5 -176.5t118.5 -58.5q39 0 68.5 13.5t61.5 41.5l13 -15q-33 -30 -66.5 -45.5t-76.5 -15.5q-87 0 -137.5 69t-50.5 196q0 131 49 202.5t132 71.5q84 0 127 -65t43 -180q0 -16 -2 -38zM394 292q0 101 -37 159t-110 58q-70 0 -113.5 -61.5
t-45.5 -182.5h305q1 8 1 27zM147 791l65 -131l-16 -8l-70 129zM247 790l59 -127l-15 -7l-65 123z" />
    <glyph glyph-name="edieresis" unicode="&#xeb;" horiz-adv-x="476" 
d="M414 246h-326q2 -118 46.5 -176.5t118.5 -58.5q39 0 68.5 13.5t61.5 41.5l13 -15q-33 -30 -66.5 -45.5t-76.5 -15.5q-87 0 -137.5 69t-50.5 196q0 131 49 202.5t132 71.5q84 0 127 -65t43 -180q0 -16 -2 -38zM394 292q0 101 -37 159t-110 58q-70 0 -113.5 -61.5
t-45.5 -182.5h305q1 8 1 27zM185.5 706.5q5.5 -5.5 5.5 -14.5q0 -8 -5.5 -13.5t-14.5 -5.5q-8 0 -13.5 5.5t-5.5 13.5t5.5 14t13.5 6q9 0 14.5 -5.5zM336.5 706q5.5 -6 5.5 -14t-5.5 -13.5t-14.5 -5.5t-14.5 5.5t-5.5 13.5t5.5 14t14.5 6t14.5 -6z" />
    <glyph glyph-name="edotaccent" unicode="&#x117;" horiz-adv-x="476" 
d="M414 246h-326q2 -118 46.5 -176.5t118.5 -58.5q39 0 68.5 13.5t61.5 41.5l13 -15q-33 -30 -66.5 -45.5t-76.5 -15.5q-87 0 -137.5 69t-50.5 196q0 131 49 202.5t132 71.5q84 0 127 -65t43 -180q0 -16 -2 -38zM394 292q0 101 -37 159t-110 58q-70 0 -113.5 -61.5
t-45.5 -182.5h305q1 8 1 27zM261.5 718q5.5 -6 5.5 -14t-5.5 -13.5t-14.5 -5.5t-14.5 5.5t-5.5 13.5t5.5 14t14.5 6t14.5 -6z" />
    <glyph glyph-name="uni1EB9" unicode="&#x1eb9;" horiz-adv-x="476" 
d="M414 246h-326q2 -118 46.5 -176.5t118.5 -58.5q39 0 68.5 13.5t61.5 41.5l13 -15q-33 -30 -66.5 -45.5t-76.5 -15.5q-87 0 -137.5 69t-50.5 196q0 131 49 202.5t132 71.5q84 0 127 -65t43 -180q0 -16 -2 -38zM394 292q0 101 -37 159t-110 58q-70 0 -113.5 -61.5
t-45.5 -182.5h305q1 8 1 27zM240.5 -132q-5.5 6 -5.5 14t5.5 13.5t14.5 5.5t14.5 -5.5t5.5 -13.5t-5.5 -14t-14.5 -6t-14.5 6z" />
    <glyph glyph-name="egrave" unicode="&#xe8;" horiz-adv-x="476" 
d="M414 246h-326q2 -118 46.5 -176.5t118.5 -58.5q39 0 68.5 13.5t61.5 41.5l13 -15q-33 -30 -66.5 -45.5t-76.5 -15.5q-87 0 -137.5 69t-50.5 196q0 131 49 202.5t132 71.5q84 0 127 -65t43 -180q0 -16 -2 -38zM394 292q0 101 -37 159t-110 58q-70 0 -113.5 -61.5
t-45.5 -182.5h305q1 8 1 27zM176 760l158 -91l-9 -15l-161 84z" />
    <glyph glyph-name="uni1EBB" unicode="&#x1ebb;" horiz-adv-x="476" 
d="M414 246h-326q2 -118 46.5 -176.5t118.5 -58.5q39 0 68.5 13.5t61.5 41.5l13 -15q-33 -30 -66.5 -45.5t-76.5 -15.5q-87 0 -137.5 69t-50.5 196q0 131 49 202.5t132 71.5q84 0 127 -65t43 -180q0 -16 -2 -38zM394 292q0 101 -37 159t-110 58q-70 0 -113.5 -61.5
t-45.5 -182.5h305q1 8 1 27zM236 692q60 4 60 52q0 23 -12.5 35t-34.5 12q-25 0 -50 -15l-9 16q29 19 61 19q31 0 49.5 -18t18.5 -48q0 -59 -62 -67v-56h-21v70z" />
    <glyph glyph-name="uni0207" unicode="&#x207;" horiz-adv-x="476" 
d="M414 246h-326q2 -118 46.5 -176.5t118.5 -58.5q39 0 68.5 13.5t61.5 41.5l13 -15q-33 -30 -66.5 -45.5t-76.5 -15.5q-87 0 -137.5 69t-50.5 196q0 131 49 202.5t132 71.5q84 0 127 -65t43 -180q0 -16 -2 -38zM394 292q0 101 -37 159t-110 58q-70 0 -113.5 -61.5
t-45.5 -182.5h305q1 8 1 27zM312.5 701.5q26.5 -23.5 32.5 -62.5l-16 -4q-8 34 -29 51.5t-53 17.5q-67 0 -83 -69l-16 4q6 39 32.5 62.5t66.5 23.5q39 0 65.5 -23.5z" />
    <glyph glyph-name="emacron" unicode="&#x113;" horiz-adv-x="476" 
d="M414 246h-326q2 -118 46.5 -176.5t118.5 -58.5q39 0 68.5 13.5t61.5 41.5l13 -15q-33 -30 -66.5 -45.5t-76.5 -15.5q-87 0 -137.5 69t-50.5 196q0 131 49 202.5t132 71.5q84 0 127 -65t43 -180q0 -16 -2 -38zM394 292q0 101 -37 159t-110 58q-70 0 -113.5 -61.5
t-45.5 -182.5h305q1 8 1 27zM342 685h-189v21h189v-21z" />
    <glyph glyph-name="eogonek" unicode="&#x119;" horiz-adv-x="476" 
d="M414 246h-326q2 -118 46.5 -176.5t118.5 -58.5q39 0 68.5 13.5t61.5 41.5l13 -15q-41 -38 -81 -51q-50 -26 -76 -52t-26 -64q0 -28 17 -44t48 -16q21 0 48 7l-2 -22q-27 -7 -49 -7q-41 0 -63 22.5t-22 59.5q0 33 20 59t58 48q-5 -1 -15 -1q-87 0 -137.5 69t-50.5 196
q0 131 49 202.5t132 71.5q84 0 127 -65t43 -180q0 -16 -2 -38zM394 292q0 101 -37 159t-110 58q-70 0 -113.5 -61.5t-45.5 -182.5h305q1 8 1 27z" />
    <glyph glyph-name="uni025B" unicode="&#x25b;" horiz-adv-x="406" 
d="M367 484l-12 -16q-27 20 -56 30.5t-66 10.5q-59 0 -93 -31t-34 -83q0 -49 34 -80.5t93 -31.5h52l-3 -20h-52q-70 0 -106 -32t-36 -94q0 -60 37.5 -93t101.5 -33q46 0 76.5 13.5t60.5 41.5l13 -14q-31 -30 -66.5 -46t-84.5 -16q-71 0 -116 39.5t-45 107.5q0 63 33.5 97
t90.5 40q-51 10 -78 41.5t-27 79.5q0 62 41 98t107 36q75 0 135 -45z" />
    <glyph glyph-name="uni029A" unicode="&#x29a;" horiz-adv-x="492" 
d="M109 31q-44 41 -44 115q0 64 33 94.5t95 35.5q-106 16 -106 118q0 61 39 98t107 37q91 0 142.5 -69.5t51.5 -200.5q0 -130 -50.5 -199.5t-144.5 -69.5q-79 0 -123 41zM360 74q44 63 44 185q0 124 -45 187t-126 63q-59 0 -91 -31.5t-32 -83.5t33 -81t100 -29h27l2 -19h-34
q-76 0 -113 -28t-37 -91q0 -67 38 -101t106 -34q84 0 128 63z" />
    <glyph glyph-name="uni025C" unicode="&#x25c;" horiz-adv-x="421" 
d="M295 493q38 -36 38 -96q0 -52 -27.5 -82.5t-77.5 -38.5q61 -6 94.5 -36.5t33.5 -93.5q0 -73 -44 -114.5t-116 -41.5q-55 0 -94 18.5t-73 51.5l14 13q33 -30 67.5 -46t84.5 -16q64 0 101 34t37 101q0 62 -37.5 90.5t-113.5 28.5h-50l3 19h44q66 0 98.5 30t32.5 83
q0 51 -31 81.5t-86 30.5q-42 0 -72.5 -11t-66.5 -36l-11 15q35 26 70.5 39t79.5 13q64 0 102 -36z" />
    <glyph glyph-name="uni025E" unicode="&#x25e;" horiz-adv-x="492" 
d="M115.5 59.5q-50.5 69.5 -50.5 199.5q0 131 51.5 200.5t142.5 69.5q68 0 107 -37t39 -98q0 -102 -106 -118q62 -5 95 -35.5t33 -94.5q0 -74 -44 -115t-123 -41q-94 0 -144.5 69.5zM366 45q38 34 38 101q0 63 -37 91t-113 28h-34l2 19h27q67 0 100 29t33 81t-32 83.5
t-91 31.5q-81 0 -126 -63t-45 -187q0 -122 44 -185t128 -63q68 0 106 34z" />
    <glyph glyph-name="uni025D" unicode="&#x25d;" horiz-adv-x="547" 
d="M580 364q-36 -30 -80 -30q-42 0 -66 26.5t-24 76.5v61l-88 -44q11 -27 11 -57q0 -52 -27.5 -82.5t-77.5 -38.5q61 -6 94.5 -36.5t33.5 -93.5q0 -73 -44 -114.5t-116 -41.5q-55 0 -94 18.5t-73 51.5l14 13q33 -30 67.5 -46t84.5 -16q64 0 101 34t37 101q0 62 -37.5 90.5
t-113.5 28.5h-50l3 19h44q66 0 98.5 30t32.5 83q0 51 -31 81.5t-86 30.5q-42 0 -72.5 -11t-66.5 -36l-11 15q35 26 70.5 39t79.5 13q41 0 72 -15t48 -43l97 48h22v-81q0 -44 18.5 -64.5t49.5 -20.5q21 0 37 6.5t31 18.5z" />
    <glyph glyph-name="uni0258" unicode="&#x258;" horiz-adv-x="476" 
d="M365.5 460.5q45.5 -68.5 45.5 -205.5q0 -127 -51 -196t-137 -69q-44 0 -77.5 15.5t-66.5 45.5l14 15q31 -28 60.5 -41.5t69.5 -13.5q74 0 118 58t47 177h-326q-2 22 -2 38q0 114 45.5 179.5t129.5 65.5q85 0 130.5 -68.5zM82 265h306q-1 128 -41.5 186t-111.5 58
q-75 0 -114 -58.5t-39 -158.5v-27z" />
    <glyph glyph-name="uni0283" unicode="&#x283;" horiz-adv-x="233" 
d="M275 706l-11 -14q-15 12 -31.5 18.5t-37.5 6.5q-31 0 -49 -20.5t-18 -65.5v-113h-1v-613q0 -50 -24 -76t-64 -26q-47 0 -81 30l11 15q15 -12 31 -18.5t38 -6.5q30 0 48.5 19.5t18.5 62.5v614h1v112q0 51 24 78.5t65 27.5q45 0 80 -31z" />
    <glyph glyph-name="uni0286" unicode="&#x286;" horiz-adv-x="245" 
d="M224 -61l-7 -17q-41 21 -77 31q0 -72 -29 -111t-87 -39q-42 0 -67.5 24t-25.5 63q0 45 30 71t80 26q39 0 77 -9v653q0 51 24 78.5t65 27.5q45 0 80 -31l-11 -14q-15 12 -31.5 18.5t-37.5 6.5q-31 0 -49 -20.5t-18 -65.5v-658q45 -13 84 -34zM94.5 -144.5
q23.5 33.5 23.5 102.5q-42 10 -76 10q-43 0 -66.5 -21t-23.5 -57q0 -31 19 -49.5t53 -18.5q47 0 70.5 33.5z" />
    <glyph glyph-name="uni01AA" unicode="&#x1aa;" horiz-adv-x="238" 
d="M280 -167q-34 -30 -81 -30q-40 0 -64 26t-24 76v95h-1v539q-26 -18 -60 -18q-40 0 -64 26.5t-24 78.5t24 81.5t64 29.5q39 0 60.5 -26.5t21.5 -70.5v-639h1v-96q0 -43 18.5 -62.5t48.5 -19.5q22 0 38 6.5t31 18.5zM110 559v81q0 37 -15.5 57t-44.5 20q-31 0 -48.5 -23.5
t-17.5 -66.5q0 -86 66 -86q34 0 60 18z" />
    <glyph glyph-name="uni0285" unicode="&#x285;" horiz-adv-x="336" 
d="M327 20q-34 -30 -81 -30q-40 0 -64 26t-24 76v95h-1v237q0 45 -18 65.5t-49 20.5q-21 0 -37.5 -6.5t-31.5 -18.5l-11 14q35 31 80 31q41 0 65 -27.5t24 -78.5v-236h1v-96q0 -43 18.5 -62.5t48.5 -19.5q22 0 38 6.5t31 18.5z" />
    <glyph glyph-name="uni0247" unicode="&#x247;" horiz-adv-x="476" 
d="M244 246l-55 -222q29 -13 64 -13q39 0 69 13.5t62 41.5l12 -15q-33 -30 -66.5 -45.5t-76.5 -15.5q-39 0 -69 13l-17 -69l-16 3l18 74q-50 27 -77 89.5t-27 154.5q0 130 48.5 202t132.5 72q29 0 50 -7l16 64l15 -3l-16 -66q52 -23 78.5 -83.5t26.5 -149.5q0 -16 -2 -38
h-170zM133.5 447.5q-43.5 -61.5 -45.5 -182.5h144l59 238q-19 6 -44 6q-70 0 -113.5 -61.5zM372 423q-22 53 -66 74l-57 -232h144q1 8 1 27q0 78 -22 131zM228 246h-140q1 -82 24 -135.5t63 -78.5z" />
    <glyph glyph-name="uni1EBD" unicode="&#x1ebd;" horiz-adv-x="476" 
d="M414 246h-326q2 -118 46.5 -176.5t118.5 -58.5q39 0 68.5 13.5t61.5 41.5l13 -15q-33 -30 -66.5 -45.5t-76.5 -15.5q-87 0 -137.5 69t-50.5 196q0 131 49 202.5t132 71.5q84 0 127 -65t43 -180q0 -16 -2 -38zM394 292q0 101 -37 159t-110 58q-70 0 -113.5 -61.5
t-45.5 -182.5h305q1 8 1 27zM272 684q-13 6 -33 18q-15 10 -25 15t-20 5q-15 0 -27 -8t-26 -27l-14 8q16 23 32 34.5t35 11.5q12 0 23.5 -5t29.5 -16q17 -11 28.5 -16.5t24.5 -5.5q15 0 27 9t26 31l14 -7q-15 -28 -31 -40.5t-36 -12.5q-15 0 -28 6z" />
    <glyph glyph-name="uni01DD" unicode="&#x1dd;" horiz-adv-x="479" 
d="M368.5 463.5q45.5 -65.5 45.5 -199.5q0 -142 -47 -208t-132 -66q-82 0 -128.5 66t-46.5 187q0 12 2 30h329q-1 120 -41 178t-111 58q-39 0 -71 -13t-66 -39l-12 15q68 57 149 57q84 0 129.5 -65.5zM350 68q40 57 41 185h-308v-10q0 -114 39.5 -173t112.5 -59q75 0 115 57
z" />
    <glyph glyph-name="uni0259" unicode="&#x259;" horiz-adv-x="479" 
d="M368.5 463.5q45.5 -65.5 45.5 -199.5q0 -142 -47 -208t-132 -66q-82 0 -128.5 66t-46.5 187q0 12 2 30h329q-1 120 -41 178t-111 58q-39 0 -71 -13t-66 -39l-12 15q68 57 149 57q84 0 129.5 -65.5zM350 68q40 57 41 185h-308v-10q0 -114 39.5 -173t112.5 -59q75 0 115 57
z" />
    <glyph glyph-name="uni025A" unicode="&#x25a;" horiz-adv-x="598" 
d="M631 364q-36 -30 -80 -30q-42 0 -66 26.5t-24 76.5v61l-87 -44q40 -66 40 -190q0 -142 -47 -208t-132 -66q-82 0 -128.5 66t-46.5 187q0 12 2 30h329q-1 120 -41 178t-111 58q-39 0 -71 -13t-66 -39l-12 15q68 57 149 57q79 0 124 -58l98 48h22v-81q0 -44 18.5 -64.5
t49.5 -20.5q21 0 37 6.5t31 18.5zM350 68q40 57 41 185h-308v-10q0 -114 39.5 -173t112.5 -59q75 0 115 57z" />
    <glyph glyph-name="uni0292" unicode="&#x292;" horiz-adv-x="400" 
d="M368 2q0 -89 -49 -144t-133 -55q-53 0 -92.5 20.5t-73.5 61.5l15 12q33 -38 68.5 -55.5t82.5 -17.5q76 0 117.5 48.5t41.5 129.5q0 89 -44.5 130t-136.5 41h-47v21l201 305h-282v20h308v-18l-203 -307h22q205 0 205 -192z" />
    <glyph glyph-name="uni01EF" unicode="&#x1ef;" horiz-adv-x="400" 
d="M368 2q0 -89 -49 -144t-133 -55q-53 0 -92.5 20.5t-73.5 61.5l15 12q33 -38 68.5 -55.5t82.5 -17.5q76 0 117.5 48.5t41.5 129.5q0 89 -44.5 130t-136.5 41h-47v21l201 305h-282v20h308v-18l-203 -307h22q205 0 205 -192zM293 749l12 -12l-109 -96h-12l-108 96l11 12
l103 -85z" />
    <glyph glyph-name="uni0293" unicode="&#x293;" horiz-adv-x="400" 
d="M340 -104q-28 -47 -81 -71l25 -59l-19 -8l-25 59q-42 -14 -91 -14q-72 0 -109.5 30t-37.5 83q0 43 25 70.5t67 27.5q32 0 57 -15t49 -52t51 -104q47 21 70.5 63t23.5 99q0 86 -45 127t-137 41h-46v21l200 305h-281v20h307v-18l-202 -307h24q103 0 153 -48.5t50 -139.5
q0 -63 -28 -110zM57 -154q34 -22 92 -22q47 0 83 12q-25 63 -46.5 97t-42.5 48t-49 14q-33 0 -52 -21.5t-19 -57.5q0 -48 34 -70z" />
    <glyph glyph-name="uni01B9" unicode="&#x1b9;" horiz-adv-x="400" 
d="M380 -115q-34 -41 -74 -61.5t-95 -20.5q-82 0 -130 52.5t-48 139.5q0 93 51 146t154 53h22l-204 307v18h309v-20h-282l201 -305v-21h-47q-181 0 -181 -179q0 -78 40.5 -124t113.5 -46q49 0 85.5 17.5t70.5 55.5z" />
    <glyph glyph-name="uni01BA" unicode="&#x1ba;" horiz-adv-x="399" 
d="M58.5 -151q-23.5 25 -23.5 62q0 44 36.5 67.5t118.5 35.5q83 12 117.5 40.5t34.5 89.5q0 54 -30.5 78.5t-92.5 24.5h-114v20l203 232h-273v20h302v-18l-207 -234h89q72 0 108.5 -31t36.5 -92q0 -69 -39.5 -102t-129.5 -47q-74 -12 -105 -30t-31 -54q0 -31 18 -51t59 -39
l-8 -17q-46 20 -69.5 45z" />
    <glyph glyph-name="f" unicode="f" horiz-adv-x="277" 
d="M154.5 692.5q-24.5 -23.5 -24.5 -72.5v-101h132l-3 -20h-129v-499h-22v499h-80v20h80v104q0 54 31 84t82 30q54 0 105 -31l-10 -17q-46 27 -93 27q-44 0 -68.5 -23.5z" />
    <glyph glyph-name="uni1E1F" unicode="&#x1e1f;" horiz-adv-x="277" 
d="M154.5 692.5q-24.5 -23.5 -24.5 -72.5v-101h132l-3 -20h-129v-499h-22v499h-80v20h80v104q0 54 31 84t82 30q54 0 105 -31l-10 -17q-46 27 -93 27q-44 0 -68.5 -23.5zM238.5 895q5.5 -6 5.5 -14t-5.5 -13.5t-14.5 -5.5t-14.5 5.5t-5.5 13.5t5.5 14t14.5 6t14.5 -6z" />
    <glyph glyph-name="uni02A9" unicode="&#x2a9;" horiz-adv-x="778" 
d="M678 0h-1v-95q0 -50 -24 -76t-64 -26q-47 0 -81 30l11 15q15 -12 31 -18.5t38 -6.5q30 0 48.5 19.5t18.5 62.5v96h1v371q0 137 -105 137q-52 0 -93 -33t-76 -94v-382h-22v499h-230v-499h-22v499h-80v20h80v104q0 54 31 84t82 30q54 0 105 -31l-10 -17q-46 27 -93 27
q-44 0 -68.5 -23.5t-24.5 -72.5v-101h250l2 -106q68 116 171 116q62 0 93.5 -40t31.5 -114v-375z" />
    <glyph glyph-name="g" unicode="g" horiz-adv-x="440" 
d="M425 526q-48 -14 -138 -15q45 -16 69.5 -55t24.5 -100q0 -78 -43 -122t-117 -44q-32 0 -67 14q-46 -30 -46 -75q0 -66 94 -66h67q69 0 107 -32.5t38 -87.5q0 -65 -47.5 -102.5t-140.5 -37.5q-99 0 -143 32.5t-44 106.5h21q2 -65 39 -91.5t127 -26.5q84 0 124.5 31
t40.5 87q0 48 -32 74.5t-91 26.5h-68q-56 0 -85 22.5t-29 60.5q0 50 51 86q-79 44 -79 146q0 79 44 125t118 46q92 0 128 4.5t70 16.5zM117 468.5q-36 -40.5 -36 -110.5q0 -71 39.5 -109.5t100.5 -38.5q65 0 101 37.5t36 108.5q0 72 -36.5 112.5t-101.5 40.5
q-67 0 -103 -40.5z" />
    <glyph glyph-name="g.ss04" horiz-adv-x="515" 
d="M410 519v-537q0 -86 -37.5 -132.5t-124.5 -46.5q-67 0 -122 33l9 15q25 -13 50.5 -20.5t61.5 -7.5q77 0 109 40t32 120v126q-49 -99 -146 -99q-80 0 -127.5 68t-47.5 190q0 119 48.5 190t134.5 71q49 0 84 -23.5t55 -58.5l2 72h19zM328 59.5q34 28.5 60 84.5v272
q-50 93 -138 93q-73 0 -116.5 -64.5t-43.5 -176.5q1 -113 41.5 -175t110.5 -62q52 0 86 28.5z" />
    <glyph glyph-name="uni01F5" unicode="&#x1f5;" horiz-adv-x="440" 
d="M425 526q-48 -14 -138 -15q45 -16 69.5 -55t24.5 -100q0 -78 -43 -122t-117 -44q-32 0 -67 14q-46 -30 -46 -75q0 -66 94 -66h67q69 0 107 -32.5t38 -87.5q0 -65 -47.5 -102.5t-140.5 -37.5q-99 0 -143 32.5t-44 106.5h21q2 -65 39 -91.5t127 -26.5q84 0 124.5 31
t40.5 87q0 48 -32 74.5t-91 26.5h-68q-56 0 -85 22.5t-29 60.5q0 50 51 86q-79 44 -79 146q0 79 44 125t118 46q92 0 128 4.5t70 16.5zM117 468.5q-36 -40.5 -36 -110.5q0 -71 39.5 -109.5t100.5 -38.5q65 0 101 37.5t36 108.5q0 72 -36.5 112.5t-101.5 40.5
q-67 0 -103 -40.5zM287 760l11 -22l-161 -84l-8 15z" />
    <glyph glyph-name="uni0263" unicode="&#x263;" horiz-adv-x="406" 
d="M215 44q26 -57 39 -96t13 -72t-16.5 -53t-47.5 -20q-30 0 -47 20t-17 53t13 72.5t39 95.5l-168 475h23l157 -456l157 456h23zM236 -61q-10 32 -33 88q-23 -55 -33 -87t-10 -64q0 -25 11 -39t32 -14t32 14t11 39q0 31 -10 63z" />
    <glyph glyph-name="gbreve" unicode="&#x11f;" horiz-adv-x="440" 
d="M425 526q-48 -14 -138 -15q45 -16 69.5 -55t24.5 -100q0 -78 -43 -122t-117 -44q-32 0 -67 14q-46 -30 -46 -75q0 -66 94 -66h67q69 0 107 -32.5t38 -87.5q0 -65 -47.5 -102.5t-140.5 -37.5q-99 0 -143 32.5t-44 106.5h21q2 -65 39 -91.5t127 -26.5q84 0 124.5 31
t40.5 87q0 48 -32 74.5t-91 26.5h-68q-56 0 -85 22.5t-29 60.5q0 50 51 86q-79 44 -79 146q0 79 44 125t118 46q92 0 128 4.5t70 16.5zM117 468.5q-36 -40.5 -36 -110.5q0 -71 39.5 -109.5t100.5 -38.5q65 0 101 37.5t36 108.5q0 72 -36.5 112.5t-101.5 40.5
q-67 0 -103 -40.5zM154.5 685.5q-26.5 23.5 -32.5 62.5l16 4q16 -69 83 -69q32 0 53 17.5t29 51.5l16 -4q-6 -39 -32.5 -62.5t-65.5 -23.5q-40 0 -66.5 23.5z" />
    <glyph glyph-name="gcaron" unicode="&#x1e7;" horiz-adv-x="440" 
d="M425 526q-48 -14 -138 -15q45 -16 69.5 -55t24.5 -100q0 -78 -43 -122t-117 -44q-32 0 -67 14q-46 -30 -46 -75q0 -66 94 -66h67q69 0 107 -32.5t38 -87.5q0 -65 -47.5 -102.5t-140.5 -37.5q-99 0 -143 32.5t-44 106.5h21q2 -65 39 -91.5t127 -26.5q84 0 124.5 31
t40.5 87q0 48 -32 74.5t-91 26.5h-68q-56 0 -85 22.5t-29 60.5q0 50 51 86q-79 44 -79 146q0 79 44 125t118 46q92 0 128 4.5t70 16.5zM117 468.5q-36 -40.5 -36 -110.5q0 -71 39.5 -109.5t100.5 -38.5q65 0 101 37.5t36 108.5q0 72 -36.5 112.5t-101.5 40.5
q-67 0 -103 -40.5zM324 749l12 -12l-109 -96h-12l-108 96l11 12l103 -85z" />
    <glyph glyph-name="gcircumflex" unicode="&#x11d;" horiz-adv-x="440" 
d="M425 526q-48 -14 -138 -15q45 -16 69.5 -55t24.5 -100q0 -78 -43 -122t-117 -44q-32 0 -67 14q-46 -30 -46 -75q0 -66 94 -66h67q69 0 107 -32.5t38 -87.5q0 -65 -47.5 -102.5t-140.5 -37.5q-99 0 -143 32.5t-44 106.5h21q2 -65 39 -91.5t127 -26.5q84 0 124.5 31
t40.5 87q0 48 -32 74.5t-91 26.5h-68q-56 0 -85 22.5t-29 60.5q0 50 51 86q-79 44 -79 146q0 79 44 125t118 46q92 0 128 4.5t70 16.5zM117 468.5q-36 -40.5 -36 -110.5q0 -71 39.5 -109.5t100.5 -38.5q65 0 101 37.5t36 108.5q0 72 -36.5 112.5t-101.5 40.5
q-67 0 -103 -40.5zM117 654l-11 12l108 96h13l108 -96l-12 -12l-103 85z" />
    <glyph glyph-name="gcommaaccent" unicode="&#x123;" horiz-adv-x="440" 
d="M425 526q-48 -14 -138 -15q45 -16 69.5 -55t24.5 -100q0 -78 -43 -122t-117 -44q-32 0 -67 14q-46 -30 -46 -75q0 -66 94 -66h67q69 0 107 -32.5t38 -87.5q0 -65 -47.5 -102.5t-140.5 -37.5q-99 0 -143 32.5t-44 106.5h21q2 -65 39 -91.5t127 -26.5q84 0 124.5 31
t40.5 87q0 48 -32 74.5t-91 26.5h-68q-56 0 -85 22.5t-29 60.5q0 50 51 86q-79 44 -79 146q0 79 44 125t118 46q92 0 128 4.5t70 16.5zM117 468.5q-36 -40.5 -36 -110.5q0 -71 39.5 -109.5t100.5 -38.5q65 0 101 37.5t36 108.5q0 72 -36.5 112.5t-101.5 40.5
q-67 0 -103 -40.5zM200.5 601.5q-6.5 6.5 -6.5 16.5t5.5 24t7.5 20l32 95h15l-28 -116q16 -6 16 -23q0 -10 -6.5 -16.5t-17.5 -6.5t-17.5 6.5z" />
    <glyph glyph-name="gdotaccent" unicode="&#x121;" horiz-adv-x="440" 
d="M425 526q-48 -14 -138 -15q45 -16 69.5 -55t24.5 -100q0 -78 -43 -122t-117 -44q-32 0 -67 14q-46 -30 -46 -75q0 -66 94 -66h67q69 0 107 -32.5t38 -87.5q0 -65 -47.5 -102.5t-140.5 -37.5q-99 0 -143 32.5t-44 106.5h21q2 -65 39 -91.5t127 -26.5q84 0 124.5 31
t40.5 87q0 48 -32 74.5t-91 26.5h-68q-56 0 -85 22.5t-29 60.5q0 50 51 86q-79 44 -79 146q0 79 44 125t118 46q92 0 128 4.5t70 16.5zM117 468.5q-36 -40.5 -36 -110.5q0 -71 39.5 -109.5t100.5 -38.5q65 0 101 37.5t36 108.5q0 72 -36.5 112.5t-101.5 40.5
q-67 0 -103 -40.5zM235.5 718q5.5 -6 5.5 -14t-5.5 -13.5t-14.5 -5.5t-14.5 5.5t-5.5 13.5t5.5 14t14.5 6t14.5 -6z" />
    <glyph glyph-name="uni0260" unicode="&#x260;" horiz-adv-x="515" 
d="M557 706l-11 -14q-15 12 -31.5 18.5t-37.5 6.5q-31 0 -49 -20.5t-18 -65.5v-649q0 -86 -37.5 -132.5t-124.5 -46.5q-67 0 -122 33l9 15q25 -13 50.5 -20.5t61.5 -7.5q77 0 109 40t32 120v126q-49 -99 -146 -99q-80 0 -127.5 68t-47.5 190q0 119 48.5 190t134.5 71
q49 0 83 -23t55 -58v183q0 51 24 78.5t65 27.5q45 0 80 -31zM328 59.5q34 28.5 60 84.5v272q-50 93 -138 93q-73 0 -116.5 -64.5t-43.5 -176.5q1 -113 41.5 -175t110.5 -62q52 0 86 28.5z" />
    <glyph glyph-name="uni01BE" unicode="&#x1be;" horiz-adv-x="439" 
d="M329.5 344q45.5 -46 45.5 -142q0 -95 -48 -151t-131 -56q-51 0 -88.5 20t-74.5 59l15 13q33 -34 67 -52t80 -18q74 0 115 49t41 136q0 86 -39.5 127.5t-103.5 57.5l-58 15v170h-59v20h59v141l23 3v-144h110v-20h-110v-155l37 -9q74 -18 119.5 -64z" />
    <glyph glyph-name="uni0294" unicode="&#x294;" horiz-adv-x="382" 
d="M121 330l58 15q63 16 102.5 57.5t39.5 127.5q0 87 -40 136t-114 49q-46 0 -81 -18t-68 -52l-14 13q36 39 74.5 59t89.5 20q83 0 130 -56t47 -151q0 -96 -45 -141.5t-119 -64.5l-37 -9v-315h-23v330z" />
    <glyph glyph-name="uni0296" unicode="&#x296;" horiz-adv-x="439" 
d="M173 736v-319l37 -9q74 -18 119.5 -64t45.5 -142q0 -95 -48 -151t-131 -56q-51 0 -88.5 20t-74.5 59l15 13q33 -34 67 -52t80 -18q74 0 115 49t41 136q0 86 -39.5 127.5t-103.5 57.5l-58 15v331z" />
    <glyph glyph-name="uni0295" unicode="&#x295;" horiz-adv-x="382" 
d="M238 0v315l-36 9q-74 19 -119.5 64.5t-45.5 141.5q0 95 48.5 151t132.5 56q49 0 86.5 -20t74.5 -59l-15 -13q-32 34 -66 52t-79 18q-75 0 -116.5 -49t-41.5 -136q0 -86 39.5 -127.5t103.5 -57.5l57 -15v-330h-23z" />
    <glyph glyph-name="uni0242" unicode="&#x242;" horiz-adv-x="374" 
d="M121 171l63 17q120 35 120 164q0 72 -38 114.5t-103 42.5q-44 0 -76.5 -17t-62.5 -47l-14 14q32 34 68 52t86 18q74 0 118.5 -49t44.5 -128q0 -146 -140 -184l-44 -12v-156h-22v171z" />
    <glyph glyph-name="uni02A1" unicode="&#x2a1;" horiz-adv-x="382" 
d="M144 315v-111h107v-20h-107v-184h-23v184h-62v20h62v126l58 15q63 16 102.5 57.5t39.5 127.5q0 87 -40 136t-114 49q-46 0 -81 -18t-68 -52l-14 13q36 39 74.5 59t89.5 20q83 0 130 -56t47 -151q0 -96 -45 -141.5t-119 -64.5z" />
    <glyph glyph-name="uni02A2" unicode="&#x2a2;" horiz-adv-x="382" 
d="M304.5 717q37.5 -20 74.5 -59l-15 -13q-32 34 -66 52t-79 18q-75 0 -116.5 -49t-41.5 -136q0 -86 39.5 -127.5t103.5 -57.5l57 -15v-126h65v-20h-65v-184h-23v184h-104v20h104v111l-36 9q-74 19 -119.5 64.5t-45.5 141.5q0 95 48.5 151t132.5 56q49 0 86.5 -20z" />
    <glyph glyph-name="uni0261" unicode="&#x261;" horiz-adv-x="515" 
d="M410 519v-537q0 -86 -37.5 -132.5t-124.5 -46.5q-67 0 -122 33l9 15q25 -13 50.5 -20.5t61.5 -7.5q77 0 109 40t32 120v126q-49 -99 -146 -99q-80 0 -127.5 68t-47.5 190q0 119 48.5 190t134.5 71q49 0 84 -23.5t55 -58.5l2 72h19zM328 59.5q34 28.5 60 84.5v272
q-50 93 -138 93q-73 0 -116.5 -64.5t-43.5 -176.5q1 -113 41.5 -175t110.5 -62q52 0 86 28.5z" />
    <glyph glyph-name="uni01E5" unicode="&#x1e5;" horiz-adv-x="440" 
d="M472 -69h-58q-5 -60 -52 -94t-136 -34q-99 0 -143 32.5t-44 106.5h21q2 -65 39 -91.5t127 -26.5q80 0 121 28t45 79h-140v21h140q-4 43 -36 67t-88 24h-68q-56 0 -85 22.5t-29 60.5q0 50 51 86q-79 44 -79 146q0 79 44 125t118 46q92 0 128 4.5t70 16.5l7 -24
q-48 -14 -138 -15q45 -15 69.5 -54.5t24.5 -100.5q0 -78 -43 -122t-117 -44q-32 0 -67 14q-46 -30 -46 -75q0 -66 94 -66h67q66 0 104 -30t41 -81h58v-21zM120.5 248.5q39.5 -38.5 100.5 -38.5q65 0 101 37.5t36 108.5q0 72 -36.5 112.5t-101.5 40.5q-67 0 -103 -40.5
t-36 -110.5q0 -71 39.5 -109.5z" />
    <glyph glyph-name="uni021D" unicode="&#x21d;" horiz-adv-x="407" 
d="M281 492.5q38 -36.5 38 -100.5q0 -107 -99 -126q56 -2 89 -31.5t33 -86.5q0 -80 -67 -138.5t-211 -96.5l-3 19q137 39 197.5 90.5t60.5 125.5q0 55 -34 81t-102 26h-60l3 19h44q63 0 94.5 30.5t31.5 87.5q0 54 -30.5 85.5t-86.5 31.5q-42 0 -71 -11t-66 -36l-13 15
q35 26 70.5 39t80.5 13q63 0 101 -36.5z" />
    <glyph glyph-name="h" unicode="h" horiz-adv-x="524" 
d="M391.5 488.5q31.5 -40.5 31.5 -113.5v-375h-22v372q0 67 -26 102t-79 35q-52 0 -93 -32.5t-76 -94.5v-382h-22v733l22 3v-324q70 117 171 117q62 0 93.5 -40.5z" />
    <glyph glyph-name="hbar" unicode="&#x127;" horiz-adv-x="528" 
d="M395.5 488.5q31.5 -40.5 31.5 -113.5v-375h-22v372q0 67 -26 102t-79 35q-52 0 -93 -32.5t-76 -94.5v-382h-22v629h-67v20h67v84l22 3v-87h164v-20h-164v-217q70 117 171 117q62 0 93.5 -40.5z" />
    <glyph glyph-name="uni021F" unicode="&#x21f;" horiz-adv-x="524" 
d="M391.5 488.5q31.5 -40.5 31.5 -113.5v-375h-22v372q0 67 -26 102t-79 35q-52 0 -93 -32.5t-76 -94.5v-382h-22v733l22 3v-324q70 117 171 117q62 0 93.5 -40.5zM369 914l11 -12l-109 -91h-12l-108 91l10 12l104 -80z" />
    <glyph glyph-name="hcircumflex" unicode="&#x125;" horiz-adv-x="524" 
d="M391.5 488.5q31.5 -40.5 31.5 -113.5v-375h-22v372q0 67 -26 102t-79 35q-52 0 -93 -32.5t-76 -94.5v-382h-22v733l22 3v-324q70 117 171 117q62 0 93.5 -40.5zM162 818l-11 12l108 90h12l109 -90l-11 -12l-104 79z" />
    <glyph glyph-name="uni1E25" unicode="&#x1e25;" horiz-adv-x="524" 
d="M391.5 488.5q31.5 -40.5 31.5 -113.5v-375h-22v372q0 67 -26 102t-79 35q-52 0 -93 -32.5t-76 -94.5v-382h-22v733l22 3v-324q70 117 171 117q62 0 93.5 -40.5zM250.5 -132q-5.5 6 -5.5 14t5.5 13.5t14.5 5.5t14.5 -5.5t5.5 -13.5t-5.5 -14t-14.5 -6t-14.5 6z" />
    <glyph glyph-name="uni0267" unicode="&#x267;" horiz-adv-x="524" 
d="M423 0h-1v-95q0 -50 -24 -76t-64 -26q-47 0 -81 30l11 15q15 -12 31 -18.5t38 -6.5q30 0 48.5 19.5t18.5 62.5v96h1v366q0 142 -105 142q-52 0 -93 -32.5t-76 -94.5v-382h-22v519h1v100q0 57 30.5 87.5t81.5 30.5q56 0 105 -31l-9 -17q-51 27 -94 27t-67.5 -24.5
t-24.5 -74.5v-99h-1v-106q69 117 171 117q62 0 93.5 -41.5t31.5 -118.5v-369z" />
    <glyph glyph-name="uni0266" unicode="&#x266;" horiz-adv-x="524" 
d="M391.5 487.5q31.5 -41.5 31.5 -118.5v-369h-22v367q0 142 -105 142q-52 0 -93 -32.5t-76 -94.5v-382h-22v519h1v100q0 57 30.5 87.5t81.5 30.5q56 0 105 -31l-9 -17q-51 27 -94 27t-67.5 -24.5t-24.5 -74.5v-99h-1v-106q69 117 171 117q62 0 93.5 -41.5z" />
    <glyph glyph-name="uni0265" unicode="&#x265;" horiz-adv-x="524" 
d="M418 519v-715l-22 4v298q-68 -116 -170 -116q-62 0 -93.5 40.5t-31.5 113.5v375h22v-372q0 -137 104 -137q52 0 93.5 33t75.5 94v382h22z" />
    <glyph glyph-name="uni02AE" unicode="&#x2ae;" horiz-adv-x="590" 
d="M484 519v-715l-22 4v298q-68 -116 -170 -116q-62 0 -93.5 40.5t-31.5 113.5v183h-1v96q0 43 -18.5 62.5t-48.5 19.5q-22 0 -38 -6.5t-31 -18.5l-11 15q34 30 81 30q40 0 64 -26t24 -76v-93h1v-183q0 -137 104 -137q52 0 93.5 33t75.5 94v382h22z" />
    <glyph glyph-name="uni02AF" unicode="&#x2af;" horiz-adv-x="590" 
d="M631 -167q-34 -30 -81 -30q-40 0 -64 26t-24 76v201q-68 -116 -170 -116q-62 0 -93.5 40.5t-31.5 113.5v183h-1v96q0 43 -18.5 62.5t-48.5 19.5q-22 0 -38 -6.5t-31 -18.5l-11 15q34 30 81 30q40 0 64 -26t24 -76v-93h1v-183q0 -137 104 -137q52 0 93.5 33t75.5 94v382
h22v-614q0 -43 18.5 -62.5t48.5 -19.5q22 0 38 6.5t31 18.5z" />
    <glyph glyph-name="uni0195" unicode="&#x195;" horiz-adv-x="803" 
d="M718 260q0 -136 -49 -203t-128 -67q-62 0 -101 40.5t-39 113.5v228q0 67 -26 102t-79 35q-52 0 -93 -32.5t-76 -94.5v-382h-22v733l22 3v-324q70 117 171 117q62 0 93.5 -40.5t31.5 -113.5v-230q0 -66 32.5 -100t85.5 -34q68 0 111.5 59t43.5 190q0 111 -24 259h22
q24 -137 24 -259z" />
    <glyph glyph-name="i" unicode="i" horiz-adv-x="233" 
d="M127 519v-519h-22v519h22zM130.5 718q5.5 -6 5.5 -14t-5.5 -13.5t-14.5 -5.5t-14.5 5.5t-5.5 13.5t5.5 14t14.5 6t14.5 -6z" />
    <glyph glyph-name="dotlessi" unicode="&#x131;" horiz-adv-x="233" 
d="M127 519v-519h-22v519h22z" />
    <glyph glyph-name="iacute" unicode="&#xed;" horiz-adv-x="233" 
d="M127 519v-519h-22v519h22zM182 760l11 -22l-161 -84l-8 15z" />
    <glyph glyph-name="ibreve" unicode="&#x12d;" horiz-adv-x="233" 
d="M127 519v-519h-22v519h22zM49.5 685.5q-26.5 23.5 -32.5 62.5l16 4q16 -69 83 -69q32 0 53 17.5t29 51.5l16 -4q-6 -39 -32.5 -62.5t-65.5 -23.5q-40 0 -66.5 23.5z" />
    <glyph glyph-name="uni01D0" unicode="&#x1d0;" horiz-adv-x="233" 
d="M127 519v-519h-22v519h22zM219 749l12 -12l-109 -96h-12l-108 96l11 12l103 -85z" />
    <glyph glyph-name="icircumflex" unicode="&#xee;" horiz-adv-x="233" 
d="M127 519v-519h-22v519h22zM12 654l-11 12l108 96h13l108 -96l-12 -12l-103 85z" />
    <glyph glyph-name="uni0209" unicode="&#x209;" horiz-adv-x="233" 
d="M127 519v-519h-22v519h22zM16 791l65 -131l-16 -8l-70 129zM116 790l59 -127l-15 -7l-65 123z" />
    <glyph glyph-name="idieresis" unicode="&#xef;" horiz-adv-x="233" 
d="M127 519v-519h-22v519h22zM54.5 706.5q5.5 -5.5 5.5 -14.5q0 -8 -5.5 -13.5t-14.5 -5.5q-8 0 -13.5 5.5t-5.5 13.5t5.5 14t13.5 6q9 0 14.5 -5.5zM205.5 706q5.5 -6 5.5 -14t-5.5 -13.5t-14.5 -5.5t-14.5 5.5t-5.5 13.5t5.5 14t14.5 6t14.5 -6z" />
    <glyph glyph-name="uni1E2F" unicode="&#x1e2f;" horiz-adv-x="233" 
d="M127 519v-519h-22v519h22zM185 821l19 -15l-94 -114l-13 10zM54.5 676.5q5.5 -5.5 5.5 -14.5q0 -8 -5 -13.5t-15 -5.5q-8 0 -13.5 5.5t-5.5 13.5t5.5 14t13.5 6q9 0 14.5 -5.5zM205.5 676q5.5 -6 5.5 -14t-5.5 -13.5t-14.5 -5.5t-14.5 5.5t-5.5 13.5t5.5 14t14.5 6
t14.5 -6z" />
    <glyph glyph-name="i.loclTRK" horiz-adv-x="233" 
d="M127 519v-519h-22v519h22zM130.5 718q5.5 -6 5.5 -14t-5.5 -13.5t-14.5 -5.5t-14.5 5.5t-5.5 13.5t5.5 14t14.5 6t14.5 -6z" />
    <glyph glyph-name="uni1ECB" unicode="&#x1ecb;" horiz-adv-x="233" 
d="M127 519v-519h-22v519h22zM130.5 718q5.5 -6 5.5 -14t-5.5 -13.5t-14.5 -5.5t-14.5 5.5t-5.5 13.5t5.5 14t14.5 6t14.5 -6zM101.5 -132q-5.5 6 -5.5 14t5.5 13.5t14.5 5.5t14.5 -5.5t5.5 -13.5t-5.5 -14t-14.5 -6t-14.5 6z" />
    <glyph glyph-name="igrave" unicode="&#xec;" horiz-adv-x="233" 
d="M127 519v-519h-22v519h22zM45 760l158 -91l-9 -15l-161 84z" />
    <glyph glyph-name="uni1EC9" unicode="&#x1ec9;" horiz-adv-x="233" 
d="M127 519v-519h-22v519h22zM105 692q60 4 60 52q0 23 -12.5 35t-34.5 12q-25 0 -50 -15l-9 16q29 19 61 19q31 0 49.5 -18t18.5 -48q0 -59 -62 -67v-56h-21v70z" />
    <glyph glyph-name="uni020B" unicode="&#x20b;" horiz-adv-x="233" 
d="M127 519v-519h-22v519h22zM181.5 701.5q26.5 -23.5 32.5 -62.5l-16 -4q-8 34 -29 51.5t-53 17.5q-67 0 -83 -69l-16 4q6 39 32.5 62.5t66.5 23.5q39 0 65.5 -23.5z" />
    <glyph glyph-name="ij" unicode="&#x133;" horiz-adv-x="466" 
d="M127 519v-519h-22v519h22zM130.5 718q5.5 -6 5.5 -14t-5.5 -13.5t-14.5 -5.5t-14.5 5.5t-5.5 13.5t5.5 14t14.5 6t14.5 -6zM361 -11q0 -54 -11 -87t-32 -54t-60 -43l-7 16q34 20 52 39.5t27 49.5t9 80v529h22v-530zM363.5 718q5.5 -6 5.5 -14t-5.5 -13.5t-14.5 -5.5
t-14.5 5.5t-5.5 13.5t5.5 14t14.5 6t14.5 -6z" />
    <glyph glyph-name="imacron" unicode="&#x12b;" horiz-adv-x="233" 
d="M127 519v-519h-22v519h22zM211 685h-189v21h189v-21z" />
    <glyph glyph-name="iogonek" unicode="&#x12f;" horiz-adv-x="233" 
d="M130.5 718q5.5 -6 5.5 -14t-5.5 -13.5t-14.5 -5.5t-14.5 5.5t-5.5 13.5t5.5 14t14.5 6t14.5 -6zM105 519h22v-519q-56 -27 -84.5 -54.5t-28.5 -68.5q0 -28 16 -43t47 -15q23 0 50 7l-2 -22q-27 -7 -49 -7q-41 0 -63 22t-22 58q0 42 29 72t85 57v513z" />
    <glyph glyph-name="uni0269" unicode="&#x269;" horiz-adv-x="249" 
d="M118 9.5q-18 19.5 -18 56.5v453h22v-453q0 -27 12 -41.5t34 -14.5q17 0 35 8l7 -18q-24 -10 -43 -10q-31 0 -49 19.5z" />
    <glyph glyph-name="uni0268" unicode="&#x268;" horiz-adv-x="252" 
d="M101.5 690.5q-5.5 5.5 -5.5 13.5t5.5 14t14.5 6t14.5 -6t5.5 -14t-5.5 -13.5t-14.5 -5.5t-14.5 5.5zM236 294v-21h-109v-273h-22v273h-89v21h89v225h22v-225h109z" />
    <glyph glyph-name="itilde" unicode="&#x129;" horiz-adv-x="233" 
d="M127 519v-519h-22v519h22zM141 684q-13 6 -33 18q-15 10 -25 15t-20 5q-15 0 -27 -8t-26 -27l-14 8q16 23 32 34.5t35 11.5q12 0 23.5 -5t29.5 -16q17 -11 28.5 -16.5t24.5 -5.5q15 0 27 9t26 31l14 -7q-15 -28 -31 -40.5t-36 -12.5q-15 0 -28 6z" />
    <glyph glyph-name="j" unicode="j" horiz-adv-x="233" 
d="M128 -11q0 -54 -11 -87t-32 -54t-60 -43l-7 16q34 20 52 39.5t27 49.5t9 80v529h22v-530zM130.5 718q5.5 -6 5.5 -14t-5.5 -13.5t-14.5 -5.5t-14.5 5.5t-5.5 13.5t5.5 14t14.5 6t14.5 -6z" />
    <glyph glyph-name="uni0237" unicode="&#x237;" horiz-adv-x="233" 
d="M128 -11q0 -54 -11 -87t-32 -54t-60 -43l-7 16q34 20 52 39.5t27 49.5t9 80v529h22v-530z" />
    <glyph glyph-name="uni01F0" unicode="&#x1f0;" horiz-adv-x="233" 
d="M128 -11q0 -54 -11 -87t-32 -54t-60 -43l-7 16q34 20 52 39.5t27 49.5t9 80v529h22v-530zM219 749l12 -12l-109 -96h-12l-108 96l11 12l103 -85z" />
    <glyph glyph-name="jcircumflex" unicode="&#x135;" horiz-adv-x="233" 
d="M128 -11q0 -54 -11 -87t-32 -54t-60 -43l-7 16q34 20 52 39.5t27 49.5t9 80v529h22v-530zM12 654l-11 12l108 96h13l108 -96l-12 -12l-103 85z" />
    <glyph glyph-name="uni029D" unicode="&#x29d;" horiz-adv-x="246" 
d="M217 -78q-41 21 -77 31q0 -72 -29 -111t-86 -39q-43 0 -68.5 24t-25.5 63q0 45 30 71t80 26q39 0 77 -9v541h22v-546q45 -13 84 -34zM118 -42v1q-18 4 -36.5 6.5t-39.5 2.5q-43 0 -66.5 -20.5t-23.5 -57.5q0 -31 19 -49.5t54 -18.5q93 0 93 136zM143.5 718
q5.5 -6 5.5 -14t-5.5 -13.5t-14.5 -5.5t-14.5 5.5t-5.5 13.5t5.5 14t14.5 6t14.5 -6z" />
    <glyph glyph-name="uni025F" unicode="&#x25f;" horiz-adv-x="255" 
d="M239 233h-97v-244q0 -54 -11 -87t-32 -54t-60 -43l-7 16q34 20 52 39.5t27 49.5t9 80v243h-101v21h101v265h22v-265h97v-21z" />
    <glyph glyph-name="uni0284" unicode="&#x284;" horiz-adv-x="264" 
d="M143 518v-500h100v-18h-100v-11q0 -54 -10.5 -87t-31.5 -54t-60 -43l-8 16q34 20 52.5 39.5t27 49.5t8.5 80v10h-99v18h99v501h1v112q0 51 24 78.5t65 27.5q45 0 80 -31l-11 -14q-15 12 -31.5 18.5t-37.5 6.5q-31 0 -49 -20.5t-18 -65.5v-113h-1z" />
    <glyph glyph-name="uni0249" unicode="&#x249;" horiz-adv-x="255" 
d="M239 233h-97v-244q0 -54 -11 -87t-32 -54t-60 -43l-7 16q34 20 52 39.5t27 49.5t9 80v243h-101v21h101v265h22v-265h97v-21zM144.5 718q5.5 -6 5.5 -14t-5.5 -13.5t-14.5 -5.5t-14.5 5.5t-5.5 13.5t5.5 14t14.5 6t14.5 -6z" />
    <glyph glyph-name="k" unicode="k" horiz-adv-x="418" 
d="M127 736v-736h-22v733zM380 519l-220 -235l243 -284h-27l-243 284l221 235h26z" />
    <glyph glyph-name="uni01E9" unicode="&#x1e9;" horiz-adv-x="418" 
d="M127 736v-736h-22v733zM380 519l-220 -235l243 -284h-27l-243 284l221 235h26zM338 914l11 -12l-109 -91h-12l-108 91l10 12l104 -80z" />
    <glyph glyph-name="kcommaaccent" unicode="&#x137;" horiz-adv-x="418" 
d="M127 736v-736h-22v733zM380 519l-220 -235l243 -284h-27l-243 284l221 235h26zM257.5 -102.5q6.5 -6.5 6.5 -16.5t-5.5 -24t-7.5 -20l-32 -95h-15l28 116q-16 6 -16 23q0 10 6.5 16.5t17.5 6.5t17.5 -6.5z" />
    <glyph glyph-name="kgreenlandic" unicode="&#x138;" horiz-adv-x="418" 
d="M127 519v-519h-22v519h22zM380 519l-221 -245l244 -274h-27l-243 274l220 245h27z" />
    <glyph glyph-name="uni0199" unicode="&#x199;" horiz-adv-x="418" 
d="M152.5 691.5q-24.5 -24.5 -24.5 -74.5v-99h-1v-518h-22v519h1v100q0 57 30.5 87.5t81.5 30.5q56 0 105 -31l-9 -17q-51 27 -94 27t-67.5 -24.5zM160 284l243 -284h-27l-243 284l221 235h26z" />
    <glyph glyph-name="uni029E" unicode="&#x29e;" horiz-adv-x="418" 
d="M38 0l220 235l-243 284h27l243 -284l-221 -235h-26zM291 -192v711h22v-715z" />
    <glyph glyph-name="l" unicode="l" horiz-adv-x="249" 
d="M118 9.5q-18 19.5 -18 56.5v667l22 3v-670q0 -27 12 -41.5t34 -14.5q17 0 35 8l7 -18q-24 -10 -43 -10q-31 0 -49 19.5z" />
    <glyph glyph-name="lacute" unicode="&#x13a;" horiz-adv-x="249" 
d="M118 9.5q-18 19.5 -18 56.5v667l22 3v-670q0 -27 12 -41.5t34 -14.5q17 0 35 8l7 -18q-24 -10 -43 -10q-31 0 -49 19.5zM183 911l11 -22l-161 -73l-7 15z" />
    <glyph glyph-name="uni019B" unicode="&#x19b;" horiz-adv-x="407" 
d="M290.5 254.5q28.5 -95.5 54 -143.5t65.5 -107l-20 -9q-39 57 -65 106.5t-54 144t-56 251.5l-157 -502l-21 5l165 519h9q-16 86 -38 126l-70 -80l-17 8l77 88q-29 42 -88 58l3 17q66 -18 99 -61l61 71l14 -11l-65 -75q15 -24 25.5 -59.5t20.5 -89.5q29 -161 57.5 -256.5z
" />
    <glyph glyph-name="uni019A" unicode="&#x19a;" horiz-adv-x="252" 
d="M122 360v-294q0 -27 12 -41.5t34 -14.5q17 0 35 8l7 -18q-24 -10 -43 -10q-31 0 -49 19.5t-18 56.5v294h-84v21h84v352l22 3v-355h114v-21h-114z" />
    <glyph glyph-name="uni026C" unicode="&#x26c;" horiz-adv-x="270" 
d="M235 0q-24 -10 -43 -10q-31 0 -49 19.5t-18 56.5v214q-51 0 -78.5 21t-27.5 63q0 37 23 58t59 21q10 0 24 -2v292l22 3v-436q43 1 76 8l3 -18q-33 -7 -79 -9v-215q0 -27 12 -41.5t34 -14.5q17 0 35 8zM125 300v122q-14 2 -24 2q-27 0 -43.5 -15t-16.5 -44q0 -65 84 -65z
" />
    <glyph glyph-name="lcaron" unicode="&#x13e;" horiz-adv-x="249" 
d="M118 9.5q-18 19.5 -18 56.5v667l22 3v-670q0 -27 12 -41.5t34 -14.5q17 0 35 8l7 -18q-24 -10 -43 -10q-31 0 -49 19.5zM207 588l25 145l-23 2l-17 -144z" />
    <glyph glyph-name="uni1E3D" unicode="&#x1e3d;" horiz-adv-x="249" 
d="M118 9.5q-18 19.5 -18 56.5v667l22 3v-670q0 -27 12 -41.5t34 -14.5q17 0 35 8l7 -18q-24 -10 -43 -10q-31 0 -49 19.5zM56 -183l-11 12l108 96h13l108 -96l-12 -12l-103 85z" />
    <glyph glyph-name="lcommaaccent" unicode="&#x13c;" horiz-adv-x="249" 
d="M118 9.5q-18 19.5 -18 56.5v667l22 3v-670q0 -27 12 -41.5t34 -14.5q17 0 35 8l7 -18q-24 -10 -43 -10q-31 0 -49 19.5zM175.5 -102.5q6.5 -6.5 6.5 -16.5t-5.5 -24t-7.5 -20l-32 -95h-15l28 116q-16 6 -16 23q0 10 6.5 16.5t17.5 6.5t17.5 -6.5z" />
    <glyph glyph-name="uni0234" unicode="&#x234;" horiz-adv-x="301" 
d="M309.5 158q22.5 -24 22.5 -60q0 -48 -33.5 -78t-85.5 -30q-27 0 -50 10t-38 28l-39 -83l-18 9l45 93q-13 28 -13 59v627l22 3v-630q0 -20 4 -33q24 53 53 81t71 28q37 0 59.5 -24zM283.5 34.5q27.5 23.5 27.5 63.5q0 29 -16.5 46.5t-44.5 17.5q-38 0 -63 -26t-52 -85
q22 -40 78 -40q43 0 70.5 23.5z" />
    <glyph glyph-name="ldot" unicode="&#x140;" horiz-adv-x="249" 
d="M118 9.5q-18 19.5 -18 56.5v667l22 3v-670q0 -27 12 -41.5t34 -14.5q17 0 35 8l7 -18q-24 -10 -43 -10q-31 0 -49 19.5zM249.5 389q5.5 -6 5.5 -14t-5.5 -13.5t-14.5 -5.5t-14.5 5.5t-5.5 13.5t5.5 14t14.5 6t14.5 -6z" />
    <glyph glyph-name="uni1E37" unicode="&#x1e37;" horiz-adv-x="249" 
d="M118 9.5q-18 19.5 -18 56.5v667l22 3v-670q0 -27 12 -41.5t34 -14.5q17 0 35 8l7 -18q-24 -10 -43 -10q-31 0 -49 19.5zM144.5 -132q-5.5 6 -5.5 14t5.5 13.5t14.5 5.5t14.5 -5.5t5.5 -13.5t-5.5 -14t-14.5 -6t-14.5 6z" />
    <glyph glyph-name="uni026E" unicode="&#x26e;" horiz-adv-x="539" 
d="M507 1q0 -89 -49 -143.5t-133 -54.5q-48 0 -85.5 17.5t-70.5 52.5l14 13q31 -32 65 -47t77 -15q76 0 117.5 48t41.5 129q0 89 -44.5 130.5t-136.5 41.5h-47v21l201 305h-335v-433q0 -27 12 -41.5t34 -14.5q17 0 35 8l7 -18q-24 -10 -43 -10q-31 0 -49 19.5t-18 56.5v667
l22 3v-217h361v-18l-203 -307h21q206 0 206 -193z" />
    <glyph glyph-name="uni026D" unicode="&#x26d;" horiz-adv-x="233" 
d="M275 -167q-34 -30 -81 -30q-40 0 -64 26t-24 76v95h-1v733l22 3v-735h1v-96q0 -43 18.5 -62.5t48.5 -19.5q22 0 38 6.5t31 18.5z" />
    <glyph glyph-name="uni01C9" unicode="&#x1c9;" horiz-adv-x="482" 
d="M118 9.5q-18 19.5 -18 56.5v667l22 3v-670q0 -27 12 -41.5t34 -14.5q17 0 35 8l7 -18q-24 -10 -43 -10q-31 0 -49 19.5zM377 -11q0 -54 -11 -87t-32 -54t-60 -43l-7 16q34 20 52 39.5t27 49.5t9 80v529h22v-530zM379.5 718q5.5 -6 5.5 -14t-5.5 -13.5t-14.5 -5.5
t-14.5 5.5t-5.5 13.5t5.5 14t14.5 6t14.5 -6z" />
    <glyph glyph-name="uni026B" unicode="&#x26b;" horiz-adv-x="255" 
d="M131 345v-279q0 -27 12 -41.5t34 -14.5q17 0 35 8l7 -18q-24 -10 -43 -10q-31 0 -49 19.5t-18 56.5v293q-17 9 -29 14t-23 5q-20 0 -32.5 -10t-29.5 -32l-15 9q16 26 34 40t43 14q22 0 52 -16v350l22 3v-366q20 -12 34 -18.5t28 -6.5q19 0 31.5 10t26.5 31l16 -8
q-16 -27 -32.5 -41t-41.5 -14t-62 22z" />
    <glyph glyph-name="uni02AA" unicode="&#x2aa;" horiz-adv-x="563" 
d="M152 35q-52 45 -52 124v574l22 3v-576q0 -69 45 -109t133 -40q89 0 137 32t48 96q0 51 -26.5 78t-97.5 50q-70 22 -100 52.5t-30 83.5q0 55 39.5 90.5t97.5 35.5q39 0 71.5 -13.5t64.5 -41.5l-13 -16q-30 26 -58.5 38.5t-64.5 12.5q-50 0 -82 -29t-32 -78q0 -46 25.5 -71
t92.5 -46q74 -24 105 -56t31 -90q0 -71 -54 -110t-154 -39q-96 0 -148 45z" />
    <glyph glyph-name="lslash" unicode="&#x142;" horiz-adv-x="261" 
d="M209 18l7 -18q-24 -10 -43 -10q-31 0 -49 19.5t-18 56.5v279l-57 -39l-10 15l67 46v366l22 3v-354l95 65l9 -16l-104 -71v-294q0 -27 12 -41.5t34 -14.5q17 0 35 8z" />
    <glyph glyph-name="uni02AB" unicode="&#x2ab;" horiz-adv-x="547" 
d="M514 501l-284 -480h278l-2 -21h-297q-22 -10 -42 -10q-31 0 -49 19.5t-18 56.5v667l22 3v-670q0 -27 12 -41.5t34 -14.5q18 0 37 8l284 481h-260v20h285v-18z" />
    <glyph glyph-name="m" unicode="m" horiz-adv-x="763" 
d="M632.5 488q30.5 -41 30.5 -113v-375h-22v372q0 66 -24.5 101.5t-71.5 35.5q-87 0 -150 -125v-384h-22v374q0 64 -24.5 99.5t-71.5 35.5q-85 0 -150 -125v-384h-22v519h20l2 -103q28 53 66.5 83t84.5 30q48 0 78 -30.5t37 -85.5q62 116 153 116q56 0 86.5 -41z" />
    <glyph glyph-name="uni1E3F" unicode="&#x1e3f;" horiz-adv-x="763" 
d="M632.5 488q30.5 -41 30.5 -113v-375h-22v372q0 66 -24.5 101.5t-71.5 35.5q-87 0 -150 -125v-384h-22v374q0 64 -24.5 99.5t-71.5 35.5q-85 0 -150 -125v-384h-22v519h20l2 -103q28 53 66.5 83t84.5 30q48 0 78 -30.5t37 -85.5q62 116 153 116q56 0 86.5 -41zM448 760
l11 -22l-161 -84l-8 15z" />
    <glyph glyph-name="uni1E41" unicode="&#x1e41;" horiz-adv-x="763" 
d="M632.5 488q30.5 -41 30.5 -113v-375h-22v372q0 66 -24.5 101.5t-71.5 35.5q-87 0 -150 -125v-384h-22v374q0 64 -24.5 99.5t-71.5 35.5q-85 0 -150 -125v-384h-22v519h20l2 -103q28 53 66.5 83t84.5 30q48 0 78 -30.5t37 -85.5q62 116 153 116q56 0 86.5 -41zM396.5 718
q5.5 -6 5.5 -14t-5.5 -13.5t-14.5 -5.5t-14.5 5.5t-5.5 13.5t5.5 14t14.5 6t14.5 -6z" />
    <glyph glyph-name="uni0271" unicode="&#x271;" horiz-adv-x="763" 
d="M632.5 488q30.5 -41 30.5 -113v-470q0 -50 -24.5 -76t-64.5 -26q-45 0 -81 30l11 15q15 -12 31 -18.5t38 -6.5q31 0 49.5 19.5t18.5 62.5v467q0 66 -24.5 101.5t-71.5 35.5q-87 0 -150 -125v-384h-22v374q0 64 -24.5 99.5t-71.5 35.5q-85 0 -150 -125v-384h-22v519h20
l2 -103q28 53 66.5 83t84.5 30q48 0 78 -30.5t37 -85.5q62 116 153 116q56 0 86.5 -41z" />
    <glyph glyph-name="uni0270" unicode="&#x270;" horiz-adv-x="763" 
d="M658 519v-715l-22 4v294q-29 -53 -67 -82.5t-84 -29.5q-48 0 -78 30.5t-37 85.5q-62 -116 -153 -116q-56 0 -86.5 41t-30.5 113v375h22v-372q0 -66 24.5 -101.5t71.5 -35.5q87 0 150 125v384h22v-374q0 -64 24.5 -99.5t71.5 -35.5q85 0 150 125v384h22z" />
    <glyph glyph-name="uni026F" unicode="&#x26f;" horiz-adv-x="763" 
d="M658 519v-519h-20l-2 103q-28 -53 -66.5 -83t-84.5 -30q-48 0 -78 30.5t-37 85.5q-62 -116 -153 -116q-56 0 -86.5 41t-30.5 113v375h22v-372q0 -66 24.5 -101.5t71.5 -35.5q87 0 150 125v384h22v-374q0 -64 24.5 -99.5t71.5 -35.5q85 0 150 125v384h22z" />
    <glyph glyph-name="n" unicode="n" horiz-adv-x="524" 
d="M391.5 489q31.5 -40 31.5 -114v-375h-22v372q0 137 -105 137q-52 0 -93 -33t-76 -94v-382h-22v519h20l2 -106q68 116 171 116q62 0 93.5 -40z" />
    <glyph glyph-name="nacute" unicode="&#x144;" horiz-adv-x="524" 
d="M391.5 489q31.5 -40 31.5 -114v-375h-22v372q0 137 -105 137q-52 0 -93 -33t-76 -94v-382h-22v519h20l2 -106q68 116 171 116q62 0 93.5 -40zM333 760l11 -22l-161 -84l-8 15z" />
    <glyph glyph-name="nacute.loclPLK" horiz-adv-x="524" 
d="M391.5 489q31.5 -40 31.5 -114v-375h-22v372q0 137 -105 137q-52 0 -93 -33t-76 -94v-382h-22v519h20l2 -106q68 116 171 116q62 0 93.5 -40zM331 744l21 -14l-96 -151l-13 9z" />
    <glyph glyph-name="napostrophe" unicode="&#x149;" horiz-adv-x="581" 
d="M105.5 730q6.5 -7 6.5 -17q0 -8 -6 -23l-7 -21l-28 -99h-15l24 120q-16 6 -16 23q0 10 6.5 17t17.5 7t17.5 -7zM449.5 489q31.5 -40 31.5 -114v-375h-22v372q0 137 -105 137q-52 0 -93 -33t-76 -94v-382h-22v519h20l2 -106q68 116 171 116q62 0 93.5 -40z" />
    <glyph glyph-name="ncaron" unicode="&#x148;" horiz-adv-x="524" 
d="M391.5 489q31.5 -40 31.5 -114v-375h-22v372q0 137 -105 137q-52 0 -93 -33t-76 -94v-382h-22v519h20l2 -106q68 116 171 116q62 0 93.5 -40zM370 749l12 -12l-109 -96h-12l-108 96l11 12l103 -85z" />
    <glyph glyph-name="uni1E4B" unicode="&#x1e4b;" horiz-adv-x="524" 
d="M391.5 489q31.5 -40 31.5 -114v-375h-22v372q0 137 -105 137q-52 0 -93 -33t-76 -94v-382h-22v519h20l2 -106q68 116 171 116q62 0 93.5 -40zM157 -183l-11 12l108 96h13l108 -96l-12 -12l-103 85z" />
    <glyph glyph-name="ncommaaccent" unicode="&#x146;" horiz-adv-x="524" 
d="M391.5 489q31.5 -40 31.5 -114v-375h-22v372q0 137 -105 137q-52 0 -93 -33t-76 -94v-382h-22v519h20l2 -106q68 116 171 116q62 0 93.5 -40zM276.5 -102.5q6.5 -6.5 6.5 -16.5t-5.5 -24t-7.5 -20l-32 -95h-15l28 116q-16 6 -16 23q0 10 6.5 16.5t17.5 6.5t17.5 -6.5z
" />
    <glyph glyph-name="uni0235" unicode="&#x235;" horiz-adv-x="602" 
d="M610 158q22 -24 22 -60q0 -48 -33.5 -78t-84.5 -30q-58 0 -89 39l-38 -84l-18 9l45 93q-13 28 -13 59v266q0 137 -105 137q-52 0 -93 -33t-76 -94v-382h-22v519h20l2 -106q68 116 171 116q62 0 93.5 -40t31.5 -114v-269q0 -19 4 -32q25 53 53.5 80.5t70.5 27.5
q37 0 59 -24zM584 34.5q27 23.5 27 63.5q0 29 -16.5 46.5t-44.5 17.5q-38 0 -62.5 -26t-51.5 -85q22 -40 78 -40q43 0 70 23.5z" />
    <glyph glyph-name="uni1E45" unicode="&#x1e45;" horiz-adv-x="524" 
d="M391.5 489q31.5 -40 31.5 -114v-375h-22v372q0 137 -105 137q-52 0 -93 -33t-76 -94v-382h-22v519h20l2 -106q68 116 171 116q62 0 93.5 -40zM281.5 718q5.5 -6 5.5 -14t-5.5 -13.5t-14.5 -5.5t-14.5 5.5t-5.5 13.5t5.5 14t14.5 6t14.5 -6z" />
    <glyph glyph-name="uni1E47" unicode="&#x1e47;" horiz-adv-x="524" 
d="M391.5 489q31.5 -40 31.5 -114v-375h-22v372q0 137 -105 137q-52 0 -93 -33t-76 -94v-382h-22v519h20l2 -106q68 116 171 116q62 0 93.5 -40zM245.5 -132q-5.5 6 -5.5 14t5.5 13.5t14.5 5.5t14.5 -5.5t5.5 -13.5t-5.5 -14t-14.5 -6t-14.5 6z" />
    <glyph glyph-name="uni01F9" unicode="&#x1f9;" horiz-adv-x="524" 
d="M391.5 489q31.5 -40 31.5 -114v-375h-22v372q0 137 -105 137q-52 0 -93 -33t-76 -94v-382h-22v519h20l2 -106q68 116 171 116q62 0 93.5 -40zM196 760l158 -91l-9 -15l-161 84z" />
    <glyph glyph-name="eng" unicode="&#x14b;" horiz-adv-x="524" 
d="M423 0h-1v-95q0 -50 -24 -76t-64 -26q-47 0 -81 30l11 15q15 -12 31 -18.5t38 -6.5q30 0 48.5 19.5t18.5 62.5v96h1v371q0 137 -105 137q-52 0 -93 -33t-76 -94v-382h-22v519h20l2 -106q68 116 171 116q62 0 93.5 -40t31.5 -114v-375z" />
    <glyph glyph-name="uni0272" unicode="&#x272;" horiz-adv-x="524" 
d="M391.5 489q31.5 -40 31.5 -114v-375h-22v372q0 137 -105 137q-52 0 -93 -33t-76 -94v-477q0 -50 -24 -76t-64 -26q-47 0 -81 30l11 15q15 -12 31 -18.5t38 -6.5q30 0 48.5 19.5t18.5 62.5v614h20l2 -106q68 116 171 116q62 0 93.5 -40z" />
    <glyph glyph-name="uni0273" unicode="&#x273;" horiz-adv-x="524" 
d="M570 -167q-34 -30 -81 -30q-40 0 -64 26t-24 76v467q0 137 -105 137q-52 0 -93 -33t-76 -94v-382h-22v519h20l2 -106q68 116 171 116q62 0 93.5 -40t31.5 -114v-470q0 -43 18.5 -62.5t48.5 -19.5q22 0 38 6.5t31 18.5z" />
    <glyph glyph-name="uni01CC" unicode="&#x1cc;" horiz-adv-x="757" 
d="M391.5 489q31.5 -40 31.5 -114v-375h-22v372q0 137 -105 137q-52 0 -93 -33t-76 -94v-382h-22v519h20l2 -106q68 116 171 116q62 0 93.5 -40zM652 -11q0 -54 -11 -87t-32 -54t-60 -43l-7 16q34 20 52 39.5t27 49.5t9 80v529h22v-530zM654.5 718q5.5 -6 5.5 -14
t-5.5 -13.5t-14.5 -5.5t-14.5 5.5t-5.5 13.5t5.5 14t14.5 6t14.5 -6z" />
    <glyph glyph-name="uni019E" unicode="&#x19e;" horiz-adv-x="524" 
d="M391.5 489q31.5 -40 31.5 -114v-571l-22 4v564q0 137 -105 137q-52 0 -93 -33t-76 -94v-382h-22v519h20l2 -106q68 116 171 116q62 0 93.5 -40z" />
    <glyph glyph-name="ntilde" unicode="&#xf1;" horiz-adv-x="524" 
d="M391.5 489q31.5 -40 31.5 -114v-375h-22v372q0 137 -105 137q-52 0 -93 -33t-76 -94v-382h-22v519h20l2 -106q68 116 171 116q62 0 93.5 -40zM292 684q-13 6 -33 18q-15 10 -25 15t-20 5q-15 0 -27 -8t-26 -27l-14 8q16 23 32 34.5t35 11.5q12 0 23.5 -5t29.5 -16
q17 -11 28.5 -16.5t24.5 -5.5q15 0 27 9t26 31l14 -7q-15 -28 -31 -40.5t-36 -12.5q-15 0 -28 6z" />
    <glyph glyph-name="o" unicode="o" horiz-adv-x="505" 
d="M390.5 461q49.5 -68 49.5 -199q0 -132 -50 -202t-138 -70t-137.5 70t-49.5 199q0 131 50.5 200.5t137.5 69.5q88 0 137.5 -68zM132 446q-44 -63 -44 -187q0 -121 43 -184.5t121 -63.5t121.5 63.5t43.5 187.5q0 122 -43 184.5t-121 62.5q-77 0 -121 -63z" />
    <glyph glyph-name="oacute" unicode="&#xf3;" horiz-adv-x="505" 
d="M390.5 461q49.5 -68 49.5 -199q0 -132 -50 -202t-138 -70t-137.5 70t-49.5 199q0 131 50.5 200.5t137.5 69.5q88 0 137.5 -68zM132 446q-44 -63 -44 -187q0 -121 43 -184.5t121 -63.5t121.5 63.5t43.5 187.5q0 122 -43 184.5t-121 62.5q-77 0 -121 -63zM319 760l11 -22
l-161 -84l-8 15z" />
    <glyph glyph-name="oacute.loclPLK" horiz-adv-x="505" 
d="M390.5 461q49.5 -68 49.5 -199q0 -132 -50 -202t-138 -70t-137.5 70t-49.5 199q0 131 50.5 200.5t137.5 69.5q88 0 137.5 -68zM132 446q-44 -63 -44 -187q0 -121 43 -184.5t121 -63.5t121.5 63.5t43.5 187.5q0 122 -43 184.5t-121 62.5q-77 0 -121 -63zM317 744l21 -14
l-96 -151l-13 9z" />
    <glyph glyph-name="uni0275" unicode="&#x275;" horiz-adv-x="505" 
d="M390.5 461q49.5 -68 49.5 -200q0 -131 -50 -201t-138 -70t-137.5 70t-49.5 199q0 131 50.5 200.5t137.5 69.5q88 0 137.5 -68zM134.5 449.5q-43.5 -59.5 -46.5 -176.5h329q-2 117 -45 176.5t-119 59.5q-75 0 -118.5 -59.5zM372 72q44 61 45 181h-329q1 -119 44 -180.5
t120 -61.5q76 0 120 61z" />
    <glyph glyph-name="obreve" unicode="&#x14f;" horiz-adv-x="505" 
d="M390.5 461q49.5 -68 49.5 -199q0 -132 -50 -202t-138 -70t-137.5 70t-49.5 199q0 131 50.5 200.5t137.5 69.5q88 0 137.5 -68zM132 446q-44 -63 -44 -187q0 -121 43 -184.5t121 -63.5t121.5 63.5t43.5 187.5q0 122 -43 184.5t-121 62.5q-77 0 -121 -63zM186.5 685.5
q-26.5 23.5 -32.5 62.5l16 4q16 -69 83 -69q32 0 53 17.5t29 51.5l16 -4q-6 -39 -32.5 -62.5t-65.5 -23.5q-40 0 -66.5 23.5z" />
    <glyph glyph-name="uni01D2" unicode="&#x1d2;" horiz-adv-x="505" 
d="M390.5 461q49.5 -68 49.5 -199q0 -132 -50 -202t-138 -70t-137.5 70t-49.5 199q0 131 50.5 200.5t137.5 69.5q88 0 137.5 -68zM132 446q-44 -63 -44 -187q0 -121 43 -184.5t121 -63.5t121.5 63.5t43.5 187.5q0 122 -43 184.5t-121 62.5q-77 0 -121 -63zM356 749l12 -12
l-109 -96h-12l-108 96l11 12l103 -85z" />
    <glyph glyph-name="ocircumflex" unicode="&#xf4;" horiz-adv-x="505" 
d="M390.5 461q49.5 -68 49.5 -199q0 -132 -50 -202t-138 -70t-137.5 70t-49.5 199q0 131 50.5 200.5t137.5 69.5q88 0 137.5 -68zM132 446q-44 -63 -44 -187q0 -121 43 -184.5t121 -63.5t121.5 63.5t43.5 187.5q0 122 -43 184.5t-121 62.5q-77 0 -121 -63zM149 654l-11 12
l108 96h13l108 -96l-12 -12l-103 85z" />
    <glyph glyph-name="uni1ED1" unicode="&#x1ed1;" horiz-adv-x="505" 
d="M390.5 461q49.5 -68 49.5 -199q0 -132 -50 -202t-138 -70t-137.5 70t-49.5 199q0 131 50.5 200.5t137.5 69.5q88 0 137.5 -68zM132 446q-44 -63 -44 -187q0 -121 43 -184.5t121 -63.5t121.5 63.5t43.5 187.5q0 122 -43 184.5t-121 62.5q-77 0 -121 -63zM149 587l-11 12
l108 90h12l109 -90l-11 -12l-104 79zM415 802l19 -15l-94 -114l-13 10z" />
    <glyph glyph-name="uni1ED9" unicode="&#x1ed9;" horiz-adv-x="505" 
d="M390.5 461q49.5 -68 49.5 -199q0 -132 -50 -202t-138 -70t-137.5 70t-49.5 199q0 131 50.5 200.5t137.5 69.5q88 0 137.5 -68zM132 446q-44 -63 -44 -187q0 -121 43 -184.5t121 -63.5t121.5 63.5t43.5 187.5q0 122 -43 184.5t-121 62.5q-77 0 -121 -63zM149 654l-11 12
l108 96h13l108 -96l-12 -12l-103 85zM238.5 -132q-5.5 6 -5.5 14t5.5 13.5t14.5 5.5t14.5 -5.5t5.5 -13.5t-5.5 -14t-14.5 -6t-14.5 6z" />
    <glyph glyph-name="uni1ED3" unicode="&#x1ed3;" horiz-adv-x="505" 
d="M390.5 461q49.5 -68 49.5 -199q0 -132 -50 -202t-138 -70t-137.5 70t-49.5 199q0 131 50.5 200.5t137.5 69.5q88 0 137.5 -68zM132 446q-44 -63 -44 -187q0 -121 43 -184.5t121 -63.5t121.5 63.5t43.5 187.5q0 122 -43 184.5t-121 62.5q-77 0 -121 -63zM149 587l-11 12
l108 90h12l109 -90l-11 -12l-104 79zM93 802l89 -119l-13 -10l-94 114z" />
    <glyph glyph-name="uni1ED5" unicode="&#x1ed5;" horiz-adv-x="505" 
d="M390.5 461q49.5 -68 49.5 -199q0 -132 -50 -202t-138 -70t-137.5 70t-49.5 199q0 131 50.5 200.5t137.5 69.5q88 0 137.5 -68zM132 446q-44 -63 -44 -187q0 -121 43 -184.5t121 -63.5t121.5 63.5t43.5 187.5q0 122 -43 184.5t-121 62.5q-77 0 -121 -63zM149 587l-11 12
l108 90h12l109 -90l-11 -12l-104 79zM335 734q60 4 60 52q0 23 -12.5 35t-34.5 12q-25 0 -50 -15l-9 16q29 19 61 19q31 0 49.5 -18t18.5 -48q0 -59 -62 -67v-56h-21v70z" />
    <glyph glyph-name="uni1ED7" unicode="&#x1ed7;" horiz-adv-x="505" 
d="M390.5 461q49.5 -68 49.5 -199q0 -132 -50 -202t-138 -70t-137.5 70t-49.5 199q0 131 50.5 200.5t137.5 69.5q88 0 137.5 -68zM132 446q-44 -63 -44 -187q0 -121 43 -184.5t121 -63.5t121.5 63.5t43.5 187.5q0 122 -43 184.5t-121 62.5q-77 0 -121 -63zM149 578l-11 12
l108 90h12l109 -90l-11 -12l-104 79zM277 733q-13 6 -33 18q-15 10 -25 15t-20 5q-15 0 -27 -8t-26 -27l-14 8q16 23 32 34.5t35 11.5q12 0 23 -5t30 -16q16 -11 28.5 -16.5t24.5 -5.5q15 0 27 9t26 31l14 -7q-15 -28 -31 -40.5t-36 -12.5q-15 0 -28 6z" />
    <glyph glyph-name="uni020D" unicode="&#x20d;" horiz-adv-x="505" 
d="M390.5 461q49.5 -68 49.5 -199q0 -132 -50 -202t-138 -70t-137.5 70t-49.5 199q0 131 50.5 200.5t137.5 69.5q88 0 137.5 -68zM132 446q-44 -63 -44 -187q0 -121 43 -184.5t121 -63.5t121.5 63.5t43.5 187.5q0 122 -43 184.5t-121 62.5q-77 0 -121 -63zM153 791l65 -131
l-16 -8l-70 129zM253 790l59 -127l-15 -7l-65 123z" />
    <glyph glyph-name="odieresis" unicode="&#xf6;" horiz-adv-x="505" 
d="M390.5 461q49.5 -68 49.5 -199q0 -132 -50 -202t-138 -70t-137.5 70t-49.5 199q0 131 50.5 200.5t137.5 69.5q88 0 137.5 -68zM132 446q-44 -63 -44 -187q0 -121 43 -184.5t121 -63.5t121.5 63.5t43.5 187.5q0 122 -43 184.5t-121 62.5q-77 0 -121 -63zM191.5 706.5
q5.5 -5.5 5.5 -14.5q0 -8 -5.5 -13.5t-14.5 -5.5q-8 0 -13.5 5.5t-5.5 13.5t5.5 14t13.5 6q9 0 14.5 -5.5zM342.5 706q5.5 -6 5.5 -14t-5.5 -13.5t-14.5 -5.5t-14.5 5.5t-5.5 13.5t5.5 14t14.5 6t14.5 -6z" />
    <glyph glyph-name="uni022B" unicode="&#x22b;" horiz-adv-x="505" 
d="M390.5 461q49.5 -68 49.5 -199q0 -132 -50 -202t-138 -70t-137.5 70t-49.5 199q0 131 50.5 200.5t137.5 69.5q88 0 137.5 -68zM132 446q-44 -63 -44 -187q0 -121 43 -184.5t121 -63.5t121.5 63.5t43.5 187.5q0 122 -43 184.5t-121 62.5q-77 0 -121 -63zM192.5 676.5
q5.5 -5.5 5.5 -14.5q0 -8 -5.5 -13.5t-14.5 -5.5q-8 0 -13.5 5.5t-5.5 13.5t5.5 14t13.5 6q9 0 14.5 -5.5zM343.5 676q5.5 -6 5.5 -14t-5.5 -13.5t-14.5 -5.5t-14.5 5.5t-5.5 13.5t5.5 14t14.5 6t14.5 -6zM348 753h-189v21h189v-21z" />
    <glyph glyph-name="uni022F" unicode="&#x22f;" horiz-adv-x="505" 
d="M390.5 461q49.5 -68 49.5 -199q0 -132 -50 -202t-138 -70t-137.5 70t-49.5 199q0 131 50.5 200.5t137.5 69.5q88 0 137.5 -68zM132 446q-44 -63 -44 -187q0 -121 43 -184.5t121 -63.5t121.5 63.5t43.5 187.5q0 122 -43 184.5t-121 62.5q-77 0 -121 -63zM267.5 718
q5.5 -6 5.5 -14t-5.5 -13.5t-14.5 -5.5t-14.5 5.5t-5.5 13.5t5.5 14t14.5 6t14.5 -6z" />
    <glyph glyph-name="uni0231" unicode="&#x231;" horiz-adv-x="505" 
d="M390.5 461q49.5 -68 49.5 -199q0 -132 -50 -202t-138 -70t-137.5 70t-49.5 199q0 131 50.5 200.5t137.5 69.5q88 0 137.5 -68zM132 446q-44 -63 -44 -187q0 -121 43 -184.5t121 -63.5t121.5 63.5t43.5 187.5q0 122 -43 184.5t-121 62.5q-77 0 -121 -63zM268.5 665
q5.5 -6 5.5 -14t-5.5 -13.5t-14.5 -5.5t-14.5 5.5t-5.5 13.5t5.5 14t14.5 6t14.5 -6zM348 745h-189v21h189v-21z" />
    <glyph glyph-name="uni1ECD" unicode="&#x1ecd;" horiz-adv-x="505" 
d="M390.5 461q49.5 -68 49.5 -199q0 -132 -50 -202t-138 -70t-137.5 70t-49.5 199q0 131 50.5 200.5t137.5 69.5q88 0 137.5 -68zM132 446q-44 -63 -44 -187q0 -121 43 -184.5t121 -63.5t121.5 63.5t43.5 187.5q0 122 -43 184.5t-121 62.5q-77 0 -121 -63zM238.5 -132
q-5.5 6 -5.5 14t5.5 13.5t14.5 5.5t14.5 -5.5t5.5 -13.5t-5.5 -14t-14.5 -6t-14.5 6z" />
    <glyph glyph-name="ograve" unicode="&#xf2;" horiz-adv-x="505" 
d="M390.5 461q49.5 -68 49.5 -199q0 -132 -50 -202t-138 -70t-137.5 70t-49.5 199q0 131 50.5 200.5t137.5 69.5q88 0 137.5 -68zM132 446q-44 -63 -44 -187q0 -121 43 -184.5t121 -63.5t121.5 63.5t43.5 187.5q0 122 -43 184.5t-121 62.5q-77 0 -121 -63zM182 760l158 -91
l-9 -15l-161 84z" />
    <glyph glyph-name="uni1ECF" unicode="&#x1ecf;" horiz-adv-x="505" 
d="M390.5 461q49.5 -68 49.5 -199q0 -132 -50 -202t-138 -70t-137.5 70t-49.5 199q0 131 50.5 200.5t137.5 69.5q88 0 137.5 -68zM132 446q-44 -63 -44 -187q0 -121 43 -184.5t121 -63.5t121.5 63.5t43.5 187.5q0 122 -43 184.5t-121 62.5q-77 0 -121 -63zM242 692
q60 4 60 52q0 23 -12.5 35t-34.5 12q-25 0 -50 -15l-9 16q29 19 61 19q31 0 49.5 -18t18.5 -48q0 -59 -62 -67v-56h-21v70z" />
    <glyph glyph-name="ohorn" unicode="&#x1a1;" horiz-adv-x="505" 
d="M450 469q-16 -18 -50 -23q40 -68 40 -184q0 -132 -50 -202t-138 -70t-137.5 70t-49.5 199q0 131 50.5 200.5t137.5 69.5q89 0 137 -68q30 4 43.5 18t13.5 44q0 33 -13 72l17 6q15 -36 15 -78q0 -36 -16 -54zM373.5 74.5q43.5 63.5 43.5 187.5q0 122 -43 184.5t-121 62.5
q-77 0 -121 -63t-44 -187q0 -121 43 -184.5t121 -63.5t121.5 63.5z" />
    <glyph glyph-name="uni1EDB" unicode="&#x1edb;" horiz-adv-x="505" 
d="M330 738l-161 -84l-8 15l158 91zM450 469q-16 -18 -50 -23q40 -68 40 -184q0 -132 -50 -202t-138 -70t-137.5 70t-49.5 199q0 131 50.5 200.5t137.5 69.5q89 0 137 -68q30 4 43.5 18t13.5 44q0 33 -13 72l17 6q15 -36 15 -78q0 -36 -16 -54zM373.5 74.5
q43.5 63.5 43.5 187.5q0 122 -43 184.5t-121 62.5q-77 0 -121 -63t-44 -187q0 -121 43 -184.5t121 -63.5t121.5 63.5z" />
    <glyph glyph-name="uni1EE3" unicode="&#x1ee3;" horiz-adv-x="511" 
d="M450 469q-16 -18 -50 -23q40 -68 40 -184q0 -132 -50 -202t-138 -70t-137.5 70t-49.5 199q0 131 50.5 200.5t137.5 69.5q89 0 137 -68q30 4 43.5 18t13.5 44q0 33 -13 72l17 6q15 -36 15 -78q0 -36 -16 -54zM373.5 74.5q43.5 63.5 43.5 187.5q0 122 -43 184.5t-121 62.5
q-77 0 -121 -63t-44 -187q0 -121 43 -184.5t121 -63.5t121.5 63.5zM267.5 -104.5q5.5 -5.5 5.5 -13.5t-5.5 -14t-14.5 -6t-14.5 6t-5.5 14t5.5 13.5t14.5 5.5t14.5 -5.5z" />
    <glyph glyph-name="uni1EDD" unicode="&#x1edd;" horiz-adv-x="505" 
d="M340 669l-9 -15l-161 84l12 22zM450 469q-16 -18 -50 -23q40 -68 40 -184q0 -132 -50 -202t-138 -70t-137.5 70t-49.5 199q0 131 50.5 200.5t137.5 69.5q89 0 137 -68q30 4 43.5 18t13.5 44q0 33 -13 72l17 6q15 -36 15 -78q0 -36 -16 -54zM373.5 74.5
q43.5 63.5 43.5 187.5q0 122 -43 184.5t-121 62.5q-77 0 -121 -63t-44 -187q0 -121 43 -184.5t121 -63.5t121.5 63.5z" />
    <glyph glyph-name="uni1EDF" unicode="&#x1edf;" horiz-adv-x="505" 
d="M205 776l-9 16q29 19 61 19q31 0 49.5 -18t18.5 -48q0 -59 -62 -67v-56h-21v70q60 4 60 52q0 23 -12 35t-35 12q-25 0 -50 -15zM450 469q-16 -18 -50 -23q40 -68 40 -184q0 -132 -50 -202t-138 -70t-137.5 70t-49.5 199q0 131 50.5 200.5t137.5 69.5q89 0 137 -68
q30 4 43.5 18t13.5 44q0 33 -13 72l17 6q15 -36 15 -78q0 -36 -16 -54zM373.5 74.5q43.5 63.5 43.5 187.5q0 122 -43 184.5t-121 62.5q-77 0 -121 -63t-44 -187q0 -121 43 -184.5t121 -63.5t121.5 63.5z" />
    <glyph glyph-name="uni1EE1" unicode="&#x1ee1;" horiz-adv-x="505" 
d="M173 714q-12 -8 -26 -27l-14 8q16 23 32 34.5t35 11.5q12 0 23 -5t30 -16q16 -11 28.5 -16.5t24.5 -5.5q15 0 27 9t26 31l14 -7q-15 -28 -31 -40.5t-36 -12.5q-15 0 -28 6t-33 18q-15 10 -25 15t-20 5q-15 0 -27 -8zM450 469q-16 -18 -50 -23q40 -68 40 -184
q0 -132 -50 -202t-138 -70t-137.5 70t-49.5 199q0 131 50.5 200.5t137.5 69.5q89 0 137 -68q30 4 43.5 18t13.5 44q0 33 -13 72l17 6q15 -36 15 -78q0 -36 -16 -54zM373.5 74.5q43.5 63.5 43.5 187.5q0 122 -43 184.5t-121 62.5q-77 0 -121 -63t-44 -187q0 -121 43 -184.5
t121 -63.5t121.5 63.5z" />
    </font>
</defs>
</svg>
