<?xml version="1.0" standalone="no"?>
<!DOCTYPE svg PUBLIC "-//W3C//DTD SVG 1.1//EN" "http://www.w3.org/Graphics/SVG/1.1/DTD/svg11.dtd" >
<svg>
<metadata>
Created by FontForge 20120731 at Fri May  5 09:40:28 2017
 By www-data
Digitized data copyright 2012-2016, The Mozilla Foundation and Telefonica S.A.
</metadata>
<defs>
<font id="FiraSansCondensed-Medium" horiz-adv-x="504" >
  <font-face 
    font-family="Fira Sans Condensed Medium"
    font-weight="500"
    font-stretch="condensed"
    units-per-em="1000"
    panose-1="2 11 6 3 5 0 0 2 0 4"
    ascent="800"
    descent="-200"
    x-height="529"
    cap-height="691"
    bbox="-701 -353 1360 1148"
    underline-thickness="50"
    underline-position="-50"
    unicode-range="U+000D-FEFF"
  />
<missing-glyph horiz-adv-x="666" 
d="M543 1050v-1400h-420v1400h420zM489 998h-311v-1296h311v1296zM409.5 419q25.5 -32 25.5 -83q0 -53 -22.5 -82t-72.5 -36v-45q0 -11 -7.5 -17.5t-17.5 -6.5t-17.5 6.5t-7.5 17.5v84q53 3 72 19.5t19 57.5q0 33 -13 51t-48 18q-29 0 -52 -11q-8 -3 -13 -3q-11 0 -17.5 6.5
t-6.5 16.5q0 19 29.5 29t63.5 10q60 0 85.5 -32zM340 110q10 -10 10 -25q0 -16 -10 -26.5t-25 -10.5t-25 10.5t-10 26.5q0 15 10 25t25 10t25 -10z" />
    <glyph glyph-name="fi" unicode="fi" horiz-adv-x="536" 
d="M420 716l-37 -81q-50 24 -103 24q-41 0 -57.5 -16.5t-16.5 -53.5v-60h264v-529h-125v439h-139v-439h-125v439h-75v90h75v63q0 72 46 117t141 45q81 0 152 -38z" />
    <glyph glyph-name="fl" unicode="fl" horiz-adv-x="562" 
d="M556 4q-38 -19 -82 -19q-57 0 -88.5 33.5t-31.5 94.5v536q-43 12 -80 12q-39 0 -53.5 -16t-14.5 -52v-64h97l-14 -90h-83v-439h-125v439h-75v90h75v65q0 71 45 115.5t131 44.5q53 0 107 -18l115 13v-629q0 -34 26 -34q13 0 25 4z" />
    <glyph glyph-name=".notdef" horiz-adv-x="666" 
d="M543 1050v-1400h-420v1400h420zM489 998h-311v-1296h311v1296zM409.5 419q25.5 -32 25.5 -83q0 -53 -22.5 -82t-72.5 -36v-45q0 -11 -7.5 -17.5t-17.5 -6.5t-17.5 6.5t-7.5 17.5v84q53 3 72 19.5t19 57.5q0 33 -13 51t-48 18q-29 0 -52 -11q-8 -3 -13 -3q-11 0 -17.5 6.5
t-6.5 16.5q0 19 29.5 29t63.5 10q60 0 85.5 -32zM340 110q10 -10 10 -25q0 -16 -10 -26.5t-25 -10.5t-25 10.5t-10 26.5q0 15 10 25t25 10t25 -10z" />
    <glyph glyph-name="nonmarkingreturn" unicode="&#xd;" horiz-adv-x="221" 
 />
    <glyph glyph-name="space" unicode=" " horiz-adv-x="221" 
 />
    <glyph glyph-name="A" unicode="A" horiz-adv-x="535" 
d="M404 0l-38 161h-200l-38 -161h-131l192 691h158l191 -691h-134zM188 259h156l-78 333z" />
    <glyph glyph-name="Aacute" unicode="&#xc1;" horiz-adv-x="535" 
d="M404 0l-38 161h-200l-38 -161h-131l192 691h158l191 -691h-134zM188 259h156l-78 333zM339 932l49 -96l-209 -83l-32 64z" />
    <glyph glyph-name="Abreve" unicode="&#x102;" horiz-adv-x="535" 
d="M404 0l-38 161h-200l-38 -161h-131l192 691h158l191 -691h-134zM188 259h156l-78 333zM163.5 793.5q-39.5 39.5 -44.5 103.5l71 14q18 -67 78 -67q30 0 50 17.5t28 49.5l71 -14q-5 -64 -45 -103.5t-104 -39.5q-65 0 -104.5 39.5z" />
    <glyph glyph-name="uni1EAE" unicode="&#x1eae;" horiz-adv-x="535" 
d="M404 0l-38 161h-200l-38 -161h-131l192 691h158l191 -691h-134zM188 259h156l-78 333zM162.5 777.5q-39.5 39.5 -44.5 103.5l71 14q18 -67 78 -67q30 0 50 17.5t28 49.5l71 -14q-5 -64 -45 -103.5t-104 -39.5q-65 0 -104.5 39.5zM339 1090l73 -66l-140 -136l-49 42z" />
    <glyph glyph-name="uni1EB6" unicode="&#x1eb6;" horiz-adv-x="535" 
d="M404 0l-38 161h-200l-38 -161h-131l192 691h158l191 -691h-134zM188 259h156l-78 333zM163.5 793.5q-39.5 39.5 -44.5 103.5l71 14q18 -67 78 -67q30 0 50 17.5t28 49.5l71 -14q-5 -64 -45 -103.5t-104 -39.5q-65 0 -104.5 39.5zM212.5 -197.5q-21.5 21.5 -21.5 54.5
t21.5 54.5t55.5 21.5t55.5 -21.5t21.5 -54.5t-21.5 -54.5t-55.5 -21.5t-55.5 21.5z" />
    <glyph glyph-name="uni1EB0" unicode="&#x1eb0;" horiz-adv-x="535" 
d="M404 0l-38 161h-200l-38 -161h-131l192 691h158l191 -691h-134zM188 259h156l-78 333zM163.5 777.5q-39.5 39.5 -44.5 103.5l71 14q18 -67 78 -67q30 0 50 17.5t28 49.5l71 -14q-5 -64 -45 -103.5t-104 -39.5q-65 0 -104.5 39.5zM199 1090l117 -160l-50 -42l-141 136z
" />
    <glyph glyph-name="uni1EB2" unicode="&#x1eb2;" horiz-adv-x="535" 
d="M404 0l-38 161h-200l-38 -161h-131l192 691h158l191 -691h-134zM188 259h156l-78 333zM163.5 777.5q-39.5 39.5 -44.5 103.5l71 14q18 -67 78 -67q30 0 50 17.5t28 49.5l71 -14q-5 -64 -45 -103.5t-104 -39.5q-65 0 -104.5 39.5zM229 966q35 4 49 12t14 29q0 33 -36 33
q-15 0 -26.5 -3t-27.5 -9l-22 57q40 25 94 25q51 0 79 -26t28 -70q0 -75 -74 -89v-45h-78v86z" />
    <glyph glyph-name="uni1EB4" unicode="&#x1eb4;" horiz-adv-x="535" 
d="M404 0l-38 161h-200l-38 -161h-131l192 691h158l191 -691h-134zM188 259h156l-78 333zM163.5 777.5q-39.5 39.5 -44.5 103.5l71 14q18 -67 78 -67q30 0 50 17.5t28 49.5l71 -14q-5 -64 -45 -103.5t-104 -39.5q-65 0 -104.5 39.5zM292.5 931.5q-13.5 5.5 -23 11.5t-12.5 8
q-23 18 -39 18q-15 0 -25 -10t-23 -33l-64 30q18 44 46 71t64 27q19 0 33 -6.5t33 -18.5q13 -9 22 -13.5t18 -4.5q14 0 24 10t23 32l64 -30q-17 -46 -45.5 -71.5t-64.5 -25.5q-17 0 -30.5 5.5z" />
    <glyph glyph-name="uni01CD" unicode="&#x1cd;" horiz-adv-x="535" 
d="M404 0l-38 161h-200l-38 -161h-131l192 691h158l191 -691h-134zM188 259h156l-78 333zM386 924l47 -51l-126 -121h-77l-126 121l47 51l117 -82z" />
    <glyph glyph-name="Acircumflex" unicode="&#xc2;" horiz-adv-x="535" 
d="M404 0l-38 161h-200l-38 -161h-131l192 691h158l191 -691h-134zM188 259h156l-78 333zM149 759l-46 51l126 121h77l126 -121l-47 -51l-118 82z" />
    <glyph glyph-name="uni1EA4" unicode="&#x1ea4;" horiz-adv-x="535" 
d="M404 0l-38 161h-200l-38 -161h-131l192 691h158l191 -691h-134zM188 259h156l-78 333zM149 721l-46 51l126 121h77l126 -121l-47 -51l-118 82zM472 1056l73 -66l-140 -136l-49 42z" />
    <glyph glyph-name="uni1EAC" unicode="&#x1eac;" horiz-adv-x="535" 
d="M404 0l-38 161h-200l-38 -161h-131l192 691h158l191 -691h-134zM188 259h156l-78 333zM149 759l-46 51l126 121h77l126 -121l-47 -51l-118 82zM212.5 -197.5q-21.5 21.5 -21.5 54.5t21.5 54.5t55.5 21.5t55.5 -21.5t21.5 -54.5t-21.5 -54.5t-55.5 -21.5t-55.5 21.5z" />
    <glyph glyph-name="uni1EA6" unicode="&#x1ea6;" horiz-adv-x="535" 
d="M404 0l-38 161h-200l-38 -161h-131l192 691h158l191 -691h-134zM188 259h156l-78 333zM149 721l-46 51l126 121h77l126 -121l-47 -51l-118 82zM63 1056l117 -160l-50 -42l-141 136z" />
    <glyph glyph-name="uni1EA8" unicode="&#x1ea8;" horiz-adv-x="535" 
d="M404 0l-38 161h-200l-38 -161h-131l192 691h158l191 -691h-134zM188 259h156l-78 333zM149 721l-46 51l126 121h77l126 -121l-47 -51l-118 82zM377 923q35 4 49 12t14 29q0 33 -36 33q-15 0 -26.5 -3t-27.5 -9l-22 57q40 25 94 25q51 0 79 -26t28 -70q0 -75 -74 -89v-45
h-78v86z" />
    <glyph glyph-name="uni1EAA" unicode="&#x1eaa;" horiz-adv-x="535" 
d="M404 0l-38 161h-200l-38 -161h-131l192 691h158l191 -691h-134zM188 259h156l-78 333zM148 721l-46 51l126 121h77l126 -121l-47 -51l-118 82zM289.5 929.5q-13.5 5.5 -23 11.5t-12.5 8q-23 18 -39 18q-15 0 -25 -10t-23 -33l-64 30q18 44 46 71t64 27q19 0 33 -6.5
t33 -18.5q13 -9 22 -13.5t18 -4.5q14 0 24 10t23 32l64 -30q-17 -46 -45.5 -71.5t-64.5 -25.5q-17 0 -30.5 5.5z" />
    <glyph glyph-name="uni0200" unicode="&#x200;" horiz-adv-x="535" 
d="M404 0l-38 161h-200l-38 -161h-131l192 691h158l191 -691h-134zM188 259h156l-78 333zM152 970l83 -184l-66 -30l-105 169zM303 970l75 -181l-66 -29l-97 166z" />
    <glyph glyph-name="Adieresis" unicode="&#xc4;" horiz-adv-x="535" 
d="M404 0l-38 161h-200l-38 -161h-131l192 691h158l191 -691h-134zM188 259h156l-78 333zM217 889.5q19 -19.5 19 -47.5q0 -29 -19 -48.5t-48 -19.5t-48 19.5t-19 48.5q0 28 19.5 47.5t47.5 19.5q29 0 48 -19.5zM420 889.5q19 -19.5 19 -47.5q0 -29 -19 -48.5t-48 -19.5
t-48.5 19.5t-19.5 48.5q0 28 20 47.5t48 19.5q29 0 48 -19.5z" />
    <glyph glyph-name="uni01DE" unicode="&#x1de;" horiz-adv-x="535" 
d="M404 0l-38 161h-200l-38 -161h-131l192 691h158l191 -691h-134zM188 259h156l-78 333zM215 861.5q19 -19.5 19 -47.5q0 -29 -19 -48.5t-48 -19.5t-48 19.5t-19 48.5q0 28 19.5 47.5t47.5 19.5q29 0 48 -19.5zM418 861.5q19 -19.5 19 -47.5q0 -29 -19 -48.5t-48 -19.5
t-48.5 19.5t-19.5 48.5q0 28 20 47.5t48 19.5q29 0 48 -19.5zM403 925h-266v88h266v-88z" />
    <glyph glyph-name="uni0226" unicode="&#x226;" horiz-adv-x="535" 
d="M404 0l-38 161h-200l-38 -161h-131l192 691h158l191 -691h-134zM188 259h156l-78 333zM323.5 899.5q21.5 -21.5 21.5 -54.5t-21.5 -54.5t-55.5 -21.5t-55.5 21.5t-21.5 54.5t21.5 54.5t55.5 21.5t55.5 -21.5z" />
    <glyph glyph-name="uni1EA0" unicode="&#x1ea0;" horiz-adv-x="535" 
d="M404 0l-38 161h-200l-38 -161h-131l192 691h158l191 -691h-134zM188 259h156l-78 333zM212.5 -197.5q-21.5 21.5 -21.5 54.5t21.5 54.5t55.5 21.5t55.5 -21.5t21.5 -54.5t-21.5 -54.5t-55.5 -21.5t-55.5 21.5z" />
    <glyph glyph-name="uni01E0" unicode="&#x1e0;" horiz-adv-x="535" 
d="M404 0l-38 161h-200l-38 -161h-131l192 691h158l191 -691h-134zM188 259h156l-78 333zM323.5 868.5q21.5 -21.5 21.5 -54.5t-21.5 -54.5t-55.5 -21.5t-55.5 21.5t-21.5 54.5t21.5 54.5t55.5 21.5t55.5 -21.5zM402 925h-266v88h266v-88z" />
    <glyph glyph-name="Agrave" unicode="&#xc0;" horiz-adv-x="535" 
d="M404 0l-38 161h-200l-38 -161h-131l192 691h158l191 -691h-134zM188 259h156l-78 333zM192 932l192 -115l-32 -64l-209 82z" />
    <glyph glyph-name="uni1EA2" unicode="&#x1ea2;" horiz-adv-x="535" 
d="M404 0l-38 161h-200l-38 -161h-131l192 691h158l191 -691h-134zM188 259h156l-78 333zM229 850q35 4 49 12t14 29q0 33 -36 33q-15 0 -26.5 -3t-27.5 -9l-22 57q40 25 94 25q51 0 79 -26t28 -70q0 -75 -74 -89v-45h-78v86z" />
    <glyph glyph-name="uni0202" unicode="&#x202;" horiz-adv-x="535" 
d="M404 0l-38 161h-200l-38 -161h-131l192 691h158l191 -691h-134zM188 259h156l-78 333zM372.5 895q39.5 -41 44.5 -112l-71 -13q-17 77 -78 77q-60 0 -78 -77l-71 13q5 71 44.5 112t104.5 41t104.5 -41z" />
    <glyph glyph-name="uni2C6D" unicode="&#x2c6d;" horiz-adv-x="623" 
d="M559 105q9 -15 31 -26l-39 -94q-45 10 -72.5 27.5t-41.5 46.5q-59 -74 -155 -74q-71 0 -126 38.5t-86 116.5t-31 192q0 119 32 203.5t87.5 127.5t125.5 43q87 0 145 -67l10 52h111v-542q0 -29 9 -44zM421 142v406q-22 28 -49 43.5t-63 15.5q-65 0 -99.5 -64t-34.5 -211
q0 -137 33.5 -193t95.5 -56q70 0 117 59z" />
    <glyph glyph-name="Amacron" unicode="&#x100;" horiz-adv-x="535" 
d="M404 0l-38 161h-200l-38 -161h-131l192 691h158l191 -691h-134zM188 259h156l-78 333zM401 788h-266v88h266v-88z" />
    <glyph glyph-name="Aogonek" unicode="&#x104;" horiz-adv-x="535" 
d="M389.5 -54q-22.5 -26 -22.5 -55q0 -47 49 -47q17 0 54 7l-9 -82q-33 -7 -61 -7q-57 0 -92 29t-35 79t32 87t94 64l-33 140h-200l-38 -161h-131l192 691h158l191 -691h-64q-62 -28 -84.5 -54zM188 259h156l-78 333z" />
    <glyph glyph-name="Aring" unicode="&#xc5;" horiz-adv-x="535" 
d="M404 0l-38 161h-200l-38 -161h-131l192 691h158l191 -691h-134zM188 259h156l-78 333zM354.5 944q32.5 -33 32.5 -85t-32.5 -85.5t-86.5 -33.5q-53 0 -85.5 33.5t-32.5 85.5t32.5 85t85.5 33q54 0 86.5 -33zM225 859q0 -54 43 -54q20 0 32 13.5t12 40.5q0 54 -44 54
q-43 0 -43 -54z" />
    <glyph glyph-name="Aringacute" unicode="&#x1fa;" horiz-adv-x="535" 
d="M404 0l-38 161h-200l-38 -161h-131l192 691h158l191 -691h-134zM188 259h156l-78 333zM353.5 929q32.5 -33 32.5 -85t-32.5 -85.5t-86.5 -33.5q-53 0 -85.5 33.5t-32.5 85.5t32.5 85t85.5 33q54 0 86.5 -33zM224 844q0 -54 43 -54q20 0 32 13.5t12 40.5q0 54 -44 54
q-43 0 -43 -54zM339 1148l49 -96l-209 -83l-32 64z" />
    <glyph glyph-name="uni023A" unicode="&#x23a;" horiz-adv-x="535" 
d="M414 0l-39 161h-109l-56 -233l-49 11l53 222h-57l-39 -161h-121l192 691h152l15 61l48 -11l-33 -138l167 -603h-124zM180 254h57l57 239l-28 114zM288 254h64l-32 133z" />
    <glyph glyph-name="Atilde" unicode="&#xc3;" horiz-adv-x="535" 
d="M404 0l-38 161h-200l-38 -161h-131l192 691h158l191 -691h-134zM188 259h156l-78 333zM289.5 780.5q-13.5 6.5 -33.5 19.5q-23 18 -39 18q-15 0 -25.5 -10.5t-22.5 -33.5l-64 31q18 46 46 73.5t64 27.5q19 0 33.5 -7t32.5 -19q2 -2 10.5 -7.5t16 -8t13.5 -2.5q14 0 24 10
t23 33l64 -31q-17 -48 -45.5 -74t-64.5 -26q-19 0 -32.5 6.5z" />
    <glyph glyph-name="AE" unicode="&#xc6;" horiz-adv-x="753" 
d="M512 97h207v-97h-315l-27 161h-208l-50 -161h-136l245 691h456l-14 -96h-253l38 -197h221v-96h-203zM199 258h161l-57 336z" />
    <glyph glyph-name="AEacute" unicode="&#x1fc;" horiz-adv-x="753" 
d="M512 97h207v-97h-315l-27 161h-208l-50 -161h-136l245 691h456l-14 -96h-253l38 -197h221v-96h-203zM199 258h161l-57 336zM504 932l49 -96l-209 -83l-32 64z" />
    <glyph glyph-name="uni01E2" unicode="&#x1e2;" horiz-adv-x="753" 
d="M512 97h207v-97h-315l-27 161h-208l-50 -161h-136l245 691h456l-14 -96h-253l38 -197h221v-96h-203zM199 258h161l-57 336zM566 788h-266v88h266v-88z" />
    <glyph glyph-name="B" unicode="B" horiz-adv-x="554" 
d="M485 314q41 -38 41 -115q0 -104 -71.5 -151.5t-196.5 -47.5h-189v691h165q128 0 196.5 -43.5t68.5 -132.5q0 -60 -34.5 -97.5t-88.5 -51.5q68 -14 109 -52zM199 596v-190h59q54 0 82 25t28 73q0 49 -29.5 70.5t-92.5 21.5h-47zM358 121q34 24 34 83q0 112 -125 112h-68
v-219h60q65 0 99 24z" />
    <glyph glyph-name="uni1E02" unicode="&#x1e02;" horiz-adv-x="554" 
d="M485 314q41 -38 41 -115q0 -104 -71.5 -151.5t-196.5 -47.5h-189v691h165q128 0 196.5 -43.5t68.5 -132.5q0 -60 -34.5 -97.5t-88.5 -51.5q68 -14 109 -52zM199 596v-190h59q54 0 82 25t28 73q0 49 -29.5 70.5t-92.5 21.5h-47zM358 121q34 24 34 83q0 112 -125 112h-68
v-219h60q65 0 99 24zM323.5 899.5q21.5 -21.5 21.5 -54.5t-21.5 -54.5t-55.5 -21.5t-55.5 21.5t-21.5 54.5t21.5 54.5t55.5 21.5t55.5 -21.5z" />
    <glyph glyph-name="uni1E04" unicode="&#x1e04;" horiz-adv-x="554" 
d="M485 314q41 -38 41 -115q0 -104 -71.5 -151.5t-196.5 -47.5h-189v691h165q128 0 196.5 -43.5t68.5 -132.5q0 -60 -34.5 -97.5t-88.5 -51.5q68 -14 109 -52zM199 596v-190h59q54 0 82 25t28 73q0 49 -29.5 70.5t-92.5 21.5h-47zM358 121q34 24 34 83q0 112 -125 112h-68
v-219h60q65 0 99 24zM225.5 -197.5q-21.5 21.5 -21.5 54.5t21.5 54.5t55.5 21.5t55.5 -21.5t21.5 -54.5t-21.5 -54.5t-55.5 -21.5t-55.5 21.5z" />
    <glyph glyph-name="uniA7B4" unicode="&#xa7b4;" horiz-adv-x="554" 
d="M485 314.5q41 -37.5 41 -112.5q0 -102 -66 -152t-166 -50q-49 0 -95 11v-217h-130v897h165q128 0 196.5 -44t68.5 -132q0 -60 -34.5 -97.5t-88.5 -51.5q68 -14 109 -51.5zM361 123.5q31 26.5 31 84.5q0 108 -118 108h-26l9 90h14q45 0 71 25t26 71q0 51 -29 72.5
t-92 21.5h-48v-492q44 -7 80 -7q51 0 82 26.5z" />
    <glyph glyph-name="uni0181" unicode="&#x181;" horiz-adv-x="665" 
d="M596 314q41 -38 41 -115q0 -104 -71.5 -151.5t-196.5 -47.5h-189v595h-24q-24 0 -35 -11.5t-11 -34.5q0 -29 18 -70l-82 -38q-19 30 -30 57t-11 61q0 60 40.5 96t115.5 36h184q128 0 196.5 -43.5t68.5 -132.5q0 -60 -34.5 -97.5t-88.5 -51.5q68 -14 109 -52zM310 596
v-190h59q54 0 82 25t28 73q0 49 -29.5 70.5t-92.5 21.5h-47zM469 121q34 24 34 83q0 112 -125 112h-68v-219h60q65 0 99 24z" />
    <glyph glyph-name="uni0181.ss02" horiz-adv-x="535" 
d="M450 384.5q64 -53.5 64 -159.5q0 -114 -66.5 -169.5t-184.5 -55.5h-194v691h375l-14 -101h-231v-152h69q118 0 182 -53.5zM349 125.5q29 28.5 29 97.5q0 63 -29.5 92t-90.5 29h-59v-247h61q60 0 89 28.5z" />
    <glyph glyph-name="uni0243" unicode="&#x243;" horiz-adv-x="567" 
d="M498 314q41 -38 41 -115q0 -104 -71.5 -151.5t-196.5 -47.5h-189v172h-65v74h65v445h165q128 0 196.5 -43.5t68.5 -132.5q0 -60 -34.5 -97.5t-88.5 -51.5q68 -14 109 -52zM212 596v-190h59q54 0 82 25t28 73q0 49 -29.5 70.5t-92.5 21.5h-47zM371 121q34 24 34 83
q0 112 -125 112h-68v-70h113v-74h-113v-75h60q65 0 99 24z" />
    <glyph glyph-name="uni0182" unicode="&#x182;" horiz-adv-x="535" 
d="M450 384.5q64 -53.5 64 -159.5q0 -114 -66.5 -169.5t-184.5 -55.5h-194v691h375l-14 -101h-231v-152h69q118 0 182 -53.5zM349 125.5q29 28.5 29 97.5q0 63 -29.5 92t-90.5 29h-59v-247h61q60 0 89 28.5z" />
    <glyph glyph-name="C" unicode="C" horiz-adv-x="517" 
d="M414.5 688q43.5 -18 85.5 -54l-64 -75q-56 47 -115 47q-68 0 -107 -61t-39 -198q0 -134 39 -196t108 -62q36 0 63 13.5t60 39.5l62 -74q-35 -36 -83 -59.5t-108 -23.5q-83 0 -145.5 40.5t-97 122t-34.5 199.5q0 116 36 197t98 121.5t141 40.5q57 0 100.5 -18z" />
    <glyph glyph-name="Cacute" unicode="&#x106;" horiz-adv-x="517" 
d="M414.5 688q43.5 -18 85.5 -54l-64 -75q-56 47 -115 47q-68 0 -107 -61t-39 -198q0 -134 39 -196t108 -62q36 0 63 13.5t60 39.5l62 -74q-35 -36 -83 -59.5t-108 -23.5q-83 0 -145.5 40.5t-97 122t-34.5 199.5q0 116 36 197t98 121.5t141 40.5q57 0 100.5 -18zM391 932
l49 -96l-209 -83l-32 64z" />
    <glyph glyph-name="Cacute.loclPLK" horiz-adv-x="517" 
d="M414.5 688q43.5 -18 85.5 -54l-64 -75q-56 47 -115 47q-68 0 -107 -61t-39 -198q0 -134 39 -196t108 -62q36 0 63 13.5t60 39.5l62 -74q-35 -36 -83 -59.5t-108 -23.5q-83 0 -145.5 40.5t-97 122t-34.5 199.5q0 116 36 197t98 121.5t141 40.5q57 0 100.5 -18zM349 945
l93 -56l-125 -151l-57 34z" />
    <glyph glyph-name="Ccaron" unicode="&#x10c;" horiz-adv-x="517" 
d="M414.5 688q43.5 -18 85.5 -54l-64 -75q-56 47 -115 47q-68 0 -107 -61t-39 -198q0 -134 39 -196t108 -62q36 0 63 13.5t60 39.5l62 -74q-35 -36 -83 -59.5t-108 -23.5q-83 0 -145.5 40.5t-97 122t-34.5 199.5q0 116 36 197t98 121.5t141 40.5q57 0 100.5 -18zM438 924
l47 -51l-126 -121h-77l-126 121l47 51l117 -82z" />
    <glyph glyph-name="Ccedilla" unicode="&#xc7;" horiz-adv-x="517" 
d="M347 -13v-41q45 -6 68 -29.5t23 -61.5q0 -49 -35 -77.5t-92 -28.5t-96 27l30 59q32 -14 57 -14q20 0 31.5 8.5t11.5 25.5q0 20 -19.5 29.5t-62.5 9.5l11 94q-109 15 -172 106.5t-63 252.5q0 116 36 197t98 121.5t141 40.5q57 0 100.5 -18t85.5 -54l-64 -75
q-56 47 -115 47q-68 0 -107 -61t-39 -198q0 -134 39 -196t108 -62q36 0 63 13.5t60 39.5l62 -74q-67 -70 -160 -81z" />
    <glyph glyph-name="Ccircumflex" unicode="&#x108;" horiz-adv-x="517" 
d="M414.5 688q43.5 -18 85.5 -54l-64 -75q-56 47 -115 47q-68 0 -107 -61t-39 -198q0 -134 39 -196t108 -62q36 0 63 13.5t60 39.5l62 -74q-35 -36 -83 -59.5t-108 -23.5q-83 0 -145.5 40.5t-97 122t-34.5 199.5q0 116 36 197t98 121.5t141 40.5q57 0 100.5 -18zM201 759
l-46 51l126 121h77l126 -121l-47 -51l-118 82z" />
    <glyph glyph-name="Cdotaccent" unicode="&#x10a;" horiz-adv-x="517" 
d="M414.5 688q43.5 -18 85.5 -54l-64 -75q-56 47 -115 47q-68 0 -107 -61t-39 -198q0 -134 39 -196t108 -62q36 0 63 13.5t60 39.5l62 -74q-35 -36 -83 -59.5t-108 -23.5q-83 0 -145.5 40.5t-97 122t-34.5 199.5q0 116 36 197t98 121.5t141 40.5q57 0 100.5 -18z
M375.5 899.5q21.5 -21.5 21.5 -54.5t-21.5 -54.5t-55.5 -21.5t-55.5 21.5t-21.5 54.5t21.5 54.5t55.5 21.5t55.5 -21.5z" />
    <glyph glyph-name="uniA7B3" unicode="&#xa7b3;" 
d="M328 304l178 -449h-142l-115 360l-114 -360h-137l173 443l-158 393h141l97 -310l100 310h137z" />
    <glyph glyph-name="uni0187" unicode="&#x187;" horiz-adv-x="517" 
d="M651 805l-40 -77q-16 10 -30 14.5t-32 4.5q-25 0 -37 -14.5t-12 -46.5v-52l-58 -69q-31 21 -60 31t-61 10q-68 0 -107 -61t-39 -198q0 -135 39.5 -196.5t108.5 -61.5q35 0 62 13.5t60 40.5l62 -75q-34 -36 -82.5 -59.5t-108.5 -23.5q-83 0 -145.5 40.5t-97 122
t-34.5 199.5q0 115 35.5 196t95.5 122t133 41q46 0 84 -18v2q0 73 38 113t108 40q64 0 118 -38z" />
    <glyph glyph-name="uni023B" unicode="&#x23b;" horiz-adv-x="517" 
d="M507 68q-35 -36 -83 -59.5t-108 -23.5q-35 0 -69 8l-16 -65l-50 11l17 71q-75 36 -117 121.5t-42 215.5q0 116 36 197t98 121.5t141 40.5q29 0 50 -4l12 50l49 -11l-12 -52q46 -19 87 -55l-64 -75q-20 18 -47 31l-117 -491q21 -10 50 -10q36 0 63 13.5t60 39.5zM227 132
l114 473q-7 1 -20 1q-68 0 -107 -61t-39 -198q0 -150 52 -215z" />
    <glyph glyph-name="D" unicode="D" horiz-adv-x="589" 
d="M393.5 664q69.5 -27 113 -102.5t43.5 -212.5q0 -194 -85.5 -271.5t-219.5 -77.5h-176v691h161q94 0 163.5 -27zM199 594v-497h55q77 0 119.5 54t42.5 198q0 100 -21.5 154t-57 72.5t-86.5 18.5h-52z" />
    <glyph glyph-name="uni01F1" unicode="&#x1f1;" horiz-adv-x="1045" 
d="M393.5 664q69.5 -27 113 -102.5t43.5 -212.5q0 -194 -85.5 -271.5t-219.5 -77.5h-176v691h161q94 0 163.5 -27zM199 594v-497h55q77 0 119.5 54t42.5 198q0 100 -21.5 154t-57 72.5t-86.5 18.5h-52zM1016 691v-100l-289 -485h292l-13 -106h-423v99l291 489h-262v103h404z
" />
    <glyph glyph-name="uni01C4" unicode="&#x1c4;" horiz-adv-x="1045" 
d="M393.5 664q69.5 -27 113 -102.5t43.5 -212.5q0 -194 -85.5 -271.5t-219.5 -77.5h-176v691h161q94 0 163.5 -27zM199 594v-497h55q77 0 119.5 54t42.5 198q0 100 -21.5 154t-57 72.5t-86.5 18.5h-52zM1016 691v-100l-289 -485h292l-13 -106h-423v99l291 489h-262v103h404z
M929 924l47 -51l-126 -121h-77l-126 121l47 51l117 -82z" />
    <glyph glyph-name="uni0189" unicode="&#x189;" horiz-adv-x="604" 
d="M408.5 664q69.5 -27 113 -102.5t43.5 -212.5q0 -194 -85.5 -271.5t-219.5 -77.5h-176v311h-67v84h67v296h161q94 0 163.5 -27zM388.5 151q42.5 54 42.5 198q0 100 -21.5 154t-57 72.5t-86.5 18.5h-52v-199h118v-84h-118v-214h55q77 0 119.5 54z" />
    <glyph glyph-name="Eth" unicode="&#xd0;" horiz-adv-x="604" 
d="M408.5 664q69.5 -27 113 -102.5t43.5 -212.5q0 -194 -85.5 -271.5t-219.5 -77.5h-176v311h-67v84h67v296h161q94 0 163.5 -27zM388.5 151q42.5 54 42.5 198q0 100 -21.5 154t-57 72.5t-86.5 18.5h-52v-199h118v-84h-118v-214h55q77 0 119.5 54z" />
    <glyph glyph-name="Dcaron" unicode="&#x10e;" horiz-adv-x="589" 
d="M393.5 664q69.5 -27 113 -102.5t43.5 -212.5q0 -194 -85.5 -271.5t-219.5 -77.5h-176v691h161q94 0 163.5 -27zM199 594v-497h55q77 0 119.5 54t42.5 198q0 100 -21.5 154t-57 72.5t-86.5 18.5h-52zM388 924l47 -51l-126 -121h-77l-126 121l47 51l117 -82z" />
    <glyph glyph-name="uni1E12" unicode="&#x1e12;" horiz-adv-x="589" 
d="M393.5 664q69.5 -27 113 -102.5t43.5 -212.5q0 -194 -85.5 -271.5t-219.5 -77.5h-176v691h161q94 0 163.5 -27zM199 594v-497h55q77 0 119.5 54t42.5 198q0 100 -21.5 154t-57 72.5t-86.5 18.5h-52zM157 -244l-46 51l126 128h77l126 -128l-47 -51l-118 88z" />
    <glyph glyph-name="Dcroat" unicode="&#x110;" horiz-adv-x="604" 
d="M408.5 664q69.5 -27 113 -102.5t43.5 -212.5q0 -194 -85.5 -271.5t-219.5 -77.5h-176v311h-67v84h67v296h161q94 0 163.5 -27zM388.5 151q42.5 54 42.5 198q0 100 -21.5 154t-57 72.5t-86.5 18.5h-52v-199h118v-84h-118v-214h55q77 0 119.5 54z" />
    <glyph glyph-name="uni1E0A" unicode="&#x1e0a;" horiz-adv-x="589" 
d="M393.5 664q69.5 -27 113 -102.5t43.5 -212.5q0 -194 -85.5 -271.5t-219.5 -77.5h-176v691h161q94 0 163.5 -27zM199 594v-497h55q77 0 119.5 54t42.5 198q0 100 -21.5 154t-57 72.5t-86.5 18.5h-52zM325.5 899.5q21.5 -21.5 21.5 -54.5t-21.5 -54.5t-55.5 -21.5
t-55.5 21.5t-21.5 54.5t21.5 54.5t55.5 21.5t55.5 -21.5z" />
    <glyph glyph-name="uni1E0C" unicode="&#x1e0c;" horiz-adv-x="589" 
d="M393.5 664q69.5 -27 113 -102.5t43.5 -212.5q0 -194 -85.5 -271.5t-219.5 -77.5h-176v691h161q94 0 163.5 -27zM199 594v-497h55q77 0 119.5 54t42.5 198q0 100 -21.5 154t-57 72.5t-86.5 18.5h-52zM220.5 -197.5q-21.5 21.5 -21.5 54.5t21.5 54.5t55.5 21.5t55.5 -21.5
t21.5 -54.5t-21.5 -54.5t-55.5 -21.5t-55.5 21.5z" />
    <glyph glyph-name="uni018A" unicode="&#x18a;" horiz-adv-x="700" 
d="M504.5 664q69.5 -27 113 -102.5t43.5 -212.5q0 -194 -85.5 -271.5t-219.5 -77.5h-176v595h-24q-24 0 -35 -11.5t-11 -34.5q0 -29 18 -70l-82 -38q-19 30 -30 57t-11 61q0 60 40.5 96t115.5 36h180q94 0 163.5 -27zM484.5 151q42.5 54 42.5 198q0 100 -21.5 154t-57 72.5
t-86.5 18.5h-52v-497h55q77 0 119.5 54z" />
    <glyph glyph-name="uni1E0E" unicode="&#x1e0e;" horiz-adv-x="589" 
d="M393.5 664q69.5 -27 113 -102.5t43.5 -212.5q0 -194 -85.5 -271.5t-219.5 -77.5h-176v691h161q94 0 163.5 -27zM199 594v-497h55q77 0 119.5 54t42.5 198q0 100 -21.5 154t-57 72.5t-86.5 18.5h-52zM409 -181h-266v88h266v-88z" />
    <glyph glyph-name="uni018B" unicode="&#x18b;" horiz-adv-x="535" 
d="M466 0h-196q-118 0 -184 53.5t-66 164.5q0 107 65.5 163.5t185.5 56.5h65v152h-239v101h369v-691zM336 97v247h-56q-64 0 -94 -30t-30 -96t30.5 -93.5t92.5 -27.5h57z" />
    <glyph glyph-name="uni01F2" unicode="&#x1f2;" horiz-adv-x="987" 
d="M393.5 664q69.5 -27 113 -102.5t43.5 -212.5q0 -194 -85.5 -271.5t-219.5 -77.5h-176v691h161q94 0 163.5 -27zM199 594v-497h55q77 0 119.5 54t42.5 198q0 100 -21.5 154t-57 72.5t-86.5 18.5h-52zM964 529v-91l-231 -340h235l-12 -98h-362v90l231 341h-211v98h350z" />
    <glyph glyph-name="uni01C5" unicode="&#x1c5;" horiz-adv-x="987" 
d="M393.5 664q69.5 -27 113 -102.5t43.5 -212.5q0 -194 -85.5 -271.5t-219.5 -77.5h-176v691h161q94 0 163.5 -27zM199 594v-497h55q77 0 119.5 54t42.5 198q0 100 -21.5 154t-57 72.5t-86.5 18.5h-52zM964 529v-91l-231 -340h235l-12 -98h-362v90l231 341h-211v98h350z
M904 798l47 -52l-126 -127h-77l-126 127l46 52l118 -90z" />
    <glyph glyph-name="E" unicode="E" horiz-adv-x="476" 
d="M438 691l-14 -96h-225v-196h197v-95h-197v-207h241v-97h-371v691h369z" />
    <glyph glyph-name="Eacute" unicode="&#xc9;" horiz-adv-x="476" 
d="M438 691l-14 -96h-225v-196h197v-95h-197v-207h241v-97h-371v691h369zM326 932l49 -96l-209 -83l-32 64z" />
    <glyph glyph-name="Ebreve" unicode="&#x114;" horiz-adv-x="476" 
d="M438 691l-14 -96h-225v-196h197v-95h-197v-207h241v-97h-371v691h369zM150.5 793.5q-39.5 39.5 -44.5 103.5l71 14q18 -67 78 -67q30 0 50 17.5t28 49.5l71 -14q-5 -64 -45 -103.5t-104 -39.5q-65 0 -104.5 39.5z" />
    <glyph glyph-name="Ecaron" unicode="&#x11a;" horiz-adv-x="476" 
d="M438 691l-14 -96h-225v-196h197v-95h-197v-207h241v-97h-371v691h369zM373 924l47 -51l-126 -121h-77l-126 121l47 51l117 -82z" />
    <glyph glyph-name="uni0228" unicode="&#x228;" horiz-adv-x="476" 
d="M288 0v-54q45 -6 68 -29.5t23 -61.5q0 -49 -35 -77.5t-92 -28.5t-96 27l30 59q32 -14 57 -14q20 0 31.5 8.5t11.5 25.5q0 20 -19.5 29.5t-62.5 9.5l12 106h-147v691h369l-14 -96h-225v-196h197v-95h-197v-207h241v-97h-152z" />
    <glyph glyph-name="Ecircumflex" unicode="&#xca;" horiz-adv-x="476" 
d="M438 691l-14 -96h-225v-196h197v-95h-197v-207h241v-97h-371v691h369zM136 759l-46 51l126 121h77l126 -121l-47 -51l-118 82z" />
    <glyph glyph-name="uni1EBE" unicode="&#x1ebe;" horiz-adv-x="476" 
d="M438 691l-14 -96h-225v-196h197v-95h-197v-207h241v-97h-371v691h369zM136 721l-46 51l126 121h77l126 -121l-47 -51l-118 82zM459 1056l73 -66l-140 -136l-49 42z" />
    <glyph glyph-name="uni1EC6" unicode="&#x1ec6;" horiz-adv-x="476" 
d="M438 691l-14 -96h-225v-196h197v-95h-197v-207h241v-97h-371v691h369zM136 759l-46 51l126 121h77l126 -121l-47 -51l-118 82zM198.5 -197.5q-21.5 21.5 -21.5 54.5t21.5 54.5t55.5 21.5t55.5 -21.5t21.5 -54.5t-21.5 -54.5t-55.5 -21.5t-55.5 21.5z" />
    <glyph glyph-name="uni1EC0" unicode="&#x1ec0;" horiz-adv-x="476" 
d="M438 691l-14 -96h-225v-196h197v-95h-197v-207h241v-97h-371v691h369zM136 721l-46 51l126 121h77l126 -121l-47 -51l-118 82zM50 1056l117 -160l-50 -42l-141 136z" />
    <glyph glyph-name="uni1EC2" unicode="&#x1ec2;" horiz-adv-x="476" 
d="M438 691l-14 -96h-225v-196h197v-95h-197v-207h241v-97h-371v691h369zM136 721l-46 51l126 121h77l126 -121l-47 -51l-118 82zM364 923q35 4 49 12t14 29q0 33 -36 33q-15 0 -26.5 -3t-27.5 -9l-22 57q40 25 94 25q51 0 79 -26t28 -70q0 -75 -74 -89v-45h-78v86z" />
    <glyph glyph-name="uni1EC4" unicode="&#x1ec4;" horiz-adv-x="476" 
d="M438 691l-14 -96h-225v-196h197v-95h-197v-207h241v-97h-371v691h369zM135 721l-46 51l126 121h77l126 -121l-47 -51l-118 82zM276.5 929.5q-13.5 5.5 -23 11.5t-12.5 8q-23 18 -39 18q-15 0 -25 -10t-23 -33l-64 30q18 44 46 71t64 27q19 0 33 -6.5t33 -18.5
q13 -9 22 -13.5t18 -4.5q14 0 24 10t23 32l64 -30q-17 -46 -45.5 -71.5t-64.5 -25.5q-17 0 -30.5 5.5z" />
    <glyph glyph-name="uni0204" unicode="&#x204;" horiz-adv-x="476" 
d="M438 691l-14 -96h-225v-196h197v-95h-197v-207h241v-97h-371v691h369zM139 970l83 -184l-66 -30l-105 169zM290 970l75 -181l-66 -29l-97 166z" />
    <glyph glyph-name="Edieresis" unicode="&#xcb;" horiz-adv-x="476" 
d="M438 691l-14 -96h-225v-196h197v-95h-197v-207h241v-97h-371v691h369zM204 889.5q19 -19.5 19 -47.5q0 -29 -19 -48.5t-48 -19.5t-48 19.5t-19 48.5q0 28 19.5 47.5t47.5 19.5q29 0 48 -19.5zM407 889.5q19 -19.5 19 -47.5q0 -29 -19 -48.5t-48 -19.5t-48.5 19.5
t-19.5 48.5q0 28 20 47.5t48 19.5q29 0 48 -19.5z" />
    <glyph glyph-name="Edotaccent" unicode="&#x116;" horiz-adv-x="476" 
d="M438 691l-14 -96h-225v-196h197v-95h-197v-207h241v-97h-371v691h369zM310.5 899.5q21.5 -21.5 21.5 -54.5t-21.5 -54.5t-55.5 -21.5t-55.5 21.5t-21.5 54.5t21.5 54.5t55.5 21.5t55.5 -21.5z" />
    <glyph glyph-name="uni1EB8" unicode="&#x1eb8;" horiz-adv-x="476" 
d="M438 691l-14 -96h-225v-196h197v-95h-197v-207h241v-97h-371v691h369zM198.5 -197.5q-21.5 21.5 -21.5 54.5t21.5 54.5t55.5 21.5t55.5 -21.5t21.5 -54.5t-21.5 -54.5t-55.5 -21.5t-55.5 21.5z" />
    <glyph glyph-name="Egrave" unicode="&#xc8;" horiz-adv-x="476" 
d="M438 691l-14 -96h-225v-196h197v-95h-197v-207h241v-97h-371v691h369zM179 932l192 -115l-32 -64l-209 82z" />
    <glyph glyph-name="uni1EBA" unicode="&#x1eba;" horiz-adv-x="476" 
d="M438 691l-14 -96h-225v-196h197v-95h-197v-207h241v-97h-371v691h369zM216 850q35 4 49 12t14 29q0 33 -36 33q-15 0 -26.5 -3t-27.5 -9l-22 57q40 25 94 25q51 0 79 -26t28 -70q0 -75 -74 -89v-45h-78v86z" />
    <glyph glyph-name="uni0206" unicode="&#x206;" horiz-adv-x="476" 
d="M438 691l-14 -96h-225v-196h197v-95h-197v-207h241v-97h-371v691h369zM359.5 895q39.5 -41 44.5 -112l-71 -13q-17 77 -78 77q-60 0 -78 -77l-71 13q5 71 44.5 112t104.5 41t104.5 -41z" />
    <glyph glyph-name="Emacron" unicode="&#x112;" horiz-adv-x="476" 
d="M438 691l-14 -96h-225v-196h197v-95h-197v-207h241v-97h-371v691h369zM388 788h-266v88h266v-88z" />
    <glyph glyph-name="Eogonek" unicode="&#x118;" horiz-adv-x="476" 
d="M440 97v-97h-36q-62 -28 -84.5 -54t-22.5 -55q0 -47 49 -47q17 0 54 7l-9 -82q-33 -7 -61 -7q-57 0 -92 29t-35 79q0 80 86 130h-220v691h369l-14 -96h-225v-196h197v-95h-197v-207h241z" />
    <glyph glyph-name="uni0190" unicode="&#x190;" horiz-adv-x="482" 
d="M369 684q50 -22 94 -66l-64 -69q-62 59 -126 59q-47 0 -69.5 -26.5t-22.5 -67.5q0 -47 27 -74t76 -27h63l-16 -97h-47q-59 0 -89 -29.5t-30 -84.5q0 -57 29.5 -86.5t83.5 -29.5q39 0 70.5 15.5t61.5 46.5l71 -67q-81 -96 -213 -96q-69 0 -123.5 26t-85.5 73.5t-31 111.5
q0 76 42 119.5t112 52.5q-65 15 -99.5 55.5t-34.5 102.5q0 51 26 92t73.5 64.5t111.5 23.5q60 0 110 -22z" />
    <glyph glyph-name="uni018E" unicode="&#x18e;" horiz-adv-x="476" 
d="M41 691h366v-691h-371v97h241v207h-197v95h197v196h-236v96z" />
    <glyph glyph-name="uni01A9" unicode="&#x1a9;" horiz-adv-x="453" 
d="M429 691v-98h-266l164 -220v-63l-167 -210h269v-100h-405v98l188 242l-188 253v98h405z" />
    <glyph glyph-name="uni0246" unicode="&#x246;" horiz-adv-x="476" 
d="M440 97v-97h-209l-17 -72l-49 11l14 61h-110v691h272l14 61l49 -10l-12 -51h46l-14 -96h-54l-46 -196h72v-95h-94l-49 -207h187zM199 595v-196h74l45 196h-119zM199 97h3l48 207h-51v-207z" />
    <glyph glyph-name="uni1EBC" unicode="&#x1ebc;" horiz-adv-x="476" 
d="M438 691l-14 -96h-225v-196h197v-95h-197v-207h241v-97h-371v691h369zM276.5 780.5q-13.5 6.5 -33.5 19.5q-23 18 -39 18q-15 0 -25.5 -10.5t-22.5 -33.5l-64 31q18 46 46 73.5t64 27.5q19 0 33.5 -7t32.5 -19q2 -2 10.5 -7.5t16 -8t13.5 -2.5q14 0 24 10t23 33l64 -31
q-17 -48 -45.5 -74t-64.5 -26q-19 0 -32.5 6.5z" />
    <glyph glyph-name="uni01B7" unicode="&#x1b7;" horiz-adv-x="481" 
d="M402 346.5q52 -50.5 52 -144.5q0 -63 -28.5 -112.5t-82.5 -77t-128 -27.5q-71 0 -122 24.5t-89 72.5l71 64q31 -32 61 -46.5t71 -14.5q55 0 84 31t29 90q0 60 -30 86t-92 26h-85v79l174 196h-249v98h387v-96l-176 -195q101 -3 153 -53.5z" />
    <glyph glyph-name="uni01EE" unicode="&#x1ee;" horiz-adv-x="481" 
d="M402 346.5q52 -50.5 52 -144.5q0 -63 -28.5 -112.5t-82.5 -77t-128 -27.5q-71 0 -122 24.5t-89 72.5l71 64q31 -32 61 -46.5t71 -14.5q55 0 84 31t29 90q0 60 -30 86t-92 26h-85v79l174 196h-249v98h387v-96l-176 -195q101 -3 153 -53.5zM349 924l47 -51l-126 -121h-77
l-126 121l47 51l117 -82z" />
    <glyph glyph-name="uni01B8" unicode="&#x1b8;" horiz-adv-x="481" 
d="M476 82q-39 -48 -90.5 -72.5t-123.5 -24.5t-125.5 27t-82 75.5t-28.5 110.5q0 92 53 145t152 57l-176 195v96h388v-98h-249l173 -196v-79h-84q-62 0 -92.5 -28.5t-30.5 -89.5q0 -55 28 -85t80 -30q43 0 74.5 14.5t63.5 46.5z" />
    <glyph glyph-name="F" unicode="F" horiz-adv-x="441" 
d="M69 0v691h359l-13 -96h-216v-210h188v-96h-188v-289h-130z" />
    <glyph glyph-name="uni1E1E" unicode="&#x1e1e;" horiz-adv-x="441" 
d="M69 0v691h359l-13 -96h-216v-210h188v-96h-188v-289h-130zM313.5 899.5q21.5 -21.5 21.5 -54.5t-21.5 -54.5t-55.5 -21.5t-55.5 21.5t-21.5 54.5t21.5 54.5t55.5 21.5t55.5 -21.5z" />
    <glyph glyph-name="uni0191" unicode="&#x191;" horiz-adv-x="441" 
d="M199 595v-210h188v-96h-188v-343q0 -80 -45 -121.5t-121 -41.5q-73 0 -122 40l46 76q18 -10 31 -14.5t32 -4.5q49 0 49 59v752h359l-13 -96h-216z" />
    <glyph glyph-name="G" unicode="G" horiz-adv-x="582" 
d="M439.5 685.5q48.5 -20.5 91.5 -60.5l-67 -69q-34 28 -63.5 40t-67.5 12q-72 0 -115.5 -61.5t-43.5 -200.5q0 -98 15.5 -155.5t46.5 -82t79 -24.5q52 0 95 26v184h-90l-13 96h228v-337q-48 -32 -104 -50t-114 -18q-278 0 -278 361q0 117 38.5 198t104 121.5t147.5 40.5
q62 0 110.5 -20.5z" />
    <glyph glyph-name="uni01F4" unicode="&#x1f4;" horiz-adv-x="582" 
d="M439.5 685.5q48.5 -20.5 91.5 -60.5l-67 -69q-34 28 -63.5 40t-67.5 12q-72 0 -115.5 -61.5t-43.5 -200.5q0 -98 15.5 -155.5t46.5 -82t79 -24.5q52 0 95 26v184h-90l-13 96h228v-337q-48 -32 -104 -50t-114 -18q-278 0 -278 361q0 117 38.5 198t104 121.5t147.5 40.5
q62 0 110.5 -20.5zM391 932l49 -96l-209 -83l-32 64z" />
    <glyph glyph-name="uni0194" unicode="&#x194;" horiz-adv-x="517" 
d="M329 81q32 -62 45.5 -102.5t13.5 -82.5q0 -54 -31.5 -83.5t-96.5 -29.5q-64 0 -95.5 29.5t-31.5 82.5q0 37 13.5 78t45.5 108l-195 610h134l130 -525l130 525h129zM280.5 -53q-6.5 23 -20.5 60q-27 -69 -27 -104q0 -33 27 -33t27 34q0 20 -6.5 43z" />
    <glyph glyph-name="Gbreve" unicode="&#x11e;" horiz-adv-x="582" 
d="M439.5 685.5q48.5 -20.5 91.5 -60.5l-67 -69q-34 28 -63.5 40t-67.5 12q-72 0 -115.5 -61.5t-43.5 -200.5q0 -98 15.5 -155.5t46.5 -82t79 -24.5q52 0 95 26v184h-90l-13 96h228v-337q-48 -32 -104 -50t-114 -18q-278 0 -278 361q0 117 38.5 198t104 121.5t147.5 40.5
q62 0 110.5 -20.5zM215.5 793.5q-39.5 39.5 -44.5 103.5l71 14q18 -67 78 -67q30 0 50 17.5t28 49.5l71 -14q-5 -64 -45 -103.5t-104 -39.5q-65 0 -104.5 39.5z" />
    <glyph glyph-name="Gcaron" unicode="&#x1e6;" horiz-adv-x="582" 
d="M439.5 685.5q48.5 -20.5 91.5 -60.5l-67 -69q-34 28 -63.5 40t-67.5 12q-72 0 -115.5 -61.5t-43.5 -200.5q0 -98 15.5 -155.5t46.5 -82t79 -24.5q52 0 95 26v184h-90l-13 96h228v-337q-48 -32 -104 -50t-114 -18q-278 0 -278 361q0 117 38.5 198t104 121.5t147.5 40.5
q62 0 110.5 -20.5zM438 924l47 -51l-126 -121h-77l-126 121l47 51l117 -82z" />
    <glyph glyph-name="Gcircumflex" unicode="&#x11c;" horiz-adv-x="582" 
d="M439.5 685.5q48.5 -20.5 91.5 -60.5l-67 -69q-34 28 -63.5 40t-67.5 12q-72 0 -115.5 -61.5t-43.5 -200.5q0 -98 15.5 -155.5t46.5 -82t79 -24.5q52 0 95 26v184h-90l-13 96h228v-337q-48 -32 -104 -50t-114 -18q-278 0 -278 361q0 117 38.5 198t104 121.5t147.5 40.5
q62 0 110.5 -20.5zM201 759l-46 51l126 121h77l126 -121l-47 -51l-118 82z" />
    <glyph glyph-name="Gcommaaccent" unicode="&#x122;" horiz-adv-x="582" 
d="M439.5 685.5q48.5 -20.5 91.5 -60.5l-67 -69q-34 28 -63.5 40t-67.5 12q-72 0 -115.5 -61.5t-43.5 -200.5q0 -98 15.5 -155.5t46.5 -82t79 -24.5q52 0 95 26v184h-90l-13 96h228v-337q-48 -32 -104 -50t-114 -18q-278 0 -278 361q0 117 38.5 198t104 121.5t147.5 40.5
q62 0 110.5 -20.5zM362.5 -91q18.5 -19 18.5 -48q0 -16 -5 -32.5t-19 -47.5l-40 -91h-64l27 115q-30 21 -30 56q0 28 18.5 47.5t47.5 19.5q28 0 46.5 -19z" />
    <glyph glyph-name="Gdotaccent" unicode="&#x120;" horiz-adv-x="582" 
d="M439.5 685.5q48.5 -20.5 91.5 -60.5l-67 -69q-34 28 -63.5 40t-67.5 12q-72 0 -115.5 -61.5t-43.5 -200.5q0 -98 15.5 -155.5t46.5 -82t79 -24.5q52 0 95 26v184h-90l-13 96h228v-337q-48 -32 -104 -50t-114 -18q-278 0 -278 361q0 117 38.5 198t104 121.5t147.5 40.5
q62 0 110.5 -20.5zM375.5 899.5q21.5 -21.5 21.5 -54.5t-21.5 -54.5t-55.5 -21.5t-55.5 21.5t-21.5 54.5t21.5 54.5t55.5 21.5t55.5 -21.5z" />
    <glyph glyph-name="uni0193" unicode="&#x193;" horiz-adv-x="548" 
d="M682 805l-40 -77q-16 10 -30 14.5t-32 4.5q-25 0 -37 -14.5t-12 -46.5v-61l-61 -64q-35 24 -67 35.5t-70 11.5q-72 0 -115.5 -61.5t-43.5 -200.5q0 -98 15.5 -155.5t46.5 -82t79 -24.5q52 0 95 26v184h-90l-13 96h228v-337q-48 -32 -104 -50t-116 -18q-136 0 -206 90
t-70 271q0 116 38 197.5t101.5 122t139.5 40.5q55 0 100 -21v5q0 73 38 113t108 40q64 0 118 -38z" />
    <glyph glyph-name="uni0241" unicode="&#x241;" horiz-adv-x="444" 
d="M132 325l54 16q56 17 81.5 50t25.5 95q0 56 -25 89t-72 33q-34 0 -64.5 -14.5t-63.5 -43.5l-64 67q44 44 94.5 66.5t110.5 22.5q67 0 116.5 -27t76 -76t26.5 -112q0 -88 -37 -133t-107 -71l-22 -9v-278h-130v325z" />
    <glyph glyph-name="uni01E4" unicode="&#x1e4;" horiz-adv-x="596" 
d="M596 174h-61v-121q-100 -68 -221 -68q-135 0 -205 91t-70 270q0 114 38.5 195.5t104 123t146.5 41.5q64 0 112.5 -20.5t90.5 -60.5l-68 -71q-33 28 -62 41t-67 13q-72 0 -116 -63.5t-44 -198.5q0 -141 35 -201.5t107 -60.5q53 0 102 27v63h-99v83h99v54h-99l-12 88h228
v-142h61v-83z" />
    <glyph glyph-name="uni021C" unicode="&#x21c;" horiz-adv-x="464" 
d="M320 682q47 -24 71.5 -66t24.5 -95q0 -133 -139 -163q158 -16 158 -162q0 -106 -90.5 -185.5t-282.5 -118.5l-11 100q97 26 151 57t75.5 67t21.5 84q0 106 -120 106h-62l15 97h49q48 0 75 27.5t27 77.5q0 46 -21.5 73t-67.5 27q-63 0 -131 -59l-62 69q90 88 208 88
q64 0 111 -24z" />
    <glyph glyph-name="H" unicode="H" horiz-adv-x="606" 
d="M407 0v310h-208v-310h-130v691h130v-278h208v278h130v-691h-130z" />
    <glyph glyph-name="Hbar" unicode="&#x126;" horiz-adv-x="615" 
d="M595 584v-80h-53v-504h-130v310h-208v-310h-130v504h-55v80h55v107h130v-107h208v107h130v-107h53zM412 413v91h-208v-91h208z" />
    <glyph glyph-name="uni021E" unicode="&#x21e;" horiz-adv-x="606" 
d="M407 0v310h-208v-310h-130v691h130v-278h208v278h130v-691h-130zM421 924l47 -51l-126 -121h-77l-126 121l47 51l117 -82z" />
    <glyph glyph-name="Hcircumflex" unicode="&#x124;" horiz-adv-x="606" 
d="M407 0v310h-208v-310h-130v691h130v-278h208v278h130v-691h-130zM184 759l-46 51l126 121h77l126 -121l-47 -51l-118 82z" />
    <glyph glyph-name="uni1E24" unicode="&#x1e24;" horiz-adv-x="606" 
d="M407 0v310h-208v-310h-130v691h130v-278h208v278h130v-691h-130zM247.5 -197.5q-21.5 21.5 -21.5 54.5t21.5 54.5t55.5 21.5t55.5 -21.5t21.5 -54.5t-21.5 -54.5t-55.5 -21.5t-55.5 21.5z" />
    <glyph glyph-name="uniA7AA" unicode="&#xa7aa;" horiz-adv-x="717" 
d="M648 691v-691h-130v310h-208v-310h-130v595h-24q-24 0 -35 -11.5t-11 -34.5q0 -29 18 -70l-82 -38q-19 30 -30 57t-11 61q0 60 40.5 96t115.5 36h149v-278h208v278h130z" />
    <glyph glyph-name="uniA78D" unicode="&#xa78d;" horiz-adv-x="558" 
d="M489 691v-691h-130v266q-34 -29 -68 -42.5t-78 -13.5q-85 0 -136.5 55.5t-51.5 152.5v273h128v-267q0 -60 24 -86.5t71 -26.5q67 0 111 47v333h130z" />
    <glyph glyph-name="uniA78D.ss02" horiz-adv-x="542" 
d="M343 0v256h-313v435h130v-332h183v332h130v-691h-130z" />
    <glyph glyph-name="uni01F6" unicode="&#x1f6;" horiz-adv-x="864" 
d="M810.5 388q6.5 -64 6.5 -133q0 -94 -32 -154.5t-83 -88t-111 -27.5q-80 0 -132 46t-52 130v149h-208v-310h-130v691h130v-278h208v278h130v-527q0 -84 62 -84q40 0 66.5 41.5t26.5 140.5q0 115 -24 267h124q12 -77 18.5 -141z" />
    <glyph glyph-name="I" unicode="I" horiz-adv-x="268" 
d="M199 691v-691h-130v691h130z" />
    <glyph glyph-name="IJ" unicode="&#x132;" horiz-adv-x="551" 
d="M199 691v-691h-130v691h130zM486 101q0 -110 -49.5 -166t-140.5 -88l-34 92q40 18 60 39t27 50t7 78v585h130v-590z" />
    <glyph glyph-name="Iacute" unicode="&#xcd;" horiz-adv-x="268" 
d="M199 691v-691h-130v691h130zM204 932l49 -96l-209 -83l-32 64z" />
    <glyph glyph-name="Ibreve" unicode="&#x12c;" horiz-adv-x="268" 
d="M199 691v-691h-130v691h130zM28.5 793.5q-39.5 39.5 -44.5 103.5l71 14q18 -67 78 -67q30 0 50 17.5t28 49.5l71 -14q-5 -64 -45 -103.5t-104 -39.5q-65 0 -104.5 39.5z" />
    <glyph glyph-name="uni01CF" unicode="&#x1cf;" horiz-adv-x="268" 
d="M199 691v-691h-130v691h130zM251 924l47 -51l-126 -121h-77l-126 121l47 51l117 -82z" />
    <glyph glyph-name="Icircumflex" unicode="&#xce;" horiz-adv-x="268" 
d="M199 691v-691h-130v691h130zM14 759l-46 51l126 121h77l126 -121l-47 -51l-118 82z" />
    <glyph glyph-name="uni0208" unicode="&#x208;" horiz-adv-x="268" 
d="M199 691v-691h-130v691h130zM17 970l83 -184l-66 -30l-105 169zM168 970l75 -181l-66 -29l-97 166z" />
    <glyph glyph-name="Idieresis" unicode="&#xcf;" horiz-adv-x="268" 
d="M199 691v-691h-130v691h130zM82 889.5q19 -19.5 19 -47.5q0 -29 -19 -48.5t-48 -19.5t-48 19.5t-19 48.5q0 28 19.5 47.5t47.5 19.5q29 0 48 -19.5zM285 889.5q19 -19.5 19 -47.5q0 -29 -19 -48.5t-48 -19.5t-48.5 19.5t-19.5 48.5q0 28 20 47.5t48 19.5q29 0 48 -19.5z
" />
    <glyph glyph-name="uni1E2E" unicode="&#x1e2e;" horiz-adv-x="268" 
d="M199 691v-691h-130v691h130zM205 1056l73 -66l-140 -136l-49 42zM76 863.5q19 -19.5 19 -48.5t-19 -48.5t-48 -19.5q-28 0 -47.5 19.5t-19.5 48.5t19.5 48.5t47.5 19.5q29 0 48 -19.5zM285.5 863.5q19.5 -19.5 19.5 -48.5t-19.5 -48.5t-47.5 -19.5t-47.5 19.5t-19.5 48.5
t19.5 48.5t47.5 19.5t47.5 -19.5z" />
    <glyph glyph-name="Idotaccent" unicode="&#x130;" horiz-adv-x="268" 
d="M199 691v-691h-130v691h130zM188.5 899.5q21.5 -21.5 21.5 -54.5t-21.5 -54.5t-55.5 -21.5t-55.5 21.5t-21.5 54.5t21.5 54.5t55.5 21.5t55.5 -21.5z" />
    <glyph glyph-name="uni1ECA" unicode="&#x1eca;" horiz-adv-x="268" 
d="M199 691v-691h-130v691h130zM78.5 -197.5q-21.5 21.5 -21.5 54.5t21.5 54.5t55.5 21.5t55.5 -21.5t21.5 -54.5t-21.5 -54.5t-55.5 -21.5t-55.5 21.5z" />
    <glyph glyph-name="Igrave" unicode="&#xcc;" horiz-adv-x="268" 
d="M199 691v-691h-130v691h130zM57 932l192 -115l-32 -64l-209 82z" />
    <glyph glyph-name="uni1EC8" unicode="&#x1ec8;" horiz-adv-x="268" 
d="M199 691v-691h-130v691h130zM94 850q35 4 49 12t14 29q0 33 -36 33q-15 0 -26.5 -3t-27.5 -9l-22 57q40 25 94 25q51 0 79 -26t28 -70q0 -75 -74 -89v-45h-78v86z" />
    <glyph glyph-name="uni020A" unicode="&#x20a;" horiz-adv-x="268" 
d="M199 691v-691h-130v691h130zM237.5 895q39.5 -41 44.5 -112l-71 -13q-17 77 -78 77q-60 0 -78 -77l-71 13q5 71 44.5 112t104.5 41t104.5 -41z" />
    <glyph glyph-name="Imacron" unicode="&#x12a;" horiz-adv-x="268" 
d="M199 691v-691h-130v691h130zM266 788h-266v88h266v-88z" />
    <glyph glyph-name="Iogonek" unicode="&#x12e;" horiz-adv-x="268" 
d="M199 691v-691h-23q-62 -28 -84.5 -54t-22.5 -55q0 -47 49 -47q17 0 54 7l-9 -82q-33 -7 -61 -7q-57 0 -92 29t-35 79q0 82 94 135v686h130z" />
    <glyph glyph-name="uni0196" unicode="&#x196;" horiz-adv-x="346" 
d="M347 26q-49 -40 -122 -40q-76 0 -121 41.5t-45 121.5v542h130v-549q0 -59 49 -59q19 0 32 4.5t31 14.5z" />
    <glyph glyph-name="uni0197" unicode="&#x197;" horiz-adv-x="294" 
d="M285 408v-97h-73v-311h-130v311h-74v97h74v283h130v-283h73z" />
    <glyph glyph-name="Itilde" unicode="&#x128;" horiz-adv-x="268" 
d="M199 691v-691h-130v691h130zM154.5 780.5q-13.5 6.5 -33.5 19.5q-23 18 -39 18q-15 0 -25.5 -10.5t-22.5 -33.5l-64 31q18 46 46 73.5t64 27.5q19 0 33.5 -7t32.5 -19q2 -2 10.5 -7.5t16 -8t13.5 -2.5q14 0 24 10t23 33l64 -31q-17 -48 -45.5 -74t-64.5 -26
q-19 0 -32.5 6.5z" />
    <glyph glyph-name="J" unicode="J" horiz-adv-x="283" 
d="M218 101q0 -110 -49.5 -166t-140.5 -88l-34 92q40 18 60 39t27 50t7 78v585h130v-590z" />
    <glyph glyph-name="Jcircumflex" unicode="&#x134;" horiz-adv-x="283" 
d="M218 101q0 -110 -49.5 -166t-140.5 -88l-34 92q40 18 60 39t27 50t7 78v585h130v-590zM34 759l-46 51l126 121h77l126 -121l-47 -51l-118 82z" />
    <glyph glyph-name="uniA7B2" unicode="&#xa7b2;" horiz-adv-x="315" 
d="M317 -103q-36 17 -77 31q-29 -145 -184 -145q-64 0 -98.5 30t-34.5 83q0 58 39.5 89t111.5 31q31 0 42 -2v677h130v-693v-3q47 -14 98 -41zM100.5 -123q14.5 22 15.5 71q-15 4 -42 4q-36 0 -52.5 -13t-16.5 -39q0 -45 47 -45q34 0 48.5 22z" />
    <glyph glyph-name="uni0248" unicode="&#x248;" horiz-adv-x="298" 
d="M291 293h-73v-192q0 -110 -49.5 -166t-140.5 -88l-34 92q40 18 60 39t27 50t7 78v187h-74v100h74v298h130v-298h73v-100z" />
    <glyph glyph-name="K" unicode="K" horiz-adv-x="561" 
d="M199 691v-691h-130v691h130zM551 691l-212 -313l228 -378h-147l-217 369l212 322h136z" />
    <glyph glyph-name="uni01E8" unicode="&#x1e8;" horiz-adv-x="561" 
d="M199 691v-691h-130v691h130zM551 691l-212 -313l228 -378h-147l-217 369l212 322h136zM415 924l47 -51l-126 -121h-77l-126 121l47 51l117 -82z" />
    <glyph glyph-name="Kcommaaccent" unicode="&#x136;" horiz-adv-x="561" 
d="M199 691v-691h-130v691h130zM551 691l-212 -313l228 -378h-147l-217 369l212 322h136zM338.5 -91q18.5 -19 18.5 -48q0 -16 -5 -32.5t-19 -47.5l-40 -91h-64l27 115q-30 21 -30 56q0 28 18.5 47.5t47.5 19.5q28 0 46.5 -19z" />
    <glyph glyph-name="uni0198" unicode="&#x198;" horiz-adv-x="580" 
d="M203 369l126 223q33 61 67 87.5t88 26.5q32 0 56 -10t47 -27l-38 -74q-13 8 -23 12t-24 4q-20 0 -33.5 -11.5t-31.5 -42.5l-100 -179l230 -378h-147zM199 691v-691h-130v691h130z" />
    <glyph glyph-name="L" unicode="L" horiz-adv-x="456" 
d="M199 691v-585h246l-14 -106h-362v691h130z" />
    <glyph glyph-name="uni01C7" unicode="&#x1c7;" horiz-adv-x="718" 
d="M199 691v-585h246l-14 -106h-362v691h130zM653 101q0 -110 -49.5 -166t-140.5 -88l-34 92q40 18 60 39t27 50t7 78v585h130v-590z" />
    <glyph glyph-name="Lacute" unicode="&#x139;" horiz-adv-x="456" 
d="M199 691v-585h246l-14 -106h-362v691h130zM205 932l49 -96l-209 -83l-32 64z" />
    <glyph glyph-name="uni023D" unicode="&#x23d;" horiz-adv-x="469" 
d="M211 106h246l-14 -106h-362v313h-73v100h73v278h130v-278h74v-100h-74v-207z" />
    <glyph glyph-name="uniA7AD" unicode="&#xa7ad;" horiz-adv-x="534" 
d="M523 106l-14 -106h-362v256h-1q-70 2 -106 34.5t-36 88.5q0 52 31.5 81t79.5 29q16 0 32 -4v206h130v-355q53 3 106 14l12 -73q-57 -14 -118 -18v-153h246zM147 334v81q-7 2 -23 2t-24.5 -9.5t-8.5 -27.5q0 -46 55 -46h1z" />
    <glyph glyph-name="Lcaron" unicode="&#x13d;" horiz-adv-x="456" 
d="M199 691v-585h246l-14 -106h-362v691h130zM310 491l48 200l-98 13l-20 -202z" />
    <glyph glyph-name="uni1E3C" unicode="&#x1e3c;" horiz-adv-x="456" 
d="M199 691v-585h246l-14 -106h-362v691h130zM132 -244l-46 51l126 128h77l126 -128l-47 -51l-118 88z" />
    <glyph glyph-name="Lcommaaccent" unicode="&#x13b;" horiz-adv-x="456" 
d="M199 691v-585h246l-14 -106h-362v691h130zM298.5 -91q18.5 -19 18.5 -48q0 -16 -5 -32.5t-19 -47.5l-40 -91h-64l27 115q-30 21 -30 56q0 28 18.5 47.5t47.5 19.5q28 0 46.5 -19z" />
    <glyph glyph-name="Ldot" unicode="&#x13f;" horiz-adv-x="456" 
d="M199 691v-585h246l-14 -106h-362v691h130zM413.5 447.5q21.5 -21.5 21.5 -54.5t-21.5 -54.5t-55.5 -21.5t-55.5 21.5t-21.5 54.5t21.5 54.5t55.5 21.5t55.5 -21.5z" />
    <glyph glyph-name="uni1E36" unicode="&#x1e36;" horiz-adv-x="456" 
d="M199 691v-585h246l-14 -106h-362v691h130zM195.5 -197.5q-21.5 21.5 -21.5 54.5t21.5 54.5t55.5 21.5t55.5 -21.5t21.5 -54.5t-21.5 -54.5t-55.5 -21.5t-55.5 21.5z" />
    <glyph glyph-name="uni01C8" unicode="&#x1c8;" horiz-adv-x="698" 
d="M199 691v-585h246l-14 -106h-362v691h130zM631 35q0 -72 -21.5 -119t-59.5 -76.5t-99 -56.5l-41 91q35 18 55 35.5t30.5 46t10.5 74.5v499h125v-494zM624.5 773.5q21.5 -21.5 21.5 -54.5t-21.5 -54.5t-55.5 -21.5t-55.5 21.5t-21.5 54.5t21.5 54.5t55.5 21.5t55.5 -21.5z
" />
    <glyph glyph-name="Lslash" unicode="&#x141;" horiz-adv-x="486" 
d="M229 106h246l-14 -106h-362v240l-44 -30l-44 74l86 58l2 1v348h130v-260l121 81l44 -73l-165 -111v-222z" />
    <glyph glyph-name="M" unicode="M" horiz-adv-x="717" 
d="M674 0h-124l-15 291q-8 168 -8 239l1 42l-109 -497h-121l-115 498q1 -31 1 -93q0 -105 -4 -193l-14 -287h-123l48 691h165l105 -486l98 486h167z" />
    <glyph glyph-name="uni1E3E" unicode="&#x1e3e;" horiz-adv-x="717" 
d="M674 0h-124l-15 291q-8 168 -8 239l1 42l-109 -497h-121l-115 498q1 -31 1 -93q0 -105 -4 -193l-14 -287h-123l48 691h165l105 -486l98 486h167zM429 932l49 -96l-209 -83l-32 64z" />
    <glyph glyph-name="uni1E40" unicode="&#x1e40;" horiz-adv-x="717" 
d="M674 0h-124l-15 291q-8 168 -8 239l1 42l-109 -497h-121l-115 498q1 -31 1 -93q0 -105 -4 -193l-14 -287h-123l48 691h165l105 -486l98 486h167zM413.5 899.5q21.5 -21.5 21.5 -54.5t-21.5 -54.5t-55.5 -21.5t-55.5 21.5t-21.5 54.5t21.5 54.5t55.5 21.5t55.5 -21.5z" />
    <glyph glyph-name="uni019C" unicode="&#x19c;" horiz-adv-x="830" 
d="M761 691v-691h-113l-9 67q-30 -42 -64.5 -62t-77.5 -20q-47 0 -81.5 25t-52.5 68q-35 -49 -71 -71t-81 -22q-71 0 -111.5 51.5t-40.5 134.5v520h130v-515q0 -44 15.5 -67.5t44.5 -23.5q28 0 50 18t46 57v11v520h130v-515q0 -42 16 -66.5t45 -24.5q28 0 50 18t46 58v530
h129z" />
    <glyph glyph-name="N" unicode="N" horiz-adv-x="605" 
d="M536 0h-166l-202 563l3 -27q14 -140 14 -249v-287h-116v691h164l204 -563q-6 39 -11.5 104.5t-5.5 130.5v328h116v-691z" />
    <glyph glyph-name="uni01CA" unicode="&#x1ca;" horiz-adv-x="888" 
d="M536 0h-166l-202 563l3 -27q14 -140 14 -249v-287h-116v691h164l204 -563q-6 39 -11.5 104.5t-5.5 130.5v328h116v-691zM823 101q0 -110 -49.5 -166t-140.5 -88l-34 92q40 18 60 39t27 50t7 78v585h130v-590z" />
    <glyph glyph-name="Nacute" unicode="&#x143;" horiz-adv-x="605" 
d="M536 0h-166l-202 563l3 -27q14 -140 14 -249v-287h-116v691h164l204 -563q-6 39 -11.5 104.5t-5.5 130.5v328h116v-691zM379 932l49 -96l-209 -83l-32 64z" />
    <glyph glyph-name="Nacute.loclPLK" horiz-adv-x="605" 
d="M536 0h-166l-202 563l3 -27q14 -140 14 -249v-287h-116v691h164l204 -563q-6 39 -11.5 104.5t-5.5 130.5v328h116v-691zM337 945l93 -56l-125 -151l-57 34z" />
    <glyph glyph-name="Ncaron" unicode="&#x147;" horiz-adv-x="605" 
d="M536 0h-166l-202 563l3 -27q14 -140 14 -249v-287h-116v691h164l204 -563q-6 39 -11.5 104.5t-5.5 130.5v328h116v-691zM426 924l47 -51l-126 -121h-77l-126 121l47 51l117 -82z" />
    <glyph glyph-name="uni1E4A" unicode="&#x1e4a;" horiz-adv-x="605" 
d="M536 0h-166l-202 563l3 -27q14 -140 14 -249v-287h-116v691h164l204 -563q-6 39 -11.5 104.5t-5.5 130.5v328h116v-691zM184 -244l-46 51l126 128h77l126 -128l-47 -51l-118 88z" />
    <glyph glyph-name="Ncommaaccent" unicode="&#x145;" horiz-adv-x="605" 
d="M536 0h-166l-202 563l3 -27q14 -140 14 -249v-287h-116v691h164l204 -563q-6 39 -11.5 104.5t-5.5 130.5v328h116v-691zM350.5 -91q18.5 -19 18.5 -48q0 -16 -5 -32.5t-19 -47.5l-40 -91h-64l27 115q-30 21 -30 56q0 28 18.5 47.5t47.5 19.5q28 0 46.5 -19z" />
    <glyph glyph-name="uni1E44" unicode="&#x1e44;" horiz-adv-x="605" 
d="M536 0h-166l-202 563l3 -27q14 -140 14 -249v-287h-116v691h164l204 -563q-6 39 -11.5 104.5t-5.5 130.5v328h116v-691zM363.5 899.5q21.5 -21.5 21.5 -54.5t-21.5 -54.5t-55.5 -21.5t-55.5 21.5t-21.5 54.5t21.5 54.5t55.5 21.5t55.5 -21.5z" />
    <glyph glyph-name="uni1E46" unicode="&#x1e46;" horiz-adv-x="605" 
d="M536 0h-166l-202 563l3 -27q14 -140 14 -249v-287h-116v691h164l204 -563q-6 39 -11.5 104.5t-5.5 130.5v328h116v-691zM247.5 -197.5q-21.5 21.5 -21.5 54.5t21.5 54.5t55.5 21.5t55.5 -21.5t21.5 -54.5t-21.5 -54.5t-55.5 -21.5t-55.5 21.5z" />
    <glyph glyph-name="uni01F8" unicode="&#x1f8;" horiz-adv-x="605" 
d="M536 0h-166l-202 563l3 -27q14 -140 14 -249v-287h-116v691h164l204 -563q-6 39 -11.5 104.5t-5.5 130.5v328h116v-691zM232 932l192 -115l-32 -64l-209 82z" />
    <glyph glyph-name="Eng" unicode="&#x14a;" horiz-adv-x="605" 
d="M536 691v-745q0 -80 -45 -121.5t-121 -41.5q-73 0 -122 40l46 76q18 -10 31 -14.5t32 -4.5q49 0 49 59v61h-36l-202 563l3 -27q14 -140 14 -249v-287h-116v691h164l204 -563q-6 39 -11.5 104.5t-5.5 130.5v328h116z" />
    <glyph glyph-name="Eng.ss01" horiz-adv-x="596" 
d="M491 656q42 -50 42 -132v-578q0 -80 -45 -121.5t-121 -41.5q-73 0 -122 40l46 76q18 -10 31 -14.5t32 -4.5q49 0 49 59v563q0 54 -18 79t-57 25q-38 0 -67 -19t-62 -57v-530h-130v691h113l10 -70q38 42 80.5 63.5t95.5 21.5q81 0 123 -50z" />
    <glyph glyph-name="uni019D" unicode="&#x19d;" horiz-adv-x="605" 
d="M536 691v-691h-166l-202 563l3 -27q14 -140 14 -249v-341q0 -79 -43 -121t-114 -42t-120 40l46 73q18 -11 31.5 -15.5t32.5 -4.5q51 0 51 61v754h164l204 -563q-6 39 -11.5 104.5t-5.5 130.5v328h116z" />
    <glyph glyph-name="uni019D.ss01" horiz-adv-x="596" 
d="M491 656q42 -50 42 -132v-524h-130v502q0 54 -18 79t-57 25q-38 0 -67 -19t-62 -57v-584q0 -80 -45 -121.5t-121 -41.5q-73 0 -122 40l46 76q18 -10 31 -14.5t32 -4.5q49 0 49 59v752h113l10 -70q38 42 80.5 63.5t95.5 21.5q81 0 123 -50z" />
    <glyph glyph-name="uni01CB" unicode="&#x1cb;" horiz-adv-x="862" 
d="M536 0h-166l-202 563l3 -27q14 -140 14 -249v-287h-116v691h164l204 -563q-6 39 -11.5 104.5t-5.5 130.5v328h116v-691zM795 35q0 -72 -21.5 -119t-59.5 -76.5t-99 -56.5l-41 91q35 18 55 35.5t30.5 46t10.5 74.5v499h125v-494zM788.5 773.5q21.5 -21.5 21.5 -54.5
t-21.5 -54.5t-55.5 -21.5t-55.5 21.5t-21.5 54.5t21.5 54.5t55.5 21.5t55.5 -21.5z" />
    <glyph glyph-name="uni0220" unicode="&#x220;" horiz-adv-x="596" 
d="M491 656q42 -50 42 -132v-730h-130v708q0 54 -18 79t-57 25q-38 0 -67 -19t-62 -57v-530h-130v691h113l10 -70q38 42 80.5 63.5t95.5 21.5q81 0 123 -50z" />
    <glyph glyph-name="Ntilde" unicode="&#xd1;" horiz-adv-x="605" 
d="M536 0h-166l-202 563l3 -27q14 -140 14 -249v-287h-116v691h164l204 -563q-6 39 -11.5 104.5t-5.5 130.5v328h116v-691zM329.5 780.5q-13.5 6.5 -33.5 19.5q-23 18 -39 18q-15 0 -25.5 -10.5t-22.5 -33.5l-64 31q18 46 46 73.5t64 27.5q19 0 33.5 -7t32.5 -19
q2 -2 10.5 -7.5t16 -8t13.5 -2.5q14 0 24 10t23 33l64 -31q-17 -48 -45.5 -74t-64.5 -26q-19 0 -32.5 6.5z" />
    <glyph glyph-name="O" unicode="O" horiz-adv-x="628" 
d="M517 614.5q73 -91.5 73 -268.5q0 -175 -73 -268t-203 -93q-129 0 -202 92t-73 268q0 174 73 267.5t202 93.5q130 0 203 -91.5zM210 546q-35 -61 -35 -201q0 -139 35.5 -200t103.5 -61q71 0 105.5 60.5t34.5 201.5q0 139 -34.5 200t-105.5 61q-69 0 -104 -61z" />
    <glyph glyph-name="uni0222" unicode="&#x222;" horiz-adv-x="592" 
d="M521.5 325q31.5 -46 31.5 -112q0 -61 -31 -113.5t-89.5 -83.5t-136.5 -31t-136.5 30.5t-89.5 82.5t-31 115t31.5 109.5t90.5 69.5q-42 22 -63.5 57.5t-21.5 82.5v159h130v-162q0 -45 20.5 -69.5t69.5 -24.5t70 26.5t21 67.5v162h130v-159q0 -45 -22 -80t-64 -58
q59 -23 90.5 -69zM387 116q30 32 30 98q0 60 -30.5 92.5t-90.5 32.5t-90.5 -32.5t-30.5 -92.5q0 -130 121 -130q61 0 91 32z" />
    <glyph glyph-name="Oacute" unicode="&#xd3;" horiz-adv-x="628" 
d="M517 614.5q73 -91.5 73 -268.5q0 -175 -73 -268t-203 -93q-129 0 -202 92t-73 268q0 174 73 267.5t202 93.5q130 0 203 -91.5zM210 546q-35 -61 -35 -201q0 -139 35.5 -200t103.5 -61q71 0 105.5 60.5t34.5 201.5q0 139 -34.5 200t-105.5 61q-69 0 -104 -61zM385 932
l49 -96l-209 -83l-32 64z" />
    <glyph glyph-name="Oacute.loclPLK" horiz-adv-x="628" 
d="M517 614.5q73 -91.5 73 -268.5q0 -175 -73 -268t-203 -93q-129 0 -202 92t-73 268q0 174 73 267.5t202 93.5q130 0 203 -91.5zM210 546q-35 -61 -35 -201q0 -139 35.5 -200t103.5 -61q71 0 105.5 60.5t34.5 201.5q0 139 -34.5 200t-105.5 61q-69 0 -104 -61zM343 945
l93 -56l-125 -151l-57 34z" />
    <glyph glyph-name="Obreve" unicode="&#x14e;" horiz-adv-x="628" 
d="M517 614.5q73 -91.5 73 -268.5q0 -175 -73 -268t-203 -93q-129 0 -202 92t-73 268q0 174 73 267.5t202 93.5q130 0 203 -91.5zM210 546q-35 -61 -35 -201q0 -139 35.5 -200t103.5 -61q71 0 105.5 60.5t34.5 201.5q0 139 -34.5 200t-105.5 61q-69 0 -104 -61zM209.5 793.5
q-39.5 39.5 -44.5 103.5l71 14q18 -67 78 -67q30 0 50 17.5t28 49.5l71 -14q-5 -64 -45 -103.5t-104 -39.5q-65 0 -104.5 39.5z" />
    <glyph glyph-name="uni01D1" unicode="&#x1d1;" horiz-adv-x="628" 
d="M517 614.5q73 -91.5 73 -268.5q0 -175 -73 -268t-203 -93q-129 0 -202 92t-73 268q0 174 73 267.5t202 93.5q130 0 203 -91.5zM210 546q-35 -61 -35 -201q0 -139 35.5 -200t103.5 -61q71 0 105.5 60.5t34.5 201.5q0 139 -34.5 200t-105.5 61q-69 0 -104 -61zM432 924
l47 -51l-126 -121h-77l-126 121l47 51l117 -82z" />
    <glyph glyph-name="uni019F" unicode="&#x19f;" horiz-adv-x="628" 
d="M517 614.5q73 -91.5 73 -268.5q0 -175 -73 -268t-203 -93q-129 0 -202 92t-73 268q0 174 73 267.5t202 93.5q130 0 203 -91.5zM213 556.5q-36 -50.5 -43 -164.5h288q-6 114 -42 164.5t-102 50.5q-65 0 -101 -50.5zM418 136.5q36 52.5 40 173.5h-288q4 -120 41 -173
t103 -53q68 0 104 52.5z" />
    <glyph glyph-name="Ocircumflex" unicode="&#xd4;" horiz-adv-x="628" 
d="M517 614.5q73 -91.5 73 -268.5q0 -175 -73 -268t-203 -93q-129 0 -202 92t-73 268q0 174 73 267.5t202 93.5q130 0 203 -91.5zM210 546q-35 -61 -35 -201q0 -139 35.5 -200t103.5 -61q71 0 105.5 60.5t34.5 201.5q0 139 -34.5 200t-105.5 61q-69 0 -104 -61zM195 759
l-46 51l126 121h77l126 -121l-47 -51l-118 82z" />
    <glyph glyph-name="uni1ED0" unicode="&#x1ed0;" horiz-adv-x="628" 
d="M517 614.5q73 -91.5 73 -268.5q0 -175 -73 -268t-203 -93q-129 0 -202 92t-73 268q0 174 73 267.5t202 93.5q130 0 203 -91.5zM210 546q-35 -61 -35 -201q0 -139 35.5 -200t103.5 -61q71 0 105.5 60.5t34.5 201.5q0 139 -34.5 200t-105.5 61q-69 0 -104 -61zM195 721
l-46 51l126 121h77l126 -121l-47 -51l-118 82zM518 1056l73 -66l-140 -136l-49 42z" />
    <glyph glyph-name="uni1ED8" unicode="&#x1ed8;" horiz-adv-x="628" 
d="M517 614.5q73 -91.5 73 -268.5q0 -175 -73 -268t-203 -93q-129 0 -202 92t-73 268q0 174 73 267.5t202 93.5q130 0 203 -91.5zM210 546q-35 -61 -35 -201q0 -139 35.5 -200t103.5 -61q71 0 105.5 60.5t34.5 201.5q0 139 -34.5 200t-105.5 61q-69 0 -104 -61zM195 759
l-46 51l126 121h77l126 -121l-47 -51l-118 82zM258.5 -197.5q-21.5 21.5 -21.5 54.5t21.5 54.5t55.5 21.5t55.5 -21.5t21.5 -54.5t-21.5 -54.5t-55.5 -21.5t-55.5 21.5z" />
    <glyph glyph-name="uni1ED2" unicode="&#x1ed2;" horiz-adv-x="628" 
d="M517 614.5q73 -91.5 73 -268.5q0 -175 -73 -268t-203 -93q-129 0 -202 92t-73 268q0 174 73 267.5t202 93.5q130 0 203 -91.5zM210 546q-35 -61 -35 -201q0 -139 35.5 -200t103.5 -61q71 0 105.5 60.5t34.5 201.5q0 139 -34.5 200t-105.5 61q-69 0 -104 -61zM195 721
l-46 51l126 121h77l126 -121l-47 -51l-118 82zM109 1056l117 -160l-50 -42l-141 136z" />
    <glyph glyph-name="uni1ED4" unicode="&#x1ed4;" horiz-adv-x="628" 
d="M517 614.5q73 -91.5 73 -268.5q0 -175 -73 -268t-203 -93q-129 0 -202 92t-73 268q0 174 73 267.5t202 93.5q130 0 203 -91.5zM210 546q-35 -61 -35 -201q0 -139 35.5 -200t103.5 -61q71 0 105.5 60.5t34.5 201.5q0 139 -34.5 200t-105.5 61q-69 0 -104 -61zM195 721
l-46 51l126 121h77l126 -121l-47 -51l-118 82zM423 923q35 4 49 12t14 29q0 33 -36 33q-15 0 -26.5 -3t-27.5 -9l-22 57q40 25 94 25q51 0 79 -26t28 -70q0 -75 -74 -89v-45h-78v86z" />
    <glyph glyph-name="uni1ED6" unicode="&#x1ed6;" horiz-adv-x="628" 
d="M517 614.5q73 -91.5 73 -268.5q0 -175 -73 -268t-203 -93q-129 0 -202 92t-73 268q0 174 73 267.5t202 93.5q130 0 203 -91.5zM210 546q-35 -61 -35 -201q0 -139 35.5 -200t103.5 -61q71 0 105.5 60.5t34.5 201.5q0 139 -34.5 200t-105.5 61q-69 0 -104 -61zM194 721
l-46 51l126 121h77l126 -121l-47 -51l-118 82zM335.5 929.5q-13.5 5.5 -23 11.5t-12.5 8q-23 18 -39 18q-15 0 -25 -10t-23 -33l-64 30q18 44 46 71t64 27q19 0 33 -6.5t33 -18.5q13 -9 22 -13.5t18 -4.5q14 0 24 10t23 32l64 -30q-17 -46 -45.5 -71.5t-64.5 -25.5
q-17 0 -30.5 5.5z" />
    <glyph glyph-name="uni020C" unicode="&#x20c;" horiz-adv-x="628" 
d="M517 614.5q73 -91.5 73 -268.5q0 -175 -73 -268t-203 -93q-129 0 -202 92t-73 268q0 174 73 267.5t202 93.5q130 0 203 -91.5zM210 546q-35 -61 -35 -201q0 -139 35.5 -200t103.5 -61q71 0 105.5 60.5t34.5 201.5q0 139 -34.5 200t-105.5 61q-69 0 -104 -61zM198 970
l83 -184l-66 -30l-105 169zM349 970l75 -181l-66 -29l-97 166z" />
    <glyph glyph-name="Odieresis" unicode="&#xd6;" horiz-adv-x="628" 
d="M517 614.5q73 -91.5 73 -268.5q0 -175 -73 -268t-203 -93q-129 0 -202 92t-73 268q0 174 73 267.5t202 93.5q130 0 203 -91.5zM210 546q-35 -61 -35 -201q0 -139 35.5 -200t103.5 -61q71 0 105.5 60.5t34.5 201.5q0 139 -34.5 200t-105.5 61q-69 0 -104 -61zM263 889.5
q19 -19.5 19 -47.5q0 -29 -19 -48.5t-48 -19.5t-48 19.5t-19 48.5q0 28 19.5 47.5t47.5 19.5q29 0 48 -19.5zM466 889.5q19 -19.5 19 -47.5q0 -29 -19 -48.5t-48 -19.5t-48.5 19.5t-19.5 48.5q0 28 20 47.5t48 19.5q29 0 48 -19.5z" />
    <glyph glyph-name="uni022A" unicode="&#x22a;" horiz-adv-x="628" 
d="M517 614.5q73 -91.5 73 -268.5q0 -175 -73 -268t-203 -93q-129 0 -202 92t-73 268q0 174 73 267.5t202 93.5q130 0 203 -91.5zM210 546q-35 -61 -35 -201q0 -139 35.5 -200t103.5 -61q71 0 105.5 60.5t34.5 201.5q0 139 -34.5 200t-105.5 61q-69 0 -104 -61zM261 861.5
q19 -19.5 19 -47.5q0 -29 -19 -48.5t-48 -19.5t-48 19.5t-19 48.5q0 28 19.5 47.5t47.5 19.5q29 0 48 -19.5zM464 861.5q19 -19.5 19 -47.5q0 -29 -19 -48.5t-48 -19.5t-48.5 19.5t-19.5 48.5q0 28 20 47.5t48 19.5q29 0 48 -19.5zM449 925h-266v88h266v-88z" />
    <glyph glyph-name="uni022E" unicode="&#x22e;" horiz-adv-x="628" 
d="M517 614.5q73 -91.5 73 -268.5q0 -175 -73 -268t-203 -93q-129 0 -202 92t-73 268q0 174 73 267.5t202 93.5q130 0 203 -91.5zM210 546q-35 -61 -35 -201q0 -139 35.5 -200t103.5 -61q71 0 105.5 60.5t34.5 201.5q0 139 -34.5 200t-105.5 61q-69 0 -104 -61zM369.5 899.5
q21.5 -21.5 21.5 -54.5t-21.5 -54.5t-55.5 -21.5t-55.5 21.5t-21.5 54.5t21.5 54.5t55.5 21.5t55.5 -21.5z" />
    <glyph glyph-name="uni0230" unicode="&#x230;" horiz-adv-x="628" 
d="M517 614.5q73 -91.5 73 -268.5q0 -175 -73 -268t-203 -93q-129 0 -202 92t-73 268q0 174 73 267.5t202 93.5q130 0 203 -91.5zM210 546q-35 -61 -35 -201q0 -139 35.5 -200t103.5 -61q71 0 105.5 60.5t34.5 201.5q0 139 -34.5 200t-105.5 61q-69 0 -104 -61zM369.5 868.5
q21.5 -21.5 21.5 -54.5t-21.5 -54.5t-55.5 -21.5t-55.5 21.5t-21.5 54.5t21.5 54.5t55.5 21.5t55.5 -21.5zM448 925h-266v88h266v-88z" />
    <glyph glyph-name="uni1ECC" unicode="&#x1ecc;" horiz-adv-x="628" 
d="M517 614.5q73 -91.5 73 -268.5q0 -175 -73 -268t-203 -93q-129 0 -202 92t-73 268q0 174 73 267.5t202 93.5q130 0 203 -91.5zM210 546q-35 -61 -35 -201q0 -139 35.5 -200t103.5 -61q71 0 105.5 60.5t34.5 201.5q0 139 -34.5 200t-105.5 61q-69 0 -104 -61z
M258.5 -197.5q-21.5 21.5 -21.5 54.5t21.5 54.5t55.5 21.5t55.5 -21.5t21.5 -54.5t-21.5 -54.5t-55.5 -21.5t-55.5 21.5z" />
    <glyph glyph-name="Ograve" unicode="&#xd2;" horiz-adv-x="628" 
d="M517 614.5q73 -91.5 73 -268.5q0 -175 -73 -268t-203 -93q-129 0 -202 92t-73 268q0 174 73 267.5t202 93.5q130 0 203 -91.5zM210 546q-35 -61 -35 -201q0 -139 35.5 -200t103.5 -61q71 0 105.5 60.5t34.5 201.5q0 139 -34.5 200t-105.5 61q-69 0 -104 -61zM238 932
l192 -115l-32 -64l-209 82z" />
    <glyph glyph-name="uni1ECE" unicode="&#x1ece;" horiz-adv-x="628" 
d="M517 614.5q73 -91.5 73 -268.5q0 -175 -73 -268t-203 -93q-129 0 -202 92t-73 268q0 174 73 267.5t202 93.5q130 0 203 -91.5zM210 546q-35 -61 -35 -201q0 -139 35.5 -200t103.5 -61q71 0 105.5 60.5t34.5 201.5q0 139 -34.5 200t-105.5 61q-69 0 -104 -61zM275 850
q35 4 49 12t14 29q0 33 -36 33q-15 0 -26.5 -3t-27.5 -9l-22 57q40 25 94 25q51 0 79 -26t28 -70q0 -75 -74 -89v-45h-78v86z" />
    <glyph glyph-name="Ohorn" unicode="&#x1a0;" horiz-adv-x="654" 
d="M609 612q-23 -28 -66 -37q47 -91 47 -229q0 -175 -73 -268t-203 -93q-129 0 -202 92t-73 268q0 174 73 267.5t202 93.5q116 0 185 -72q24 4 34 16t10 36q0 38 -12 72l84 15q17 -38 17 -87q0 -46 -23 -74zM419.5 144.5q34.5 60.5 34.5 201.5q0 139 -34.5 200t-105.5 61
q-69 0 -104 -61t-35 -201q0 -139 35.5 -200t103.5 -61q71 0 105.5 60.5z" />
    <glyph glyph-name="uni1EDA" unicode="&#x1eda;" horiz-adv-x="654" 
d="M434 836l-209 -83l-32 64l192 115zM609 612q-23 -28 -66 -37q47 -91 47 -229q0 -175 -73 -268t-203 -93q-129 0 -202 92t-73 268q0 174 73 267.5t202 93.5q116 0 185 -72q24 4 34 16t10 36q0 38 -12 72l84 15q17 -38 17 -87q0 -46 -23 -74zM419.5 144.5
q34.5 60.5 34.5 201.5q0 139 -34.5 200t-105.5 61q-69 0 -104 -61t-35 -201q0 -139 35.5 -200t103.5 -61q71 0 105.5 60.5z" />
    <glyph glyph-name="uni1EE2" unicode="&#x1ee2;" horiz-adv-x="654" 
d="M609 612q-23 -28 -66 -37q47 -91 47 -229q0 -175 -73 -268t-203 -93q-129 0 -202 92t-73 268q0 174 73 267.5t202 93.5q116 0 185 -72q24 4 34 16t10 36q0 38 -12 72l84 15q17 -38 17 -87q0 -46 -23 -74zM419.5 144.5q34.5 60.5 34.5 201.5q0 139 -34.5 200t-105.5 61
q-69 0 -104 -61t-35 -201q0 -139 35.5 -200t103.5 -61q71 0 105.5 60.5zM369.5 -88.5q21.5 -21.5 21.5 -54.5t-21.5 -54.5t-55.5 -21.5t-55.5 21.5t-21.5 54.5t21.5 54.5t55.5 21.5t55.5 -21.5z" />
    <glyph glyph-name="uni1EDC" unicode="&#x1edc;" horiz-adv-x="654" 
d="M430 817l-32 -64l-209 82l49 97zM609 612q-23 -28 -66 -37q47 -91 47 -229q0 -175 -73 -268t-203 -93q-129 0 -202 92t-73 268q0 174 73 267.5t202 93.5q116 0 185 -72q24 4 34 16t10 36q0 38 -12 72l84 15q17 -38 17 -87q0 -46 -23 -74zM419.5 144.5
q34.5 60.5 34.5 201.5q0 139 -34.5 200t-105.5 61q-69 0 -104 -61t-35 -201q0 -139 35.5 -200t103.5 -61q71 0 105.5 60.5z" />
    <glyph glyph-name="uni1EDE" unicode="&#x1ede;" horiz-adv-x="654" 
d="M275.5 921q-11.5 -3 -27.5 -9l-22 57q40 25 94 25q51 0 79 -26t28 -70q0 -75 -74 -89v-45h-78v86q35 4 49 12t14 29q0 33 -36 33q-15 0 -26.5 -3zM609 612q-23 -28 -66 -37q47 -91 47 -229q0 -175 -73 -268t-203 -93q-129 0 -202 92t-73 268q0 174 73 267.5t202 93.5
q116 0 185 -72q24 4 34 16t10 36q0 38 -12 72l84 15q17 -38 17 -87q0 -46 -23 -74zM419.5 144.5q34.5 60.5 34.5 201.5q0 139 -34.5 200t-105.5 61q-69 0 -104 -61t-35 -201q0 -139 35.5 -200t103.5 -61q71 0 105.5 60.5z" />
    <glyph glyph-name="uni1EE0" unicode="&#x1ee0;" horiz-adv-x="654" 
d="M237.5 807.5q-10.5 -10.5 -22.5 -33.5l-64 31q18 46 46 73.5t64 27.5q19 0 33.5 -7t32.5 -19q2 -2 10.5 -7.5t16 -8t13.5 -2.5q14 0 24 10t23 33l64 -31q-17 -48 -45.5 -74t-64.5 -26q-19 0 -32.5 6.5t-33.5 19.5q-23 18 -39 18q-15 0 -25.5 -10.5zM609 612
q-23 -28 -66 -37q47 -91 47 -229q0 -175 -73 -268t-203 -93q-129 0 -202 92t-73 268q0 174 73 267.5t202 93.5q116 0 185 -72q24 4 34 16t10 36q0 38 -12 72l84 15q17 -38 17 -87q0 -46 -23 -74zM419.5 144.5q34.5 60.5 34.5 201.5q0 139 -34.5 200t-105.5 61
q-69 0 -104 -61t-35 -201q0 -139 35.5 -200t103.5 -61q71 0 105.5 60.5z" />
    <glyph glyph-name="Ohungarumlaut" unicode="&#x150;" horiz-adv-x="628" 
d="M517 614.5q73 -91.5 73 -268.5q0 -175 -73 -268t-203 -93q-129 0 -202 92t-73 268q0 174 73 267.5t202 93.5q130 0 203 -91.5zM210 546q-35 -61 -35 -201q0 -139 35.5 -200t103.5 -61q71 0 105.5 60.5t34.5 201.5q0 139 -34.5 200t-105.5 61q-69 0 -104 -61zM277 970
l88 -44l-97 -166l-66 29zM429 970l87 -45l-105 -169l-66 30z" />
    <glyph glyph-name="uni01A2" unicode="&#x1a2;" horiz-adv-x="857" 
d="M742.5 662.5q45.5 -44.5 45.5 -125.5v-743h-130v748q0 71 -57 71q-37 0 -70 -20q59 -92 59 -247q0 -175 -73 -268t-203 -93q-129 0 -202 92t-73 268q0 174 73 267.5t202 93.5q93 0 158 -48q33 25 68 37t77 12q80 0 125.5 -44.5zM419.5 144.5q34.5 60.5 34.5 201.5
q0 139 -34.5 200t-105.5 61q-69 0 -104 -61t-35 -201q0 -139 35.5 -200t103.5 -61q71 0 105.5 60.5z" />
    <glyph glyph-name="uni020E" unicode="&#x20e;" horiz-adv-x="628" 
d="M517 614.5q73 -91.5 73 -268.5q0 -175 -73 -268t-203 -93q-129 0 -202 92t-73 268q0 174 73 267.5t202 93.5q130 0 203 -91.5zM210 546q-35 -61 -35 -201q0 -139 35.5 -200t103.5 -61q71 0 105.5 60.5t34.5 201.5q0 139 -34.5 200t-105.5 61q-69 0 -104 -61zM418.5 895
q39.5 -41 44.5 -112l-71 -13q-17 77 -78 77q-60 0 -78 -77l-71 13q5 71 44.5 112t104.5 41t104.5 -41z" />
    <glyph glyph-name="Omacron" unicode="&#x14c;" horiz-adv-x="628" 
d="M517 614.5q73 -91.5 73 -268.5q0 -175 -73 -268t-203 -93q-129 0 -202 92t-73 268q0 174 73 267.5t202 93.5q130 0 203 -91.5zM210 546q-35 -61 -35 -201q0 -139 35.5 -200t103.5 -61q71 0 105.5 60.5t34.5 201.5q0 139 -34.5 200t-105.5 61q-69 0 -104 -61zM447 788
h-266v88h266v-88z" />
    <glyph glyph-name="uni1E52" unicode="&#x1e52;" horiz-adv-x="628" 
d="M517 614.5q73 -91.5 73 -268.5q0 -175 -73 -268t-203 -93q-129 0 -202 92t-73 268q0 174 73 267.5t202 93.5q130 0 203 -91.5zM210 546q-35 -61 -35 -201q0 -139 35.5 -200t103.5 -61q71 0 105.5 60.5t34.5 201.5q0 139 -34.5 200t-105.5 61q-69 0 -104 -61zM447 761
h-266v88h266v-88zM384 1068l49 -96l-209 -83l-32 64z" />
    <glyph glyph-name="uni1E50" unicode="&#x1e50;" horiz-adv-x="628" 
d="M239 1079l192 -115l-32 -64l-209 82zM447 761h-266v88h266v-88zM517 614.5q73 -91.5 73 -268.5q0 -175 -73 -268t-203 -93q-129 0 -202 92t-73 268q0 174 73 267.5t202 93.5q130 0 203 -91.5zM210 546q-35 -61 -35 -201q0 -139 35.5 -200t103.5 -61q71 0 105.5 60.5
t34.5 201.5q0 139 -34.5 200t-105.5 61q-69 0 -104 -61z" />
    <glyph glyph-name="uniA7B6" unicode="&#xa7b6;" horiz-adv-x="789" 
d="M722.5 520q19.5 -93 19.5 -220q0 -164 -51.5 -239.5t-147.5 -75.5q-120 0 -150 117q-14 -58 -51 -87.5t-94 -29.5q-100 0 -150 74t-50 241q0 127 19.5 219.5t50.5 171.5h121q-31 -95 -46.5 -182.5t-15.5 -202.5q0 -84 8.5 -132t27.5 -69t50 -21q67 0 67 89v225h128v-225
q0 -47 17.5 -68t51.5 -21q29 0 47.5 18.5t28 66.5t9.5 136q0 115 -17 203.5t-49 182.5h125q32 -78 51.5 -171z" />
    <glyph glyph-name="uni01EA" unicode="&#x1ea;" horiz-adv-x="628" 
d="M543 118.5q-47 -88.5 -134 -118.5q-62 -28 -84.5 -54t-22.5 -55q0 -47 49 -47q17 0 54 7l-9 -82q-33 -7 -61 -7q-57 0 -92 29t-35 79q0 70 66 117q-111 14 -173 105t-62 253q0 174 73 267.5t202 93.5q130 0 203 -91.5t73 -268.5q0 -139 -47 -227.5zM419.5 144.5
q34.5 60.5 34.5 201.5q0 139 -34.5 200t-105.5 61q-69 0 -104 -61t-35 -201q0 -139 35.5 -200t103.5 -61q71 0 105.5 60.5z" />
    <glyph glyph-name="uni01EC" unicode="&#x1ec;" horiz-adv-x="628" 
d="M447 876v-88h-266v88h266zM543 118.5q-47 -88.5 -134 -118.5q-62 -28 -84.5 -54t-22.5 -55q0 -47 49 -47q17 0 54 7l-9 -82q-33 -7 -61 -7q-57 0 -92 29t-35 79q0 70 66 117q-111 14 -173 105t-62 253q0 174 73 267.5t202 93.5q130 0 203 -91.5t73 -268.5
q0 -139 -47 -227.5zM419.5 144.5q34.5 60.5 34.5 201.5q0 139 -34.5 200t-105.5 61q-69 0 -104 -61t-35 -201q0 -139 35.5 -200t103.5 -61q71 0 105.5 60.5z" />
    <glyph glyph-name="uni0186" unicode="&#x186;" horiz-adv-x="517" 
d="M408 615q70 -91 70 -268q0 -118 -34.5 -199t-96.5 -122t-145 -41q-110 0 -192 84l62 73q33 -26 60.5 -39.5t64.5 -13.5q145 0 145 258q0 140 -35 199.5t-98 59.5q-36 0 -67 -12t-62 -36l-62 76q42 35 90 53.5t107 18.5q123 0 193 -91z" />
    <glyph glyph-name="Oslash" unicode="&#xd8;" horiz-adv-x="628" 
d="M555.5 547q34.5 -81 34.5 -201q0 -175 -73 -268t-203 -93q-28 0 -48 4l-32 -120l-99 27l36 127q-64 41 -98 122t-34 200q0 174 73 267.5t202 93.5q25 0 48 -3l33 120l99 -26l-37 -129q64 -40 98.5 -121zM207.5 546.5q-35.5 -61.5 -35.5 -201.5q0 -88 12 -142.5t37 -82.5
l126 485q-15 3 -33 3q-71 0 -106.5 -61.5zM408 571l-127 -485q17 -3 33 -3q74 0 108 62.5t34 210.5q0 159 -48 215z" />
    <glyph glyph-name="Oslashacute" unicode="&#x1fe;" horiz-adv-x="628" 
d="M555.5 547q34.5 -81 34.5 -201q0 -175 -73 -268t-203 -93q-28 0 -48 4l-32 -120l-99 27l36 127q-64 41 -98 122t-34 200q0 174 73 267.5t202 93.5q25 0 48 -3l33 120l99 -26l-37 -129q64 -40 98.5 -121zM207.5 546.5q-35.5 -61.5 -35.5 -201.5q0 -88 12 -142.5t37 -82.5
l126 485q-15 3 -33 3q-71 0 -106.5 -61.5zM408 571l-127 -485q17 -3 33 -3q74 0 108 62.5t34 210.5q0 159 -48 215zM383 957l49 -96l-209 -83l-32 64z" />
    <glyph glyph-name="Otilde" unicode="&#xd5;" horiz-adv-x="628" 
d="M517 614.5q73 -91.5 73 -268.5q0 -175 -73 -268t-203 -93q-129 0 -202 92t-73 268q0 174 73 267.5t202 93.5q130 0 203 -91.5zM210 546q-35 -61 -35 -201q0 -139 35.5 -200t103.5 -61q71 0 105.5 60.5t34.5 201.5q0 139 -34.5 200t-105.5 61q-69 0 -104 -61zM335.5 780.5
q-13.5 6.5 -33.5 19.5q-23 18 -39 18q-15 0 -25.5 -10.5t-22.5 -33.5l-64 31q18 46 46 73.5t64 27.5q19 0 33.5 -7t32.5 -19q2 -2 10.5 -7.5t16 -8t13.5 -2.5q14 0 24 10t23 33l64 -31q-17 -48 -45.5 -74t-64.5 -26q-19 0 -32.5 6.5z" />
    <glyph glyph-name="uni1E4C" unicode="&#x1e4c;" horiz-adv-x="628" 
d="M517 614.5q73 -91.5 73 -268.5q0 -175 -73 -268t-203 -93q-129 0 -202 92t-73 268q0 174 73 267.5t202 93.5q130 0 203 -91.5zM210 546q-35 -61 -35 -201q0 -139 35.5 -200t103.5 -61q71 0 105.5 60.5t34.5 201.5q0 139 -34.5 200t-105.5 61q-69 0 -104 -61zM335.5 765.5
q-13.5 6.5 -33.5 19.5q-23 18 -39 18q-15 0 -25.5 -10.5t-22.5 -33.5l-64 31q18 46 46 73.5t64 27.5q19 0 33.5 -7t32.5 -19q2 -2 10.5 -7.5t16 -8t13.5 -2.5q14 0 24 10t23 33l64 -31q-17 -48 -45.5 -74t-64.5 -26q-19 0 -32.5 6.5zM386 1091l49 -96l-209 -83l-32 64z" />
    <glyph glyph-name="uni022C" unicode="&#x22c;" horiz-adv-x="628" 
d="M517 614.5q73 -91.5 73 -268.5q0 -175 -73 -268t-203 -93q-129 0 -202 92t-73 268q0 174 73 267.5t202 93.5q130 0 203 -91.5zM210 546q-35 -61 -35 -201q0 -139 35.5 -200t103.5 -61q71 0 105.5 60.5t34.5 201.5q0 139 -34.5 200t-105.5 61q-69 0 -104 -61zM335.5 765.5
q-13.5 6.5 -33.5 19.5q-23 18 -39 18q-15 0 -25.5 -10.5t-22.5 -33.5l-64 31q18 46 46 73.5t64 27.5q19 0 33.5 -7t32.5 -19q2 -2 10.5 -7.5t16 -8t13.5 -2.5q14 0 24 10t23 33l64 -31q-17 -48 -45.5 -74t-64.5 -26q-19 0 -32.5 6.5zM446 930h-266v88h266v-88z" />
    <glyph glyph-name="OE" unicode="&#x152;" horiz-adv-x="815" 
d="M778 0h-398q-36 -15 -80 -15q-78 0 -137 41.5t-91.5 122.5t-32.5 196q0 113 32.5 194.5t91.5 124t137 42.5q46 0 83 -15h394l-14 -96h-264q59 -74 70 -196h165v-96h-165q-9 -127 -73 -206h282v-97zM305 84q64 0 97.5 61.5t33.5 200.5q0 137 -33.5 199t-97.5 62
q-63 0 -96.5 -62t-33.5 -200q0 -261 130 -261z" />
    <glyph glyph-name="P" unicode="P" horiz-adv-x="534" 
d="M445.5 635.5q68.5 -55.5 68.5 -164.5q0 -114 -68.5 -171.5t-188.5 -57.5h-58v-242h-130v691h179q129 0 197.5 -55.5zM348 368.5q32 29.5 32 102.5q0 65 -32 95t-99 30h-50v-257h50q67 0 99 29.5z" />
    <glyph glyph-name="uni1E54" unicode="&#x1e54;" horiz-adv-x="534" 
d="M445.5 635.5q68.5 -55.5 68.5 -164.5q0 -114 -68.5 -171.5t-188.5 -57.5h-58v-242h-130v691h179q129 0 197.5 -55.5zM348 368.5q32 29.5 32 102.5q0 65 -32 95t-99 30h-50v-257h50q67 0 99 29.5zM341 932l49 -96l-209 -83l-32 64z" />
    <glyph glyph-name="uni1E56" unicode="&#x1e56;" horiz-adv-x="534" 
d="M445.5 635.5q68.5 -55.5 68.5 -164.5q0 -114 -68.5 -171.5t-188.5 -57.5h-58v-242h-130v691h179q129 0 197.5 -55.5zM348 368.5q32 29.5 32 102.5q0 65 -32 95t-99 30h-50v-257h50q67 0 99 29.5zM325.5 899.5q21.5 -21.5 21.5 -54.5t-21.5 -54.5t-55.5 -21.5t-55.5 21.5
t-21.5 54.5t21.5 54.5t55.5 21.5t55.5 -21.5z" />
    <glyph glyph-name="uni01A4" unicode="&#x1a4;" horiz-adv-x="645" 
d="M556.5 635.5q68.5 -55.5 68.5 -164.5q0 -114 -68.5 -171.5t-188.5 -57.5h-58v-242h-130v595h-24q-24 0 -35 -11.5t-11 -34.5q0 -29 18 -70l-82 -38q-19 30 -30 57t-11 61q0 60 40.5 96t115.5 36h198q129 0 197.5 -55.5zM459 368.5q32 29.5 32 102.5q0 65 -32 95t-99 30
h-50v-257h50q67 0 99 29.5z" />
    <glyph glyph-name="Thorn" unicode="&#xde;" horiz-adv-x="534" 
d="M446 522q68 -56 68 -167q0 -118 -67.5 -176t-186.5 -58h-61v-121h-130v691h130v-113h53q126 0 194 -56zM348.5 248q32.5 31 32.5 107q0 67 -33 97.5t-98 30.5h-51v-266h51q66 0 98.5 31z" />
    <glyph glyph-name="Q" unicode="Q" horiz-adv-x="628" 
d="M542.5 24.5q43.5 -16.5 83.5 -48.5l-81 -101q-50 58 -103.5 85.5t-134.5 27.5t-141.5 40.5t-93.5 120.5t-33 196q0 173 73.5 267t201.5 94q130 0 203 -92t73 -268q0 -121 -39.5 -192.5t-109.5 -111.5q58 -1 101.5 -17.5zM210.5 145q35.5 -61 103.5 -61q71 0 105.5 60.5
t34.5 201.5q0 140 -34.5 200.5t-105.5 60.5q-69 0 -104 -61t-35 -201q0 -139 35.5 -200z" />
    <glyph glyph-name="uni024A" unicode="&#x24a;" horiz-adv-x="609" 
d="M699 -177q-49 -40 -122 -40q-76 0 -121 41.5t-45 121.5v91q-54 -52 -130 -52q-70 0 -124.5 38.5t-86 116.5t-31.5 192q0 119 32 203.5t87.5 127.5t125.5 43q81 0 135 -56l6 41h115v-690h1v-62q0 -59 49 -59q19 0 32 4.5t31 14.5zM411 130v430q-42 47 -102 47
q-65 0 -99.5 -64t-34.5 -211q0 -137 33.5 -193t95.5 -56t107 47z" />
    <glyph glyph-name="R" unicode="R" horiz-adv-x="555" 
d="M270 278h-71v-278h-130v691h182q261 0 261 -203q0 -66 -31 -113.5t-93 -72.5l161 -302h-143zM258 371q62 0 91 28t29 89q0 56 -30.5 82t-97.5 26h-51v-225h59z" />
    <glyph glyph-name="Racute" unicode="&#x154;" horiz-adv-x="555" 
d="M270 278h-71v-278h-130v691h182q261 0 261 -203q0 -66 -31 -113.5t-93 -72.5l161 -302h-143zM258 371q62 0 91 28t29 89q0 56 -30.5 82t-97.5 26h-51v-225h59zM344 932l49 -96l-209 -83l-32 64z" />
    <glyph glyph-name="Rcaron" unicode="&#x158;" horiz-adv-x="555" 
d="M270 278h-71v-278h-130v691h182q261 0 261 -203q0 -66 -31 -113.5t-93 -72.5l161 -302h-143zM258 371q62 0 91 28t29 89q0 56 -30.5 82t-97.5 26h-51v-225h59zM391 924l47 -51l-126 -121h-77l-126 121l47 51l117 -82z" />
    <glyph glyph-name="Rcommaaccent" unicode="&#x156;" horiz-adv-x="555" 
d="M270 278h-71v-278h-130v691h182q261 0 261 -203q0 -66 -31 -113.5t-93 -72.5l161 -302h-143zM258 371q62 0 91 28t29 89q0 56 -30.5 82t-97.5 26h-51v-225h59zM328.5 -91q18.5 -19 18.5 -48q0 -16 -5 -32.5t-19 -47.5l-40 -91h-64l27 115q-30 21 -30 56q0 28 18.5 47.5
t47.5 19.5q28 0 46.5 -19z" />
    <glyph glyph-name="uni0210" unicode="&#x210;" horiz-adv-x="555" 
d="M270 278h-71v-278h-130v691h182q261 0 261 -203q0 -66 -31 -113.5t-93 -72.5l161 -302h-143zM258 371q62 0 91 28t29 89q0 56 -30.5 82t-97.5 26h-51v-225h59zM157 970l83 -184l-66 -30l-105 169zM308 970l75 -181l-66 -29l-97 166z" />
    <glyph glyph-name="uni1E5A" unicode="&#x1e5a;" horiz-adv-x="555" 
d="M270 278h-71v-278h-130v691h182q261 0 261 -203q0 -66 -31 -113.5t-93 -72.5l161 -302h-143zM258 371q62 0 91 28t29 89q0 56 -30.5 82t-97.5 26h-51v-225h59zM225.5 -197.5q-21.5 21.5 -21.5 54.5t21.5 54.5t55.5 21.5t55.5 -21.5t21.5 -54.5t-21.5 -54.5t-55.5 -21.5
t-55.5 21.5z" />
    <glyph glyph-name="uni0212" unicode="&#x212;" horiz-adv-x="555" 
d="M270 278h-71v-278h-130v691h182q261 0 261 -203q0 -66 -31 -113.5t-93 -72.5l161 -302h-143zM258 371q62 0 91 28t29 89q0 56 -30.5 82t-97.5 26h-51v-225h59zM377.5 895q39.5 -41 44.5 -112l-71 -13q-17 77 -78 77q-60 0 -78 -77l-71 13q5 71 44.5 112t104.5 41
t104.5 -41z" />
    <glyph glyph-name="uni024C" unicode="&#x24c;" horiz-adv-x="568" 
d="M418 0l-136 278h-71v-278h-130v278h-64v93h64v320h182q261 0 261 -203q0 -66 -31 -113.5t-93 -72.5l161 -302h-143zM361 399q29 28 29 89q0 56 -30.5 82t-97.5 26h-51v-225h59q62 0 91 28z" />
    <glyph glyph-name="uni2C64" unicode="&#x2c64;" horiz-adv-x="555" 
d="M248 -120q19 0 32 4.5t31 14.5l46 -76q-49 -40 -122 -40q-76 0 -121 41.5t-45 121.5v745h182q261 0 261 -203q0 -66 -31 -113.5t-93 -72.5l161 -302h-143l-136 278h-71v-339q0 -59 49 -59zM199 596v-225h59q62 0 91 28t29 89q0 56 -30.5 82t-97.5 26h-51z" />
    <glyph glyph-name="uni2C64.ss01" horiz-adv-x="391" 
d="M248 -120q19 0 32 4.5t31 14.5l46 -76q-49 -40 -122 -40q-76 0 -121 41.5t-45 121.5v745h113l10 -90q20 49 56.5 76.5t87.5 27.5q34 0 61 -10l-24 -122q-26 6 -52 6q-49 0 -78 -32t-44 -95v-513q0 -59 49 -59z" />
    <glyph glyph-name="S" unicode="S" horiz-adv-x="507" 
d="M370.5 685q49.5 -21 91.5 -64l-62 -71q-33 29 -66 43t-71 14q-42 0 -67.5 -22t-25.5 -61q0 -26 10.5 -44t37.5 -33.5t78 -33.5q93 -34 138.5 -81t45.5 -135q0 -61 -29 -109t-83.5 -75.5t-127.5 -27.5q-137 0 -229 94l66 73q38 -33 75.5 -50t82.5 -17q51 0 80.5 28
t29.5 77q0 44 -25 69.5t-95 49.5q-100 35 -144 83t-44 123q0 55 28 98.5t78 68t112 24.5q66 0 115.5 -21z" />
    <glyph glyph-name="Sacute" unicode="&#x15a;" horiz-adv-x="507" 
d="M370.5 685q49.5 -21 91.5 -64l-62 -71q-33 29 -66 43t-71 14q-42 0 -67.5 -22t-25.5 -61q0 -26 10.5 -44t37.5 -33.5t78 -33.5q93 -34 138.5 -81t45.5 -135q0 -61 -29 -109t-83.5 -75.5t-127.5 -27.5q-137 0 -229 94l66 73q38 -33 75.5 -50t82.5 -17q51 0 80.5 28
t29.5 77q0 44 -25 69.5t-95 49.5q-100 35 -144 83t-44 123q0 55 28 98.5t78 68t112 24.5q66 0 115.5 -21zM330 932l49 -96l-209 -83l-32 64z" />
    <glyph glyph-name="Sacute.loclPLK" horiz-adv-x="507" 
d="M370.5 685q49.5 -21 91.5 -64l-62 -71q-33 29 -66 43t-71 14q-42 0 -67.5 -22t-25.5 -61q0 -26 10.5 -44t37.5 -33.5t78 -33.5q93 -34 138.5 -81t45.5 -135q0 -61 -29 -109t-83.5 -75.5t-127.5 -27.5q-137 0 -229 94l66 73q38 -33 75.5 -50t82.5 -17q51 0 80.5 28
t29.5 77q0 44 -25 69.5t-95 49.5q-100 35 -144 83t-44 123q0 55 28 98.5t78 68t112 24.5q66 0 115.5 -21zM288 945l93 -56l-125 -151l-57 34z" />
    <glyph glyph-name="uniA78B" unicode="&#xa78b;" horiz-adv-x="225" 
d="M65 341l-15 350h126l-16 -350h-95z" />
    <glyph glyph-name="Scaron" unicode="&#x160;" horiz-adv-x="507" 
d="M370.5 685q49.5 -21 91.5 -64l-62 -71q-33 29 -66 43t-71 14q-42 0 -67.5 -22t-25.5 -61q0 -26 10.5 -44t37.5 -33.5t78 -33.5q93 -34 138.5 -81t45.5 -135q0 -61 -29 -109t-83.5 -75.5t-127.5 -27.5q-137 0 -229 94l66 73q38 -33 75.5 -50t82.5 -17q51 0 80.5 28
t29.5 77q0 44 -25 69.5t-95 49.5q-100 35 -144 83t-44 123q0 55 28 98.5t78 68t112 24.5q66 0 115.5 -21zM377 924l47 -51l-126 -121h-77l-126 121l47 51l117 -82z" />
    <glyph glyph-name="Scedilla" unicode="&#x15e;" horiz-adv-x="507" 
d="M427.5 57q-52.5 -57 -143.5 -69v-42q45 -6 68 -29.5t23 -61.5q0 -49 -35 -77.5t-92 -28.5t-96 27l30 59q32 -14 57 -14q20 0 31.5 8.5t11.5 25.5q0 20 -19.5 29.5t-62.5 9.5l11 92q-118 9 -200 93l66 73q38 -33 75.5 -50t82.5 -17q51 0 80.5 28t29.5 77q0 44 -25 69.5
t-95 49.5q-100 35 -144 83t-44 123q0 55 28 98.5t78 68t112 24.5q66 0 115.5 -21t91.5 -64l-62 -71q-33 29 -66 43t-71 14q-42 0 -67.5 -22t-25.5 -61q0 -26 10.5 -44t37.5 -33.5t78 -33.5q93 -34 138.5 -81t45.5 -135q0 -83 -52.5 -140z" />
    <glyph glyph-name="Scircumflex" unicode="&#x15c;" horiz-adv-x="507" 
d="M370.5 685q49.5 -21 91.5 -64l-62 -71q-33 29 -66 43t-71 14q-42 0 -67.5 -22t-25.5 -61q0 -26 10.5 -44t37.5 -33.5t78 -33.5q93 -34 138.5 -81t45.5 -135q0 -61 -29 -109t-83.5 -75.5t-127.5 -27.5q-137 0 -229 94l66 73q38 -33 75.5 -50t82.5 -17q51 0 80.5 28
t29.5 77q0 44 -25 69.5t-95 49.5q-100 35 -144 83t-44 123q0 55 28 98.5t78 68t112 24.5q66 0 115.5 -21zM140 759l-46 51l126 121h77l126 -121l-47 -51l-118 82z" />
    <glyph glyph-name="Scommaaccent" unicode="&#x218;" horiz-adv-x="507" 
d="M370.5 685q49.5 -21 91.5 -64l-62 -71q-33 29 -66 43t-71 14q-42 0 -67.5 -22t-25.5 -61q0 -26 10.5 -44t37.5 -33.5t78 -33.5q93 -34 138.5 -81t45.5 -135q0 -61 -29 -109t-83.5 -75.5t-127.5 -27.5q-137 0 -229 94l66 73q38 -33 75.5 -50t82.5 -17q51 0 80.5 28
t29.5 77q0 44 -25 69.5t-95 49.5q-100 35 -144 83t-44 123q0 55 28 98.5t78 68t112 24.5q66 0 115.5 -21zM296.5 -91q18.5 -19 18.5 -48q0 -16 -5 -32.5t-19 -47.5l-40 -91h-64l27 115q-30 21 -30 56q0 28 18.5 47.5t47.5 19.5q28 0 46.5 -19z" />
    <glyph glyph-name="uni1E60" unicode="&#x1e60;" horiz-adv-x="507" 
d="M370.5 685q49.5 -21 91.5 -64l-62 -71q-33 29 -66 43t-71 14q-42 0 -67.5 -22t-25.5 -61q0 -26 10.5 -44t37.5 -33.5t78 -33.5q93 -34 138.5 -81t45.5 -135q0 -61 -29 -109t-83.5 -75.5t-127.5 -27.5q-137 0 -229 94l66 73q38 -33 75.5 -50t82.5 -17q51 0 80.5 28
t29.5 77q0 44 -25 69.5t-95 49.5q-100 35 -144 83t-44 123q0 55 28 98.5t78 68t112 24.5q66 0 115.5 -21zM314.5 899.5q21.5 -21.5 21.5 -54.5t-21.5 -54.5t-55.5 -21.5t-55.5 21.5t-21.5 54.5t21.5 54.5t55.5 21.5t55.5 -21.5z" />
    <glyph glyph-name="uni1E62" unicode="&#x1e62;" horiz-adv-x="507" 
d="M370.5 685q49.5 -21 91.5 -64l-62 -71q-33 29 -66 43t-71 14q-42 0 -67.5 -22t-25.5 -61q0 -26 10.5 -44t37.5 -33.5t78 -33.5q93 -34 138.5 -81t45.5 -135q0 -61 -29 -109t-83.5 -75.5t-127.5 -27.5q-137 0 -229 94l66 73q38 -33 75.5 -50t82.5 -17q51 0 80.5 28
t29.5 77q0 44 -25 69.5t-95 49.5q-100 35 -144 83t-44 123q0 55 28 98.5t78 68t112 24.5q66 0 115.5 -21zM193.5 -197.5q-21.5 21.5 -21.5 54.5t21.5 54.5t55.5 21.5t55.5 -21.5t21.5 -54.5t-21.5 -54.5t-55.5 -21.5t-55.5 21.5z" />
    <glyph glyph-name="uni1E9E" unicode="&#x1e9e;" horiz-adv-x="601" 
d="M409 688q60 -18 122 -50v-68l-142 -179q183 -31 183 -196q0 -66 -27.5 -113.5t-76 -72t-109.5 -24.5q-70 0 -113 25l38 87q28 -11 60 -11q44 0 68.5 27.5t24.5 81.5q0 62 -39 91.5t-121 33.5v80l141 183q-67 24 -128 24q-91 0 -91 -107v-500h-130v498q0 96 55 152t158 56
q67 0 127 -18z" />
    <glyph glyph-name="uni018F" unicode="&#x18f;" horiz-adv-x="583" 
d="M477 619.5q68 -86.5 68 -265.5q0 -186 -69.5 -277.5t-190.5 -91.5q-256 0 -256 352q0 33 4 58h380q-3 114 -38.5 163t-102.5 49q-43 0 -78 -15.5t-70 -43.5l-60 71q47 44 100 65.5t118 21.5q127 0 195 -86.5zM376 132.5q32 49.5 36 168.5h-258q1 -118 34 -168t95 -50
q61 0 93 49.5z" />
    <glyph glyph-name="T" unicode="T" horiz-adv-x="480" 
d="M477 691l-14 -102h-159v-589h-129v589h-166v102h468z" />
    <glyph glyph-name="Tbar" unicode="&#x166;" horiz-adv-x="480" 
d="M463 588h-159v-200h106v-81h-106v-308h-129v308h-106v81h106v200h-166v102h468z" />
    <glyph glyph-name="Tcaron" unicode="&#x164;" horiz-adv-x="480" 
d="M477 691l-14 -102h-159v-589h-129v589h-166v102h468zM358 924l47 -51l-126 -121h-77l-126 121l47 51l117 -82z" />
    <glyph glyph-name="uni0162" unicode="&#x162;" horiz-adv-x="480" 
d="M304 589v-573h1v-68q46 -5 69 -29.5t23 -62.5q0 -50 -35.5 -78.5t-93.5 -28.5q-28 0 -53 7.5t-41 19.5l30 62q29 -17 54 -17q46 0 46 36q0 19 -19.5 28t-62.5 9l12 106h-59v589h-166v102h468l-14 -102h-159z" />
    <glyph glyph-name="uni1E70" unicode="&#x1e70;" horiz-adv-x="480" 
d="M477 691l-14 -102h-159v-589h-129v589h-166v102h468zM121 -244l-46 51l126 128h77l126 -128l-47 -51l-118 88z" />
    <glyph glyph-name="uni021A" unicode="&#x21a;" horiz-adv-x="480" 
d="M477 691l-14 -102h-159v-589h-129v589h-166v102h468zM287.5 -91q18.5 -19 18.5 -48q0 -16 -5 -32.5t-19 -47.5l-40 -91h-64l27 115q-30 21 -30 56q0 28 18.5 47.5t47.5 19.5q28 0 46.5 -19z" />
    <glyph glyph-name="uni023E" unicode="&#x23e;" horiz-adv-x="480" 
d="M463 591h-79l-86 -215v-376h-117v83l-62 -155l-44 18l106 266v379h-172v100h363l26 66l45 -19l-19 -47h53zM298 506l34 85h-34v-85z" />
    <glyph glyph-name="uni1E6A" unicode="&#x1e6a;" horiz-adv-x="480" 
d="M477 691l-14 -102h-159v-589h-129v589h-166v102h468zM295.5 899.5q21.5 -21.5 21.5 -54.5t-21.5 -54.5t-55.5 -21.5t-55.5 21.5t-21.5 54.5t21.5 54.5t55.5 21.5t55.5 -21.5z" />
    <glyph glyph-name="uni1E6C" unicode="&#x1e6c;" horiz-adv-x="480" 
d="M477 691l-14 -102h-159v-589h-129v589h-166v102h468zM184.5 -197.5q-21.5 21.5 -21.5 54.5t21.5 54.5t55.5 21.5t55.5 -21.5t21.5 -54.5t-21.5 -54.5t-55.5 -21.5t-55.5 21.5z" />
    <glyph glyph-name="uni01AC" unicode="&#x1ac;" horiz-adv-x="525" 
d="M509 588h-159v-588h-130v588h-64q-45 0 -45 -44q0 -17 4 -31t12 -32l-86 -40q-36 59 -36 113q0 64 43 100.5t119 36.5h355z" />
    <glyph glyph-name="uni1E6E" unicode="&#x1e6e;" horiz-adv-x="480" 
d="M477 691l-14 -102h-159v-589h-129v589h-166v102h468zM373 -181h-266v88h266v-88z" />
    <glyph glyph-name="uni01BC" unicode="&#x1bc;" horiz-adv-x="482" 
d="M408 599h-232v-180q45 26 97 26q79 0 127.5 -58t48.5 -163q0 -71 -29 -125.5t-82 -84t-123 -29.5q-63 0 -111 24.5t-88 69.5l71 65q54 -62 123 -62q53 0 82 36t29 106q0 72 -25 102t-69 30q-22 0 -41 -5.5t-42 -18.5h-87v359h366z" />
    <glyph glyph-name="uni0184" unicode="&#x184;" horiz-adv-x="542" 
d="M460 391.5q65 -54.5 65 -162.5q0 -117 -66 -173t-184 -56h-195v508l-65 46q48 53 84 137h110v-245h66q120 0 185 -54.5zM359.5 126.5q29.5 29.5 29.5 100.5q0 66 -29.5 95.5t-92.5 29.5h-58v-255h62q59 0 88.5 29.5z" />
    <glyph glyph-name="uni01A7" unicode="&#x1a7;" horiz-adv-x="499" 
d="M413.5 655.5q58.5 -50.5 58.5 -134.5q0 -77 -44.5 -123.5t-145.5 -81.5q-69 -24 -94.5 -53t-25.5 -76q0 -48 28 -74.5t76 -26.5q43 0 81 17t75 48l66 -71q-93 -95 -230 -95q-69 0 -121.5 26.5t-81 73.5t-28.5 107q0 87 45.5 134t138.5 80q51 18 78 34.5t38 36.5t11 49
q0 41 -23 61t-64 20t-75 -13.5t-67 -42.5l-62 70q45 42 97 63.5t116 21.5q95 0 153.5 -50.5z" />
    <glyph glyph-name="uni01AE" unicode="&#x1ae;" horiz-adv-x="482" 
d="M304 589v-588h1v-62q0 -59 49 -59q19 0 32 4.5t31 14.5l46 -76q-49 -40 -122 -40q-76 0 -121 41.5t-45 121.5v643h-166v102h468l-14 -102h-159z" />
    <glyph glyph-name="U" unicode="U" horiz-adv-x="590" 
d="M531 208q0 -64 -27 -114.5t-80 -79.5t-129 -29q-115 0 -175.5 61t-60.5 162v483h130v-477q0 -65 25.5 -96.5t80.5 -31.5q54 0 80 32t26 96v477h130v-483z" />
    <glyph glyph-name="Uacute" unicode="&#xda;" horiz-adv-x="590" 
d="M531 208q0 -64 -27 -114.5t-80 -79.5t-129 -29q-115 0 -175.5 61t-60.5 162v483h130v-477q0 -65 25.5 -96.5t80.5 -31.5q54 0 80 32t26 96v477h130v-483zM366 932l49 -96l-209 -83l-32 64z" />
    <glyph glyph-name="uni0244" unicode="&#x244;" horiz-adv-x="618" 
d="M599 504h-54v-296q0 -64 -27 -114.5t-80 -79.5t-129 -29q-115 0 -175.5 61t-60.5 162v296h-54v80h54v107h130v-107h212v107h130v-107h54v-80zM415 504h-212v-290q0 -65 25.5 -96.5t80.5 -31.5q54 0 80 32t26 96v290z" />
    <glyph glyph-name="Ubreve" unicode="&#x16c;" horiz-adv-x="590" 
d="M531 208q0 -64 -27 -114.5t-80 -79.5t-129 -29q-115 0 -175.5 61t-60.5 162v483h130v-477q0 -65 25.5 -96.5t80.5 -31.5q54 0 80 32t26 96v477h130v-483zM190.5 793.5q-39.5 39.5 -44.5 103.5l71 14q18 -67 78 -67q30 0 50 17.5t28 49.5l71 -14q-5 -64 -45 -103.5
t-104 -39.5q-65 0 -104.5 39.5z" />
    <glyph glyph-name="uni01D3" unicode="&#x1d3;" horiz-adv-x="590" 
d="M531 208q0 -64 -27 -114.5t-80 -79.5t-129 -29q-115 0 -175.5 61t-60.5 162v483h130v-477q0 -65 25.5 -96.5t80.5 -31.5q54 0 80 32t26 96v477h130v-483zM413 924l47 -51l-126 -121h-77l-126 121l47 51l117 -82z" />
    <glyph glyph-name="Ucircumflex" unicode="&#xdb;" horiz-adv-x="590" 
d="M531 208q0 -64 -27 -114.5t-80 -79.5t-129 -29q-115 0 -175.5 61t-60.5 162v483h130v-477q0 -65 25.5 -96.5t80.5 -31.5q54 0 80 32t26 96v477h130v-483zM176 759l-46 51l126 121h77l126 -121l-47 -51l-118 82z" />
    <glyph glyph-name="uni0214" unicode="&#x214;" horiz-adv-x="590" 
d="M531 208q0 -64 -27 -114.5t-80 -79.5t-129 -29q-115 0 -175.5 61t-60.5 162v483h130v-477q0 -65 25.5 -96.5t80.5 -31.5q54 0 80 32t26 96v477h130v-483zM179 970l83 -184l-66 -30l-105 169zM330 970l75 -181l-66 -29l-97 166z" />
    <glyph glyph-name="Udieresis" unicode="&#xdc;" horiz-adv-x="590" 
d="M531 208q0 -64 -27 -114.5t-80 -79.5t-129 -29q-115 0 -175.5 61t-60.5 162v483h130v-477q0 -65 25.5 -96.5t80.5 -31.5q54 0 80 32t26 96v477h130v-483zM244 889.5q19 -19.5 19 -47.5q0 -29 -19 -48.5t-48 -19.5t-48 19.5t-19 48.5q0 28 19.5 47.5t47.5 19.5
q29 0 48 -19.5zM447 889.5q19 -19.5 19 -47.5q0 -29 -19 -48.5t-48 -19.5t-48.5 19.5t-19.5 48.5q0 28 20 47.5t48 19.5q29 0 48 -19.5z" />
    <glyph glyph-name="uni01D7" unicode="&#x1d7;" horiz-adv-x="590" 
d="M531 208q0 -64 -27 -114.5t-80 -79.5t-129 -29q-115 0 -175.5 61t-60.5 162v483h130v-477q0 -65 25.5 -96.5t80.5 -31.5q54 0 80 32t26 96v477h130v-483zM367 1056l73 -66l-140 -136l-49 42zM238 863.5q19 -19.5 19 -48.5t-19 -48.5t-48 -19.5q-28 0 -47.5 19.5
t-19.5 48.5t19.5 48.5t47.5 19.5q29 0 48 -19.5zM447.5 863.5q19.5 -19.5 19.5 -48.5t-19.5 -48.5t-47.5 -19.5t-47.5 19.5t-19.5 48.5t19.5 48.5t47.5 19.5t47.5 -19.5z" />
    <glyph glyph-name="uni01D9" unicode="&#x1d9;" horiz-adv-x="590" 
d="M531 208q0 -64 -27 -114.5t-80 -79.5t-129 -29q-115 0 -175.5 61t-60.5 162v483h130v-477q0 -65 25.5 -96.5t80.5 -31.5q54 0 80 32t26 96v477h130v-483zM411 1057l47 -51l-126 -121h-77l-126 121l47 51l117 -82zM237 863.5q19 -19.5 19 -48.5t-19 -48.5t-48 -19.5
q-28 0 -47.5 19.5t-19.5 48.5t19.5 48.5t47.5 19.5q29 0 48 -19.5zM446.5 863.5q19.5 -19.5 19.5 -48.5t-19.5 -48.5t-47.5 -19.5t-47.5 19.5t-19.5 48.5t19.5 48.5t47.5 19.5t47.5 -19.5z" />
    <glyph glyph-name="uni01DB" unicode="&#x1db;" horiz-adv-x="590" 
d="M531 208q0 -64 -27 -114.5t-80 -79.5t-129 -29q-115 0 -175.5 61t-60.5 162v483h130v-477q0 -65 25.5 -96.5t80.5 -31.5q54 0 80 32t26 96v477h130v-483zM230 1056l117 -160l-50 -42l-141 136zM238 863.5q19 -19.5 19 -48.5t-19 -48.5t-48 -19.5q-28 0 -47.5 19.5
t-19.5 48.5t19.5 48.5t47.5 19.5q29 0 48 -19.5zM448 863.5q19 -19.5 19 -48.5t-19 -48.5t-48 -19.5q-28 0 -47.5 19.5t-19.5 48.5t19.5 48.5t47.5 19.5q29 0 48 -19.5z" />
    <glyph glyph-name="uni01D5" unicode="&#x1d5;" horiz-adv-x="590" 
d="M531 208q0 -64 -27 -114.5t-80 -79.5t-129 -29q-115 0 -175.5 61t-60.5 162v483h130v-477q0 -65 25.5 -96.5t80.5 -31.5q54 0 80 32t26 96v477h130v-483zM242 861.5q19 -19.5 19 -47.5q0 -29 -19 -48.5t-48 -19.5t-48 19.5t-19 48.5q0 28 19.5 47.5t47.5 19.5
q29 0 48 -19.5zM445 861.5q19 -19.5 19 -47.5q0 -29 -19 -48.5t-48 -19.5t-48.5 19.5t-19.5 48.5q0 28 20 47.5t48 19.5q29 0 48 -19.5zM430 925h-266v88h266v-88z" />
    <glyph glyph-name="uni1EE4" unicode="&#x1ee4;" horiz-adv-x="590" 
d="M531 208q0 -64 -27 -114.5t-80 -79.5t-129 -29q-115 0 -175.5 61t-60.5 162v483h130v-477q0 -65 25.5 -96.5t80.5 -31.5q54 0 80 32t26 96v477h130v-483zM239.5 -197.5q-21.5 21.5 -21.5 54.5t21.5 54.5t55.5 21.5t55.5 -21.5t21.5 -54.5t-21.5 -54.5t-55.5 -21.5
t-55.5 21.5z" />
    <glyph glyph-name="Ugrave" unicode="&#xd9;" horiz-adv-x="590" 
d="M531 208q0 -64 -27 -114.5t-80 -79.5t-129 -29q-115 0 -175.5 61t-60.5 162v483h130v-477q0 -65 25.5 -96.5t80.5 -31.5q54 0 80 32t26 96v477h130v-483zM219 932l192 -115l-32 -64l-209 82z" />
    <glyph glyph-name="uni1EE6" unicode="&#x1ee6;" horiz-adv-x="590" 
d="M531 208q0 -64 -27 -114.5t-80 -79.5t-129 -29q-115 0 -175.5 61t-60.5 162v483h130v-477q0 -65 25.5 -96.5t80.5 -31.5q54 0 80 32t26 96v477h130v-483zM256 850q35 4 49 12t14 29q0 33 -36 33q-15 0 -26.5 -3t-27.5 -9l-22 57q40 25 94 25q51 0 79 -26t28 -70
q0 -75 -74 -89v-45h-78v86z" />
    <glyph glyph-name="Uhorn" unicode="&#x1af;" horiz-adv-x="643" 
d="M624 601q-33 -29 -93 -31v-362q0 -64 -27 -114.5t-80 -79.5t-129 -29q-115 0 -175.5 61t-60.5 162v483h130v-477q0 -65 25.5 -96.5t80.5 -31.5q54 0 80 32t26 96v477h130v-55q20 4 28.5 16t8.5 34q0 38 -12 72l84 15q17 -38 17 -87q0 -56 -33 -85z" />
    <glyph glyph-name="uni1EE8" unicode="&#x1ee8;" horiz-adv-x="643" 
d="M415 836l-209 -83l-32 64l192 115zM624 601q-33 -29 -93 -31v-362q0 -64 -27 -114.5t-80 -79.5t-129 -29q-115 0 -175.5 61t-60.5 162v483h130v-477q0 -65 25.5 -96.5t80.5 -31.5q54 0 80 32t26 96v477h130v-55q20 4 28.5 16t8.5 34q0 38 -12 72l84 15q17 -38 17 -87
q0 -56 -33 -85z" />
    <glyph glyph-name="uni1EF0" unicode="&#x1ef0;" horiz-adv-x="643" 
d="M624 601q-33 -29 -93 -31v-362q0 -64 -27 -114.5t-80 -79.5t-129 -29q-115 0 -175.5 61t-60.5 162v483h130v-477q0 -65 25.5 -96.5t80.5 -31.5q54 0 80 32t26 96v477h130v-55q20 4 28.5 16t8.5 34q0 38 -12 72l84 15q17 -38 17 -87q0 -56 -33 -85zM350.5 -88.5
q21.5 -21.5 21.5 -54.5t-21.5 -54.5t-55.5 -21.5t-55.5 21.5t-21.5 54.5t21.5 54.5t55.5 21.5t55.5 -21.5z" />
    <glyph glyph-name="uni1EEA" unicode="&#x1eea;" horiz-adv-x="643" 
d="M411 817l-32 -64l-209 82l49 97zM624 601q-33 -29 -93 -31v-362q0 -64 -27 -114.5t-80 -79.5t-129 -29q-115 0 -175.5 61t-60.5 162v483h130v-477q0 -65 25.5 -96.5t80.5 -31.5q54 0 80 32t26 96v477h130v-55q20 4 28.5 16t8.5 34q0 38 -12 72l84 15q17 -38 17 -87
q0 -56 -33 -85z" />
    <glyph glyph-name="uni1EEC" unicode="&#x1eec;" horiz-adv-x="643" 
d="M256.5 921q-11.5 -3 -27.5 -9l-22 57q40 25 94 25q51 0 79 -26t28 -70q0 -75 -74 -89v-45h-78v86q35 4 49 12t14 29q0 33 -36 33q-15 0 -26.5 -3zM624 601q-33 -29 -93 -31v-362q0 -64 -27 -114.5t-80 -79.5t-129 -29q-115 0 -175.5 61t-60.5 162v483h130v-477
q0 -65 25.5 -96.5t80.5 -31.5q54 0 80 32t26 96v477h130v-55q20 4 28.5 16t8.5 34q0 38 -12 72l84 15q17 -38 17 -87q0 -56 -33 -85z" />
    <glyph glyph-name="uni1EEE" unicode="&#x1eee;" horiz-adv-x="643" 
d="M218.5 807.5q-10.5 -10.5 -22.5 -33.5l-64 31q18 46 46 73.5t64 27.5q19 0 33.5 -7t32.5 -19q2 -2 10.5 -7.5t16 -8t13.5 -2.5q14 0 24 10t23 33l64 -31q-17 -48 -45.5 -74t-64.5 -26q-19 0 -32.5 6.5t-33.5 19.5q-23 18 -39 18q-15 0 -25.5 -10.5zM624 601
q-33 -29 -93 -31v-362q0 -64 -27 -114.5t-80 -79.5t-129 -29q-115 0 -175.5 61t-60.5 162v483h130v-477q0 -65 25.5 -96.5t80.5 -31.5q54 0 80 32t26 96v477h130v-55q20 4 28.5 16t8.5 34q0 38 -12 72l84 15q17 -38 17 -87q0 -56 -33 -85z" />
    <glyph glyph-name="Uhungarumlaut" unicode="&#x170;" horiz-adv-x="590" 
d="M531 208q0 -64 -27 -114.5t-80 -79.5t-129 -29q-115 0 -175.5 61t-60.5 162v483h130v-477q0 -65 25.5 -96.5t80.5 -31.5q54 0 80 32t26 96v477h130v-483zM258 970l88 -44l-97 -166l-66 29zM410 970l87 -45l-105 -169l-66 30z" />
    <glyph glyph-name="uni0216" unicode="&#x216;" horiz-adv-x="590" 
d="M531 208q0 -64 -27 -114.5t-80 -79.5t-129 -29q-115 0 -175.5 61t-60.5 162v483h130v-477q0 -65 25.5 -96.5t80.5 -31.5q54 0 80 32t26 96v477h130v-483zM399.5 895q39.5 -41 44.5 -112l-71 -13q-17 77 -78 77q-60 0 -78 -77l-71 13q5 71 44.5 112t104.5 41t104.5 -41z
" />
    <glyph glyph-name="Umacron" unicode="&#x16a;" horiz-adv-x="590" 
d="M531 208q0 -64 -27 -114.5t-80 -79.5t-129 -29q-115 0 -175.5 61t-60.5 162v483h130v-477q0 -65 25.5 -96.5t80.5 -31.5q54 0 80 32t26 96v477h130v-483zM428 788h-266v88h266v-88z" />
    <glyph glyph-name="Uogonek" unicode="&#x172;" horiz-adv-x="590" 
d="M531 691v-483q0 -76 -37.5 -132t-108.5 -78q-59 -27 -81 -52.5t-22 -53.5q0 -47 49 -47q26 0 55 7l-9 -83q-33 -7 -62 -7q-56 0 -91 30t-35 78q0 73 84 116q-104 6 -159 66t-55 156v483h130v-477q0 -65 25.5 -96.5t80.5 -31.5q54 0 80 32t26 96v477h130z" />
    <glyph glyph-name="uni01B1" unicode="&#x1b1;" horiz-adv-x="622" 
d="M164 23.5q-62 38.5 -95 110.5t-33 170q0 108 30.5 175t86.5 115h-98v97h203v-94q-45 -51 -66 -116.5t-21 -176.5q0 -114 35.5 -167t104.5 -53t104.5 53.5t35.5 167.5q0 108 -21.5 174t-65.5 118v94h204v-97h-100q56 -43 87 -111t31 -178q0 -96 -33.5 -168.5t-95.5 -112
t-146 -39.5q-85 0 -147 38.5z" />
    <glyph glyph-name="Uring" unicode="&#x16e;" horiz-adv-x="590" 
d="M531 208q0 -64 -27 -114.5t-80 -79.5t-129 -29q-115 0 -175.5 61t-60.5 162v483h130v-477q0 -65 25.5 -96.5t80.5 -31.5q54 0 80 32t26 96v477h130v-483zM381.5 944q32.5 -33 32.5 -85t-32.5 -85.5t-86.5 -33.5q-53 0 -85.5 33.5t-32.5 85.5t32.5 85t85.5 33
q54 0 86.5 -33zM252 859q0 -54 43 -54q20 0 32 13.5t12 40.5q0 54 -44 54q-43 0 -43 -54z" />
    <glyph glyph-name="Utilde" unicode="&#x168;" horiz-adv-x="590" 
d="M531 208q0 -64 -27 -114.5t-80 -79.5t-129 -29q-115 0 -175.5 61t-60.5 162v483h130v-477q0 -65 25.5 -96.5t80.5 -31.5q54 0 80 32t26 96v477h130v-483zM316.5 780.5q-13.5 6.5 -33.5 19.5q-23 18 -39 18q-15 0 -25.5 -10.5t-22.5 -33.5l-64 31q18 46 46 73.5t64 27.5
q19 0 33.5 -7t32.5 -19q2 -2 10.5 -7.5t16 -8t13.5 -2.5q14 0 24 10t23 33l64 -31q-17 -48 -45.5 -74t-64.5 -26q-19 0 -32.5 6.5z" />
    <glyph glyph-name="uni1E78" unicode="&#x1e78;" horiz-adv-x="590" 
d="M531 208q0 -64 -27 -114.5t-80 -79.5t-129 -29q-115 0 -175.5 61t-60.5 162v483h130v-477q0 -65 25.5 -96.5t80.5 -31.5q54 0 80 32t26 96v477h130v-483zM316.5 765.5q-13.5 6.5 -33.5 19.5q-23 18 -39 18q-15 0 -25.5 -10.5t-22.5 -33.5l-64 31q18 46 46 73.5t64 27.5
q19 0 33.5 -7t32.5 -19q2 -2 10.5 -7.5t16 -8t13.5 -2.5q14 0 24 10t23 33l64 -31q-17 -48 -45.5 -74t-64.5 -26q-19 0 -32.5 6.5zM367 1091l49 -96l-209 -83l-32 64z" />
    <glyph glyph-name="V" unicode="V" horiz-adv-x="518" 
d="M521 691l-181 -691h-157l-186 691h134l133 -577l127 577h130z" />
    <glyph glyph-name="uni01B2" unicode="&#x1b2;" horiz-adv-x="590" 
d="M497.5 670.5q33.5 -35.5 33.5 -103.5v-286q0 -91 -31.5 -158t-89 -102.5t-133.5 -35.5q-67 0 -116.5 27.5t-75.5 75.5t-26 109v494h130v-493q0 -54 23.5 -83t66.5 -29q57 0 89.5 49t32.5 144v289q0 40 -30 40q-14 0 -27 -5l-22 86q37 17 80 17q62 0 95.5 -35.5z" />
    <glyph glyph-name="uni0245" unicode="&#x245;" horiz-adv-x="535" 
d="M347 691l191 -691h-135l-137 592l-137 -592h-132l192 691h158z" />
    <glyph glyph-name="W" unicode="W" horiz-adv-x="762" 
d="M747 691l-111 -691h-168l-88 554l-91 -554h-165l-109 691h127l75 -588l96 588h137l94 -588l82 588h121z" />
    <glyph glyph-name="Wacute" unicode="&#x1e82;" horiz-adv-x="762" 
d="M747 691l-111 -691h-168l-88 554l-91 -554h-165l-109 691h127l75 -588l96 588h137l94 -588l82 588h121zM453 932l49 -96l-209 -83l-32 64z" />
    <glyph glyph-name="Wcircumflex" unicode="&#x174;" horiz-adv-x="762" 
d="M747 691l-111 -691h-168l-88 554l-91 -554h-165l-109 691h127l75 -588l96 588h137l94 -588l82 588h121zM263 759l-46 51l126 121h77l126 -121l-47 -51l-118 82z" />
    <glyph glyph-name="Wdieresis" unicode="&#x1e84;" horiz-adv-x="762" 
d="M747 691l-111 -691h-168l-88 554l-91 -554h-165l-109 691h127l75 -588l96 588h137l94 -588l82 588h121zM331 889.5q19 -19.5 19 -47.5q0 -29 -19 -48.5t-48 -19.5t-48 19.5t-19 48.5q0 28 19.5 47.5t47.5 19.5q29 0 48 -19.5zM534 889.5q19 -19.5 19 -47.5
q0 -29 -19 -48.5t-48 -19.5t-48.5 19.5t-19.5 48.5q0 28 20 47.5t48 19.5q29 0 48 -19.5z" />
    <glyph glyph-name="Wgrave" unicode="&#x1e80;" horiz-adv-x="762" 
d="M747 691l-111 -691h-168l-88 554l-91 -554h-165l-109 691h127l75 -588l96 588h137l94 -588l82 588h121zM306 932l192 -115l-32 -64l-209 82z" />
    <glyph glyph-name="uni2C72" unicode="&#x2c72;" horiz-adv-x="809" 
d="M124 0h165l91 554l88 -554h167l77 554q4 32 15.5 45t34.5 13q15 0 26 -4.5t24 -12.5l38 73q-24 18 -49 28t-57 10q-61 0 -97.5 -34.5t-45.5 -112.5l-57 -456l-94 588h-137l-96 -588l-75 588h-127z" />
    <glyph glyph-name="uni01F7" unicode="&#x1f7;" horiz-adv-x="534" 
d="M428 683q40 -23 63 -66.5t23 -102.5q0 -74 -31.5 -126.5t-83.5 -87.5t-129 -68l-71 -30v-202h-130v691h130v-44q59 59 140 59q49 0 89 -23zM346 399q34 44 34 110q0 50 -21 74.5t-59 24.5q-56 0 -101 -45v-264l48 23q65 33 99 77z" />
    <glyph glyph-name="X" unicode="X" horiz-adv-x="512" 
d="M331 373l182 -373h-139l-121 286l-120 -286h-135l178 368l-163 323h139l103 -242l107 242h134z" />
    <glyph glyph-name="Y" unicode="Y" horiz-adv-x="523" 
d="M526 691l-200 -429v-262h-130v261l-199 430h139l128 -323l128 323h134z" />
    <glyph glyph-name="Yacute" unicode="&#xdd;" horiz-adv-x="523" 
d="M526 691l-200 -429v-262h-130v261l-199 430h139l128 -323l128 323h134zM332 932l49 -96l-209 -83l-32 64z" />
    <glyph glyph-name="Ycircumflex" unicode="&#x176;" horiz-adv-x="523" 
d="M526 691l-200 -429v-262h-130v261l-199 430h139l128 -323l128 323h134zM142 759l-46 51l126 121h77l126 -121l-47 -51l-118 82z" />
    <glyph glyph-name="Ydieresis" unicode="&#x178;" horiz-adv-x="523" 
d="M526 691l-200 -429v-262h-130v261l-199 430h139l128 -323l128 323h134zM210 889.5q19 -19.5 19 -47.5q0 -29 -19 -48.5t-48 -19.5t-48 19.5t-19 48.5q0 28 19.5 47.5t47.5 19.5q29 0 48 -19.5zM413 889.5q19 -19.5 19 -47.5q0 -29 -19 -48.5t-48 -19.5t-48.5 19.5
t-19.5 48.5q0 28 20 47.5t48 19.5q29 0 48 -19.5z" />
    <glyph glyph-name="uni1EF4" unicode="&#x1ef4;" horiz-adv-x="523" 
d="M526 691l-200 -429v-262h-130v261l-199 430h139l128 -323l128 323h134zM206.5 -197.5q-21.5 21.5 -21.5 54.5t21.5 54.5t55.5 21.5t55.5 -21.5t21.5 -54.5t-21.5 -54.5t-55.5 -21.5t-55.5 21.5z" />
    <glyph glyph-name="Ygrave" unicode="&#x1ef2;" horiz-adv-x="523" 
d="M526 691l-200 -429v-262h-130v261l-199 430h139l128 -323l128 323h134zM185 932l192 -115l-32 -64l-209 82z" />
    <glyph glyph-name="uni01B3" unicode="&#x1b3;" horiz-adv-x="555" 
d="M196 261l-199 430h139l128 -323l77 212q23 67 57.5 96.5t91.5 29.5q32 0 57 -10t49 -28l-39 -73q-25 17 -51 17q-20 0 -32.5 -12.5t-26.5 -44.5l-121 -293v-262h-130v261z" />
    <glyph glyph-name="uni1EF6" unicode="&#x1ef6;" horiz-adv-x="523" 
d="M526 691l-200 -429v-262h-130v261l-199 430h139l128 -323l128 323h134zM222 850q35 4 49 12t14 29q0 33 -36 33q-15 0 -26.5 -3t-27.5 -9l-22 57q40 25 94 25q51 0 79 -26t28 -70q0 -75 -74 -89v-45h-78v86z" />
    <glyph glyph-name="uni0232" unicode="&#x232;" horiz-adv-x="523" 
d="M526 691l-200 -429v-262h-130v261l-199 430h139l128 -323l128 323h134zM394 788h-266v88h266v-88z" />
    <glyph glyph-name="uni01A6" unicode="&#x1a6;" horiz-adv-x="557" 
d="M271 160h-72v-160h-130v691h130v-118h54q261 0 261 -204q0 -135 -124 -185l161 -303h-143zM260 253q62 0 91 28t29 88q0 56 -30.5 82t-97.5 27h-53v-225h61z" />
    <glyph glyph-name="uni024E" unicode="&#x24e;" horiz-adv-x="523" 
d="M488 609h38v-80h-76l-124 -267v-262h-129v261l-125 268h-73v80h36l-38 82h136l33 -82h197l33 82h130zM264 363l67 166h-133z" />
    <glyph glyph-name="uni1EF8" unicode="&#x1ef8;" horiz-adv-x="523" 
d="M526 691l-200 -429v-262h-130v261l-199 430h139l128 -323l128 323h134zM282.5 780.5q-13.5 6.5 -33.5 19.5q-23 18 -39 18q-15 0 -25.5 -10.5t-22.5 -33.5l-64 31q18 46 46 73.5t64 27.5q19 0 33.5 -7t32.5 -19q2 -2 10.5 -7.5t16 -8t13.5 -2.5q14 0 24 10t23 33l64 -31
q-17 -48 -45.5 -74t-64.5 -26q-19 0 -32.5 6.5z" />
    <glyph glyph-name="Z" unicode="Z" horiz-adv-x="481" 
d="M452 691v-100l-289 -485h292l-13 -106h-423v99l291 489h-262v103h404z" />
    <glyph glyph-name="Zacute" unicode="&#x179;" horiz-adv-x="481" 
d="M452 691v-100l-289 -485h292l-13 -106h-423v99l291 489h-262v103h404zM318 932l49 -96l-209 -83l-32 64z" />
    <glyph glyph-name="Zacute.loclPLK" horiz-adv-x="481" 
d="M452 691v-100l-289 -485h292l-13 -106h-423v99l291 489h-262v103h404zM276 945l93 -56l-125 -151l-57 34z" />
    <glyph glyph-name="Zcaron" unicode="&#x17d;" horiz-adv-x="481" 
d="M452 691v-100l-289 -485h292l-13 -106h-423v99l291 489h-262v103h404zM365 924l47 -51l-126 -121h-77l-126 121l47 51l117 -82z" />
    <glyph glyph-name="Zdotaccent" unicode="&#x17b;" horiz-adv-x="481" 
d="M452 691v-100l-289 -485h292l-13 -106h-423v99l291 489h-262v103h404zM302.5 899.5q21.5 -21.5 21.5 -54.5t-21.5 -54.5t-55.5 -21.5t-55.5 21.5t-21.5 54.5t21.5 54.5t55.5 21.5t55.5 -21.5z" />
    <glyph glyph-name="uni1E92" unicode="&#x1e92;" horiz-adv-x="481" 
d="M452 691v-100l-289 -485h292l-13 -106h-423v99l291 489h-262v103h404zM180.5 -197.5q-21.5 21.5 -21.5 54.5t21.5 54.5t55.5 21.5t55.5 -21.5t21.5 -54.5t-21.5 -54.5t-55.5 -21.5t-55.5 21.5z" />
    <glyph glyph-name="uni0224" unicode="&#x224;" horiz-adv-x="479" 
d="M452 591l-289 -485h286v-160q0 -79 -45.5 -121t-120.5 -42q-73 0 -122 40l46 77q19 -11 32.5 -15.5t33.5 -4.5q51 0 51 59v61h-305v99l291 489h-262v103h404v-100z" />
    <glyph glyph-name="uni01B5" unicode="&#x1b5;" horiz-adv-x="481" 
d="M155 106h300l-13 -106h-423v96l125 205h-77v90h131l120 197h-270v103h404v-97l-124 -203h81v-90h-135z" />
    <glyph glyph-name="uni0299" unicode="&#x299;" horiz-adv-x="507" 
d="M469 160q0 -80 -57 -120t-155 -40h-191v524q109 20 180 20q93 0 146.5 -38t53.5 -106q0 -88 -102 -112q125 -13 125 -128zM191 455v-138h61q72 0 72 72q0 37 -19.5 53.5t-59.5 16.5q-18 0 -54 -4zM319 104.5q22 17.5 22 62.5q0 42 -20.5 59t-63.5 17h-66v-156h65
q41 0 63 17.5z" />
    <glyph glyph-name="uni0262" unicode="&#x262;" horiz-adv-x="511" 
d="M377.5 526.5q42.5 -17.5 79.5 -50.5l-60 -68q-29 22 -55 32t-57 10q-117 0 -117 -183q0 -106 25 -147t76 -41q39 0 76 17v121h-70l-13 87h200v-259q-90 -58 -194 -58q-114 0 -172 68.5t-58 211.5q0 87 31.5 149.5t86.5 95t123 32.5q56 0 98.5 -17.5z" />
    <glyph glyph-name="uni029B" unicode="&#x29b;" horiz-adv-x="510" 
d="M608 717l-40 -77q-17 10 -30 14.5t-31 4.5q-25 0 -37.5 -14.5t-12.5 -46.5v-122l-55 -63q-31 19 -57.5 28t-58.5 9q-118 0 -118 -183q0 -106 25 -147t76 -41q39 0 76 17v121h-70l-13 87h200v-259q-87 -58 -194 -58q-114 0 -172 68.5t-58 211.5q0 87 31.5 149.5t84 95
t116.5 32.5q38 0 75 -14v71q0 73 38 113t107 40q65 0 118 -37z" />
    <glyph glyph-name="uni029C" unicode="&#x29c;" horiz-adv-x="533" 
d="M342 0v222h-151v-222h-125v529h125v-212h151v212h125v-529h-125z" />
    <glyph glyph-name="uni026A" unicode="&#x26a;" horiz-adv-x="304" 
d="M286 438h-72v-346h72v-92h-269v92h72v346h-72v91h269v-91z" />
    <glyph glyph-name="uni029F" unicode="&#x29f;" horiz-adv-x="402" 
d="M191 529v-429h202l-13 -100h-314v529h125z" />
    <glyph glyph-name="uni0274" unicode="&#x274;" horiz-adv-x="534" 
d="M468 0h-152l-157 414q8 -57 12.5 -109.5t4.5 -123.5v-181h-110v529h152l157 -415q-8 50 -12 91.5t-4 102.5v221h109v-529z" />
    <glyph glyph-name="uni0276" unicode="&#x276;" horiz-adv-x="690" 
d="M434 90h232v-90h-321q-42 -15 -80 -15q-106 0 -166.5 73.5t-60.5 206.5q0 131 60.5 205t167.5 74q46 0 84 -15h316l-13 -89h-217q40 -50 51 -128h142v-87h-141q-8 -83 -54 -135zM338 124q25 44 25 141q0 184 -97 184q-49 0 -73 -43.5t-24 -140.5q0 -98 24 -141.5
t73 -43.5q47 0 72 44z" />
    <glyph glyph-name="uni0280" unicode="&#x280;" horiz-adv-x="481" 
d="M336 0l-100 193h-1h-48v-193h-121v529h155q104 0 158.5 -43t54.5 -125q0 -51 -22.5 -89.5t-67.5 -58.5l123 -213h-131zM187 275h43q40 0 60 19.5t20 66.5q0 44 -22 63.5t-69 19.5h-32v-169z" />
    <glyph glyph-name="uni0281" unicode="&#x281;" horiz-adv-x="481" 
d="M412 259.5q22 -37.5 22 -88.5q0 -84 -54 -127.5t-159 -43.5h-155v529h121v-193h49l100 193h131l-122 -212q45 -20 67 -57.5zM288.5 105q21.5 19 21.5 65t-20 65t-60 19h-43v-168h32q48 0 69.5 19z" />
    <glyph glyph-name="uni028F" unicode="&#x28f;" horiz-adv-x="437" 
d="M445 529l-164 -333v-196h-125v195l-164 334h130l99 -253l98 253h126z" />
    <glyph glyph-name="a" unicode="a" horiz-adv-x="495" 
d="M436 91.5q8 -13.5 26 -21.5l-26 -83q-43 5 -69.5 22t-39.5 53q-49 -77 -142 -77q-71 0 -113 45t-42 118q0 86 57 131.5t165 45.5h53v33q0 50 -20 71t-65 21q-52 0 -128 -27l-29 83q91 38 177 38q188 0 188 -179v-232q0 -28 8 -41.5zM305 141v110h-40q-110 0 -110 -94
q0 -40 17 -60.5t47 -20.5q55 0 86 65z" />
    <glyph glyph-name="a.ss04" horiz-adv-x="542" 
d="M480.5 104q8.5 -16 30.5 -27l-37 -92q-46 10 -72 29t-40 49q-25 -37 -60.5 -57.5t-78.5 -20.5q-87 0 -136 73.5t-49 205.5q0 84 24.5 147.5t68.5 98t102 34.5q76 0 123 -65l7 50h109v-377q0 -32 8.5 -48zM305 95q22 16 42 48v253q-18 26 -38.5 40t-46.5 14
q-93 0 -93 -185q0 -102 22 -144t63 -42q29 0 51 16z" />
    <glyph glyph-name="aacute" unicode="&#xe1;" horiz-adv-x="495" 
d="M436 91.5q8 -13.5 26 -21.5l-26 -83q-43 5 -69.5 22t-39.5 53q-49 -77 -142 -77q-71 0 -113 45t-42 118q0 86 57 131.5t165 45.5h53v33q0 50 -20 71t-65 21q-52 0 -128 -27l-29 83q91 38 177 38q188 0 188 -179v-232q0 -28 8 -41.5zM305 141v110h-40q-110 0 -110 -94
q0 -40 17 -60.5t47 -20.5q55 0 86 65zM306 815l51 -95l-206 -90l-35 63z" />
    <glyph glyph-name="abreve" unicode="&#x103;" horiz-adv-x="495" 
d="M436 91.5q8 -13.5 26 -21.5l-26 -83q-43 5 -69.5 22t-39.5 53q-49 -77 -142 -77q-71 0 -113 45t-42 118q0 86 57 131.5t165 45.5h53v33q0 50 -20 71t-65 21q-52 0 -128 -27l-29 83q91 38 177 38q188 0 188 -179v-232q0 -28 8 -41.5zM305 141v110h-40q-110 0 -110 -94
q0 -40 17 -60.5t47 -20.5q55 0 86 65zM136.5 679q-39.5 41 -44.5 112l71 13q18 -77 78 -77q61 0 78 77l71 -13q-5 -71 -44.5 -112t-104.5 -41t-104.5 41z" />
    <glyph glyph-name="uni1EAF" unicode="&#x1eaf;" horiz-adv-x="495" 
d="M436 91.5q8 -13.5 26 -21.5l-26 -83q-43 5 -69.5 22t-39.5 53q-49 -77 -142 -77q-71 0 -113 45t-42 118q0 86 57 131.5t165 45.5h53v33q0 50 -20 71t-65 21q-52 0 -128 -27l-29 83q91 38 177 38q188 0 188 -179v-232q0 -28 8 -41.5zM305 141v110h-40q-110 0 -110 -94
q0 -40 17 -60.5t47 -20.5q55 0 86 65zM136.5 638.5q-39.5 39.5 -44.5 103.5l71 14q18 -67 78 -67q30 0 50 17.5t28 49.5l71 -14q-5 -64 -45 -103.5t-104 -39.5q-65 0 -104.5 39.5zM313 952l73 -66l-140 -136l-49 42z" />
    <glyph glyph-name="uni1EB7" unicode="&#x1eb7;" horiz-adv-x="495" 
d="M436 91.5q8 -13.5 26 -21.5l-26 -83q-43 5 -69.5 22t-39.5 53q-49 -77 -142 -77q-71 0 -113 45t-42 118q0 86 57 131.5t165 45.5h53v33q0 50 -20 71t-65 21q-52 0 -128 -27l-29 83q91 38 177 38q188 0 188 -179v-232q0 -28 8 -41.5zM305 141v110h-40q-110 0 -110 -94
q0 -40 17 -60.5t47 -20.5q55 0 86 65zM136.5 679q-39.5 41 -44.5 112l71 13q18 -77 78 -77q61 0 78 77l71 -13q-5 -71 -44.5 -112t-104.5 -41t-104.5 41zM187.5 -197.5q-21.5 21.5 -21.5 54.5t21.5 54.5t55.5 21.5t55.5 -21.5t21.5 -54.5t-21.5 -54.5t-55.5 -21.5
t-55.5 21.5z" />
    <glyph glyph-name="uni1EB1" unicode="&#x1eb1;" horiz-adv-x="495" 
d="M436 91.5q8 -13.5 26 -21.5l-26 -83q-43 5 -69.5 22t-39.5 53q-49 -77 -142 -77q-71 0 -113 45t-42 118q0 86 57 131.5t165 45.5h53v33q0 50 -20 71t-65 21q-52 0 -128 -27l-29 83q91 38 177 38q188 0 188 -179v-232q0 -28 8 -41.5zM305 141v110h-40q-110 0 -110 -94
q0 -40 17 -60.5t47 -20.5q55 0 86 65zM139.5 638.5q-39.5 39.5 -44.5 103.5l71 14q18 -67 78 -67q30 0 50 17.5t28 49.5l71 -14q-5 -64 -45 -103.5t-104 -39.5q-65 0 -104.5 39.5zM174 952l117 -160l-50 -42l-141 136z" />
    <glyph glyph-name="uni1EB3" unicode="&#x1eb3;" horiz-adv-x="495" 
d="M436 91.5q8 -13.5 26 -21.5l-26 -83q-43 5 -69.5 22t-39.5 53q-49 -77 -142 -77q-71 0 -113 45t-42 118q0 86 57 131.5t165 45.5h53v33q0 50 -20 71t-65 21q-52 0 -128 -27l-29 83q91 38 177 38q188 0 188 -179v-232q0 -28 8 -41.5zM305 141v110h-40q-110 0 -110 -94
q0 -40 17 -60.5t47 -20.5q55 0 86 65zM137.5 638.5q-39.5 39.5 -44.5 103.5l71 14q18 -67 78 -67q30 0 50 17.5t28 49.5l71 -14q-5 -64 -45 -103.5t-104 -39.5q-65 0 -104.5 39.5zM203 840q35 4 49 12t14 29q0 34 -36 34q-15 0 -27 -3t-27 -10l-22 57q40 25 94 25
q52 0 79.5 -26t27.5 -70q0 -37 -19 -59.5t-55 -29.5v-55h-78v96z" />
    <glyph glyph-name="uni1EB5" unicode="&#x1eb5;" horiz-adv-x="495" 
d="M436 91.5q8 -13.5 26 -21.5l-26 -83q-43 5 -69.5 22t-39.5 53q-49 -77 -142 -77q-71 0 -113 45t-42 118q0 86 57 131.5t165 45.5h53v33q0 50 -20 71t-65 21q-52 0 -128 -27l-29 83q91 38 177 38q188 0 188 -179v-232q0 -28 8 -41.5zM305 141v110h-40q-110 0 -110 -94
q0 -40 17 -60.5t47 -20.5q55 0 86 65zM137.5 638.5q-39.5 39.5 -44.5 103.5l71 14q18 -67 78 -67q30 0 50 17.5t28 49.5l71 -14q-5 -64 -45 -103.5t-104 -39.5q-65 0 -104.5 39.5zM264.5 793.5q-13.5 5.5 -23 11.5t-12.5 8q-23 18 -39 18q-15 0 -25 -10t-23 -33l-64 30
q18 44 46 71t64 27q19 0 33 -6.5t33 -18.5q13 -9 22 -13.5t18 -4.5q14 0 24 10t23 32l64 -30q-17 -46 -45.5 -71.5t-64.5 -25.5q-17 0 -30.5 5.5z" />
    <glyph glyph-name="uni01CE" unicode="&#x1ce;" horiz-adv-x="495" 
d="M436 91.5q8 -13.5 26 -21.5l-26 -83q-43 5 -69.5 22t-39.5 53q-49 -77 -142 -77q-71 0 -113 45t-42 118q0 86 57 131.5t165 45.5h53v33q0 50 -20 71t-65 21q-52 0 -128 -27l-29 83q91 38 177 38q188 0 188 -179v-232q0 -28 8 -41.5zM305 141v110h-40q-110 0 -110 -94
q0 -40 17 -60.5t47 -20.5q55 0 86 65zM359 798l47 -52l-126 -127h-77l-126 127l46 52l118 -90z" />
    <glyph glyph-name="acircumflex" unicode="&#xe2;" horiz-adv-x="495" 
d="M436 91.5q8 -13.5 26 -21.5l-26 -83q-43 5 -69.5 22t-39.5 53q-49 -77 -142 -77q-71 0 -113 45t-42 118q0 86 57 131.5t165 45.5h53v33q0 50 -20 71t-65 21q-52 0 -128 -27l-29 83q91 38 177 38q188 0 188 -179v-232q0 -28 8 -41.5zM305 141v110h-40q-110 0 -110 -94
q0 -40 17 -60.5t47 -20.5q55 0 86 65zM123 629l-46 51l126 127h77l126 -127l-47 -51l-118 88z" />
    <glyph glyph-name="uni1EA5" unicode="&#x1ea5;" horiz-adv-x="495" 
d="M436 91.5q8 -13.5 26 -21.5l-26 -83q-43 5 -69.5 22t-39.5 53q-49 -77 -142 -77q-71 0 -113 45t-42 118q0 86 57 131.5t165 45.5h53v33q0 50 -20 71t-65 21q-52 0 -128 -27l-29 83q91 38 177 38q188 0 188 -179v-232q0 -28 8 -41.5zM305 141v110h-40q-110 0 -110 -94
q0 -40 17 -60.5t47 -20.5q55 0 86 65zM120 589l-46 51l126 121h77l126 -121l-47 -51l-118 82zM443 924l73 -66l-140 -136l-49 42z" />
    <glyph glyph-name="uni1EAD" unicode="&#x1ead;" horiz-adv-x="495" 
d="M436 91.5q8 -13.5 26 -21.5l-26 -83q-43 5 -69.5 22t-39.5 53q-49 -77 -142 -77q-71 0 -113 45t-42 118q0 86 57 131.5t165 45.5h53v33q0 50 -20 71t-65 21q-52 0 -128 -27l-29 83q91 38 177 38q188 0 188 -179v-232q0 -28 8 -41.5zM305 141v110h-40q-110 0 -110 -94
q0 -40 17 -60.5t47 -20.5q55 0 86 65zM123 629l-46 51l126 127h77l126 -127l-47 -51l-118 88zM187.5 -197.5q-21.5 21.5 -21.5 54.5t21.5 54.5t55.5 21.5t55.5 -21.5t21.5 -54.5t-21.5 -54.5t-55.5 -21.5t-55.5 21.5z" />
    <glyph glyph-name="uni1EA7" unicode="&#x1ea7;" horiz-adv-x="495" 
d="M436 91.5q8 -13.5 26 -21.5l-26 -83q-43 5 -69.5 22t-39.5 53q-49 -77 -142 -77q-71 0 -113 45t-42 118q0 86 57 131.5t165 45.5h53v33q0 50 -20 71t-65 21q-52 0 -128 -27l-29 83q91 38 177 38q188 0 188 -179v-232q0 -28 8 -41.5zM305 141v110h-40q-110 0 -110 -94
q0 -40 17 -60.5t47 -20.5q55 0 86 65zM120 589l-46 51l126 121h77l126 -121l-47 -51l-118 82zM34 924l117 -160l-50 -42l-141 136z" />
    <glyph glyph-name="uni1EA9" unicode="&#x1ea9;" horiz-adv-x="495" 
d="M436 91.5q8 -13.5 26 -21.5l-26 -83q-43 5 -69.5 22t-39.5 53q-49 -77 -142 -77q-71 0 -113 45t-42 118q0 86 57 131.5t165 45.5h53v33q0 50 -20 71t-65 21q-52 0 -128 -27l-29 83q91 38 177 38q188 0 188 -179v-232q0 -28 8 -41.5zM305 141v110h-40q-110 0 -110 -94
q0 -40 17 -60.5t47 -20.5q55 0 86 65zM120 589l-46 51l126 121h77l126 -121l-47 -51l-118 82zM336 830q35 4 49 12t14 29q0 34 -36 34q-15 0 -27 -3t-27 -10l-22 57q40 25 94 25q52 0 79.5 -26t27.5 -70q0 -37 -19 -59.5t-55 -29.5v-55h-78v96z" />
    <glyph glyph-name="uni1EAB" unicode="&#x1eab;" horiz-adv-x="495" 
d="M436 91.5q8 -13.5 26 -21.5l-26 -83q-43 5 -69.5 22t-39.5 53q-49 -77 -142 -77q-71 0 -113 45t-42 118q0 86 57 131.5t165 45.5h53v33q0 50 -20 71t-65 21q-52 0 -128 -27l-29 83q91 38 177 38q188 0 188 -179v-232q0 -28 8 -41.5zM305 141v110h-40q-110 0 -110 -94
q0 -40 17 -60.5t47 -20.5q55 0 86 65zM120 582l-46 51l126 121h77l126 -121l-47 -51l-118 82zM261.5 791.5q-13.5 5.5 -23 11.5t-12.5 8q-23 18 -39 18q-15 0 -25 -10t-23 -33l-64 30q18 44 46 71t64 27q19 0 33 -6.5t33 -18.5q13 -9 22 -13.5t18 -4.5q14 0 24 10t23 32
l64 -30q-17 -46 -45.5 -71.5t-64.5 -25.5q-17 0 -30.5 5.5z" />
    <glyph glyph-name="uni0201" unicode="&#x201;" horiz-adv-x="495" 
d="M436 91.5q8 -13.5 26 -21.5l-26 -83q-43 5 -69.5 22t-39.5 53q-49 -77 -142 -77q-71 0 -113 45t-42 118q0 86 57 131.5t165 45.5h53v33q0 50 -20 71t-65 21q-52 0 -128 -27l-29 83q91 38 177 38q188 0 188 -179v-232q0 -28 8 -41.5zM305 141v110h-40q-110 0 -110 -94
q0 -40 17 -60.5t47 -20.5q55 0 86 65zM134 844l83 -184l-66 -30l-105 169zM285 844l75 -181l-66 -29l-97 166z" />
    <glyph glyph-name="adieresis" unicode="&#xe4;" horiz-adv-x="495" 
d="M436 91.5q8 -13.5 26 -21.5l-26 -83q-43 5 -69.5 22t-39.5 53q-49 -77 -142 -77q-71 0 -113 45t-42 118q0 86 57 131.5t165 45.5h53v33q0 50 -20 71t-65 21q-52 0 -128 -27l-29 83q91 38 177 38q188 0 188 -179v-232q0 -28 8 -41.5zM305 141v110h-40q-110 0 -110 -94
q0 -40 17 -60.5t47 -20.5q55 0 86 65zM187 763.5q19 -19.5 19 -47.5q0 -29 -19 -48.5t-48 -19.5t-48 19.5t-19 48.5q0 28 19.5 47.5t47.5 19.5q29 0 48 -19.5zM390 763.5q19 -19.5 19 -47.5q0 -29 -19 -48.5t-48 -19.5t-48.5 19.5t-19.5 48.5q0 28 20 47.5t48 19.5
q29 0 48 -19.5z" />
    <glyph glyph-name="uni01DF" unicode="&#x1df;" horiz-adv-x="495" 
d="M436 91.5q8 -13.5 26 -21.5l-26 -83q-43 5 -69.5 22t-39.5 53q-49 -77 -142 -77q-71 0 -113 45t-42 118q0 86 57 131.5t165 45.5h53v33q0 50 -20 71t-65 21q-52 0 -128 -27l-29 83q91 38 177 38q188 0 188 -179v-232q0 -28 8 -41.5zM305 141v110h-40q-110 0 -110 -94
q0 -40 17 -60.5t47 -20.5q55 0 86 65zM187 728.5q19 -19.5 19 -47.5q0 -29 -19 -48.5t-48 -19.5t-48 19.5t-19 48.5q0 28 19.5 47.5t47.5 19.5q29 0 48 -19.5zM390 728.5q19 -19.5 19 -47.5q0 -29 -19 -48.5t-48 -19.5t-48.5 19.5t-19.5 48.5q0 28 20 47.5t48 19.5
q29 0 48 -19.5zM374 798h-266v88h266v-88z" />
    <glyph glyph-name="uni0227" unicode="&#x227;" horiz-adv-x="495" 
d="M436 91.5q8 -13.5 26 -21.5l-26 -83q-43 5 -69.5 22t-39.5 53q-49 -77 -142 -77q-71 0 -113 45t-42 118q0 86 57 131.5t165 45.5h53v33q0 50 -20 71t-65 21q-52 0 -128 -27l-29 83q91 38 177 38q188 0 188 -179v-232q0 -28 8 -41.5zM305 141v110h-40q-110 0 -110 -94
q0 -40 17 -60.5t47 -20.5q55 0 86 65zM296.5 773.5q21.5 -21.5 21.5 -54.5t-21.5 -54.5t-55.5 -21.5t-55.5 21.5t-21.5 54.5t21.5 54.5t55.5 21.5t55.5 -21.5z" />
    <glyph glyph-name="uni1EA1" unicode="&#x1ea1;" horiz-adv-x="495" 
d="M436 91.5q8 -13.5 26 -21.5l-26 -83q-43 5 -69.5 22t-39.5 53q-49 -77 -142 -77q-71 0 -113 45t-42 118q0 86 57 131.5t165 45.5h53v33q0 50 -20 71t-65 21q-52 0 -128 -27l-29 83q91 38 177 38q188 0 188 -179v-232q0 -28 8 -41.5zM305 141v110h-40q-110 0 -110 -94
q0 -40 17 -60.5t47 -20.5q55 0 86 65zM187.5 -197.5q-21.5 21.5 -21.5 54.5t21.5 54.5t55.5 21.5t55.5 -21.5t21.5 -54.5t-21.5 -54.5t-55.5 -21.5t-55.5 21.5z" />
    <glyph glyph-name="uni01E1" unicode="&#x1e1;" horiz-adv-x="495" 
d="M436 91.5q8 -13.5 26 -21.5l-26 -83q-43 5 -69.5 22t-39.5 53q-49 -77 -142 -77q-71 0 -113 45t-42 118q0 86 57 131.5t165 45.5h53v33q0 50 -20 71t-65 21q-52 0 -128 -27l-29 83q91 38 177 38q188 0 188 -179v-232q0 -28 8 -41.5zM305 141v110h-40q-110 0 -110 -94
q0 -40 17 -60.5t47 -20.5q55 0 86 65zM295.5 729.5q21.5 -21.5 21.5 -54.5t-21.5 -54.5t-55.5 -21.5t-55.5 21.5t-21.5 54.5t21.5 54.5t55.5 21.5t55.5 -21.5zM374 789h-266v88h266v-88z" />
    <glyph glyph-name="agrave" unicode="&#xe0;" horiz-adv-x="495" 
d="M436 91.5q8 -13.5 26 -21.5l-26 -83q-43 5 -69.5 22t-39.5 53q-49 -77 -142 -77q-71 0 -113 45t-42 118q0 86 57 131.5t165 45.5h53v33q0 50 -20 71t-65 21q-52 0 -128 -27l-29 83q91 38 177 38q188 0 188 -179v-232q0 -28 8 -41.5zM305 141v110h-40q-110 0 -110 -94
q0 -40 17 -60.5t47 -20.5q55 0 86 65zM180 815l190 -122l-35 -63l-206 90z" />
    <glyph glyph-name="uni1EA3" unicode="&#x1ea3;" horiz-adv-x="495" 
d="M436 91.5q8 -13.5 26 -21.5l-26 -83q-43 5 -69.5 22t-39.5 53q-49 -77 -142 -77q-71 0 -113 45t-42 118q0 86 57 131.5t165 45.5h53v33q0 50 -20 71t-65 21q-52 0 -128 -27l-29 83q91 38 177 38q188 0 188 -179v-232q0 -28 8 -41.5zM305 141v110h-40q-110 0 -110 -94
q0 -40 17 -60.5t47 -20.5q55 0 86 65zM202 704q35 4 49 12t14 29q0 34 -36 34q-15 0 -27 -3t-27 -10l-22 57q40 25 94 25q52 0 79.5 -26t27.5 -70q0 -37 -19 -59.5t-55 -29.5v-55h-78v96z" />
    <glyph glyph-name="uni0203" unicode="&#x203;" horiz-adv-x="495" 
d="M436 91.5q8 -13.5 26 -21.5l-26 -83q-43 5 -69.5 22t-39.5 53q-49 -77 -142 -77q-71 0 -113 45t-42 118q0 86 57 131.5t165 45.5h53v33q0 50 -20 71t-65 21q-52 0 -128 -27l-29 83q91 38 177 38q188 0 188 -179v-232q0 -28 8 -41.5zM305 141v110h-40q-110 0 -110 -94
q0 -40 17 -60.5t47 -20.5q55 0 86 65zM345.5 733q39.5 -41 44.5 -112l-71 -13q-17 77 -78 77q-60 0 -78 -77l-71 13q5 71 44.5 112t104.5 41t104.5 -41z" />
    <glyph glyph-name="uni0251" unicode="&#x251;" horiz-adv-x="542" 
d="M480.5 104q8.5 -16 30.5 -27l-37 -92q-46 10 -72 29t-40 49q-25 -37 -60.5 -57.5t-78.5 -20.5q-87 0 -136 73.5t-49 205.5q0 84 24.5 147.5t68.5 98t102 34.5q76 0 123 -65l7 50h109v-377q0 -32 8.5 -48zM305 95q22 16 42 48v253q-18 26 -38.5 40t-46.5 14
q-93 0 -93 -185q0 -102 22 -144t63 -42q29 0 51 16z" />
    <glyph glyph-name="uni0252" unicode="&#x252;" horiz-adv-x="542" 
d="M455 470.5q49 -73.5 49 -205.5q0 -84 -24.5 -147.5t-68.5 -98t-102 -34.5q-76 0 -123 65l-7 -50h-109v377q0 32 -8.5 48t-30.5 27l37 92q46 -10 72 -29t40 -49q25 37 60.5 57.5t78.5 20.5q87 0 136 -73.5zM373 264q0 102 -22 144t-63 42q-29 0 -51 -16t-42 -48v-253
q18 -26 38.5 -40t46.5 -14q93 0 93 185z" />
    <glyph glyph-name="amacron" unicode="&#x101;" horiz-adv-x="495" 
d="M436 91.5q8 -13.5 26 -21.5l-26 -83q-43 5 -69.5 22t-39.5 53q-49 -77 -142 -77q-71 0 -113 45t-42 118q0 86 57 131.5t165 45.5h53v33q0 50 -20 71t-65 21q-52 0 -128 -27l-29 83q91 38 177 38q188 0 188 -179v-232q0 -28 8 -41.5zM305 141v110h-40q-110 0 -110 -94
q0 -40 17 -60.5t47 -20.5q55 0 86 65zM374 662h-266v88h266v-88z" />
    <glyph glyph-name="aogonek" unicode="&#x105;" horiz-adv-x="495" 
d="M351.5 -67q-22.5 -26 -22.5 -55q0 -47 49 -47q17 0 54 7l-9 -82q-33 -7 -61 -7q-57 0 -92 29t-35 79q0 97 131 153q-26 17 -39 52q-49 -77 -142 -77q-71 0 -113 45t-42 118q0 86 57 131.5t165 45.5h53v33q0 50 -20 71t-65 21q-52 0 -128 -27l-29 83q91 38 177 38
q188 0 188 -179v-232q0 -28 8 -41.5t26 -21.5l-26 -83q-62 -28 -84.5 -54zM305 141v110h-40q-110 0 -110 -94q0 -40 17 -60.5t47 -20.5q55 0 86 65z" />
    <glyph glyph-name="aring" unicode="&#xe5;" horiz-adv-x="495" 
d="M436 91.5q8 -13.5 26 -21.5l-26 -83q-43 5 -69.5 22t-39.5 53q-49 -77 -142 -77q-71 0 -113 45t-42 118q0 86 57 131.5t165 45.5h53v33q0 50 -20 71t-65 21q-52 0 -128 -27l-29 83q91 38 177 38q188 0 188 -179v-232q0 -28 8 -41.5zM305 141v110h-40q-110 0 -110 -94
q0 -40 17 -60.5t47 -20.5q55 0 86 65zM327.5 818q32.5 -33 32.5 -85t-32.5 -85.5t-86.5 -33.5q-53 0 -85.5 33.5t-32.5 85.5t32.5 85t85.5 33q54 0 86.5 -33zM198 733q0 -54 43 -54q20 0 32 13.5t12 40.5q0 54 -44 54q-43 0 -43 -54z" />
    <glyph glyph-name="aringacute" unicode="&#x1fb;" horiz-adv-x="495" 
d="M362 908l-209 -83l-32 64l192 115zM154.5 784q32.5 33 85.5 33q54 0 86.5 -33t32.5 -85t-32.5 -85.5t-86.5 -33.5q-53 0 -85.5 33.5t-32.5 85.5t32.5 85zM240 753q-43 0 -43 -54t43 -54q20 0 32 13.5t12 40.5q0 54 -44 54zM436 91.5q8 -13.5 26 -21.5l-26 -83
q-43 5 -69.5 22t-39.5 53q-49 -77 -142 -77q-71 0 -113 45t-42 118q0 86 57 131.5t165 45.5h53v33q0 50 -20 71t-65 21q-52 0 -128 -27l-29 83q91 38 177 38q188 0 188 -179v-232q0 -28 8 -41.5zM305 141v110h-40q-110 0 -110 -94q0 -40 17 -60.5t47 -20.5q55 0 86 65z" />
    <glyph glyph-name="uni2C65" unicode="&#x2c65;" horiz-adv-x="495" 
d="M436 91.5q8 -13.5 26 -21.5l-26 -83q-43 5 -69.5 22t-39.5 53q-44 -71 -127 -76l-13 -58l-46 10l12 50q-58 10 -90.5 52.5t-32.5 107.5q0 80 51.5 124.5t149.5 48.5l30 130q-13 3 -33 3q-60 0 -136 -27l-29 79q91 38 177 38q22 0 43 -3l13 57l45 -11l-13 -56
q100 -35 100 -166v-232q0 -28 8 -41.5zM303 423l-24 -102h36v40q0 40 -12 62zM315 142v109h-51h-2l-41 -179q57 4 94 70zM175 83l38 163q-34 -9 -50 -31t-16 -59q0 -53 28 -73z" />
    <glyph glyph-name="atilde" unicode="&#xe3;" horiz-adv-x="495" 
d="M436 91.5q8 -13.5 26 -21.5l-26 -83q-43 5 -69.5 22t-39.5 53q-49 -77 -142 -77q-71 0 -113 45t-42 118q0 86 57 131.5t165 45.5h53v33q0 50 -20 71t-65 21q-52 0 -128 -27l-29 83q91 38 177 38q188 0 188 -179v-232q0 -28 8 -41.5zM305 141v110h-40q-110 0 -110 -94
q0 -40 17 -60.5t47 -20.5q55 0 86 65zM261.5 654.5q-13.5 6.5 -33.5 19.5q-23 18 -39 18q-15 0 -25.5 -10.5t-22.5 -33.5l-64 31q18 46 46 73.5t64 27.5q19 0 33.5 -7t32.5 -19q2 -2 10.5 -7.5t16 -8t13.5 -2.5q14 0 24 10t23 33l64 -31q-17 -48 -45.5 -74t-64.5 -26
q-19 0 -32.5 6.5z" />
    <glyph glyph-name="uni0250" unicode="&#x250;" horiz-adv-x="495" 
d="M403 106l29 -83q-91 -38 -177 -38q-188 0 -188 179v232q0 28 -8 41.5t-26 21.5l26 83q43 -5 69.5 -22t39.5 -53q49 77 142 77q71 0 113 -45t42 -118q0 -86 -57 -131.5t-165 -45.5h-53v-33q0 -50 20 -71t65 -21q52 0 128 27zM190 388v-110h40q110 0 110 94
q0 40 -16.5 60.5t-47.5 20.5q-55 0 -86 -65z" />
    <glyph glyph-name="ae" unicode="&#xe6;" horiz-adv-x="772" 
d="M736 226h-299q6 -78 35.5 -112t79.5 -34q30 0 57.5 11t58.5 34l53 -69q-79 -71 -180 -71q-61 0 -108 24.5t-76 68.5q-33 -49 -74 -71t-93 -22q-73 0 -116.5 45t-43.5 118q0 85 58.5 130t168.5 45h52v32q0 52 -20 73.5t-66 21.5q-51 0 -126 -28l-29 84q91 38 175 38
q54 0 89 -18.5t56 -54.5q54 73 148 73t148.5 -69.5t54.5 -197.5q0 -9 -3 -51zM616 313q0 71 -21 106.5t-66 35.5q-41 0 -64 -34.5t-28 -113.5h179v6zM278.5 95.5q23.5 19.5 44.5 59.5q-11 42 -12 91v2h-40q-56 0 -83 -22.5t-27 -69.5q0 -80 64 -80q30 0 53.5 19.5z" />
    <glyph glyph-name="aeacute" unicode="&#x1fd;" horiz-adv-x="772" 
d="M736 226h-299q6 -78 35.5 -112t79.5 -34q30 0 57.5 11t58.5 34l53 -69q-79 -71 -180 -71q-61 0 -108 24.5t-76 68.5q-33 -49 -74 -71t-93 -22q-73 0 -116.5 45t-43.5 118q0 85 58.5 130t168.5 45h52v32q0 52 -20 73.5t-66 21.5q-51 0 -126 -28l-29 84q91 38 175 38
q54 0 89 -18.5t56 -54.5q54 73 148 73t148.5 -69.5t54.5 -197.5q0 -9 -3 -51zM616 313q0 71 -21 106.5t-66 35.5q-41 0 -64 -34.5t-28 -113.5h179v6zM278.5 95.5q23.5 19.5 44.5 59.5q-11 42 -12 91v2h-40q-56 0 -83 -22.5t-27 -69.5q0 -80 64 -80q30 0 53.5 19.5zM452 815
l51 -95l-206 -90l-35 63z" />
    <glyph glyph-name="uni01E3" unicode="&#x1e3;" horiz-adv-x="772" 
d="M736 226h-299q6 -78 35.5 -112t79.5 -34q30 0 57.5 11t58.5 34l53 -69q-79 -71 -180 -71q-61 0 -108 24.5t-76 68.5q-33 -49 -74 -71t-93 -22q-73 0 -116.5 45t-43.5 118q0 85 58.5 130t168.5 45h52v32q0 52 -20 73.5t-66 21.5q-51 0 -126 -28l-29 84q91 38 175 38
q54 0 89 -18.5t56 -54.5q54 73 148 73t148.5 -69.5t54.5 -197.5q0 -9 -3 -51zM616 313q0 71 -21 106.5t-66 35.5q-41 0 -64 -34.5t-28 -113.5h179v6zM278.5 95.5q23.5 19.5 44.5 59.5q-11 42 -12 91v2h-40q-56 0 -83 -22.5t-27 -69.5q0 -80 64 -80q30 0 53.5 19.5zM520 662
h-266v88h266v-88z" />
    <glyph glyph-name="b" unicode="b" horiz-adv-x="539" 
d="M452 472q46 -72 46 -207q0 -84 -23 -147.5t-65.5 -98t-99.5 -34.5q-77 0 -126 67l-7 -52h-111v740l125 14v-283q23 34 57 53.5t74 19.5q84 0 130 -72zM368 265q0 104 -22 144t-63 40q-53 0 -92 -70v-242q16 -27 38 -42.5t47 -15.5q92 0 92 186z" />
    <glyph glyph-name="uni1E03" unicode="&#x1e03;" horiz-adv-x="539" 
d="M452 472q46 -72 46 -207q0 -84 -23 -147.5t-65.5 -98t-99.5 -34.5q-77 0 -126 67l-7 -52h-111v740l125 14v-283q23 34 57 53.5t74 19.5q84 0 130 -72zM368 265q0 104 -22 144t-63 40q-53 0 -92 -70v-242q16 -27 38 -42.5t47 -15.5q92 0 92 186zM342.5 949.5
q21.5 -21.5 21.5 -54.5t-21.5 -54.5t-55.5 -21.5t-55.5 21.5t-21.5 54.5t21.5 54.5t55.5 21.5t55.5 -21.5z" />
    <glyph glyph-name="uni1E05" unicode="&#x1e05;" horiz-adv-x="539" 
d="M452 472q46 -72 46 -207q0 -84 -23 -147.5t-65.5 -98t-99.5 -34.5q-77 0 -126 67l-7 -52h-111v740l125 14v-283q23 34 57 53.5t74 19.5q84 0 130 -72zM368 265q0 104 -22 144t-63 40q-53 0 -92 -70v-242q16 -27 38 -42.5t47 -15.5q92 0 92 186zM223.5 -197.5
q-21.5 21.5 -21.5 54.5t21.5 54.5t55.5 21.5t55.5 -21.5t21.5 -54.5t-21.5 -54.5t-55.5 -21.5t-55.5 21.5z" />
    <glyph glyph-name="uniA7B5" unicode="&#xa7b5;" horiz-adv-x="549" 
d="M519 205q0 -66 -27 -116t-72.5 -77t-100.5 -27q-73 0 -132 43v-229l-121 -17v762q0 102 55.5 156t148.5 54q91 0 144.5 -50.5t53.5 -135.5q0 -69 -34 -110t-97 -53q182 -20 182 -200zM363.5 115q28.5 32 28.5 97q0 73 -33.5 107.5t-93.5 34.5h-38l9 88h29q38 0 60.5 29
t22.5 88q0 104 -79 104q-41 0 -61.5 -28t-20.5 -91v-429q22 -16 46 -24t55 -8q47 0 75.5 32z" />
    <glyph glyph-name="uni0253" unicode="&#x253;" horiz-adv-x="539" 
d="M452 472.5q46 -71.5 46 -207.5q0 -84 -23 -147.5t-65.5 -98t-99.5 -34.5q-77 0 -126 67l-7 -52h-111v594q0 71 45 115.5t128 44.5q69 0 126 -30l-36 -82q-38 17 -76 17q-33 0 -47.5 -16t-14.5 -51v-121q23 34 56.5 53.5t73.5 19.5q85 0 131 -71.5zM368 265q0 104 -22 144
t-63 40q-53 0 -92 -70v-242q16 -27 38 -42.5t47 -15.5q92 0 92 186z" />
    <glyph glyph-name="uni02AD" unicode="&#x2ad;" horiz-adv-x="328" 
d="M30 400v157h268v-157h-77v87h-115v-87h-76zM30 0v157h268v-157h-77v87h-115v-87h-76z" />
    <glyph glyph-name="uni0298" unicode="&#x298;" horiz-adv-x="723" 
d="M530.5 664q72.5 -42 113 -123.5t40.5 -194.5q0 -111 -40.5 -192.5t-113.5 -125t-168 -43.5q-96 0 -169 42t-113.5 123.5t-40.5 195.5q0 110 40.5 191.5t114 125t168.5 43.5q96 0 168.5 -42zM214 548.5q-53 -65.5 -53 -202.5q0 -139 53 -204t148 -65q96 0 148.5 65
t52.5 204q0 137 -54 202.5t-147 65.5q-95 0 -148 -65.5zM416 394.5q20 -20.5 20 -50.5t-20 -50.5t-52 -20.5t-52 20.5t-20 50.5t20 50.5t52 20.5t52 -20.5z" />
    <glyph glyph-name="uni02AC" unicode="&#x2ac;" horiz-adv-x="421" 
d="M393 666l-56 -266h-89l-35 195l-38 -195h-88l-60 266h71l36 -204l40 204h80l38 -205l35 205h66zM393 266l-56 -266h-89l-35 195l-38 -195h-88l-60 266h71l36 -204l40 204h80l38 -205l35 205h66z" />
    <glyph glyph-name="uni0180" unicode="&#x180;" horiz-adv-x="545" 
d="M458 472q46 -72 46 -207q0 -84 -23 -147.5t-65.5 -98t-99.5 -34.5q-77 0 -126 67l-7 -52h-111v601h-60v81h60v58l125 14v-72h123v-81h-123v-130q23 34 57 53.5t74 19.5q84 0 130 -72zM374 265q0 104 -22 144t-63 40q-53 0 -92 -70v-242q16 -27 38 -42.5t47 -15.5
q92 0 92 186z" />
    <glyph glyph-name="uni0183" unicode="&#x183;" horiz-adv-x="539" 
d="M452 469q46 -71 46 -206q0 -84 -23 -146.5t-65.5 -97t-99.5 -34.5q-77 0 -126 67l-7 -52h-111v741h323l-14 -92h-184v-182q23 34 56.5 53.5t73.5 19.5q85 0 131 -71zM368 263q0 103 -22 143t-63 40q-53 0 -92 -70v-239q16 -27 38 -42.5t47 -15.5q92 0 92 184z" />
    <glyph glyph-name="c" unicode="c" horiz-adv-x="433" 
d="M351 529q38 -15 72 -46l-55 -73q-45 36 -94 36q-51 0 -77.5 -43.5t-26.5 -140.5q0 -96 26.5 -136t77.5 -40q25 0 46 8.5t47 26.5l56 -75q-69 -61 -155 -61q-108 0 -169 71.5t-61 203.5q0 86 28 150.5t79.5 99t120.5 34.5q47 0 85 -15z" />
    <glyph glyph-name="cacute" unicode="&#x107;" horiz-adv-x="433" 
d="M351 529q38 -15 72 -46l-55 -73q-45 36 -94 36q-51 0 -77.5 -43.5t-26.5 -140.5q0 -96 26.5 -136t77.5 -40q25 0 46 8.5t47 26.5l56 -75q-69 -61 -155 -61q-108 0 -169 71.5t-61 203.5q0 86 28 150.5t79.5 99t120.5 34.5q47 0 85 -15zM331 815l51 -95l-206 -90l-35 63z
" />
    <glyph glyph-name="cacute.loclPLK" horiz-adv-x="433" 
d="M351 529q38 -15 72 -46l-55 -73q-45 36 -94 36q-51 0 -77.5 -43.5t-26.5 -140.5q0 -96 26.5 -136t77.5 -40q25 0 46 8.5t47 26.5l56 -75q-69 -61 -155 -61q-108 0 -169 71.5t-61 203.5q0 86 28 150.5t79.5 99t120.5 34.5q47 0 85 -15zM294 793l94 -56l-125 -158l-57 34z
" />
    <glyph glyph-name="ccaron" unicode="&#x10d;" horiz-adv-x="433" 
d="M351 529q38 -15 72 -46l-55 -73q-45 36 -94 36q-51 0 -77.5 -43.5t-26.5 -140.5q0 -96 26.5 -136t77.5 -40q25 0 46 8.5t47 26.5l56 -75q-69 -61 -155 -61q-108 0 -169 71.5t-61 203.5q0 86 28 150.5t79.5 99t120.5 34.5q47 0 85 -15zM384 798l47 -52l-126 -127h-77
l-126 127l46 52l118 -90z" />
    <glyph glyph-name="ccedilla" unicode="&#xe7;" horiz-adv-x="433" 
d="M290 -14v-40q45 -6 68 -29.5t23 -61.5q0 -49 -35 -77.5t-92 -28.5t-96 27l30 59q32 -14 57 -14q20 0 31.5 8.5t11.5 25.5q0 20 -19.5 29.5t-62.5 9.5l11 96q-85 16 -132 85t-47 185q0 86 28 150.5t79.5 99t120.5 34.5q47 0 85 -15t72 -46l-55 -73q-45 36 -94 36
q-51 0 -77.5 -43.5t-26.5 -140.5q0 -96 26.5 -136t77.5 -40q25 0 46 8.5t47 26.5l56 -75q-61 -53 -133 -60z" />
    <glyph glyph-name="ccircumflex" unicode="&#x109;" horiz-adv-x="433" 
d="M351 529q38 -15 72 -46l-55 -73q-45 36 -94 36q-51 0 -77.5 -43.5t-26.5 -140.5q0 -96 26.5 -136t77.5 -40q25 0 46 8.5t47 26.5l56 -75q-69 -61 -155 -61q-108 0 -169 71.5t-61 203.5q0 86 28 150.5t79.5 99t120.5 34.5q47 0 85 -15zM148 629l-46 51l126 127h77
l126 -127l-47 -51l-118 88z" />
    <glyph glyph-name="uni0255" unicode="&#x255;" horiz-adv-x="451" 
d="M408.5 212q31.5 -30 31.5 -82q0 -69 -47 -107t-120 -38q-37 0 -64 8l-30 -73l-66 27l32 74q-51 33 -79 94.5t-28 144.5q0 86 28 150.5t79.5 99t120.5 34.5q47 0 85 -15t72 -46l-55 -74q-44 37 -94 37q-51 0 -77.5 -43.5t-26.5 -140.5q0 -87 25 -134q22 60 53.5 87
t79.5 27q49 0 80.5 -30zM333.5 93.5q16.5 12.5 16.5 38.5q0 18 -8.5 27.5t-24.5 9.5q-20 0 -35 -18t-34 -65q15 -5 40 -5q29 0 45.5 12.5z" />
    <glyph glyph-name="cdotaccent" unicode="&#x10b;" horiz-adv-x="433" 
d="M351 529q38 -15 72 -46l-55 -73q-45 36 -94 36q-51 0 -77.5 -43.5t-26.5 -140.5q0 -96 26.5 -136t77.5 -40q25 0 46 8.5t47 26.5l56 -75q-69 -61 -155 -61q-108 0 -169 71.5t-61 203.5q0 86 28 150.5t79.5 99t120.5 34.5q47 0 85 -15zM321.5 773.5q21.5 -21.5 21.5 -54.5
t-21.5 -54.5t-55.5 -21.5t-55.5 21.5t-21.5 54.5t21.5 54.5t55.5 21.5t55.5 -21.5z" />
    <glyph glyph-name="uni0188" unicode="&#x188;" horiz-adv-x="433" 
d="M573 717l-39 -77q-16 10 -30 14.5t-32 4.5q-25 0 -37 -14.5t-12 -46.5v-115l-50 -67q-26 15 -48.5 22.5t-49.5 7.5q-52 0 -78.5 -43.5t-26.5 -140.5q0 -96 26.5 -136t77.5 -40q25 0 46 8.5t47 26.5l56 -75q-69 -61 -155 -61q-108 0 -169 71.5t-61 203.5q0 86 27.5 150
t77 99t113.5 35q28 0 54 -9v66q0 73 38.5 113t107.5 40q66 0 117 -37z" />
    <glyph glyph-name="uni0297" unicode="&#x297;" horiz-adv-x="448" 
d="M368 529q37 -15 70 -46l-53 -74q-24 18 -46.5 27t-46.5 9q-55 0 -82.5 -65.5t-27.5 -218.5q0 -152 27 -214t80 -62q25 0 45 8t47 27l56 -76q-70 -60 -153 -60q-113 0 -173.5 94t-60.5 281q0 188 61.5 286.5t174.5 98.5q45 0 82 -15z" />
    <glyph glyph-name="uni023C" unicode="&#x23c;" horiz-adv-x="433" 
d="M320 94.5q21 8.5 47 26.5l56 -75q-69 -61 -155 -61q-29 0 -49 4l-15 -61l-47 11l16 64q-65 27 -100 92.5t-35 164.5q0 86 28 150.5t79.5 99t120.5 34.5q20 0 38 -3l14 57l46 -11l-14 -58q39 -15 73 -46l-55 -73q-21 16 -41 25l-84 -345q13 -4 31 -4q25 0 46 8.5zM201 120
l80 326h-7q-51 0 -77.5 -43.5t-26.5 -140.5q0 -100 31 -142z" />
    <glyph glyph-name="d" unicode="d" horiz-adv-x="542" 
d="M476 741v-741h-111l-7 64q-52 -79 -135 -79q-88 0 -135 74t-47 205q0 83 24 146.5t67.5 98.5t100.5 35q70 0 118 -56v266zM309 95.5q22 16.5 42 49.5v249q-19 28 -39.5 42t-46.5 14q-44 0 -69 -44.5t-25 -140.5q0 -99 22.5 -142.5t64.5 -43.5q29 0 51 16.5z" />
    <glyph glyph-name="eth" unicode="&#xf0;" horiz-adv-x="525" 
d="M445 503q37 -95 37 -231q0 -85 -27 -150t-78 -101t-121 -36q-62 0 -111.5 29t-78 85.5t-28.5 134.5q0 68 23.5 123.5t65.5 87.5t96 32q39 0 69 -13.5t55 -40.5q-12 55 -34.5 96t-61.5 76l-58 -63l-80 39l63 70q-40 17 -91 28l25 85q67 -14 133 -42l66 75l68 -55l-57 -65
q88 -69 125 -164zM330 123.5q25 44.5 25 134.5l-1 70q-38 58 -99 58q-90 0 -90 -149q0 -158 92 -158q48 0 73 44.5z" />
    <glyph glyph-name="uni0238" unicode="&#x238;" horiz-adv-x="788" 
d="M703.5 473q43.5 -71 43.5 -208q0 -86 -22.5 -149t-63.5 -97t-94 -34q-36 0 -65.5 20.5t-49.5 54.5l-9 -60h-96l-8 63q-22 -35 -54.5 -56.5t-70.5 -21.5q-82 0 -127.5 74t-45.5 205q0 85 22.5 148.5t63 97.5t93.5 34q33 0 62 -17t51 -49v263l125 13v-281q48 71 125 71
t120.5 -71zM333 142v250q-36 58 -80 58q-38 0 -60 -44t-22 -141q0 -101 20.5 -143t56.5 -42q45 0 85 62zM594.5 122q22.5 43 22.5 143q0 104 -20 144t-57 40q-26 0 -45.5 -16t-36.5 -44v-246q18 -32 35.5 -48t42.5 -16q36 0 58.5 43z" />
    <glyph glyph-name="dcaron" unicode="&#x10f;" horiz-adv-x="597" 
d="M476 741v-741h-111l-7 64q-52 -79 -135 -79q-88 0 -135 74t-47 205q0 83 24 146.5t67.5 98.5t100.5 35q70 0 118 -56v266zM309 95.5q22 16.5 42 49.5v249q-19 28 -39.5 42t-46.5 14q-44 0 -69 -44.5t-25 -140.5q0 -99 22.5 -142.5t64.5 -43.5q29 0 51 16.5zM582 541
l48 200l-98 13l-20 -202z" />
    <glyph glyph-name="uni1E13" unicode="&#x1e13;" horiz-adv-x="542" 
d="M476 741v-741h-111l-7 64q-52 -79 -135 -79q-88 0 -135 74t-47 205q0 83 24 146.5t67.5 98.5t100.5 35q70 0 118 -56v266zM309 95.5q22 16.5 42 49.5v249q-19 28 -39.5 42t-46.5 14q-44 0 -69 -44.5t-25 -140.5q0 -99 22.5 -142.5t64.5 -43.5q29 0 51 16.5zM159 -244
l-46 51l126 128h77l126 -128l-47 -51l-118 88z" />
    <glyph glyph-name="dcroat" unicode="&#x111;" horiz-adv-x="547" 
d="M535 682v-81h-59v-601h-111l-7 64q-52 -79 -135 -79q-88 0 -135 74t-47 205q0 83 24 146.5t67.5 98.5t100.5 35q70 0 118 -56v113h-129v81h129v72l125 -13v-59h59zM309 95.5q22 16.5 42 49.5v249q-19 28 -39.5 42t-46.5 14q-44 0 -69 -44.5t-25 -140.5q0 -99 22.5 -142.5
t64.5 -43.5q29 0 51 16.5z" />
    <glyph glyph-name="uni0221" unicode="&#x221;" horiz-adv-x="695" 
d="M677.5 203q29.5 -29 29.5 -78q0 -68 -46.5 -104t-120.5 -36q-28 0 -49 4l-29 -69l-64 26l29 67q-41 25 -58 64q-55 -92 -146 -92q-88 0 -135 74t-47 205q0 83 24 146.5t67.5 98.5t101.5 35q69 0 117 -56v266l125 -13v-583q0 -14 2 -32q23 56 51.5 81t71.5 25
q47 0 76.5 -29zM352 146q-1 6 -1 19v229q-19 28 -39.5 42t-46.5 14q-44 0 -69 -44.5t-25 -140.5q0 -99 23 -142.5t65 -43.5q53 0 93 67zM615 128q0 14 -6.5 22.5t-19.5 8.5q-17 0 -30 -16.5t-30 -61.5q7 -1 25 -1q61 0 61 48z" />
    <glyph glyph-name="uni1E0B" unicode="&#x1e0b;" horiz-adv-x="542" 
d="M476 741v-741h-111l-7 64q-52 -79 -135 -79q-88 0 -135 74t-47 205q0 83 24 146.5t67.5 98.5t100.5 35q70 0 118 -56v266zM309 95.5q22 16.5 42 49.5v249q-19 28 -39.5 42t-46.5 14q-44 0 -69 -44.5t-25 -140.5q0 -99 22.5 -142.5t64.5 -43.5q29 0 51 16.5zM324.5 949.5
q21.5 -21.5 21.5 -54.5t-21.5 -54.5t-55.5 -21.5t-55.5 21.5t-21.5 54.5t21.5 54.5t55.5 21.5t55.5 -21.5z" />
    <glyph glyph-name="uni1E0D" unicode="&#x1e0d;" horiz-adv-x="542" 
d="M476 741v-741h-111l-7 64q-52 -79 -135 -79q-88 0 -135 74t-47 205q0 83 24 146.5t67.5 98.5t100.5 35q70 0 118 -56v266zM309 95.5q22 16.5 42 49.5v249q-19 28 -39.5 42t-46.5 14q-44 0 -69 -44.5t-25 -140.5q0 -99 22.5 -142.5t64.5 -43.5q29 0 51 16.5zM222.5 -197.5
q-21.5 21.5 -21.5 54.5t21.5 54.5t55.5 21.5t55.5 -21.5t21.5 -54.5t-21.5 -54.5t-55.5 -21.5t-55.5 21.5z" />
    <glyph glyph-name="uni018D" unicode="&#x18d;" horiz-adv-x="526" 
d="M350 68q50 -29 69 -61.5t19 -76.5q0 -64 -47 -107t-137 -43q-96 0 -167 57l56 69q26 -18 50 -26.5t53 -8.5q36 0 53.5 16t17.5 43q0 21 -7 34.5t-27 27t-62 32.5q-97 45 -140 103t-43 157q1 120 61 190t164 70q105 0 164.5 -64t59.5 -188q0 -154 -137 -224zM340 178
q18 44 18 109q0 87 -23 124.5t-72 37.5q-47 0 -70.5 -38t-23.5 -125q0 -51 9 -83t33 -55.5t71 -47.5q40 34 58 78z" />
    <glyph glyph-name="uni02A4" unicode="&#x2a4;" horiz-adv-x="900" 
d="M829 155q52 -50 52 -147q0 -66 -28.5 -117t-81.5 -79.5t-124 -28.5q-68 0 -118.5 24.5t-87.5 71.5l68 64q33 -33 63 -48t68 -15q53 0 82 34t29 99q0 62 -29.5 89t-93.5 27h-78v79l168 225h-242v-433h-111l-7 64q-52 -79 -135 -79q-88 0 -135 74t-47 205q0 83 24 146.5
t67.5 98.5t100.5 35q70 0 118 -56v266l125 -13v-212h378v-89l-177 -231q100 -4 152 -54zM309 95.5q22 16.5 42 49.5v249q-19 28 -39.5 42t-46.5 14q-44 0 -69 -44.5t-25 -140.5q0 -99 22.5 -142.5t64.5 -43.5q29 0 51 16.5z" />
    <glyph glyph-name="uni0257" unicode="&#x257;" horiz-adv-x="542" 
d="M626 717l-40 -77q-17 10 -30.5 14.5t-31.5 4.5q-25 0 -37 -14.5t-12 -46.5v-69h1v-529h-111l-7 64q-52 -79 -134 -79q-89 0 -136 74t-47 205q0 83 24 146.5t67.5 98.5t101.5 35q69 0 117 -56v40h-1v65q0 76 41.5 118.5t116.5 42.5q65 0 118 -37zM309 95.5
q22 16.5 42 49.5v249q-19 28 -39.5 42t-46.5 14q-44 0 -69 -44.5t-25 -140.5q0 -99 23 -142.5t65 -43.5q28 0 50 16.5z" />
    <glyph glyph-name="uni1E0F" unicode="&#x1e0f;" horiz-adv-x="542" 
d="M476 741v-741h-111l-7 64q-52 -79 -135 -79q-88 0 -135 74t-47 205q0 83 24 146.5t67.5 98.5t100.5 35q70 0 118 -56v266zM309 95.5q22 16.5 42 49.5v249q-19 28 -39.5 42t-46.5 14q-44 0 -69 -44.5t-25 -140.5q0 -99 22.5 -142.5t64.5 -43.5q29 0 51 16.5zM411 -181
h-266v88h266v-88z" />
    <glyph glyph-name="uni0256" unicode="&#x256;" horiz-adv-x="542" 
d="M636 -177q-51 -40 -123 -40q-74 0 -118.5 41.5t-44.5 119.5v57h1v53q-50 -69 -127 -69q-89 0 -136 74t-47 205q0 83 24 146.5t67.5 98.5t101.5 35q69 0 117 -56v266l125 -13v-741h-1v-64q0 -59 52 -59q18 0 31.5 4.5t31.5 14.5zM309 95.5q22 16.5 42 49.5v249
q-19 28 -39.5 42t-46.5 14q-44 0 -69 -44.5t-25 -140.5q0 -99 23 -142.5t65 -43.5q28 0 50 16.5z" />
    <glyph glyph-name="uni018C" unicode="&#x18c;" horiz-adv-x="542" 
d="M476 0h-111l-7 64q-52 -79 -134 -79q-89 0 -136 73t-47 202q0 82 24 145t67.5 97.5t101.5 34.5q69 0 117 -56v168h-191v92h316v-741zM309 95.5q22 16.5 42 49.5v242q-19 28 -39.5 42t-46.5 14q-44 0 -69 -44t-25 -138q0 -97 23 -139.5t65 -42.5q28 0 50 16.5z" />
    <glyph glyph-name="uni01F3" unicode="&#x1f3;" horiz-adv-x="950" 
d="M476 741v-741h-111l-7 64q-52 -79 -135 -79q-88 0 -135 74t-47 205q0 83 24 146.5t67.5 98.5t100.5 35q70 0 118 -56v266zM309 95.5q22 16.5 42 49.5v249q-19 28 -39.5 42t-46.5 14q-44 0 -69 -44.5t-25 -140.5q0 -99 22.5 -142.5t64.5 -43.5q29 0 51 16.5zM927 529v-91
l-231 -340h235l-12 -98h-362v90l231 341h-211v98h350z" />
    <glyph glyph-name="uni02A3" unicode="&#x2a3;" horiz-adv-x="866" 
d="M847 98l-12 -98h-470l-7 64q-52 -79 -135 -79q-88 0 -135 74t-47 205q0 83 24 146.5t67.5 98.5t100.5 35q70 0 118 -56v266l125 -13v-212h367v-91l-234 -340h238zM309 95.5q22 16.5 42 49.5v249q-19 28 -39.5 42t-46.5 14q-44 0 -69 -44.5t-25 -140.5q0 -99 22.5 -142.5
t64.5 -43.5q29 0 51 16.5zM476 431v-337l231 337h-231z" />
    <glyph glyph-name="uni01C6" unicode="&#x1c6;" horiz-adv-x="950" 
d="M476 741v-741h-111l-7 64q-52 -79 -135 -79q-88 0 -135 74t-47 205q0 83 24 146.5t67.5 98.5t100.5 35q70 0 118 -56v266zM309 95.5q22 16.5 42 49.5v249q-19 28 -39.5 42t-46.5 14q-44 0 -69 -44.5t-25 -140.5q0 -99 22.5 -142.5t64.5 -43.5q29 0 51 16.5zM927 529v-91
l-231 -340h235l-12 -98h-362v90l231 341h-211v98h350zM867 798l47 -52l-126 -127h-77l-126 127l46 52l118 -90z" />
    <glyph glyph-name="uni02A5" unicode="&#x2a5;" horiz-adv-x="925" 
d="M757 0q-4 -28 -4 -87v-38h-76q0 60 5 125h-317l-7 64q-52 -79 -135 -79q-88 0 -135 74t-47 205q0 83 24 146.5t67.5 98.5t100.5 35q70 0 118 -56v266l125 -13v-212h366v-87l-234 -344h88q32 142 138 142q47 0 77 -28t30 -78q0 -133 -184 -134zM309 95.5q22 16.5 42 49.5
v249q-19 28 -39.5 42t-46.5 14q-44 0 -69 -44.5t-25 -140.5q0 -99 22.5 -142.5t64.5 -43.5q29 0 51 16.5zM476 431v-335l229 335h-229zM772 98q43 0 61.5 8.5t18.5 32.5q0 14 -7 22t-20 8q-40 0 -53 -71z" />
    <glyph glyph-name="e" unicode="e" horiz-adv-x="501" 
d="M465 226h-299q6 -80 34 -113t78 -33q32 0 60 11t60 34l52 -71q-79 -69 -181 -69q-111 0 -171 73t-60 203q0 128 57.5 205.5t160.5 77.5q100 0 156 -69t56 -198q0 -9 -3 -51zM345 313q0 72 -21 107.5t-67 35.5q-42 0 -64.5 -34.5t-26.5 -114.5h179v6z" />
    <glyph glyph-name="eacute" unicode="&#xe9;" horiz-adv-x="501" 
d="M465 226h-299q6 -80 34 -113t78 -33q32 0 60 11t60 34l52 -71q-79 -69 -181 -69q-111 0 -171 73t-60 203q0 128 57.5 205.5t160.5 77.5q100 0 156 -69t56 -198q0 -9 -3 -51zM345 313q0 72 -21 107.5t-67 35.5q-42 0 -64.5 -34.5t-26.5 -114.5h179v6zM322 815l51 -95
l-206 -90l-35 63z" />
    <glyph glyph-name="ebreve" unicode="&#x115;" horiz-adv-x="501" 
d="M465 226h-299q6 -80 34 -113t78 -33q32 0 60 11t60 34l52 -71q-79 -69 -181 -69q-111 0 -171 73t-60 203q0 128 57.5 205.5t160.5 77.5q100 0 156 -69t56 -198q0 -9 -3 -51zM345 313q0 72 -21 107.5t-67 35.5q-42 0 -64.5 -34.5t-26.5 -114.5h179v6zM152.5 679
q-39.5 41 -44.5 112l71 13q18 -77 78 -77q61 0 78 77l71 -13q-5 -71 -44.5 -112t-104.5 -41t-104.5 41z" />
    <glyph glyph-name="ecaron" unicode="&#x11b;" horiz-adv-x="501" 
d="M465 226h-299q6 -80 34 -113t78 -33q32 0 60 11t60 34l52 -71q-79 -69 -181 -69q-111 0 -171 73t-60 203q0 128 57.5 205.5t160.5 77.5q100 0 156 -69t56 -198q0 -9 -3 -51zM345 313q0 72 -21 107.5t-67 35.5q-42 0 -64.5 -34.5t-26.5 -114.5h179v6zM375 798l47 -52
l-126 -127h-77l-126 127l46 52l118 -90z" />
    <glyph glyph-name="uni0229" unicode="&#x229;" horiz-adv-x="501" 
d="M465 226h-299q6 -80 34 -113t78 -33q32 0 60 11t60 34l52 -71q-67 -59 -149 -67v-41q45 -6 68 -29.5t23 -61.5q0 -49 -35 -77.5t-92 -28.5t-96 27l30 59q32 -14 57 -14q20 0 31.5 8.5t11.5 25.5q0 20 -19.5 29.5t-62.5 9.5l11 94q-92 13 -141 84.5t-49 188.5
q0 128 57.5 205.5t160.5 77.5q100 0 156 -69t56 -198q0 -9 -3 -51zM345 313q0 72 -21 107.5t-67 35.5q-42 0 -64.5 -34.5t-26.5 -114.5h179v6z" />
    <glyph glyph-name="ecircumflex" unicode="&#xea;" horiz-adv-x="501" 
d="M465 226h-299q6 -80 34 -113t78 -33q32 0 60 11t60 34l52 -71q-79 -69 -181 -69q-111 0 -171 73t-60 203q0 128 57.5 205.5t160.5 77.5q100 0 156 -69t56 -198q0 -9 -3 -51zM345 313q0 72 -21 107.5t-67 35.5q-42 0 -64.5 -34.5t-26.5 -114.5h179v6zM139 629l-46 51
l126 127h77l126 -127l-47 -51l-118 88z" />
    <glyph glyph-name="uni1EBF" unicode="&#x1ebf;" horiz-adv-x="501" 
d="M465 226h-299q6 -80 34 -113t78 -33q32 0 60 11t60 34l52 -71q-79 -69 -181 -69q-111 0 -171 73t-60 203q0 128 57.5 205.5t160.5 77.5q100 0 156 -69t56 -198q0 -9 -3 -51zM345 313q0 72 -21 107.5t-67 35.5q-42 0 -64.5 -34.5t-26.5 -114.5h179v6zM136 589l-46 51
l126 121h77l126 -121l-47 -51l-118 82zM459 924l73 -66l-140 -136l-49 42z" />
    <glyph glyph-name="uni1EC7" unicode="&#x1ec7;" horiz-adv-x="501" 
d="M465 226h-299q6 -80 34 -113t78 -33q32 0 60 11t60 34l52 -71q-79 -69 -181 -69q-111 0 -171 73t-60 203q0 128 57.5 205.5t160.5 77.5q100 0 156 -69t56 -198q0 -9 -3 -51zM345 313q0 72 -21 107.5t-67 35.5q-42 0 -64.5 -34.5t-26.5 -114.5h179v6zM139 629l-46 51
l126 127h77l126 -127l-47 -51l-118 88zM211.5 -197.5q-21.5 21.5 -21.5 54.5t21.5 54.5t55.5 21.5t55.5 -21.5t21.5 -54.5t-21.5 -54.5t-55.5 -21.5t-55.5 21.5z" />
    <glyph glyph-name="uni1EC1" unicode="&#x1ec1;" horiz-adv-x="501" 
d="M465 226h-299q6 -80 34 -113t78 -33q32 0 60 11t60 34l52 -71q-79 -69 -181 -69q-111 0 -171 73t-60 203q0 128 57.5 205.5t160.5 77.5q100 0 156 -69t56 -198q0 -9 -3 -51zM345 313q0 72 -21 107.5t-67 35.5q-42 0 -64.5 -34.5t-26.5 -114.5h179v6zM136 589l-46 51
l126 121h77l126 -121l-47 -51l-118 82zM50 924l117 -160l-50 -42l-141 136z" />
    <glyph glyph-name="uni1EC3" unicode="&#x1ec3;" horiz-adv-x="501" 
d="M465 226h-299q6 -80 34 -113t78 -33q32 0 60 11t60 34l52 -71q-79 -69 -181 -69q-111 0 -171 73t-60 203q0 128 57.5 205.5t160.5 77.5q100 0 156 -69t56 -198q0 -9 -3 -51zM345 313q0 72 -21 107.5t-67 35.5q-42 0 -64.5 -34.5t-26.5 -114.5h179v6zM136 589l-46 51
l126 121h77l126 -121l-47 -51l-118 82zM352 830q35 4 49 12t14 29q0 34 -36 34q-15 0 -27 -3t-27 -10l-22 57q40 25 94 25q52 0 79.5 -26t27.5 -70q0 -37 -19 -59.5t-55 -29.5v-55h-78v96z" />
    <glyph glyph-name="uni1EC5" unicode="&#x1ec5;" horiz-adv-x="501" 
d="M465 226h-299q6 -80 34 -113t78 -33q32 0 60 11t60 34l52 -71q-79 -69 -181 -69q-111 0 -171 73t-60 203q0 128 57.5 205.5t160.5 77.5q100 0 156 -69t56 -198q0 -9 -3 -51zM345 313q0 72 -21 107.5t-67 35.5q-42 0 -64.5 -34.5t-26.5 -114.5h179v6zM136 582l-46 51
l126 121h77l126 -121l-47 -51l-118 82zM277.5 791.5q-13.5 5.5 -23 11.5t-12.5 8q-23 18 -39 18q-15 0 -25 -10t-23 -33l-64 30q18 44 46 71t64 27q19 0 33 -6.5t33 -18.5q13 -9 22 -13.5t18 -4.5q14 0 24 10t23 32l64 -30q-17 -46 -45.5 -71.5t-64.5 -25.5q-17 0 -30.5 5.5
z" />
    <glyph glyph-name="uni0205" unicode="&#x205;" horiz-adv-x="501" 
d="M465 226h-299q6 -80 34 -113t78 -33q32 0 60 11t60 34l52 -71q-79 -69 -181 -69q-111 0 -171 73t-60 203q0 128 57.5 205.5t160.5 77.5q100 0 156 -69t56 -198q0 -9 -3 -51zM345 313q0 72 -21 107.5t-67 35.5q-42 0 -64.5 -34.5t-26.5 -114.5h179v6zM150 844l83 -184
l-66 -30l-105 169zM301 844l75 -181l-66 -29l-97 166z" />
    <glyph glyph-name="edieresis" unicode="&#xeb;" horiz-adv-x="501" 
d="M465 226h-299q6 -80 34 -113t78 -33q32 0 60 11t60 34l52 -71q-79 -69 -181 -69q-111 0 -171 73t-60 203q0 128 57.5 205.5t160.5 77.5q100 0 156 -69t56 -198q0 -9 -3 -51zM345 313q0 72 -21 107.5t-67 35.5q-42 0 -64.5 -34.5t-26.5 -114.5h179v6zM203 763.5
q19 -19.5 19 -47.5q0 -29 -19 -48.5t-48 -19.5t-48 19.5t-19 48.5q0 28 19.5 47.5t47.5 19.5q29 0 48 -19.5zM406 763.5q19 -19.5 19 -47.5q0 -29 -19 -48.5t-48 -19.5t-48.5 19.5t-19.5 48.5q0 28 20 47.5t48 19.5q29 0 48 -19.5z" />
    <glyph glyph-name="edotaccent" unicode="&#x117;" horiz-adv-x="501" 
d="M465 226h-299q6 -80 34 -113t78 -33q32 0 60 11t60 34l52 -71q-79 -69 -181 -69q-111 0 -171 73t-60 203q0 128 57.5 205.5t160.5 77.5q100 0 156 -69t56 -198q0 -9 -3 -51zM345 313q0 72 -21 107.5t-67 35.5q-42 0 -64.5 -34.5t-26.5 -114.5h179v6zM312.5 773.5
q21.5 -21.5 21.5 -54.5t-21.5 -54.5t-55.5 -21.5t-55.5 21.5t-21.5 54.5t21.5 54.5t55.5 21.5t55.5 -21.5z" />
    <glyph glyph-name="uni1EB9" unicode="&#x1eb9;" horiz-adv-x="501" 
d="M465 226h-299q6 -80 34 -113t78 -33q32 0 60 11t60 34l52 -71q-79 -69 -181 -69q-111 0 -171 73t-60 203q0 128 57.5 205.5t160.5 77.5q100 0 156 -69t56 -198q0 -9 -3 -51zM345 313q0 72 -21 107.5t-67 35.5q-42 0 -64.5 -34.5t-26.5 -114.5h179v6zM211.5 -197.5
q-21.5 21.5 -21.5 54.5t21.5 54.5t55.5 21.5t55.5 -21.5t21.5 -54.5t-21.5 -54.5t-55.5 -21.5t-55.5 21.5z" />
    <glyph glyph-name="egrave" unicode="&#xe8;" horiz-adv-x="501" 
d="M465 226h-299q6 -80 34 -113t78 -33q32 0 60 11t60 34l52 -71q-79 -69 -181 -69q-111 0 -171 73t-60 203q0 128 57.5 205.5t160.5 77.5q100 0 156 -69t56 -198q0 -9 -3 -51zM345 313q0 72 -21 107.5t-67 35.5q-42 0 -64.5 -34.5t-26.5 -114.5h179v6zM196 815l190 -122
l-35 -63l-206 90z" />
    <glyph glyph-name="uni1EBB" unicode="&#x1ebb;" horiz-adv-x="501" 
d="M465 226h-299q6 -80 34 -113t78 -33q32 0 60 11t60 34l52 -71q-79 -69 -181 -69q-111 0 -171 73t-60 203q0 128 57.5 205.5t160.5 77.5q100 0 156 -69t56 -198q0 -9 -3 -51zM345 313q0 72 -21 107.5t-67 35.5q-42 0 -64.5 -34.5t-26.5 -114.5h179v6zM218 704q35 4 49 12
t14 29q0 34 -36 34q-15 0 -27 -3t-27 -10l-22 57q40 25 94 25q52 0 79.5 -26t27.5 -70q0 -37 -19 -59.5t-55 -29.5v-55h-78v96z" />
    <glyph glyph-name="uni0207" unicode="&#x207;" horiz-adv-x="501" 
d="M465 226h-299q6 -80 34 -113t78 -33q32 0 60 11t60 34l52 -71q-79 -69 -181 -69q-111 0 -171 73t-60 203q0 128 57.5 205.5t160.5 77.5q100 0 156 -69t56 -198q0 -9 -3 -51zM345 313q0 72 -21 107.5t-67 35.5q-42 0 -64.5 -34.5t-26.5 -114.5h179v6zM361.5 733
q39.5 -41 44.5 -112l-71 -13q-17 77 -78 77q-60 0 -78 -77l-71 13q5 71 44.5 112t104.5 41t104.5 -41z" />
    <glyph glyph-name="emacron" unicode="&#x113;" horiz-adv-x="501" 
d="M465 226h-299q6 -80 34 -113t78 -33q32 0 60 11t60 34l52 -71q-79 -69 -181 -69q-111 0 -171 73t-60 203q0 128 57.5 205.5t160.5 77.5q100 0 156 -69t56 -198q0 -9 -3 -51zM345 313q0 72 -21 107.5t-67 35.5q-42 0 -64.5 -34.5t-26.5 -114.5h179v6zM390 662h-266v88h266
v-88z" />
    <glyph glyph-name="eogonek" unicode="&#x119;" horiz-adv-x="501" 
d="M465 226h-299q6 -80 34 -113t78 -33q32 0 60 11t60 34l52 -71q-41 -36 -91 -54q-52 -26 -71.5 -50t-19.5 -50q0 -47 49 -47q26 0 55 7l-9 -83q-33 -7 -62 -7q-56 0 -91 30t-35 78q0 67 70 108q-100 8 -153.5 80.5t-53.5 194.5q0 128 57.5 205.5t160.5 77.5q100 0 156 -69
t56 -198q0 -9 -3 -51zM345 313q0 72 -21 107.5t-67 35.5q-42 0 -64.5 -34.5t-26.5 -114.5h179v6z" />
    <glyph glyph-name="uni025B" unicode="&#x25b;" horiz-adv-x="432" 
d="M412 489l-51 -67q-28 16 -52 23.5t-52 7.5q-35 0 -54 -17t-19 -50q0 -32 20 -50.5t56 -18.5h58l-13 -86h-51q-45 0 -65 -19t-20 -58q0 -35 22 -55.5t64 -20.5q30 0 57.5 10.5t59.5 31.5l54 -72q-35 -30 -83 -46.5t-104 -16.5q-90 0 -145.5 42.5t-55.5 118.5
q0 115 130 136q-111 23 -111 117q0 66 51 105.5t133 39.5q99 0 171 -55z" />
    <glyph glyph-name="uni029A" unicode="&#x29a;" horiz-adv-x="521" 
d="M96.5 30q-58.5 45 -58.5 124q0 57 32 87.5t97 41.5q-54 14 -79 42t-25 72q0 66 52.5 106.5t134.5 40.5q111 0 172 -74t61 -205q0 -135 -59.5 -207.5t-173.5 -72.5q-95 0 -153.5 45zM332.5 120.5q23.5 42.5 23.5 144.5q0 99 -25 143.5t-77 44.5q-31 0 -49 -17t-18 -48
q0 -35 21 -53t56 -18h16l8 -86h-31q-43 0 -67 -16t-24 -56q0 -41 22.5 -61t63.5 -20q57 0 80.5 42.5z" />
    <glyph glyph-name="uni025C" unicode="&#x25c;" horiz-adv-x="451" 
d="M336.5 504.5q52.5 -39.5 52.5 -105.5q0 -45 -26 -73t-81 -43q66 -11 98.5 -41.5t32.5 -87.5q0 -82 -59.5 -125.5t-156.5 -43.5q-111 0 -191 65l60 71q33 -23 61 -33t64 -10q91 0 91 80q0 40 -25 56.5t-75 16.5h-65l7 86h48q90 0 90 72q0 33 -20 48.5t-54 15.5
q-31 0 -56 -9t-53 -28l-58 67q39 31 84 46t102 15q77 0 129.5 -39.5z" />
    <glyph glyph-name="uni025E" unicode="&#x25e;" horiz-adv-x="521" 
d="M97.5 57.5q-59.5 72.5 -59.5 207.5q0 131 61 205t172 74q82 0 134.5 -40.5t52.5 -106.5q0 -44 -25 -72t-79 -42q65 -11 97 -41.5t32 -87.5q0 -79 -58.5 -124t-153.5 -45q-114 0 -173.5 72.5zM332.5 98q22.5 20 22.5 61q0 40 -24 56t-67 16h-31l8 86h16q35 0 56 18t21 53
q0 31 -18 48t-49 17q-52 0 -77 -44.5t-25 -143.5q0 -102 23.5 -144.5t80.5 -42.5q41 0 63.5 20z" />
    <glyph glyph-name="uni025D" unicode="&#x25d;" horiz-adv-x="684" 
d="M700 348q-46 -38 -111 -38q-61 0 -96 32t-39 88l-1 14l-64 -39v-6q0 -45 -26 -73t-81 -43q66 -11 98.5 -41.5t32.5 -87.5q0 -82 -59.5 -125.5t-156.5 -43.5q-111 0 -191 65l60 71q33 -23 61 -33t64 -10q91 0 91 80q0 40 -25 56.5t-75 16.5h-65l7 86h48q90 0 90 72
q0 33 -20 48.5t-54 15.5q-31 0 -56 -9t-53 -28l-58 67q39 31 84 46t102 15q49 0 90 -17t65 -48l86 50h106v-72q0 -55 49 -55q17 0 29.5 4t27.5 13z" />
    <glyph glyph-name="uni0258" unicode="&#x258;" horiz-adv-x="501" 
d="M409 470.5q54 -73.5 54 -209.5q0 -130 -60 -203t-172 -73q-101 0 -180 69l52 71q32 -23 60.5 -34t61.5 -11q50 0 77.5 32.5t32.5 113.5h-299q-3 42 -3 51q0 128 57.5 197.5t157.5 69.5q107 0 161 -73.5zM156 307h179q-4 85 -24 117t-64 32q-91 0 -91 -143v-6z" />
    <glyph glyph-name="uni0283" unicode="&#x283;" horiz-adv-x="257" 
d="M342 717l-40 -77q-17 10 -30.5 14.5t-31.5 4.5q-25 0 -37 -14.5t-12 -46.5v-654q0 -78 -44.5 -119.5t-118.5 -41.5q-72 0 -123 40l46 73q18 -10 31.5 -14.5t31.5 -4.5q52 0 52 59v657q0 76 41.5 118.5t116.5 42.5q65 0 118 -37z" />
    <glyph glyph-name="uni0286" unicode="&#x286;" horiz-adv-x="297" 
d="M325 -46l-25 -57q-30 14 -74 29q-26 -143 -171 -143q-62 0 -96 30t-34 82q0 59 37.5 90t101.5 31q19 0 43 -2v579q0 76 41.5 118.5t116.5 42.5q65 0 118 -37l-40 -77q-17 10 -30.5 14.5t-31.5 4.5q-25 0 -37 -14.5t-12 -46.5v-606q53 -17 93 -38zM93 -124q13 22 14 73
q-18 3 -43 3q-60 0 -60 -52q0 -46 45 -46q31 0 44 22z" />
    <glyph glyph-name="uni01AA" unicode="&#x1aa;" horiz-adv-x="341" 
d="M436 -177q-51 -40 -123 -40q-74 0 -118.5 41.5t-44.5 119.5v513q-25 -10 -53 -10q-60 0 -98.5 41t-38.5 111q0 71 42 113t112 42q74 0 117.5 -42.5t43.5 -116.5v-659q0 -59 52 -59q18 0 31.5 4.5t31.5 14.5zM150 542v64q0 58 -38 58q-40 0 -40 -62q0 -34 11.5 -49.5
t34.5 -15.5q14 0 32 5z" />
    <glyph glyph-name="uni0285" unicode="&#x285;" horiz-adv-x="424" 
d="M430 26q-51 -40 -123 -40q-74 0 -118.5 41.5t-44.5 119.5v57h1v183q0 32 -12 46.5t-37 14.5q-18 0 -31.5 -4.5t-30.5 -14.5l-40 77q53 37 118 37q75 0 116.5 -42.5t41.5 -118.5v-179h-1v-64q0 -59 52 -59q18 0 31.5 4.5t31.5 14.5z" />
    <glyph glyph-name="uni0247" unicode="&#x247;" horiz-adv-x="501" 
d="M263 227l-34 -139q19 -8 49 -8q33 0 61 10.5t59 34.5l52 -69q-79 -71 -181 -71q-36 0 -63 7l-16 -64l-46 11l17 69q-60 30 -91.5 95t-31.5 158q0 128 57.5 205.5t160.5 77.5q13 0 35 -2l14 56l45 -11l-14 -57q64 -24 98 -88.5t34 -164.5q0 -8 -3 -50h-202zM187 422
q-25 -35 -29 -117h75l37 151q-4 1 -13 1q-45 0 -70 -35zM314 440l-32 -135h73v7q0 98 -41 128zM214 227h-56q4 -70 30 -107z" />
    <glyph glyph-name="uni1EBD" unicode="&#x1ebd;" horiz-adv-x="501" 
d="M465 226h-299q6 -80 34 -113t78 -33q32 0 60 11t60 34l52 -71q-79 -69 -181 -69q-111 0 -171 73t-60 203q0 128 57.5 205.5t160.5 77.5q100 0 156 -69t56 -198q0 -9 -3 -51zM345 313q0 72 -21 107.5t-67 35.5q-42 0 -64.5 -34.5t-26.5 -114.5h179v6zM277.5 654.5
q-13.5 6.5 -33.5 19.5q-23 18 -39 18q-15 0 -25.5 -10.5t-22.5 -33.5l-64 31q18 46 46 73.5t64 27.5q19 0 33.5 -7t32.5 -19q2 -2 10.5 -7.5t16 -8t13.5 -2.5q14 0 24 10t23 33l64 -31q-17 -48 -45.5 -74t-64.5 -26q-19 0 -32.5 6.5z" />
    <glyph glyph-name="uni01DD" unicode="&#x1dd;" horiz-adv-x="505" 
d="M412 471.5q55 -72.5 55 -206.5q0 -131 -58 -205.5t-162 -74.5q-99 0 -156.5 68.5t-57.5 198.5q0 30 3 52h308q-4 79 -29 112.5t-74 33.5q-34 0 -62.5 -10t-59.5 -34l-53 72q76 66 178 66q113 0 168 -72.5zM317.5 109q23.5 32 27.5 113h-193v-7q0 -138 96 -138
q46 0 69.5 32z" />
    <glyph glyph-name="uni0259" unicode="&#x259;" horiz-adv-x="505" 
d="M412 471.5q55 -72.5 55 -206.5q0 -131 -58 -205.5t-162 -74.5q-99 0 -156.5 68.5t-57.5 198.5q0 30 3 52h308q-4 79 -29 112.5t-74 33.5q-34 0 -62.5 -10t-59.5 -34l-53 72q76 66 178 66q113 0 168 -72.5zM317.5 109q23.5 32 27.5 113h-193v-7q0 -138 96 -138
q46 0 69.5 32z" />
    <glyph glyph-name="uni025A" unicode="&#x25a;" horiz-adv-x="739" 
d="M755 348q-46 -38 -111 -38q-61 0 -96 32t-39 88l-1 14l-61 -38q20 -60 20 -141q0 -131 -58 -205.5t-162 -74.5q-99 0 -156.5 68.5t-57.5 198.5q0 30 3 52h308q-4 79 -29 112.5t-74 33.5q-34 0 -62.5 -10t-59.5 -34l-53 72q76 66 178 66q108 0 166 -70l93 55h106v-72
q0 -55 49 -55q17 0 29.5 4t27.5 13zM317.5 109q23.5 32 27.5 113h-193v-7q0 -138 96 -138q46 0 69.5 32z" />
    <glyph glyph-name="uni0292" unicode="&#x292;" horiz-adv-x="450" 
d="M379 155q52 -50 52 -147q0 -66 -28.5 -117t-81.5 -79.5t-124 -28.5q-68 0 -118.5 24.5t-87.5 71.5l68 64q33 -33 63 -48t68 -15q53 0 82 34t29 99q0 62 -29.5 89t-93.5 27h-78v79l168 225h-244v96h380v-89l-177 -231q100 -4 152 -54z" />
    <glyph glyph-name="uni01EF" unicode="&#x1ef;" horiz-adv-x="450" 
d="M379 155q52 -50 52 -147q0 -66 -28.5 -117t-81.5 -79.5t-124 -28.5q-68 0 -118.5 24.5t-87.5 71.5l68 64q33 -33 63 -48t68 -15q53 0 82 34t29 99q0 62 -29.5 89t-93.5 27h-78v79l168 225h-244v96h380v-89l-177 -231q100 -4 152 -54zM332 798l47 -52l-126 -127h-77
l-126 127l46 52l118 -90z" />
    <glyph glyph-name="uni0293" unicode="&#x293;" horiz-adv-x="450" 
d="M392 -124q-39 -55 -115 -78l24 -56l-67 -26l-28 68q-12 -1 -37 -1q-93 0 -143.5 37t-50.5 106q0 53 31.5 84.5t79.5 31.5q52 0 85 -33t64 -118q34 13 50 43.5t16 79.5q0 64 -29.5 91.5t-92.5 27.5h-79v78l169 222h-245v96h380v-89l-177 -228q100 -4 152 -54.5t52 -148.5
q0 -78 -39 -133zM88 -107.5q23 -11.5 79 -11.5q-20 51 -35 69t-35 18q-32 0 -32 -37q0 -27 23 -38.5z" />
    <glyph glyph-name="uni01B9" unicode="&#x1b9;" horiz-adv-x="450" 
d="M459 -121q-37 -47 -88 -71.5t-120 -24.5q-70 0 -122.5 28t-81 77.5t-28.5 113.5q0 96 53 149t151 58l-177 231v89h379v-96h-244l168 -226v-78h-77q-63 0 -93 -29.5t-30 -93.5q0 -62 28.5 -94t80.5 -32q39 0 69 14.5t64 47.5z" />
    <glyph glyph-name="uni01BA" unicode="&#x1ba;" horiz-adv-x="448" 
d="M25 -73q0 52 37 81.5t115 43.5q67 11 94 29t27 57q0 30 -18.5 44.5t-55.5 14.5h-124v76l158 163h-237v93h377v-86l-167 -167h30q77 0 121.5 -36.5t44.5 -102.5q0 -139 -179 -169q-44 -8 -66 -15t-30.5 -16t-8.5 -23q0 -16 12.5 -30t38.5 -29l-32 -74q-137 55 -137 146z
" />
    <glyph glyph-name="f" unicode="f" horiz-adv-x="318" 
d="M221 643.5q-14 -15.5 -14 -50.5v-64h112l-14 -90h-98v-439h-125v439h-76v90h76v63q0 73 44.5 117.5t127.5 44.5q66 0 126 -30l-35 -83q-39 18 -77 18q-33 0 -47 -15.5z" />
    <glyph glyph-name="uni1E1F" unicode="&#x1e1f;" horiz-adv-x="318" 
d="M221 643.5q-14 -15.5 -14 -50.5v-64h112l-14 -90h-98v-439h-125v439h-76v90h76v63q0 73 44.5 117.5t127.5 44.5q66 0 126 -30l-35 -83q-39 18 -77 18q-33 0 -47 -15.5zM295.5 949.5q21.5 -21.5 21.5 -54.5t-21.5 -54.5t-55.5 -21.5t-55.5 21.5t-21.5 54.5t21.5 54.5
t55.5 21.5t55.5 -21.5z" />
    <glyph glyph-name="uni02A9" unicode="&#x2a9;" horiz-adv-x="797" 
d="M700 502q36 -42 36 -114v-444q0 -78 -44.5 -119.5t-118.5 -41.5q-72 0 -123 40l46 73q18 -10 31.5 -14.5t31.5 -4.5q52 0 52 59v435q0 42 -13.5 59.5t-39.5 17.5q-27 0 -50 -20t-45 -59v-369h-125v438h-131v-438h-125v438h-76v91h76v63q0 73 44.5 117.5t127.5 44.5
q66 0 126 -30l-35 -83q-39 18 -77 18q-33 0 -47 -15.5t-14 -50.5v-64h240l9 -69q29 41 64.5 62.5t80.5 21.5q63 0 99 -42z" />
    <glyph glyph-name="g" unicode="g" horiz-adv-x="486" 
d="M487 502q-46 -19 -137 -19q45 -20 67 -53.5t22 -81.5q0 -80 -53 -129t-143 -49q-33 0 -56 8q-9 -7 -14.5 -17.5t-5.5 -22.5q0 -18 12.5 -28.5t44.5 -10.5h67q84 0 133 -42t49 -107q0 -77 -62 -122t-179 -45q-123 0 -172.5 41.5t-49.5 123.5h112q0 -42 23 -60t88 -18
q63 0 89 18.5t26 53.5q0 65 -83 65h-56q-76 0 -112 28t-36 73q0 28 15 53t42 43q-44 26 -64.5 62t-20.5 88q0 86 55.5 137.5t146.5 51.5q75 0 121.5 14t98.5 43zM177.5 433q-20.5 -26 -20.5 -77q0 -50 21 -77.5t59 -27.5q41 0 61 25.5t20 80.5q0 102 -81 102
q-39 0 -59.5 -26z" />
    <glyph glyph-name="g.ss04" horiz-adv-x="542" 
d="M476 529v-532q0 -104 -57.5 -159t-164.5 -55q-97 0 -167 46l41 78q54 -30 116 -30q57 0 82 26.5t25 82.5v87q-46 -68 -125 -68q-89 0 -137 72t-48 197q0 79 24 140t68 95.5t103 34.5q37 0 68.5 -17.5t55.5 -47.5l7 50h109zM309 116.5q22 16.5 42 51.5v227
q-19 27 -39.5 41t-45.5 14q-45 0 -70 -43t-25 -132q0 -94 22.5 -134.5t64.5 -40.5q29 0 51 16.5z" />
    <glyph glyph-name="uni01F5" unicode="&#x1f5;" horiz-adv-x="486" 
d="M487 502q-46 -19 -137 -19q45 -20 67 -53.5t22 -81.5q0 -80 -53 -129t-143 -49q-33 0 -56 8q-9 -7 -14.5 -17.5t-5.5 -22.5q0 -18 12.5 -28.5t44.5 -10.5h67q84 0 133 -42t49 -107q0 -77 -62 -122t-179 -45q-123 0 -172.5 41.5t-49.5 123.5h112q0 -42 23 -60t88 -18
q63 0 89 18.5t26 53.5q0 65 -83 65h-56q-76 0 -112 28t-36 73q0 28 15 53t42 43q-44 26 -64.5 62t-20.5 88q0 86 55.5 137.5t146.5 51.5q75 0 121.5 14t98.5 43zM177.5 433q-20.5 -26 -20.5 -77q0 -50 21 -77.5t59 -27.5q41 0 61 25.5t20 80.5q0 102 -81 102
q-39 0 -59.5 -26zM309 815l51 -95l-206 -90l-35 63z" />
    <glyph glyph-name="uni0263" unicode="&#x263;" horiz-adv-x="464" 
d="M296 73q33 -59 47.5 -98.5t14.5 -81.5q0 -52 -31 -81t-93 -29q-61 0 -92 29t-31 80q0 37 14 78t47 102l-170 457h130l102 -376l103 376h126zM255.5 -58q-6.5 21 -21.5 56q-14 -34 -20.5 -56t-6.5 -44q0 -32 27 -32q28 0 28 33q0 22 -6.5 43z" />
    <glyph glyph-name="gbreve" unicode="&#x11f;" horiz-adv-x="486" 
d="M487 502q-46 -19 -137 -19q45 -20 67 -53.5t22 -81.5q0 -80 -53 -129t-143 -49q-33 0 -56 8q-9 -7 -14.5 -17.5t-5.5 -22.5q0 -18 12.5 -28.5t44.5 -10.5h67q84 0 133 -42t49 -107q0 -77 -62 -122t-179 -45q-123 0 -172.5 41.5t-49.5 123.5h112q0 -42 23 -60t88 -18
q63 0 89 18.5t26 53.5q0 65 -83 65h-56q-76 0 -112 28t-36 73q0 28 15 53t42 43q-44 26 -64.5 62t-20.5 88q0 86 55.5 137.5t146.5 51.5q75 0 121.5 14t98.5 43zM177.5 433q-20.5 -26 -20.5 -77q0 -50 21 -77.5t59 -27.5q41 0 61 25.5t20 80.5q0 102 -81 102
q-39 0 -59.5 -26zM139.5 679q-39.5 41 -44.5 112l71 13q18 -77 78 -77q61 0 78 77l71 -13q-5 -71 -44.5 -112t-104.5 -41t-104.5 41z" />
    <glyph glyph-name="gcaron" unicode="&#x1e7;" horiz-adv-x="486" 
d="M487 502q-46 -19 -137 -19q45 -20 67 -53.5t22 -81.5q0 -80 -53 -129t-143 -49q-33 0 -56 8q-9 -7 -14.5 -17.5t-5.5 -22.5q0 -18 12.5 -28.5t44.5 -10.5h67q84 0 133 -42t49 -107q0 -77 -62 -122t-179 -45q-123 0 -172.5 41.5t-49.5 123.5h112q0 -42 23 -60t88 -18
q63 0 89 18.5t26 53.5q0 65 -83 65h-56q-76 0 -112 28t-36 73q0 28 15 53t42 43q-44 26 -64.5 62t-20.5 88q0 86 55.5 137.5t146.5 51.5q75 0 121.5 14t98.5 43zM177.5 433q-20.5 -26 -20.5 -77q0 -50 21 -77.5t59 -27.5q41 0 61 25.5t20 80.5q0 102 -81 102
q-39 0 -59.5 -26zM362 798l47 -52l-126 -127h-77l-126 127l46 52l118 -90z" />
    <glyph glyph-name="gcircumflex" unicode="&#x11d;" horiz-adv-x="486" 
d="M487 502q-46 -19 -137 -19q45 -20 67 -53.5t22 -81.5q0 -80 -53 -129t-143 -49q-33 0 -56 8q-9 -7 -14.5 -17.5t-5.5 -22.5q0 -18 12.5 -28.5t44.5 -10.5h67q84 0 133 -42t49 -107q0 -77 -62 -122t-179 -45q-123 0 -172.5 41.5t-49.5 123.5h112q0 -42 23 -60t88 -18
q63 0 89 18.5t26 53.5q0 65 -83 65h-56q-76 0 -112 28t-36 73q0 28 15 53t42 43q-44 26 -64.5 62t-20.5 88q0 86 55.5 137.5t146.5 51.5q75 0 121.5 14t98.5 43zM177.5 433q-20.5 -26 -20.5 -77q0 -50 21 -77.5t59 -27.5q41 0 61 25.5t20 80.5q0 102 -81 102
q-39 0 -59.5 -26zM126 629l-46 51l126 127h77l126 -127l-47 -51l-118 88z" />
    <glyph glyph-name="gcommaaccent" unicode="&#x123;" horiz-adv-x="486" 
d="M487 502q-46 -19 -137 -19q45 -20 67 -53.5t22 -81.5q0 -80 -53 -129t-143 -49q-33 0 -56 8q-9 -7 -14.5 -17.5t-5.5 -22.5q0 -18 12.5 -28.5t44.5 -10.5h67q84 0 133 -42t49 -107q0 -77 -62 -122t-179 -45q-123 0 -172.5 41.5t-49.5 123.5h112q0 -42 23 -60t88 -18
q63 0 89 18.5t26 53.5q0 65 -83 65h-56q-76 0 -112 28t-36 73q0 28 15 53t42 43q-44 26 -64.5 62t-20.5 88q0 86 55.5 137.5t146.5 51.5q75 0 121.5 14t98.5 43zM177.5 433q-20.5 -26 -20.5 -77q0 -50 21 -77.5t59 -27.5q41 0 61 25.5t20 80.5q0 102 -81 102
q-39 0 -59.5 -26zM196.5 599q-18.5 19 -18.5 48q0 16 5 32.5t19 47.5l40 91h64l-27 -115q30 -21 30 -56q0 -28 -18.5 -47.5t-47.5 -19.5q-28 0 -46.5 19z" />
    <glyph glyph-name="gdotaccent" unicode="&#x121;" horiz-adv-x="486" 
d="M487 502q-46 -19 -137 -19q45 -20 67 -53.5t22 -81.5q0 -80 -53 -129t-143 -49q-33 0 -56 8q-9 -7 -14.5 -17.5t-5.5 -22.5q0 -18 12.5 -28.5t44.5 -10.5h67q84 0 133 -42t49 -107q0 -77 -62 -122t-179 -45q-123 0 -172.5 41.5t-49.5 123.5h112q0 -42 23 -60t88 -18
q63 0 89 18.5t26 53.5q0 65 -83 65h-56q-76 0 -112 28t-36 73q0 28 15 53t42 43q-44 26 -64.5 62t-20.5 88q0 86 55.5 137.5t146.5 51.5q75 0 121.5 14t98.5 43zM177.5 433q-20.5 -26 -20.5 -77q0 -50 21 -77.5t59 -27.5q41 0 61 25.5t20 80.5q0 102 -81 102
q-39 0 -59.5 -26zM299.5 773.5q21.5 -21.5 21.5 -54.5t-21.5 -54.5t-55.5 -21.5t-55.5 21.5t-21.5 54.5t21.5 54.5t55.5 21.5t55.5 -21.5z" />
    <glyph glyph-name="uni0260" unicode="&#x260;" horiz-adv-x="542" 
d="M626 717l-40 -77q-17 10 -30.5 14.5t-31.5 4.5q-25 0 -37 -14.5t-12 -46.5v-69h1v-532q0 -104 -57.5 -159t-164.5 -55q-97 0 -167 46l41 78q54 -30 116 -30q57 0 82 26.5t25 82.5v87q-46 -68 -125 -68q-89 0 -137 72t-48 197q0 79 24 140t68 95.5t103 34.5q66 0 115 -54
v38h-1v65q0 76 41.5 118.5t116.5 42.5q65 0 118 -37zM309 116.5q22 16.5 42 51.5v227q-19 27 -39.5 41t-45.5 14q-45 0 -70 -43t-25 -132q0 -94 22.5 -134.5t64.5 -40.5q29 0 51 16.5z" />
    <glyph glyph-name="uni01BE" unicode="&#x1be;" horiz-adv-x="463" 
d="M386 359q39 -50 39 -142q0 -107 -59.5 -169t-160.5 -62q-58 0 -105 21.5t-90 66.5l63 64q31 -29 59 -43t62 -14q49 0 75 34.5t26 102.5q0 69 -26.5 105t-83.5 52l-54 14v148h-64v81h64v122l125 13v-135h91v-81h-91v-100l26 -7q65 -21 104 -71z" />
    <glyph glyph-name="uni0294" unicode="&#x294;" horiz-adv-x="420" 
d="M117 351l44 15q56 20 83.5 54t27.5 102t-26 102.5t-76 34.5q-34 0 -62 -14t-59 -43l-62 64q42 44 90 66t107 22q100 0 159 -61.5t59 -168.5q0 -92 -38.5 -139.5t-105.5 -74.5l-16 -6v-304h-125v351z" />
    <glyph glyph-name="uni0296" unicode="&#x296;" horiz-adv-x="463" 
d="M256 753v-316l26 -7q65 -21 104 -71t39 -142q0 -107 -59.5 -169t-160.5 -62q-58 0 -105 21.5t-90 66.5l63 64q31 -29 59 -43t62 -14q49 0 75 34.5t26 102.5q0 69 -26.5 105t-83.5 52l-54 14v351z" />
    <glyph glyph-name="uni0295" unicode="&#x295;" horiz-adv-x="421" 
d="M179 0v304l-16 6q-68 26 -106 73.5t-38 140.5q0 107 60.5 168.5t160.5 61.5q58 0 105 -22t89 -66l-63 -64q-30 29 -57.5 43t-62.5 14q-49 0 -76 -35t-27 -102q0 -68 27.5 -102t84.5 -54l44 -15v-351h-125z" />
    <glyph glyph-name="uni0242" unicode="&#x242;" horiz-adv-x="410" 
d="M102 200l52 16q48 15 73 45t25 80t-22.5 77.5t-63.5 27.5q-32 0 -55.5 -11.5t-50.5 -35.5l-62 65q38 39 81.5 59.5t99.5 20.5q61 0 107 -25.5t71 -71t25 -104.5q0 -76 -35 -118t-95 -63l-25 -9v-153h-125v200z" />
    <glyph glyph-name="uni02A1" unicode="&#x2a1;" horiz-adv-x="420" 
d="M242 304v-86h91v-80h-91v-138h-125v138h-60v80h60v133l44 15q56 20 83.5 54t27.5 102t-26 102.5t-76 34.5q-34 0 -62 -14t-59 -43l-62 64q42 44 90 66t107 22q100 0 159 -61.5t59 -168.5q0 -92 -38.5 -139.5t-105.5 -74.5z" />
    <glyph glyph-name="uni02A2" unicode="&#x2a2;" horiz-adv-x="421" 
d="M175 624q-27 -35 -27 -102q0 -68 27.5 -102t84.5 -54l44 -15v-133h60v-80h-60v-138h-125v138h-90v80h90v86l-16 6q-68 26 -106 73.5t-38 140.5q0 107 60.5 168.5t160.5 61.5q58 0 105 -22t89 -66l-63 -64q-30 29 -57.5 43t-62.5 14q-49 0 -76 -35z" />
    <glyph glyph-name="uni0261" unicode="&#x261;" horiz-adv-x="542" 
d="M476 529v-532q0 -104 -57.5 -159t-164.5 -55q-97 0 -167 46l41 78q54 -30 116 -30q57 0 82 26.5t25 82.5v87q-46 -68 -125 -68q-89 0 -137 72t-48 197q0 79 24 140t68 95.5t103 34.5q37 0 68.5 -17.5t55.5 -47.5l7 50h109zM309 116.5q22 16.5 42 51.5v227
q-19 27 -39.5 41t-45.5 14q-45 0 -70 -43t-25 -132q0 -94 22.5 -134.5t64.5 -40.5q29 0 51 16.5z" />
    <glyph glyph-name="uni01E5" unicode="&#x1e5;" horiz-adv-x="486" 
d="M520 -89h-51q-15 -61 -75.5 -94.5t-161.5 -33.5q-123 0 -172.5 41.5t-49.5 123.5h112q0 -30 9 -47t33.5 -25t70.5 -8q54 0 83 10.5t40 32.5h-115v66h114q-21 37 -92 37h-56q-76 0 -112 26t-36 70q0 27 15 51.5t42 42.5q-44 26 -64.5 62t-20.5 88q0 86 55.5 137.5
t146.5 51.5q75 0 121.5 14t98.5 43l32 -98q-46 -19 -137 -19q45 -20 67 -53.5t22 -81.5q0 -80 -53 -129t-143 -49q-33 0 -56 8q-9 -7 -14.5 -17.5t-5.5 -22.5q0 -18 12.5 -28t44.5 -10h67q75 0 122.5 -34t57.5 -89h49v-66zM177.5 433q-20.5 -26 -20.5 -77q0 -50 21 -77.5
t59 -27.5q41 0 61 25.5t20 80.5q0 102 -81 102q-39 0 -59.5 -26z" />
    <glyph glyph-name="uni021D" unicode="&#x21d;" horiz-adv-x="435" 
d="M320 504.5q53 -39.5 53 -109.5q0 -49 -26.5 -78.5t-81.5 -43.5q64 -4 98 -33.5t34 -82.5q0 -88 -89 -156t-253 -105l-13 85q119 40 171.5 80.5t52.5 95.5q0 34 -18.5 49t-53.5 15h-84l7 86h48q38 0 59.5 18.5t21.5 58.5q0 69 -74 69q-31 0 -55 -9t-53 -27l-58 66
q78 61 182 61q79 0 132 -39.5z" />
    <glyph glyph-name="h" unicode="h" horiz-adv-x="525" 
d="M427.5 502q36.5 -42 36.5 -114v-388h-125v371q0 42 -13.5 59.5t-39.5 17.5q-50 0 -95 -79v-369h-125v740l125 13v-287q28 39 61 58.5t77 19.5q62 0 98.5 -42z" />
    <glyph glyph-name="hbar" unicode="&#x127;" horiz-adv-x="531" 
d="M433.5 502q36.5 -42 36.5 -114v-388h-125v371q0 42 -13.5 59.5t-39.5 17.5q-50 0 -95 -79v-369h-125v602h-60v81h60v57l125 13v-70h123v-81h-123v-136q28 39 61 58.5t77 19.5q62 0 98.5 -42z" />
    <glyph glyph-name="uni021F" unicode="&#x21f;" horiz-adv-x="525" 
d="M427.5 502q36.5 -42 36.5 -114v-388h-125v371q0 42 -13.5 59.5t-39.5 17.5q-50 0 -95 -79v-369h-125v740l125 13v-287q28 39 61 58.5t77 19.5q62 0 98.5 -42zM380 974l47 -51l-126 -121h-77l-126 121l47 51l117 -82z" />
    <glyph glyph-name="hcircumflex" unicode="&#x125;" horiz-adv-x="525" 
d="M427.5 502q36.5 -42 36.5 -114v-388h-125v371q0 42 -13.5 59.5t-39.5 17.5q-50 0 -95 -79v-369h-125v740l125 13v-287q28 39 61 58.5t77 19.5q62 0 98.5 -42zM143 809l-46 51l126 121h77l126 -121l-47 -51l-118 82z" />
    <glyph glyph-name="uni1E25" unicode="&#x1e25;" horiz-adv-x="525" 
d="M427.5 502q36.5 -42 36.5 -114v-388h-125v371q0 42 -13.5 59.5t-39.5 17.5q-50 0 -95 -79v-369h-125v740l125 13v-287q28 39 61 58.5t77 19.5q62 0 98.5 -42zM210.5 -197.5q-21.5 21.5 -21.5 54.5t21.5 54.5t55.5 21.5t55.5 -21.5t21.5 -54.5t-21.5 -54.5t-55.5 -21.5
t-55.5 21.5z" />
    <glyph glyph-name="uni0267" unicode="&#x267;" horiz-adv-x="525" 
d="M428 501q36 -43 36 -118v-439q0 -78 -44.5 -119.5t-118.5 -41.5q-72 0 -123 40l46 73q18 -10 31.5 -14.5t31.5 -4.5q52 0 52 59v430q0 45 -13.5 63.5t-39.5 18.5q-50 0 -95 -79v-369h-125v594q0 71 45 115.5t128 44.5q69 0 126 -30l-36 -82q-38 17 -76 17
q-33 0 -47.5 -16t-14.5 -51v-126q28 39 61 58.5t77 19.5q63 0 99 -43z" />
    <glyph glyph-name="uni0266" unicode="&#x266;" horiz-adv-x="525" 
d="M428 501q36 -43 36 -118v-383h-125v366q0 45 -13.5 63.5t-39.5 18.5q-50 0 -95 -79v-369h-125v594q0 71 45 115.5t128 44.5q69 0 126 -30l-36 -82q-38 17 -76 17q-33 0 -47.5 -16t-14.5 -51v-126q28 39 61 58.5t77 19.5q63 0 99 -43z" />
    <glyph glyph-name="uni0265" unicode="&#x265;" horiz-adv-x="525" 
d="M459 529v-746l-125 14v266q-28 -38 -61 -57.5t-76 -19.5q-63 0 -99 41.5t-36 113.5v388h125v-371q0 -42 13.5 -59.5t38.5 -17.5q51 0 95 79v369h125z" />
    <glyph glyph-name="uni02AE" unicode="&#x2ae;" horiz-adv-x="626" 
d="M560 529v-746l-125 14v266q-28 -38 -61 -57.5t-76 -19.5q-63 0 -99 41.5t-36 113.5v251q0 59 -52 59q-18 0 -31.5 -4.5t-31.5 -14.5l-46 73q51 40 123 40q74 0 118.5 -41.5t44.5 -119.5v-226q0 -42 13.5 -59.5t38.5 -17.5q27 0 50 20t45 59v369h125z" />
    <glyph glyph-name="uni02AF" unicode="&#x2af;" horiz-adv-x="626" 
d="M721 -177q-51 -40 -123 -40q-74 0 -118.5 41.5t-44.5 119.5v119q-28 -38 -61 -57.5t-76 -19.5q-63 0 -99 41.5t-36 113.5v251q0 59 -52 59q-18 0 -31.5 -4.5t-31.5 -14.5l-46 73q51 40 123 40q74 0 118.5 -41.5t44.5 -119.5v-226q0 -42 13.5 -59.5t38.5 -17.5q27 0 50 20
t45 59v369h125v-593q0 -59 52 -59q18 0 31.5 4.5t31.5 14.5z" />
    <glyph glyph-name="uni0195" unicode="&#x195;" horiz-adv-x="791" 
d="M737 390q7 -65 7 -135q0 -94 -32 -154.5t-83 -88t-111 -27.5q-79 0 -129 45.5t-50 130.5v210q0 42 -13.5 59.5t-39.5 17.5q-50 0 -95 -79v-369h-125v740l125 13v-287q28 39 61 58.5t77 19.5q62 0 98.5 -42t36.5 -114v-225q0 -43 15 -63t46 -20q40 0 66.5 41t26.5 141
q0 121 -23 267h123q12 -74 19 -139z" />
    <glyph glyph-name="i" unicode="i" horiz-adv-x="257" 
d="M191 529v-529h-125v529h125zM184.5 773.5q21.5 -21.5 21.5 -54.5t-21.5 -54.5t-55.5 -21.5t-55.5 21.5t-21.5 54.5t21.5 54.5t55.5 21.5t55.5 -21.5z" />
    <glyph glyph-name="dotlessi" unicode="&#x131;" horiz-adv-x="257" 
d="M191 529v-529h-125v529h125z" />
    <glyph glyph-name="iacute" unicode="&#xed;" horiz-adv-x="257" 
d="M191 529v-529h-125v529h125zM194 815l51 -95l-206 -90l-35 63z" />
    <glyph glyph-name="ibreve" unicode="&#x12d;" horiz-adv-x="257" 
d="M191 529v-529h-125v529h125zM24.5 679q-39.5 41 -44.5 112l71 13q18 -77 78 -77q61 0 78 77l71 -13q-5 -71 -44.5 -112t-104.5 -41t-104.5 41z" />
    <glyph glyph-name="uni01D0" unicode="&#x1d0;" horiz-adv-x="257" 
d="M191 529v-529h-125v529h125zM247 798l47 -52l-126 -127h-77l-126 127l46 52l118 -90z" />
    <glyph glyph-name="icircumflex" unicode="&#xee;" horiz-adv-x="257" 
d="M191 529v-529h-125v529h125zM11 629l-46 51l126 127h77l126 -127l-47 -51l-118 88z" />
    <glyph glyph-name="uni0209" unicode="&#x209;" horiz-adv-x="257" 
d="M191 529v-529h-125v529h125zM22 844l83 -184l-66 -30l-105 169zM173 844l75 -181l-66 -29l-97 166z" />
    <glyph glyph-name="idieresis" unicode="&#xef;" horiz-adv-x="257" 
d="M191 529v-529h-125v529h125zM75 763.5q19 -19.5 19 -47.5q0 -29 -19 -48.5t-48 -19.5t-48 19.5t-19 48.5q0 28 19.5 47.5t47.5 19.5q29 0 48 -19.5zM278 763.5q19 -19.5 19 -47.5q0 -29 -19 -48.5t-48 -19.5t-48.5 19.5t-19.5 48.5q0 28 20 47.5t48 19.5q29 0 48 -19.5z
" />
    <glyph glyph-name="uni1E2F" unicode="&#x1e2f;" horiz-adv-x="257" 
d="M191 529v-529h-125v529h125zM201 921l73 -66l-140 -136l-49 42zM72 728.5q19 -19.5 19 -48.5t-19 -48.5t-48 -19.5q-28 0 -47.5 19.5t-19.5 48.5t19.5 48.5t47.5 19.5q29 0 48 -19.5zM281.5 728.5q19.5 -19.5 19.5 -48.5t-19.5 -48.5t-47.5 -19.5t-47.5 19.5t-19.5 48.5
t19.5 48.5t47.5 19.5t47.5 -19.5z" />
    <glyph glyph-name="i.loclTRK" horiz-adv-x="257" 
d="M191 529v-529h-125v529h125zM184.5 773.5q21.5 -21.5 21.5 -54.5t-21.5 -54.5t-55.5 -21.5t-55.5 21.5t-21.5 54.5t21.5 54.5t55.5 21.5t55.5 -21.5z" />
    <glyph glyph-name="uni1ECB" unicode="&#x1ecb;" horiz-adv-x="257" 
d="M191 529v-529h-125v529h125zM184.5 773.5q21.5 -21.5 21.5 -54.5t-21.5 -54.5t-55.5 -21.5t-55.5 21.5t-21.5 54.5t21.5 54.5t55.5 21.5t55.5 -21.5zM73.5 -197.5q-21.5 21.5 -21.5 54.5t21.5 54.5t55.5 21.5t55.5 -21.5t21.5 -54.5t-21.5 -54.5t-55.5 -21.5t-55.5 21.5z
" />
    <glyph glyph-name="igrave" unicode="&#xec;" horiz-adv-x="257" 
d="M191 529v-529h-125v529h125zM68 815l190 -122l-35 -63l-206 90z" />
    <glyph glyph-name="uni1EC9" unicode="&#x1ec9;" horiz-adv-x="257" 
d="M191 529v-529h-125v529h125zM90 704q35 4 49 12t14 29q0 34 -36 34q-15 0 -27 -3t-27 -10l-22 57q40 25 94 25q52 0 79.5 -26t27.5 -70q0 -37 -19 -59.5t-55 -29.5v-55h-78v96z" />
    <glyph glyph-name="uni020B" unicode="&#x20b;" horiz-adv-x="257" 
d="M191 529v-529h-125v529h125zM233.5 733q39.5 -41 44.5 -112l-71 -13q-17 77 -78 77q-60 0 -78 -77l-71 13q5 71 44.5 112t104.5 41t104.5 -41z" />
    <glyph glyph-name="ij" unicode="&#x133;" horiz-adv-x="514" 
d="M191 529v-529h-125v529h125zM184.5 773.5q21.5 -21.5 21.5 -54.5t-21.5 -54.5t-55.5 -21.5t-55.5 21.5t-21.5 54.5t21.5 54.5t55.5 21.5t55.5 -21.5zM447 35q0 -72 -21.5 -119t-59.5 -76.5t-99 -56.5l-41 91q35 18 55 35.5t30.5 46t10.5 74.5v499h125v-494zM440.5 773.5
q21.5 -21.5 21.5 -54.5t-21.5 -54.5t-55.5 -21.5t-55.5 21.5t-21.5 54.5t21.5 54.5t55.5 21.5t55.5 -21.5z" />
    <glyph glyph-name="imacron" unicode="&#x12b;" horiz-adv-x="257" 
d="M191 529v-529h-125v529h125zM262 662h-266v88h266v-88z" />
    <glyph glyph-name="iogonek" unicode="&#x12f;" horiz-adv-x="257" 
d="M73.5 664.5q-21.5 21.5 -21.5 54.5t21.5 54.5t55.5 21.5t55.5 -21.5t21.5 -54.5t-21.5 -54.5t-55.5 -21.5t-55.5 21.5zM66 529h125v-529h-16q-62 -28 -84.5 -54t-22.5 -55q0 -47 49 -47q17 0 54 7l-9 -82q-33 -7 -61 -7q-57 0 -92 29t-35 79q0 82 92 134v525z" />
    <glyph glyph-name="uni0269" unicode="&#x269;" horiz-adv-x="270" 
d="M93.5 19q-32.5 34 -32.5 95v415h125v-411q0 -32 27 -32q11 0 25 4l25 -86q-33 -19 -79 -19q-58 0 -90.5 34z" />
    <glyph glyph-name="uni0268" unicode="&#x268;" horiz-adv-x="294" 
d="M92.5 664.5q-21.5 21.5 -21.5 54.5t21.5 54.5t55.5 21.5t55.5 -21.5t21.5 -54.5t-21.5 -54.5t-55.5 -21.5t-55.5 21.5zM285 327v-90h-75v-237h-125v237h-77v90h77v202h125v-202h75z" />
    <glyph glyph-name="itilde" unicode="&#x129;" horiz-adv-x="257" 
d="M191 529v-529h-125v529h125zM149.5 654.5q-13.5 6.5 -33.5 19.5q-23 18 -39 18q-15 0 -25.5 -10.5t-22.5 -33.5l-64 31q18 46 46 73.5t64 27.5q19 0 33.5 -7t32.5 -19q2 -2 10.5 -7.5t16 -8t13.5 -2.5q14 0 24 10t23 33l64 -31q-17 -48 -45.5 -74t-64.5 -26
q-19 0 -32.5 6.5z" />
    <glyph glyph-name="j" unicode="j" horiz-adv-x="257" 
d="M190 35q0 -72 -21.5 -119t-59.5 -76.5t-99 -56.5l-41 91q35 18 55 35.5t30.5 46t10.5 74.5v499h125v-494zM183.5 773.5q21.5 -21.5 21.5 -54.5t-21.5 -54.5t-55.5 -21.5t-55.5 21.5t-21.5 54.5t21.5 54.5t55.5 21.5t55.5 -21.5z" />
    <glyph glyph-name="uni0237" unicode="&#x237;" horiz-adv-x="257" 
d="M190 35q0 -72 -21.5 -119t-59.5 -76.5t-99 -56.5l-41 91q35 18 55 35.5t30.5 46t10.5 74.5v499h125v-494z" />
    <glyph glyph-name="uni01F0" unicode="&#x1f0;" horiz-adv-x="257" 
d="M190 35q0 -72 -21.5 -119t-59.5 -76.5t-99 -56.5l-41 91q35 18 55 35.5t30.5 46t10.5 74.5v499h125v-494zM246 798l47 -52l-126 -127h-77l-126 127l46 52l118 -90z" />
    <glyph glyph-name="jcircumflex" unicode="&#x135;" horiz-adv-x="257" 
d="M190 35q0 -72 -21.5 -119t-59.5 -76.5t-99 -56.5l-41 91q35 18 55 35.5t30.5 46t10.5 74.5v499h125v-494zM10 629l-46 51l126 127h77l126 -127l-47 -51l-118 88z" />
    <glyph glyph-name="uni029D" unicode="&#x29d;" horiz-adv-x="299" 
d="M300 -103q-30 14 -74 29q-13 -71 -56 -107t-115 -36q-62 0 -96 30t-34 82q0 59 37.5 90t101.5 31q19 0 43 -2v515h125v-536v-1q47 -13 93 -38zM92.5 -123.5q13.5 22.5 14.5 71.5q-16 4 -43 4q-60 0 -60 -52q0 -46 45 -46q30 0 43.5 22.5zM225.5 773.5
q21.5 -21.5 21.5 -54.5t-21.5 -54.5t-55.5 -21.5t-55.5 21.5t-21.5 54.5t21.5 54.5t55.5 21.5t55.5 -21.5z" />
    <glyph glyph-name="uni025F" unicode="&#x25f;" horiz-adv-x="296" 
d="M288 210h-76v-175q0 -72 -21.5 -119t-59.5 -76.5t-99 -56.5l-41 91q35 18 55 35.5t30.5 46t10.5 74.5v180h-76v90h76v229h125v-229h76v-90z" />
    <glyph glyph-name="uni0284" unicode="&#x284;" horiz-adv-x="292" 
d="M286 90v-90h-77q-5 -59 -28 -99.5t-59.5 -66.5t-91.5 -51l-40 88q47 24 69 50.5t25 78.5h-76v90h77v503q0 76 41.5 118.5t116.5 42.5q65 0 118 -37l-40 -77q-17 10 -30.5 14.5t-31.5 4.5q-25 0 -37 -14.5t-12 -46.5v-508h76z" />
    <glyph glyph-name="uni0249" unicode="&#x249;" horiz-adv-x="296" 
d="M288 210h-76v-175q0 -72 -21.5 -119t-59.5 -76.5t-99 -56.5l-41 91q35 18 55 35.5t30.5 46t10.5 74.5v180h-76v90h76v229h125v-229h76v-90zM205.5 773.5q21.5 -21.5 21.5 -54.5t-21.5 -54.5t-55.5 -21.5t-55.5 21.5t-21.5 54.5t21.5 54.5t55.5 21.5t55.5 -21.5z" />
    <glyph glyph-name="k" unicode="k" horiz-adv-x="489" 
d="M191 754v-754h-125v741zM480 529l-156 -233l170 -296h-138l-160 289l158 240h126z" />
    <glyph glyph-name="uni01E9" unicode="&#x1e9;" horiz-adv-x="489" 
d="M191 754v-754h-125v741zM480 529l-156 -233l170 -296h-138l-160 289l158 240h126zM383 974l47 -51l-126 -121h-77l-126 121l47 51l117 -82z" />
    <glyph glyph-name="kcommaaccent" unicode="&#x137;" horiz-adv-x="489" 
d="M191 754v-754h-125v741zM480 529l-156 -233l170 -296h-138l-160 289l158 240h126zM293.5 -91q18.5 -19 18.5 -48q0 -16 -5 -32.5t-19 -47.5l-40 -91h-64l27 115q-30 21 -30 56q0 28 18.5 47.5t47.5 19.5q28 0 46.5 -19z" />
    <glyph glyph-name="kgreenlandic" unicode="&#x138;" horiz-adv-x="488" 
d="M191 529v-529h-125v529h125zM479 529l-156 -242l170 -287h-138l-160 281l158 248h126z" />
    <glyph glyph-name="uni0199" unicode="&#x199;" horiz-adv-x="489" 
d="M205.5 643q-14.5 -16 -14.5 -51v-592h-125v594q0 71 45 115.5t128 44.5q69 0 126 -30l-36 -82q-38 17 -76 17q-33 0 -47.5 -16zM324 296l170 -296h-138l-160 289l158 240h126z" />
    <glyph glyph-name="uni029E" unicode="&#x29e;" horiz-adv-x="489" 
d="M9 0l156 234l-170 295h138l160 -289l-158 -240h-126zM298 -203v732h125v-746z" />
    <glyph glyph-name="l" unicode="l" horiz-adv-x="270" 
d="M93.5 19q-32.5 34 -32.5 95v627l125 13v-636q0 -32 27 -32q13 0 25 4l25 -86q-33 -19 -79 -19q-58 0 -90.5 34z" />
    <glyph glyph-name="lacute" unicode="&#x13a;" horiz-adv-x="270" 
d="M93.5 19q-32.5 34 -32.5 95v627l125 13v-636q0 -32 27 -32q13 0 25 4l25 -86q-33 -19 -79 -19q-58 0 -90.5 34zM195 982l49 -96l-209 -83l-32 64z" />
    <glyph glyph-name="uni019B" unicode="&#x19b;" horiz-adv-x="466" 
d="M381 261q22 -81 45 -133.5t56 -99.5l-118 -43q-46 79 -74 167.5t-56 254.5l-101 -422l-122 28l147 485h59q-13 60 -27 88l-55 -58l-68 43l70 74q-28 17 -78 26l15 84q86 -16 134 -47l64 64l56 -57l-62 -63q43 -60 66 -174q27 -136 49 -217z" />
    <glyph glyph-name="uni019A" unicode="&#x19a;" horiz-adv-x="297" 
d="M287 4q-33 -19 -79 -19q-58 0 -90.5 34t-32.5 95v213h-77v90h77v324l125 13v-337h75v-90h-75v-209q0 -32 27 -32q13 0 25 4z" />
    <glyph glyph-name="uni026C" unicode="&#x26c;" horiz-adv-x="366" 
d="M341 4q-33 -19 -79 -19q-58 0 -90.5 34t-32.5 95v134q-70 2 -105.5 33t-35.5 85q0 50 30.5 78t78.5 28q20 0 32 -3v272l125 13v-432q32 3 63 10l12 -67q-34 -11 -75 -14v-133q0 -32 27 -32q13 0 25 4zM139 321v80q-10 3 -22 3q-16 0 -25 -9.5t-9 -27.5q0 -46 56 -46z" />
    <glyph glyph-name="lcaron" unicode="&#x13e;" horiz-adv-x="309" 
d="M93.5 19q-32.5 34 -32.5 95v627l125 13v-636q0 -32 27 -32q13 0 25 4l25 -86q-33 -19 -79 -19q-58 0 -90.5 34zM293 541l48 200l-98 13l-20 -202z" />
    <glyph glyph-name="uni1E3D" unicode="&#x1e3d;" horiz-adv-x="270" 
d="M93.5 19q-32.5 34 -32.5 95v627l125 13v-636q0 -32 27 -32q13 0 25 4l25 -86q-33 -19 -79 -19q-58 0 -90.5 34zM46 -244l-46 51l126 128h77l126 -128l-47 -51l-118 88z" />
    <glyph glyph-name="lcommaaccent" unicode="&#x13c;" horiz-adv-x="270" 
d="M93.5 19q-32.5 34 -32.5 95v627l125 13v-636q0 -32 27 -32q13 0 25 4l25 -86q-33 -19 -79 -19q-58 0 -90.5 34zM213.5 -91q18.5 -19 18.5 -48q0 -16 -5 -32.5t-19 -47.5l-40 -91h-64l27 115q-30 21 -30 56q0 28 18.5 47.5t47.5 19.5q28 0 46.5 -19z" />
    <glyph glyph-name="uni0234" unicode="&#x234;" horiz-adv-x="406" 
d="M387.5 203q29.5 -29 29.5 -78q0 -68 -46.5 -104t-120.5 -36q-28 0 -49 4l-29 -69l-64 26l29 67q-35 21 -55.5 58.5t-20.5 93.5v576l125 13v-596q0 -14 2 -32q23 56 51.5 81t72.5 25q46 0 75.5 -29zM326 128q0 15 -7 23t-20 8q-17 0 -30 -16.5t-30 -61.5q7 -1 25 -1
q62 0 62 48z" />
    <glyph glyph-name="ldot" unicode="&#x140;" horiz-adv-x="367" 
d="M93.5 19q-32.5 34 -32.5 95v627l125 13v-636q0 -32 27 -32q13 0 25 4l25 -86q-33 -19 -79 -19q-58 0 -90.5 34zM362.5 431.5q21.5 -21.5 21.5 -54.5t-21.5 -54.5t-55.5 -21.5t-55.5 21.5t-21.5 54.5t21.5 54.5t55.5 21.5t55.5 -21.5z" />
    <glyph glyph-name="uni1E37" unicode="&#x1e37;" horiz-adv-x="270" 
d="M93.5 19q-32.5 34 -32.5 95v627l125 13v-636q0 -32 27 -32q13 0 25 4l25 -86q-33 -19 -79 -19q-58 0 -90.5 34zM109.5 -197.5q-21.5 21.5 -21.5 54.5t21.5 54.5t55.5 21.5t55.5 -21.5t21.5 -54.5t-21.5 -54.5t-55.5 -21.5t-55.5 21.5z" />
    <glyph glyph-name="uni026E" unicode="&#x26e;" horiz-adv-x="624" 
d="M553.5 154q51.5 -50 51.5 -146q0 -66 -28 -117t-81 -79.5t-125 -28.5q-118 0 -190 78l64 70q29 -27 57 -39t63 -12q52 0 81 34t29 98q0 63 -29 90t-94 27h-75v79l166 225h-257v-315q0 -32 27 -32q13 0 25 4l25 -86q-33 -19 -79 -19q-58 0 -90.5 34t-32.5 95v627l125 13
v-225h393v-89l-176 -231q99 -5 150.5 -55z" />
    <glyph glyph-name="uni026D" unicode="&#x26d;" horiz-adv-x="257" 
d="M352 -177q-51 -40 -123 -40q-74 0 -118.5 41.5t-44.5 119.5v797l125 13v-818q0 -59 52 -59q18 0 31.5 4.5t31.5 14.5z" />
    <glyph glyph-name="uni01C9" unicode="&#x1c9;" horiz-adv-x="527" 
d="M93.5 19q-32.5 34 -32.5 95v627l125 13v-636q0 -32 27 -32q13 0 25 4l25 -86q-33 -19 -79 -19q-58 0 -90.5 34zM460 35q0 -72 -21.5 -119t-59.5 -76.5t-99 -56.5l-41 91q35 18 55 35.5t30.5 46t10.5 74.5v499h125v-494zM453.5 773.5q21.5 -21.5 21.5 -54.5t-21.5 -54.5
t-55.5 -21.5t-55.5 21.5t-21.5 54.5t21.5 54.5t55.5 21.5t55.5 -21.5z" />
    <glyph glyph-name="uni026B" unicode="&#x26b;" horiz-adv-x="389" 
d="M259 289v-171q0 -32 27 -32q13 0 25 4l25 -86q-33 -19 -79 -19q-58 0 -90.5 34t-32.5 95v232q-10 2 -15 2q-21 0 -34.5 -13t-29.5 -38l-67 34q24 49 56.5 79.5t80.5 30.5h9v300l125 13v-369q10 -2 16 -2q20 0 33.5 12t29.5 35l66 -35q-51 -106 -134 -106h-11z" />
    <glyph glyph-name="uni02AA" unicode="&#x2aa;" horiz-adv-x="617" 
d="M61 193v548l125 13v-564q0 -57 33 -83.5t106 -26.5q77 0 112 17.5t35 53.5q0 19 -6.5 32t-26 25t-58.5 26q-73 26 -102 61t-29 94q0 44 22 79.5t61.5 55.5t90.5 20q88 0 159 -61l-45 -71q-58 39 -108 39q-28 0 -44.5 -15t-16.5 -41t18 -42t72 -35q71 -26 103 -63t32 -94
q0 -86 -70.5 -131t-201.5 -45q-261 0 -261 208z" />
    <glyph glyph-name="lslash" unicode="&#x142;" horiz-adv-x="312" 
d="M259 90l25 -86q-33 -19 -79 -19q-58 0 -90.5 34t-32.5 95v170l-40 -26l-42 70l82 56v357l125 13v-290l66 43l42 -71l-108 -70v-248q0 -32 27 -32q13 0 25 4z" />
    <glyph glyph-name="uni02AB" unicode="&#x2ab;" horiz-adv-x="629" 
d="M598 0h-342q-32 -15 -72 -15q-58 0 -90.5 34t-32.5 95v627l125 13v-636q0 -32 27 -32q11 0 23 4l232 341h-212v98h350v-91l-232 -340h236z" />
    <glyph glyph-name="m" unicode="m" horiz-adv-x="767" 
d="M670 501.5q35 -42.5 35 -113.5v-388h-124v372q0 77 -47 77q-25 0 -46 -19.5t-41 -57.5v-372h-123v372q0 77 -47 77q-26 0 -47 -20t-40 -57v-372h-124v529h109l9 -68q55 83 137 83q41 0 71 -23.5t44 -65.5q28 43 62.5 66t79.5 23q57 0 92 -42.5z" />
    <glyph glyph-name="uni1E3F" unicode="&#x1e3f;" horiz-adv-x="767" 
d="M670 501.5q35 -42.5 35 -113.5v-388h-124v372q0 77 -47 77q-25 0 -46 -19.5t-41 -57.5v-372h-123v372q0 77 -47 77q-26 0 -47 -20t-40 -57v-372h-124v529h109l9 -68q55 83 137 83q41 0 71 -23.5t44 -65.5q28 43 62.5 66t79.5 23q57 0 92 -42.5zM449 815l51 -95l-206 -90
l-35 63z" />
    <glyph glyph-name="uni1E41" unicode="&#x1e41;" horiz-adv-x="767" 
d="M670 501.5q35 -42.5 35 -113.5v-388h-124v372q0 77 -47 77q-25 0 -46 -19.5t-41 -57.5v-372h-123v372q0 77 -47 77q-26 0 -47 -20t-40 -57v-372h-124v529h109l9 -68q55 83 137 83q41 0 71 -23.5t44 -65.5q28 43 62.5 66t79.5 23q57 0 92 -42.5zM439.5 773.5
q21.5 -21.5 21.5 -54.5t-21.5 -54.5t-55.5 -21.5t-55.5 21.5t-21.5 54.5t21.5 54.5t55.5 21.5t55.5 -21.5z" />
    <glyph glyph-name="uni0271" unicode="&#x271;" horiz-adv-x="767" 
d="M670 501.5q35 -42.5 35 -113.5v-441q0 -79 -44.5 -121.5t-118.5 -42.5q-72 0 -121 40l45 73q19 -10 32.5 -14.5t30.5 -4.5q52 0 52 59v436q0 77 -47 77q-25 0 -46 -19.5t-41 -57.5v-372h-123v372q0 77 -47 77q-26 0 -47 -20t-40 -57v-372h-124v529h109l9 -68
q55 83 137 83q41 0 71 -23.5t44 -65.5q28 43 62.5 66t79.5 23q57 0 92 -42.5z" />
    <glyph glyph-name="uni0270" unicode="&#x270;" horiz-adv-x="767" 
d="M701 529v-746l-125 14v260q-54 -72 -130 -72q-41 0 -71 23.5t-44 65.5q-28 -43 -62.5 -66t-79.5 -23q-57 0 -92 42.5t-35 113.5v388h124v-372q0 -77 47 -77q25 0 46 19.5t41 57.5v372h123v-372q0 -77 47 -77q26 0 47 20t40 57v372h124z" />
    <glyph glyph-name="uni026F" unicode="&#x26f;" horiz-adv-x="767" 
d="M701 529v-529h-109l-9 68q-55 -83 -137 -83q-41 0 -71 23.5t-44 65.5q-28 -43 -62.5 -66t-79.5 -23q-57 0 -92 42.5t-35 113.5v388h124v-372q0 -77 47 -77q25 0 46 19.5t41 57.5v372h123v-372q0 -77 47 -77q26 0 47 20t40 57v372h124z" />
    <glyph glyph-name="n" unicode="n" horiz-adv-x="525" 
d="M428 502q36 -42 36 -114v-388h-125v371q0 42 -13.5 59.5t-39.5 17.5q-27 0 -50 -20t-45 -59v-369h-125v529h109l9 -69q29 41 64.5 62.5t80.5 21.5q63 0 99 -42z" />
    <glyph glyph-name="nacute" unicode="&#x144;" horiz-adv-x="525" 
d="M428 502q36 -42 36 -114v-388h-125v371q0 42 -13.5 59.5t-39.5 17.5q-27 0 -50 -20t-45 -59v-369h-125v529h109l9 -69q29 41 64.5 62.5t80.5 21.5q63 0 99 -42zM332 815l51 -95l-206 -90l-35 63z" />
    <glyph glyph-name="nacute.loclPLK" horiz-adv-x="525" 
d="M428 502q36 -42 36 -114v-388h-125v371q0 42 -13.5 59.5t-39.5 17.5q-27 0 -50 -20t-45 -59v-369h-125v529h109l9 -69q29 41 64.5 62.5t80.5 21.5q63 0 99 -42zM295 793l94 -56l-125 -158l-57 34z" />
    <glyph glyph-name="napostrophe" unicode="&#x149;" horiz-adv-x="637" 
d="M139.5 739q16.5 -17 16.5 -44q0 -14 -4.5 -29.5t-17.5 -46.5l-36 -84h-58l23 108q-28 20 -28 52q0 26 17 43.5t44 17.5t43.5 -17zM539 502q36 -42 36 -114v-388h-125v371q0 42 -13.5 59.5t-39.5 17.5q-27 0 -50 -20t-45 -59v-369h-125v529h109l9 -69q29 41 64.5 62.5
t80.5 21.5q63 0 99 -42z" />
    <glyph glyph-name="ncaron" unicode="&#x148;" horiz-adv-x="525" 
d="M428 502q36 -42 36 -114v-388h-125v371q0 42 -13.5 59.5t-39.5 17.5q-27 0 -50 -20t-45 -59v-369h-125v529h109l9 -69q29 41 64.5 62.5t80.5 21.5q63 0 99 -42zM385 798l47 -52l-126 -127h-77l-126 127l46 52l118 -90z" />
    <glyph glyph-name="uni1E4B" unicode="&#x1e4b;" horiz-adv-x="525" 
d="M428 502q36 -42 36 -114v-388h-125v371q0 42 -13.5 59.5t-39.5 17.5q-27 0 -50 -20t-45 -59v-369h-125v529h109l9 -69q29 41 64.5 62.5t80.5 21.5q63 0 99 -42zM144 -244l-46 51l126 128h77l126 -128l-47 -51l-118 88z" />
    <glyph glyph-name="ncommaaccent" unicode="&#x146;" horiz-adv-x="525" 
d="M428 502q36 -42 36 -114v-388h-125v371q0 42 -13.5 59.5t-39.5 17.5q-27 0 -50 -20t-45 -59v-369h-125v529h109l9 -69q29 41 64.5 62.5t80.5 21.5q63 0 99 -42zM311.5 -91q18.5 -19 18.5 -48q0 -16 -5 -32.5t-19 -47.5l-40 -91h-64l27 115q-30 21 -30 56q0 28 18.5 47.5
t47.5 19.5q28 0 46.5 -19z" />
    <glyph glyph-name="uni0235" unicode="&#x235;" horiz-adv-x="683" 
d="M665.5 203q29.5 -29 29.5 -78q0 -68 -46.5 -104t-120.5 -36q-28 0 -49 4l-29 -69l-64 26l29 67q-35 21 -55.5 58.5t-20.5 93.5v206q0 42 -13.5 59.5t-39.5 17.5q-27 0 -50 -20t-45 -59v-369h-125v529h109l9 -69q29 41 64.5 62.5t80.5 21.5q63 0 99 -42t36 -114v-230
q0 -14 2 -32q23 56 51.5 81t71.5 25q47 0 76.5 -29zM603 128q0 14 -6.5 22.5t-19.5 8.5q-17 0 -30 -16.5t-30 -61.5q7 -1 25 -1q61 0 61 48z" />
    <glyph glyph-name="uni1E45" unicode="&#x1e45;" horiz-adv-x="525" 
d="M428 502q36 -42 36 -114v-388h-125v371q0 42 -13.5 59.5t-39.5 17.5q-27 0 -50 -20t-45 -59v-369h-125v529h109l9 -69q29 41 64.5 62.5t80.5 21.5q63 0 99 -42zM322.5 773.5q21.5 -21.5 21.5 -54.5t-21.5 -54.5t-55.5 -21.5t-55.5 21.5t-21.5 54.5t21.5 54.5t55.5 21.5
t55.5 -21.5z" />
    <glyph glyph-name="uni1E47" unicode="&#x1e47;" horiz-adv-x="525" 
d="M428 502q36 -42 36 -114v-388h-125v371q0 42 -13.5 59.5t-39.5 17.5q-27 0 -50 -20t-45 -59v-369h-125v529h109l9 -69q29 41 64.5 62.5t80.5 21.5q63 0 99 -42zM207.5 -197.5q-21.5 21.5 -21.5 54.5t21.5 54.5t55.5 21.5t55.5 -21.5t21.5 -54.5t-21.5 -54.5t-55.5 -21.5
t-55.5 21.5z" />
    <glyph glyph-name="uni01F9" unicode="&#x1f9;" horiz-adv-x="525" 
d="M428 502q36 -42 36 -114v-388h-125v371q0 42 -13.5 59.5t-39.5 17.5q-27 0 -50 -20t-45 -59v-369h-125v529h109l9 -69q29 41 64.5 62.5t80.5 21.5q63 0 99 -42zM206 815l190 -122l-35 -63l-206 90z" />
    <glyph glyph-name="eng" unicode="&#x14b;" horiz-adv-x="525" 
d="M428 502q36 -42 36 -114v-444q0 -78 -44.5 -119.5t-118.5 -41.5q-72 0 -123 40l46 73q18 -10 31.5 -14.5t31.5 -4.5q52 0 52 59v435q0 42 -13.5 59.5t-39.5 17.5q-27 0 -50 -20t-45 -59v-369h-125v529h109l9 -69q29 41 64.5 62.5t80.5 21.5q63 0 99 -42z" />
    <glyph glyph-name="uni0272" unicode="&#x272;" horiz-adv-x="525" 
d="M428 502q36 -42 36 -114v-388h-125v371q0 42 -13.5 59.5t-39.5 17.5q-27 0 -50 -20t-45 -59v-425q0 -78 -44.5 -119.5t-118.5 -41.5q-72 0 -123 40l46 73q18 -10 31.5 -14.5t31.5 -4.5q52 0 52 59v593h109l9 -69q29 41 64.5 62.5t80.5 21.5q63 0 99 -42z" />
    <glyph glyph-name="uni0273" unicode="&#x273;" horiz-adv-x="524" 
d="M624 -177q-51 -40 -123 -40q-74 0 -118.5 41.5t-44.5 119.5v57h1v370q0 42 -13.5 59.5t-39.5 17.5q-27 0 -50 -20t-45 -59v-369h-125v529h109l9 -69q29 41 64.5 62.5t80.5 21.5q63 0 99 -42t36 -114v-388h-1v-64q0 -59 52 -59q18 0 31.5 4.5t31.5 14.5z" />
    <glyph glyph-name="uni01CC" unicode="&#x1cc;" horiz-adv-x="782" 
d="M428 502q36 -42 36 -114v-388h-125v371q0 42 -13.5 59.5t-39.5 17.5q-27 0 -50 -20t-45 -59v-369h-125v529h109l9 -69q29 41 64.5 62.5t80.5 21.5q63 0 99 -42zM715 35q0 -72 -21.5 -119t-59.5 -76.5t-99 -56.5l-41 91q35 18 55 35.5t30.5 46t10.5 74.5v499h125v-494z
M708.5 773.5q21.5 -21.5 21.5 -54.5t-21.5 -54.5t-55.5 -21.5t-55.5 21.5t-21.5 54.5t21.5 54.5t55.5 21.5t55.5 -21.5z" />
    <glyph glyph-name="uni019E" unicode="&#x19e;" horiz-adv-x="525" 
d="M428 502q36 -42 36 -114v-605l-125 14v574q0 42 -13.5 59.5t-39.5 17.5q-27 0 -50 -20t-45 -59v-369h-125v529h109l9 -69q29 41 64.5 62.5t80.5 21.5q63 0 99 -42z" />
    <glyph glyph-name="ntilde" unicode="&#xf1;" horiz-adv-x="525" 
d="M428 502q36 -42 36 -114v-388h-125v371q0 42 -13.5 59.5t-39.5 17.5q-27 0 -50 -20t-45 -59v-369h-125v529h109l9 -69q29 41 64.5 62.5t80.5 21.5q63 0 99 -42zM287.5 654.5q-13.5 6.5 -33.5 19.5q-23 18 -39 18q-15 0 -25.5 -10.5t-22.5 -33.5l-64 31q18 46 46 73.5
t64 27.5q19 0 33.5 -7t32.5 -19q2 -2 10.5 -7.5t16 -8t13.5 -2.5q14 0 24 10t23 33l64 -31q-17 -48 -45.5 -74t-64.5 -26q-19 0 -32.5 6.5z" />
    <glyph glyph-name="o" unicode="o" horiz-adv-x="532" 
d="M433 472q60 -72 60 -207q0 -130 -60.5 -205t-166.5 -75q-107 0 -167.5 73.5t-60.5 206.5q0 131 60.5 205t167.5 74t167 -72zM193 405.5q-24 -43.5 -24 -140.5q0 -98 24 -141.5t73 -43.5t73 44t24 141q0 98 -24 141t-73 43t-73 -43.5z" />
    <glyph glyph-name="oacute" unicode="&#xf3;" horiz-adv-x="532" 
d="M433 472q60 -72 60 -207q0 -130 -60.5 -205t-166.5 -75q-107 0 -167.5 73.5t-60.5 206.5q0 131 60.5 205t167.5 74t167 -72zM193 405.5q-24 -43.5 -24 -140.5q0 -98 24 -141.5t73 -43.5t73 44t24 141q0 98 -24 141t-73 43t-73 -43.5zM331 815l51 -95l-206 -90l-35 63z
" />
    <glyph glyph-name="oacute.loclPLK" horiz-adv-x="532" 
d="M433 472q60 -72 60 -207q0 -130 -60.5 -205t-166.5 -75q-107 0 -167.5 73.5t-60.5 206.5q0 131 60.5 205t167.5 74t167 -72zM193 405.5q-24 -43.5 -24 -140.5q0 -98 24 -141.5t73 -43.5t73 44t24 141q0 98 -24 141t-73 43t-73 -43.5zM294 793l94 -56l-125 -158l-57 34z
" />
    <glyph glyph-name="uni0275" unicode="&#x275;" horiz-adv-x="532" 
d="M433 472q60 -72 60 -207q0 -130 -60.5 -205t-166.5 -75q-107 0 -167.5 73.5t-60.5 206.5q0 131 60.5 205t167.5 74t167 -72zM196 417q-25 -34 -31 -109h201q-5 75 -30 109t-70 34t-70 -34zM337.5 113.5q24.5 35.5 28.5 115.5h-201q4 -79 29 -115t72 -36t71.5 35.5z" />
    <glyph glyph-name="obreve" unicode="&#x14f;" horiz-adv-x="532" 
d="M433 472q60 -72 60 -207q0 -130 -60.5 -205t-166.5 -75q-107 0 -167.5 73.5t-60.5 206.5q0 131 60.5 205t167.5 74t167 -72zM193 405.5q-24 -43.5 -24 -140.5q0 -98 24 -141.5t73 -43.5t73 44t24 141q0 98 -24 141t-73 43t-73 -43.5zM161.5 679q-39.5 41 -44.5 112l71 13
q18 -77 78 -77q61 0 78 77l71 -13q-5 -71 -44.5 -112t-104.5 -41t-104.5 41z" />
    <glyph glyph-name="uni01D2" unicode="&#x1d2;" horiz-adv-x="532" 
d="M433 472q60 -72 60 -207q0 -130 -60.5 -205t-166.5 -75q-107 0 -167.5 73.5t-60.5 206.5q0 131 60.5 205t167.5 74t167 -72zM193 405.5q-24 -43.5 -24 -140.5q0 -98 24 -141.5t73 -43.5t73 44t24 141q0 98 -24 141t-73 43t-73 -43.5zM384 798l47 -52l-126 -127h-77
l-126 127l46 52l118 -90z" />
    <glyph glyph-name="ocircumflex" unicode="&#xf4;" horiz-adv-x="532" 
d="M433 472q60 -72 60 -207q0 -130 -60.5 -205t-166.5 -75q-107 0 -167.5 73.5t-60.5 206.5q0 131 60.5 205t167.5 74t167 -72zM193 405.5q-24 -43.5 -24 -140.5q0 -98 24 -141.5t73 -43.5t73 44t24 141q0 98 -24 141t-73 43t-73 -43.5zM148 629l-46 51l126 127h77l126 -127
l-47 -51l-118 88z" />
    <glyph glyph-name="uni1ED1" unicode="&#x1ed1;" horiz-adv-x="532" 
d="M433 472q60 -72 60 -207q0 -130 -60.5 -205t-166.5 -75q-107 0 -167.5 73.5t-60.5 206.5q0 131 60.5 205t167.5 74t167 -72zM193 405.5q-24 -43.5 -24 -140.5q0 -98 24 -141.5t73 -43.5t73 44t24 141q0 98 -24 141t-73 43t-73 -43.5zM145 589l-46 51l126 121h77l126 -121
l-47 -51l-118 82zM468 924l73 -66l-140 -136l-49 42z" />
    <glyph glyph-name="uni1ED9" unicode="&#x1ed9;" horiz-adv-x="532" 
d="M433 472q60 -72 60 -207q0 -130 -60.5 -205t-166.5 -75q-107 0 -167.5 73.5t-60.5 206.5q0 131 60.5 205t167.5 74t167 -72zM193 405.5q-24 -43.5 -24 -140.5q0 -98 24 -141.5t73 -43.5t73 44t24 141q0 98 -24 141t-73 43t-73 -43.5zM148 629l-46 51l126 127h77l126 -127
l-47 -51l-118 88zM210.5 -197.5q-21.5 21.5 -21.5 54.5t21.5 54.5t55.5 21.5t55.5 -21.5t21.5 -54.5t-21.5 -54.5t-55.5 -21.5t-55.5 21.5z" />
    <glyph glyph-name="uni1ED3" unicode="&#x1ed3;" horiz-adv-x="532" 
d="M433 472q60 -72 60 -207q0 -130 -60.5 -205t-166.5 -75q-107 0 -167.5 73.5t-60.5 206.5q0 131 60.5 205t167.5 74t167 -72zM193 405.5q-24 -43.5 -24 -140.5q0 -98 24 -141.5t73 -43.5t73 44t24 141q0 98 -24 141t-73 43t-73 -43.5zM145 589l-46 51l126 121h77l126 -121
l-47 -51l-118 82zM59 924l117 -160l-50 -42l-141 136z" />
    <glyph glyph-name="uni1ED5" unicode="&#x1ed5;" horiz-adv-x="532" 
d="M433 472q60 -72 60 -207q0 -130 -60.5 -205t-166.5 -75q-107 0 -167.5 73.5t-60.5 206.5q0 131 60.5 205t167.5 74t167 -72zM193 405.5q-24 -43.5 -24 -140.5q0 -98 24 -141.5t73 -43.5t73 44t24 141q0 98 -24 141t-73 43t-73 -43.5zM145 589l-46 51l126 121h77l126 -121
l-47 -51l-118 82zM361 830q35 4 49 12t14 29q0 34 -36 34q-15 0 -27 -3t-27 -10l-22 57q40 25 94 25q52 0 79.5 -26t27.5 -70q0 -37 -19 -59.5t-55 -29.5v-55h-78v96z" />
    <glyph glyph-name="uni1ED7" unicode="&#x1ed7;" horiz-adv-x="532" 
d="M433 472q60 -72 60 -207q0 -130 -60.5 -205t-166.5 -75q-107 0 -167.5 73.5t-60.5 206.5q0 131 60.5 205t167.5 74t167 -72zM193 405.5q-24 -43.5 -24 -140.5q0 -98 24 -141.5t73 -43.5t73 44t24 141q0 98 -24 141t-73 43t-73 -43.5zM145 582l-46 51l126 121h77l126 -121
l-47 -51l-118 82zM286.5 791.5q-13.5 5.5 -23 11.5t-12.5 8q-23 18 -39 18q-15 0 -25 -10t-23 -33l-64 30q18 44 46 71t64 27q19 0 33 -6.5t33 -18.5q13 -9 22 -13.5t18 -4.5q14 0 24 10t23 32l64 -30q-17 -46 -45.5 -71.5t-64.5 -25.5q-17 0 -30.5 5.5z" />
    <glyph glyph-name="uni020D" unicode="&#x20d;" horiz-adv-x="532" 
d="M433 472q60 -72 60 -207q0 -130 -60.5 -205t-166.5 -75q-107 0 -167.5 73.5t-60.5 206.5q0 131 60.5 205t167.5 74t167 -72zM193 405.5q-24 -43.5 -24 -140.5q0 -98 24 -141.5t73 -43.5t73 44t24 141q0 98 -24 141t-73 43t-73 -43.5zM159 844l83 -184l-66 -30l-105 169z
M310 844l75 -181l-66 -29l-97 166z" />
    <glyph glyph-name="odieresis" unicode="&#xf6;" horiz-adv-x="532" 
d="M433 472q60 -72 60 -207q0 -130 -60.5 -205t-166.5 -75q-107 0 -167.5 73.5t-60.5 206.5q0 131 60.5 205t167.5 74t167 -72zM193 405.5q-24 -43.5 -24 -140.5q0 -98 24 -141.5t73 -43.5t73 44t24 141q0 98 -24 141t-73 43t-73 -43.5zM212 763.5q19 -19.5 19 -47.5
q0 -29 -19 -48.5t-48 -19.5t-48 19.5t-19 48.5q0 28 19.5 47.5t47.5 19.5q29 0 48 -19.5zM415 763.5q19 -19.5 19 -47.5q0 -29 -19 -48.5t-48 -19.5t-48.5 19.5t-19.5 48.5q0 28 20 47.5t48 19.5q29 0 48 -19.5z" />
    <glyph glyph-name="uni022B" unicode="&#x22b;" horiz-adv-x="532" 
d="M433 472q60 -72 60 -207q0 -130 -60.5 -205t-166.5 -75q-107 0 -167.5 73.5t-60.5 206.5q0 131 60.5 205t167.5 74t167 -72zM193 405.5q-24 -43.5 -24 -140.5q0 -98 24 -141.5t73 -43.5t73 44t24 141q0 98 -24 141t-73 43t-73 -43.5zM212 728.5q19 -19.5 19 -47.5
q0 -29 -19 -48.5t-48 -19.5t-48 19.5t-19 48.5q0 28 19.5 47.5t47.5 19.5q29 0 48 -19.5zM415 728.5q19 -19.5 19 -47.5q0 -29 -19 -48.5t-48 -19.5t-48.5 19.5t-19.5 48.5q0 28 20 47.5t48 19.5q29 0 48 -19.5zM399 798h-266v88h266v-88z" />
    <glyph glyph-name="uni022F" unicode="&#x22f;" horiz-adv-x="532" 
d="M433 472q60 -72 60 -207q0 -130 -60.5 -205t-166.5 -75q-107 0 -167.5 73.5t-60.5 206.5q0 131 60.5 205t167.5 74t167 -72zM193 405.5q-24 -43.5 -24 -140.5q0 -98 24 -141.5t73 -43.5t73 44t24 141q0 98 -24 141t-73 43t-73 -43.5zM321.5 773.5q21.5 -21.5 21.5 -54.5
t-21.5 -54.5t-55.5 -21.5t-55.5 21.5t-21.5 54.5t21.5 54.5t55.5 21.5t55.5 -21.5z" />
    <glyph glyph-name="uni0231" unicode="&#x231;" horiz-adv-x="532" 
d="M433 472q60 -72 60 -207q0 -130 -60.5 -205t-166.5 -75q-107 0 -167.5 73.5t-60.5 206.5q0 131 60.5 205t167.5 74t167 -72zM193 405.5q-24 -43.5 -24 -140.5q0 -98 24 -141.5t73 -43.5t73 44t24 141q0 98 -24 141t-73 43t-73 -43.5zM320.5 729.5q21.5 -21.5 21.5 -54.5
t-21.5 -54.5t-55.5 -21.5t-55.5 21.5t-21.5 54.5t21.5 54.5t55.5 21.5t55.5 -21.5zM399 789h-266v88h266v-88z" />
    <glyph glyph-name="uni1ECD" unicode="&#x1ecd;" horiz-adv-x="532" 
d="M433 472q60 -72 60 -207q0 -130 -60.5 -205t-166.5 -75q-107 0 -167.5 73.5t-60.5 206.5q0 131 60.5 205t167.5 74t167 -72zM193 405.5q-24 -43.5 -24 -140.5q0 -98 24 -141.5t73 -43.5t73 44t24 141q0 98 -24 141t-73 43t-73 -43.5zM210.5 -197.5q-21.5 21.5 -21.5 54.5
t21.5 54.5t55.5 21.5t55.5 -21.5t21.5 -54.5t-21.5 -54.5t-55.5 -21.5t-55.5 21.5z" />
    <glyph glyph-name="ograve" unicode="&#xf2;" horiz-adv-x="532" 
d="M433 472q60 -72 60 -207q0 -130 -60.5 -205t-166.5 -75q-107 0 -167.5 73.5t-60.5 206.5q0 131 60.5 205t167.5 74t167 -72zM193 405.5q-24 -43.5 -24 -140.5q0 -98 24 -141.5t73 -43.5t73 44t24 141q0 98 -24 141t-73 43t-73 -43.5zM205 815l190 -122l-35 -63l-206 90z
" />
    <glyph glyph-name="uni1ECF" unicode="&#x1ecf;" horiz-adv-x="532" 
d="M433 472q60 -72 60 -207q0 -130 -60.5 -205t-166.5 -75q-107 0 -167.5 73.5t-60.5 206.5q0 131 60.5 205t167.5 74t167 -72zM193 405.5q-24 -43.5 -24 -140.5q0 -98 24 -141.5t73 -43.5t73 44t24 141q0 98 -24 141t-73 43t-73 -43.5zM227 704q35 4 49 12t14 29
q0 34 -36 34q-15 0 -27 -3t-27 -10l-22 57q40 25 94 25q52 0 79.5 -26t27.5 -70q0 -37 -19 -59.5t-55 -29.5v-55h-78v96z" />
    <glyph glyph-name="ohorn" unicode="&#x1a1;" horiz-adv-x="559" 
d="M538.5 446q-24.5 -28 -69.5 -36q24 -60 24 -145q0 -130 -60.5 -205t-166.5 -75q-107 0 -167.5 73.5t-60.5 206.5q0 131 60.5 205t167.5 74q108 0 167 -71q22 3 32 15t10 35q0 22 -3 37t-10 34l84 15q17 -38 17 -87q0 -48 -24.5 -76zM339 124q24 44 24 141q0 98 -24 141
t-73 43t-73 -43.5t-24 -140.5q0 -98 24 -141.5t73 -43.5t73 44z" />
    <glyph glyph-name="uni1EDB" unicode="&#x1edb;" horiz-adv-x="559" 
d="M382 720l-206 -90l-35 63l190 122zM538.5 446q-24.5 -28 -69.5 -36q24 -60 24 -145q0 -130 -60.5 -205t-166.5 -75q-107 0 -167.5 73.5t-60.5 206.5q0 131 60.5 205t167.5 74q108 0 167 -71q22 3 32 15t10 35q0 22 -3 37t-10 34l84 15q17 -38 17 -87q0 -48 -24.5 -76z
M339 124q24 44 24 141q0 98 -24 141t-73 43t-73 -43.5t-24 -140.5q0 -98 24 -141.5t73 -43.5t73 44z" />
    <glyph glyph-name="uni1EE3" unicode="&#x1ee3;" horiz-adv-x="559" 
d="M538.5 446q-24.5 -28 -69.5 -36q24 -60 24 -145q0 -130 -60.5 -205t-166.5 -75q-107 0 -167.5 73.5t-60.5 206.5q0 131 60.5 205t167.5 74q108 0 167 -71q22 3 32 15t10 35q0 22 -3 37t-10 34l84 15q17 -38 17 -87q0 -48 -24.5 -76zM339 124q24 44 24 141q0 98 -24 141
t-73 43t-73 -43.5t-24 -140.5q0 -98 24 -141.5t73 -43.5t73 44zM321.5 -88.5q21.5 -21.5 21.5 -54.5t-21.5 -54.5t-55.5 -21.5t-55.5 21.5t-21.5 54.5t21.5 54.5t55.5 21.5t55.5 -21.5z" />
    <glyph glyph-name="uni1EDD" unicode="&#x1edd;" horiz-adv-x="559" 
d="M395 693l-35 -63l-206 90l51 95zM538.5 446q-24.5 -28 -69.5 -36q24 -60 24 -145q0 -130 -60.5 -205t-166.5 -75q-107 0 -167.5 73.5t-60.5 206.5q0 131 60.5 205t167.5 74q108 0 167 -71q22 3 32 15t10 35q0 22 -3 37t-10 34l84 15q17 -38 17 -87q0 -48 -24.5 -76z
M339 124q24 44 24 141q0 98 -24 141t-73 43t-73 -43.5t-24 -140.5q0 -98 24 -141.5t73 -43.5t73 44z" />
    <glyph glyph-name="uni1EDF" unicode="&#x1edf;" horiz-adv-x="559" 
d="M227 776q-12 -3 -27 -10l-22 57q40 25 94 25q52 0 79.5 -26t27.5 -70q0 -37 -19 -59.5t-55 -29.5v-55h-78v96q35 4 49 12t14 29q0 34 -36 34q-15 0 -27 -3zM538.5 446q-24.5 -28 -69.5 -36q24 -60 24 -145q0 -130 -60.5 -205t-166.5 -75q-107 0 -167.5 73.5t-60.5 206.5
q0 131 60.5 205t167.5 74q108 0 167 -71q22 3 32 15t10 35q0 22 -3 37t-10 34l84 15q17 -38 17 -87q0 -48 -24.5 -76zM339 124q24 44 24 141q0 98 -24 141t-73 43t-73 -43.5t-24 -140.5q0 -98 24 -141.5t73 -43.5t73 44z" />
    <glyph glyph-name="uni1EE1" unicode="&#x1ee1;" horiz-adv-x="559" 
d="M188.5 681.5q-10.5 -10.5 -22.5 -33.5l-64 31q18 46 46 73.5t64 27.5q19 0 33.5 -7t32.5 -19q2 -2 10.5 -7.5t16 -8t13.5 -2.5q14 0 24 10t23 33l64 -31q-17 -48 -45.5 -74t-64.5 -26q-19 0 -32.5 6.5t-33.5 19.5q-23 18 -39 18q-15 0 -25.5 -10.5zM538.5 446
q-24.5 -28 -69.5 -36q24 -60 24 -145q0 -130 -60.5 -205t-166.5 -75q-107 0 -167.5 73.5t-60.5 206.5q0 131 60.5 205t167.5 74q108 0 167 -71q22 3 32 15t10 35q0 22 -3 37t-10 34l84 15q17 -38 17 -87q0 -48 -24.5 -76zM339 124q24 44 24 141q0 98 -24 141t-73 43
t-73 -43.5t-24 -140.5q0 -98 24 -141.5t73 -43.5t73 44z" />
    <glyph glyph-name="ohungarumlaut" unicode="&#x151;" horiz-adv-x="532" 
d="M433 472q60 -72 60 -207q0 -130 -60.5 -205t-166.5 -75q-107 0 -167.5 73.5t-60.5 206.5q0 131 60.5 205t167.5 74t167 -72zM193 405.5q-24 -43.5 -24 -140.5q0 -98 24 -141.5t73 -43.5t73 44t24 141q0 98 -24 141t-73 43t-73 -43.5zM227 844l88 -44l-97 -166l-66 29z
M379 844l87 -45l-105 -169l-66 30z" />
    <glyph glyph-name="uni01A3" unicode="&#x1a3;" horiz-adv-x="739" 
d="M630 500q43 -44 43 -127v-590l-125 14v585q0 67 -55 67q-21 0 -42 -7q41 -68 41 -177q0 -85 -27.5 -148.5t-78.5 -97.5t-121 -34q-106 0 -166.5 73.5t-60.5 206.5q0 131 60 205t167 74q73 0 123 -34q29 18 58 26t64 8q77 0 120 -44zM337 124q24 44 24 141t-23.5 140.5
t-72.5 43.5q-48 0 -72 -43.5t-24 -140.5q0 -98 23.5 -141.5t72.5 -43.5q48 0 72 44z" />
    <glyph glyph-name="uni020F" unicode="&#x20f;" horiz-adv-x="532" 
d="M433 472q60 -72 60 -207q0 -130 -60.5 -205t-166.5 -75q-107 0 -167.5 73.5t-60.5 206.5q0 131 60.5 205t167.5 74t167 -72zM193 405.5q-24 -43.5 -24 -140.5q0 -98 24 -141.5t73 -43.5t73 44t24 141q0 98 -24 141t-73 43t-73 -43.5zM370.5 733q39.5 -41 44.5 -112
l-71 -13q-17 77 -78 77q-60 0 -78 -77l-71 13q5 71 44.5 112t104.5 41t104.5 -41z" />
    <glyph glyph-name="omacron" unicode="&#x14d;" horiz-adv-x="532" 
d="M433 472q60 -72 60 -207q0 -130 -60.5 -205t-166.5 -75q-107 0 -167.5 73.5t-60.5 206.5q0 131 60.5 205t167.5 74t167 -72zM193 405.5q-24 -43.5 -24 -140.5q0 -98 24 -141.5t73 -43.5t73 44t24 141q0 98 -24 141t-73 43t-73 -43.5zM399 662h-266v88h266v-88z" />
    <glyph glyph-name="uni1E53" unicode="&#x1e53;" horiz-adv-x="532" 
d="M433 472q60 -72 60 -207q0 -130 -60.5 -205t-166.5 -75q-107 0 -167.5 73.5t-60.5 206.5q0 131 60.5 205t167.5 74t167 -72zM193 405.5q-24 -43.5 -24 -140.5q0 -98 24 -141.5t73 -43.5t73 44t24 141q0 98 -24 141t-73 43t-73 -43.5zM400 615h-266v88h266v-88zM339 922
l49 -96l-209 -83l-32 64z" />
    </font>
</defs>
</svg>
