<?xml version="1.0" standalone="no"?>
<!DOCTYPE svg PUBLIC "-//W3C//DTD SVG 1.1//EN" "http://www.w3.org/Graphics/SVG/1.1/DTD/svg11.dtd" >
<svg>
<metadata>
Created by FontForge 20120731 at Fri May  5 09:39:31 2017
 By www-data
Digitized data copyright 2012-2016, The Mozilla Foundation and Telefonica S.A.
</metadata>
<defs>
<font id="FiraSansCondensed-LightItalic" horiz-adv-x="504" >
  <font-face 
    font-family="Fira Sans Condensed Light"
    font-weight="300"
    font-style="italic"
    font-stretch="condensed"
    units-per-em="1000"
    panose-1="2 11 4 3 5 0 0 2 0 4"
    ascent="800"
    descent="-200"
    x-height="523"
    cap-height="685"
    bbox="-688 -350 1417 1050"
    underline-thickness="50"
    underline-position="-50"
    slope="-8"
    unicode-range="U+000D-FEFF"
  />
<missing-glyph horiz-adv-x="663" 
d="M652 1050l-198 -1400h-418l198 1400h418zM590 998h-309l-183 -1296h309zM421.5 425.5q23.5 -25.5 23.5 -66.5q0 -8 -2 -26q-7 -52 -32.5 -80t-76.5 -35l-8 -47q-1 -10 -9 -16t-16 -6q-11 0 -18 7.5t-6 18.5l10 82q53 3 75.5 21t28.5 59q1 7 1 20q0 22 -11 34t-39 12
q-17 0 -29 -2.5t-25 -9.5l-13 -2q-12 0 -18.5 7.5t-4.5 18.5q2 18 31.5 27t62.5 9q52 0 75.5 -25.5zM316 109q9 -11 7 -27q-1 -15 -11.5 -24.5t-24.5 -9.5q-15 0 -23.5 9.5t-8.5 24.5q0 17 10 27.5t26 10.5t25 -11z" />
    <glyph glyph-name="fi" unicode="fi" horiz-adv-x="514" 
d="M383 0h-56l67 477h-206l-65 -465q-9 -66 -28 -105t-48 -62t-81 -48l-16 42q38 19 59.5 37.5t36 51t22.5 87.5l64 462h-81l7 46h81l12 88q9 62 50.5 97t108.5 35q65 0 125 -42l-23 -38q-49 34 -101 34q-47 0 -72.5 -22t-32.5 -69l-12 -83h263z" />
    <glyph glyph-name="fl" unicode="fl" horiz-adv-x="532" 
d="M459 44l12 -41q-28 -14 -57 -14q-35 0 -54.5 19.5t-19.5 56.5q0 8 2 24l82 584q-31 12 -57.5 17.5t-58.5 5.5q-45 0 -70 -22t-32 -68l-12 -83h122l-13 -46h-115l-65 -465q-9 -66 -28 -105t-48 -62t-81 -48l-16 42q38 19 59.5 37.5t36 51t22.5 87.5l64 462h-81l7 46h81
l12 88q9 62 50 97t108 35q68 0 124 -26l53 7l-89 -640q-1 -6 -1 -16q0 -16 7 -23t22 -7q12 0 34 6z" />
    <glyph glyph-name=".notdef" horiz-adv-x="663" 
d="M652 1050l-198 -1400h-418l198 1400h418zM590 998h-309l-183 -1296h309zM421.5 425.5q23.5 -25.5 23.5 -66.5q0 -8 -2 -26q-7 -52 -32.5 -80t-76.5 -35l-8 -47q-1 -10 -9 -16t-16 -6q-11 0 -18 7.5t-6 18.5l10 82q53 3 75.5 21t28.5 59q1 7 1 20q0 22 -11 34t-39 12
q-17 0 -29 -2.5t-25 -9.5l-13 -2q-12 0 -18.5 7.5t-4.5 18.5q2 18 31.5 27t62.5 9q52 0 75.5 -25.5zM316 109q9 -11 7 -27q-1 -15 -11.5 -24.5t-24.5 -9.5q-15 0 -23.5 9.5t-8.5 24.5q0 17 10 27.5t26 10.5t25 -11z" />
    <glyph glyph-name="nonmarkingreturn" unicode="&#xd;" horiz-adv-x="246" 
 />
    <glyph glyph-name="space" unicode=" " horiz-adv-x="246" 
 />
    <glyph glyph-name="A" unicode="A" horiz-adv-x="514" 
d="M400 0l-27 188h-254l-79 -188h-60l300 685h73l107 -685h-60zM140 237h226l-57 400z" />
    <glyph glyph-name="Aacute" unicode="&#xc1;" horiz-adv-x="514" 
d="M400 0l-27 188h-254l-79 -188h-60l300 685h73l107 -685h-60zM140 237h226l-57 400zM409 884l22 -51l-188 -75l-15 32z" />
    <glyph glyph-name="Abreve" unicode="&#x102;" horiz-adv-x="514" 
d="M400 0l-27 188h-254l-79 -188h-60l300 685h73l107 -685h-60zM140 237h226l-57 400zM248 793.5q-29 28.5 -28 72.5l36 5q12 -60 71 -60q32 0 55 17t36 46l38 -12q-12 -43 -47.5 -70t-82.5 -27q-49 0 -78 28.5z" />
    <glyph glyph-name="uni1EAE" unicode="&#x1eae;" horiz-adv-x="514" 
d="M460 971l-127 -121l-23 22l116 134zM248 766.5q-29 28.5 -28 72.5l36 5q12 -60 71 -60q32 0 55 17t36 46l38 -12q-12 -43 -47.5 -70t-82.5 -27q-49 0 -78 28.5zM280 685h73l107 -685h-60l-27 188h-254l-79 -188h-60zM140 237h226l-57 400z" />
    <glyph glyph-name="uni1EB6" unicode="&#x1eb6;" horiz-adv-x="514" 
d="M400 0l-27 188h-254l-79 -188h-60l300 685h73l107 -685h-60zM140 237h226l-57 400zM248 793.5q-29 28.5 -28 72.5l36 5q12 -60 71 -60q32 0 55 17t36 46l38 -12q-12 -43 -47.5 -70t-82.5 -27q-49 0 -78 28.5zM233.5 -97q10.5 -10 10.5 -27q0 -19 -13 -32t-32 -13
q-17 0 -27 10.5t-10 26.5q0 19 12.5 32t31.5 13q17 0 27.5 -10z" />
    <glyph glyph-name="uni1EB0" unicode="&#x1eb0;" horiz-adv-x="514" 
d="M358 869l-27 -19l-94 124l41 31zM247 766.5q-29 28.5 -28 72.5l36 5q12 -60 71 -60q32 0 55 17t36 46l38 -12q-12 -43 -47.5 -70t-82.5 -27q-49 0 -78 28.5zM400 0l-27 188h-254l-79 -188h-60l300 685h73l107 -685h-60zM140 237h226l-57 400z" />
    <glyph glyph-name="uni1EB2" unicode="&#x1eb2;" horiz-adv-x="514" 
d="M400 0l-27 188h-254l-79 -188h-60l300 685h73l107 -685h-60zM140 237h226l-57 400zM248 766.5q-29 28.5 -28 72.5l36 5q12 -60 71 -60q32 0 55 17t36 46l38 -12q-12 -43 -47.5 -70t-82.5 -27q-49 0 -78 28.5zM316 901q33 3 52 15t19 39q0 34 -35 34q-14 0 -25 -3.5
t-28 -10.5l-13 36q37 20 73 20t57.5 -20.5t21.5 -54.5q0 -35 -21 -56t-58 -26l-6 -46h-45z" />
    <glyph glyph-name="uni1EB4" unicode="&#x1eb4;" horiz-adv-x="514" 
d="M267.5 916.5q-11.5 -9.5 -28.5 -31.5l-31 21q42 65 88 65q17 0 30 -6.5t29 -18.5q15 -11 23.5 -15.5t19.5 -4.5q14 0 27 10t29 33l32 -19q-39 -69 -88 -69q-18 0 -32 7t-29 19q-13 10 -22.5 14.5t-19.5 4.5q-16 0 -27.5 -9.5zM382 801q23 17 36 46l38 -12
q-12 -43 -47.5 -70t-82.5 -27q-49 0 -78 28.5t-28 72.5l36 5q12 -60 71 -60q32 0 55 17zM280 685h73l107 -685h-60l-27 188h-254l-79 -188h-60zM140 237h226l-57 400z" />
    <glyph glyph-name="uni01CD" unicode="&#x1cd;" horiz-adv-x="514" 
d="M400 0l-27 188h-254l-79 -188h-60l300 685h73l107 -685h-60zM140 237h226l-57 400zM451 886l24 -28l-131 -102h-35l-102 103l26 27l98 -79z" />
    <glyph glyph-name="Acircumflex" unicode="&#xc2;" horiz-adv-x="514" 
d="M400 0l-27 188h-254l-79 -188h-60l300 685h73l107 -685h-60zM140 237h226l-57 400zM215 762l-24 29l132 102h34l102 -103l-26 -28l-97 80z" />
    <glyph glyph-name="uni1EA4" unicode="&#x1ea4;" horiz-adv-x="514" 
d="M553 954l-127 -121l-23 22l116 134zM332 808l-121 -80l-24 29l132 102h34l102 -103l-26 -28zM280 685h73l107 -685h-60l-27 188h-254l-79 -188h-60zM140 237h226l-57 400z" />
    <glyph glyph-name="uni1EAC" unicode="&#x1eac;" horiz-adv-x="514" 
d="M400 0l-27 188h-254l-79 -188h-60l300 685h73l107 -685h-60zM140 237h226l-57 400zM215 762l-24 29l132 102h34l102 -103l-26 -28l-97 80zM233.5 -97q10.5 -10 10.5 -27q0 -19 -13 -32t-32 -13q-17 0 -27 10.5t-10 26.5q0 19 12.5 32t31.5 13q17 0 27.5 -10z" />
    <glyph glyph-name="uni1EA6" unicode="&#x1ea6;" horiz-adv-x="514" 
d="M257 852l-27 -19l-94 124l41 31zM209 728l-24 29l132 102h34l102 -103l-26 -28l-97 80zM400 0l-27 188h-254l-79 -188h-60l300 685h73l107 -685h-60zM140 237h226l-57 400z" />
    <glyph glyph-name="uni1EA8" unicode="&#x1ea8;" horiz-adv-x="514" 
d="M400 0l-27 188h-254l-79 -188h-60l300 685h73l107 -685h-60zM140 237h226l-57 400zM210 728l-24 29l132 102h34l102 -103l-26 -28l-97 80zM427 885q33 3 52 15t19 39q0 34 -35 34q-14 0 -25 -3.5t-28 -10.5l-13 36q37 20 73 20t57.5 -20.5t21.5 -54.5q0 -35 -21 -56
t-58 -26l-6 -46h-45z" />
    <glyph glyph-name="uni1EAA" unicode="&#x1eaa;" horiz-adv-x="514" 
d="M264.5 926.5q-11.5 -9.5 -28.5 -31.5l-31 21q42 65 88 65q17 0 30 -6.5t29 -18.5q15 -11 23.5 -15.5t19.5 -4.5q14 0 27 10t29 33l32 -19q-39 -69 -88 -69q-18 0 -32 7t-29 19q-13 10 -22.5 14.5t-19.5 4.5q-16 0 -27.5 -9.5zM330 808l-121 -80l-24 29l132 102h34
l102 -103l-26 -28zM280 685h73l107 -685h-60l-27 188h-254l-79 -188h-60zM140 237h226l-57 400z" />
    <glyph glyph-name="uni0200" unicode="&#x200;" horiz-adv-x="514" 
d="M400 0l-27 188h-254l-79 -188h-60l300 685h73l107 -685h-60zM140 237h226l-57 400zM241 936l51 -152l-39 -15l-66 143zM358 936l45 -148l-39 -15l-60 138z" />
    <glyph glyph-name="Adieresis" unicode="&#xc4;" horiz-adv-x="514" 
d="M400 0l-27 188h-254l-79 -188h-60l300 685h73l107 -685h-60zM140 237h226l-57 400zM222 799.5q-9 9.5 -9 23.5q0 19 12 31t29 12q15 0 25 -9.5t10 -24.5q0 -18 -12 -30t-30 -12q-16 0 -25 9.5zM393.5 799.5q-9.5 9.5 -9.5 23.5q0 19 12 31t30 12q15 0 24.5 -10t9.5 -24
q0 -18 -12 -30t-30 -12q-15 0 -24.5 9.5z" />
    <glyph glyph-name="uni01DE" unicode="&#x1de;" horiz-adv-x="514" 
d="M400 0l-27 188h-254l-79 -188h-60l300 685h73l107 -685h-60zM140 237h226l-57 400zM211 754.5q-9 9.5 -9 23.5q0 19 12 31t29 12q15 0 25 -9.5t10 -24.5q0 -18 -12 -30t-30 -12q-16 0 -25 9.5zM382.5 754.5q-9.5 9.5 -9.5 23.5q0 19 12 31t30 12q15 0 24.5 -10t9.5 -24
q0 -18 -12 -30t-30 -12q-15 0 -24.5 9.5zM445 877h-218l7 46h218z" />
    <glyph glyph-name="uni0226" unicode="&#x226;" horiz-adv-x="514" 
d="M400 0l-27 188h-254l-79 -188h-60l300 685h73l107 -685h-60zM140 237h226l-57 400zM306.5 806q-10.5 10 -10.5 27q0 19 13 32t32 13q17 0 27 -10.5t10 -26.5q0 -19 -12.5 -32t-31.5 -13q-17 0 -27.5 10z" />
    <glyph glyph-name="uni1EA0" unicode="&#x1ea0;" horiz-adv-x="514" 
d="M400 0l-27 188h-254l-79 -188h-60l300 685h73l107 -685h-60zM140 237h226l-57 400zM233.5 -97q10.5 -10 10.5 -27q0 -19 -13 -32t-32 -13q-17 0 -27 10.5t-10 26.5q0 19 12.5 32t31.5 13q17 0 27.5 -10z" />
    <glyph glyph-name="uni01E0" unicode="&#x1e0;" horiz-adv-x="514" 
d="M400 0l-27 188h-254l-79 -188h-60l300 685h73l107 -685h-60zM140 237h226l-57 400zM296.5 753q-10.5 10 -10.5 27q0 19 13 32t32 13q17 0 27 -10.5t10 -26.5q0 -19 -12.5 -32t-31.5 -13q-17 0 -27.5 10zM446 877h-218l7 46h218z" />
    <glyph glyph-name="Agrave" unicode="&#xc0;" horiz-adv-x="514" 
d="M400 0l-27 188h-254l-79 -188h-60l300 685h73l107 -685h-60zM140 237h226l-57 400zM274 883l156 -93l-20 -32l-165 75z" />
    <glyph glyph-name="uni1EA2" unicode="&#x1ea2;" horiz-adv-x="514" 
d="M400 0l-27 188h-254l-79 -188h-60l300 685h73l107 -685h-60zM140 237h226l-57 400zM314 847q33 3 52 15t19 39q0 34 -35 34q-14 0 -25 -3.5t-28 -10.5l-13 36q37 20 73 20t57.5 -20.5t21.5 -54.5q0 -35 -21 -56t-58 -26l-6 -46h-45z" />
    <glyph glyph-name="uni0202" unicode="&#x202;" horiz-adv-x="514" 
d="M400 0l-27 188h-254l-79 -188h-60l300 685h73l107 -685h-60zM140 237h226l-57 400zM210 796q13 50 48.5 79t82.5 29q49 0 78 -31t28 -81l-38 -5q-7 70 -70 70q-65 0 -93 -73z" />
    <glyph glyph-name="uni2C6D" unicode="&#x2c6d;" horiz-adv-x="606" 
d="M480 80q0 -19 6.5 -31t22.5 -19l-16 -41q-68 15 -67 87q-68 -87 -165 -87q-89 0 -143 68t-54 195q0 115 37 217.5t104 164.5t153 62q89 0 139 -82l16 71h51l-82 -578q-2 -20 -2 -27zM354 63q40 24 75 75l59 419q-26 46 -56 67.5t-73 21.5q-71 0 -124.5 -56.5t-82 -147.5
t-28.5 -191q0 -108 39 -160t104 -52q47 0 87 24z" />
    <glyph glyph-name="Amacron" unicode="&#x100;" horiz-adv-x="514" 
d="M400 0l-27 188h-254l-79 -188h-60l300 685h73l107 -685h-60zM140 237h226l-57 400zM441 802h-218l7 46h218z" />
    <glyph glyph-name="Aogonek" unicode="&#x104;" horiz-adv-x="514" 
d="M345 -61.5q-29 -29.5 -29 -65.5q0 -21 12.5 -32t36.5 -11q22 0 53 6l-11 -47q-27 -6 -50 -6q-43 0 -67.5 22.5t-24.5 60.5q0 46 31 81t102 65l-25 176h-254l-79 -188h-60l300 685h73l107 -685h-16q-70 -32 -99 -61.5zM140 237h226l-57 400z" />
    <glyph glyph-name="Aring" unicode="&#xc5;" horiz-adv-x="514" 
d="M400 0l-27 188h-254l-79 -188h-60l300 685h73l107 -685h-60zM140 237h226l-57 400zM408.5 923q22.5 -23 22.5 -59q0 -46 -29 -75.5t-72 -29.5q-36 0 -58.5 23t-22.5 59q0 46 29 75.5t72 29.5q36 0 58.5 -23zM305.5 891.5q-15.5 -19.5 -15.5 -49.5q0 -23 11 -35.5
t31 -12.5q27 0 42.5 20t15.5 50q0 23 -11 35t-31 12q-27 0 -42.5 -19.5z" />
    <glyph glyph-name="Aringacute" unicode="&#x1fa;" horiz-adv-x="514" 
d="M400 0l-27 188h-254l-79 -188h-60l300 685h73l107 -685h-60zM140 237h226l-57 400zM397.5 892q22.5 -23 22.5 -59q0 -46 -29 -75.5t-72 -29.5q-36 0 -58.5 23t-22.5 59q0 46 29 75.5t72 29.5q36 0 58.5 -23zM294.5 860.5q-15.5 -19.5 -15.5 -49.5q0 -23 11 -35.5
t31 -12.5q27 0 42.5 20t15.5 50q0 23 -11 35t-31 12q-27 0 -42.5 -19.5zM425 1047l22 -51l-188 -75l-15 32z" />
    <glyph glyph-name="uni023A" unicode="&#x23a;" horiz-adv-x="514" 
d="M403 0l-27 188h-141l-98 -258l-31 9l95 249h-83l-80 -188h-58l300 685h73l11 -68l48 127l31 -9l-69 -182l86 -553h-57zM138 236h81l108 285l-17 118zM253 236h116l-32 219z" />
    <glyph glyph-name="Atilde" unicode="&#xc3;" horiz-adv-x="514" 
d="M400 0l-27 188h-254l-79 -188h-60l300 685h73l107 -685h-60zM140 237h226l-57 400zM357 800q-14 7 -29 19q-13 10 -22.5 14.5t-19.5 4.5q-16 0 -27.5 -9.5t-28.5 -31.5l-31 21q42 65 88 65q17 0 30 -6.5t29 -18.5q15 -11 23.5 -15.5t19.5 -4.5q14 0 27 10t29 33l32 -19
q-39 -69 -88 -69q-18 0 -32 7z" />
    <glyph glyph-name="AE" unicode="&#xc6;" horiz-adv-x="708" 
d="M670 636h-288l22 -257h231l-7 -49h-219l24 -281h205l-8 -49h-248l-15 184h-253l-88 -184h-60l336 685h382zM137 233h226l-33 405z" />
    <glyph glyph-name="AEacute" unicode="&#x1fc;" horiz-adv-x="708" 
d="M670 636h-288l22 -257h231l-7 -49h-219l24 -281h205l-8 -49h-248l-15 184h-253l-88 -184h-60l336 685h382zM137 233h226l-33 405zM566 884l22 -51l-188 -75l-15 32z" />
    <glyph glyph-name="uni01E2" unicode="&#x1e2;" horiz-adv-x="708" 
d="M670 636h-288l22 -257h231l-7 -49h-219l24 -281h205l-8 -49h-248l-15 184h-253l-88 -184h-60l336 685h382zM137 233h226l-33 405zM598 802h-218l7 46h218z" />
    <glyph glyph-name="B" unicode="B" horiz-adv-x="544" 
d="M487 223q0 -58 -24.5 -108t-82 -82.5t-149.5 -32.5h-170l96 685h163q89 0 139 -38t50 -110q0 -70 -40.5 -116t-107.5 -59q126 -20 126 -139zM208 636l-35 -252h118q76 0 117.5 42t41.5 109q0 53 -33.5 77t-95.5 24h-113zM383.5 99.5q43.5 50.5 43.5 123.5q0 114 -133 114
h-128l-40 -288h111q103 0 146.5 50.5z" />
    <glyph glyph-name="uni1E02" unicode="&#x1e02;" horiz-adv-x="544" 
d="M487 223q0 -58 -24.5 -108t-82 -82.5t-149.5 -32.5h-170l96 685h163q89 0 139 -38t50 -110q0 -70 -40.5 -116t-107.5 -59q126 -20 126 -139zM208 636l-35 -252h118q76 0 117.5 42t41.5 109q0 53 -33.5 77t-95.5 24h-113zM383.5 99.5q43.5 50.5 43.5 123.5q0 114 -133 114
h-128l-40 -288h111q103 0 146.5 50.5zM314.5 806q-10.5 10 -10.5 27q0 19 13 32t32 13q17 0 27 -10.5t10 -26.5q0 -19 -12.5 -32t-31.5 -13q-17 0 -27.5 10z" />
    <glyph glyph-name="uni1E04" unicode="&#x1e04;" horiz-adv-x="544" 
d="M487 223q0 -58 -24.5 -108t-82 -82.5t-149.5 -32.5h-170l96 685h163q89 0 139 -38t50 -110q0 -70 -40.5 -116t-107.5 -59q126 -20 126 -139zM208 636l-35 -252h118q76 0 117.5 42t41.5 109q0 53 -33.5 77t-95.5 24h-113zM383.5 99.5q43.5 50.5 43.5 123.5q0 114 -133 114
h-128l-40 -288h111q103 0 146.5 50.5zM258.5 -97q10.5 -10 10.5 -27q0 -19 -13 -32t-32 -13q-17 0 -27 10.5t-10 26.5q0 19 12.5 32t31.5 13q17 0 27.5 -10z" />
    <glyph glyph-name="uniA7B4" unicode="&#xa7b4;" horiz-adv-x="540" 
d="M484 225q0 -60 -28 -111.5t-80.5 -82.5t-123.5 -31t-130 25l-31 -222h-57l123 882h154q89 0 139 -38t50 -111q0 -70 -39 -115.5t-101 -58.5q124 -20 124 -137zM345 73q39 24 59 64t20 87q0 113 -132 113h-58l13 47h43q70 0 110.5 41.5t40.5 109.5q0 53 -33.5 77t-95.5 24
h-104l-79 -565q61 -22 123 -22q54 0 93 24z" />
    <glyph glyph-name="uni0181" unicode="&#x181;" horiz-adv-x="601" 
d="M545 223q0 -58 -24.5 -108t-82 -82.5t-149.5 -32.5h-170l89 637h-24q-37 0 -55.5 -21t-18.5 -57q0 -29 13 -62l-44 -19q-22 40 -22 83q0 55 34.5 89.5t97.5 34.5h189q89 0 139 -38t50 -110q0 -70 -40.5 -116t-107.5 -59q126 -20 126 -139zM266 636l-35 -252h118
q76 0 117.5 42t41.5 109q0 53 -33.5 77t-95.5 24h-113zM441.5 99.5q43.5 50.5 43.5 123.5q0 114 -133 114h-128l-40 -288h111q103 0 146.5 50.5z" />
    <glyph glyph-name="uni0243" unicode="&#x243;" horiz-adv-x="551" 
d="M494 223q0 -58 -24.5 -108t-82 -82.5t-149.5 -32.5h-170l25 175h-81l7 46h80l65 464h163q89 0 139 -38t50 -110q0 -70 -40.5 -116t-107.5 -59q126 -20 126 -139zM215 636l-35 -252h118q76 0 117.5 42t41.5 109q0 53 -33.5 77t-95.5 24h-113zM390.5 99.5
q43.5 50.5 43.5 123.5q0 114 -133 114h-128l-16 -116h154l-6 -46h-154l-18 -126h111q103 0 146.5 50.5z" />
    <glyph glyph-name="uni0182" unicode="&#x182;" horiz-adv-x="513" 
d="M418 373q52 -44 52 -129q0 -63 -24.5 -118t-81.5 -90.5t-147 -35.5h-156l96 685h314l-15 -50h-247l-31 -218h93q95 0 147 -44zM366.5 107.5q42.5 58.5 42.5 135.5q0 126 -139 126h-99l-45 -320h101q97 0 139.5 58.5z" />
    <glyph glyph-name="C" unicode="C" horiz-adv-x="498" 
d="M459.5 680q35.5 -16 67.5 -48l-35 -34q-28 25 -55 36.5t-62 11.5q-86 0 -143 -62t-83 -154.5t-26 -184.5q0 -102 40.5 -153.5t108.5 -51.5q43 0 75.5 14.5t68.5 42.5l28 -39q-82 -69 -176 -69t-149.5 67.5t-55.5 190.5q0 105 33 208.5t103 172t175 68.5q50 0 85.5 -16z
" />
    <glyph glyph-name="Cacute" unicode="&#x106;" horiz-adv-x="498" 
d="M459.5 680q35.5 -16 67.5 -48l-35 -34q-28 25 -55 36.5t-62 11.5q-86 0 -143 -62t-83 -154.5t-26 -184.5q0 -102 40.5 -153.5t108.5 -51.5q43 0 75.5 14.5t68.5 42.5l28 -39q-82 -69 -176 -69t-149.5 67.5t-55.5 190.5q0 105 33 208.5t103 172t175 68.5q50 0 85.5 -16z
M466 884l22 -51l-188 -75l-15 32z" />
    <glyph glyph-name="Ccaron" unicode="&#x10c;" horiz-adv-x="498" 
d="M459.5 680q35.5 -16 67.5 -48l-35 -34q-28 25 -55 36.5t-62 11.5q-86 0 -143 -62t-83 -154.5t-26 -184.5q0 -102 40.5 -153.5t108.5 -51.5q43 0 75.5 14.5t68.5 42.5l28 -39q-82 -69 -176 -69t-149.5 67.5t-55.5 190.5q0 105 33 208.5t103 172t175 68.5q50 0 85.5 -16z
M508 886l24 -28l-131 -102h-35l-102 103l26 27l98 -79z" />
    <glyph glyph-name="Ccedilla" unicode="&#xc7;" horiz-adv-x="498" 
d="M232 584q-57 -62 -83 -154.5t-26 -184.5q0 -102 40.5 -153.5t108.5 -51.5q43 0 75.5 14.5t68.5 42.5l28 -39q-77 -64 -162 -69l-9 -54q38 -4 56.5 -22t18.5 -49q0 -40 -29 -65.5t-76 -25.5q-42 0 -73 23l20 33q24 -15 53 -15q24 0 40 12.5t16 35.5t-16 32.5t-57 9.5
l18 86q-84 8 -132.5 75t-48.5 182q0 105 33 208.5t103 172t175 68.5q50 0 85.5 -16t67.5 -48l-35 -34q-28 25 -55 36.5t-62 11.5q-86 0 -143 -62z" />
    <glyph glyph-name="Ccircumflex" unicode="&#x108;" horiz-adv-x="498" 
d="M459.5 680q35.5 -16 67.5 -48l-35 -34q-28 25 -55 36.5t-62 11.5q-86 0 -143 -62t-83 -154.5t-26 -184.5q0 -102 40.5 -153.5t108.5 -51.5q43 0 75.5 14.5t68.5 42.5l28 -39q-82 -69 -176 -69t-149.5 67.5t-55.5 190.5q0 105 33 208.5t103 172t175 68.5q50 0 85.5 -16z
M272 762l-24 29l132 102h34l102 -103l-26 -28l-97 80z" />
    <glyph glyph-name="Cdotaccent" unicode="&#x10a;" horiz-adv-x="498" 
d="M459.5 680q35.5 -16 67.5 -48l-35 -34q-28 25 -55 36.5t-62 11.5q-86 0 -143 -62t-83 -154.5t-26 -184.5q0 -102 40.5 -153.5t108.5 -51.5q43 0 75.5 14.5t68.5 42.5l28 -39q-82 -69 -176 -69t-149.5 67.5t-55.5 190.5q0 105 33 208.5t103 172t175 68.5q50 0 85.5 -16z
M363.5 806q-10.5 10 -10.5 27q0 19 13 32t32 13q17 0 27 -10.5t10 -26.5q0 -19 -12.5 -32t-31.5 -13q-17 0 -27.5 10z" />
    <glyph glyph-name="uniA7B3" unicode="&#xa7b3;" horiz-adv-x="456" 
d="M483 685l-217 -370l128 -429h-61l-104 388l-209 -388h-64l243 428l-113 371h61l90 -332l181 332h65z" />
    <glyph glyph-name="uni0187" unicode="&#x187;" horiz-adv-x="493" 
d="M699 789l-27 -35q-16 12 -29.5 17.5t-33.5 5.5q-29 0 -48.5 -19.5t-24.5 -59.5l-9 -66l-31 -31q-30 23 -58 34t-63 11q-86 0 -143 -62t-83 -154.5t-26 -184.5q0 -102 40.5 -153.5t108.5 -51.5q43 0 75.5 15t68.5 43l28 -40q-82 -69 -176 -69t-149.5 67.5t-55.5 190.5
q0 105 33 208.5t103 172t173 68.5q60 0 104 -29l5 36q8 58 41 89.5t85 31.5q50 0 92 -35z" />
    <glyph glyph-name="uni023B" unicode="&#x23b;" horiz-adv-x="498" 
d="M429 638l-221 -584q30 -14 64 -14q43 0 75.5 14.5t68.5 42.5l28 -39q-82 -69 -176 -69q-43 0 -79 15l-28 -74l-31 9l30 80q-46 30 -71.5 88t-25.5 140q0 105 33 208.5t103 172t175 68.5q23 0 42 -3l19 51l31 -9l-19 -50q42 -15 80 -53l-35 -34q-32 29 -63 40zM397 645
q-7 1 -22 1q-86 0 -143 -62t-83 -154.5t-26 -184.5q0 -120 58 -172z" />
    <glyph glyph-name="D" unicode="D" horiz-adv-x="577" 
d="M469.5 631q67.5 -54 67.5 -188q0 -119 -34.5 -219t-110.5 -162t-195 -62h-136l96 685h133q112 0 179.5 -54zM208 636l-82 -587h80q97 0 158 57.5t87.5 147t26.5 190.5q0 110 -50 151t-135 41h-85z" />
    <glyph glyph-name="uni01F1" unicode="&#x1f1;" horiz-adv-x="1014" 
d="M469.5 631q67.5 -54 67.5 -188q0 -119 -34.5 -219t-110.5 -162t-195 -62h-136l96 685h133q112 0 179.5 -54zM208 636l-82 -587h80q97 0 158 57.5t87.5 147t26.5 190.5q0 110 -50 151t-135 41h-85zM545 0l7 48l409 586h-294l8 51h357l-7 -48l-407 -586l320 1l-15 -52h-378
z" />
    <glyph glyph-name="uni01C4" unicode="&#x1c4;" horiz-adv-x="1014" 
d="M469.5 631q67.5 -54 67.5 -188q0 -119 -34.5 -219t-110.5 -162t-195 -62h-136l96 685h133q112 0 179.5 -54zM208 636l-82 -587h80q97 0 158 57.5t87.5 147t26.5 190.5q0 110 -50 151t-135 41h-85zM545 0l7 48l409 586h-294l8 51h357l-7 -48l-407 -586l320 1l-15 -52h-378
zM982 886l24 -28l-131 -102h-35l-102 103l26 27l98 -79z" />
    <glyph glyph-name="uni0189" unicode="&#x189;" horiz-adv-x="582" 
d="M474.5 631q67.5 -54 67.5 -188q0 -119 -34.5 -219t-110.5 -162t-195 -62h-136l46 330h-78l6 46h79l43 309h133q112 0 179.5 -54zM369 106.5q61 57.5 87.5 147t26.5 190.5q0 110 -50 151t-135 41h-85l-36 -260h157l-7 -46h-157l-39 -281h80q97 0 158 57.5z" />
    <glyph glyph-name="Eth" unicode="&#xd0;" horiz-adv-x="582" 
d="M474.5 631q67.5 -54 67.5 -188q0 -119 -34.5 -219t-110.5 -162t-195 -62h-136l46 330h-78l6 46h79l43 309h133q112 0 179.5 -54zM369 106.5q61 57.5 87.5 147t26.5 190.5q0 110 -50 151t-135 41h-85l-36 -260h157l-7 -46h-157l-39 -281h80q97 0 158 57.5z" />
    <glyph glyph-name="Dcaron" unicode="&#x10e;" horiz-adv-x="577" 
d="M469.5 631q67.5 -54 67.5 -188q0 -119 -34.5 -219t-110.5 -162t-195 -62h-136l96 685h133q112 0 179.5 -54zM208 636l-82 -587h80q97 0 158 57.5t87.5 147t26.5 190.5q0 110 -50 151t-135 41h-85zM476 886l24 -28l-131 -102h-35l-102 103l26 27l98 -79z" />
    <glyph glyph-name="uni1E12" unicode="&#x1e12;" horiz-adv-x="577" 
d="M469.5 631q67.5 -54 67.5 -188q0 -119 -34.5 -219t-110.5 -162t-195 -62h-136l96 685h133q112 0 179.5 -54zM208 636l-82 -587h80q97 0 158 57.5t87.5 147t26.5 190.5q0 110 -50 151t-135 41h-85zM96 -204l-24 29l132 105h34l102 -106l-27 -28l-98 84z" />
    <glyph glyph-name="Dcroat" unicode="&#x110;" horiz-adv-x="582" 
d="M474.5 631q67.5 -54 67.5 -188q0 -119 -34.5 -219t-110.5 -162t-195 -62h-136l46 330h-78l6 46h79l43 309h133q112 0 179.5 -54zM369 106.5q61 57.5 87.5 147t26.5 190.5q0 110 -50 151t-135 41h-85l-36 -260h157l-7 -46h-157l-39 -281h80q97 0 158 57.5z" />
    <glyph glyph-name="uni1E0A" unicode="&#x1e0a;" horiz-adv-x="577" 
d="M469.5 631q67.5 -54 67.5 -188q0 -119 -34.5 -219t-110.5 -162t-195 -62h-136l96 685h133q112 0 179.5 -54zM208 636l-82 -587h80q97 0 158 57.5t87.5 147t26.5 190.5q0 110 -50 151t-135 41h-85zM331.5 806q-10.5 10 -10.5 27q0 19 13 32t32 13q17 0 27 -10.5t10 -26.5
q0 -19 -12.5 -32t-31.5 -13q-17 0 -27.5 10z" />
    <glyph glyph-name="uni1E0C" unicode="&#x1e0c;" horiz-adv-x="577" 
d="M469.5 631q67.5 -54 67.5 -188q0 -119 -34.5 -219t-110.5 -162t-195 -62h-136l96 685h133q112 0 179.5 -54zM208 636l-82 -587h80q97 0 158 57.5t87.5 147t26.5 190.5q0 110 -50 151t-135 41h-85zM242.5 -97q10.5 -10 10.5 -27q0 -19 -13 -32t-32 -13q-17 0 -27 10.5
t-10 26.5q0 19 12.5 32t31.5 13q17 0 27.5 -10z" />
    <glyph glyph-name="uni018A" unicode="&#x18a;" horiz-adv-x="635" 
d="M527.5 631q67.5 -54 67.5 -188q0 -119 -34.5 -219t-110.5 -162t-195 -62h-136l89 637h-24q-37 0 -55.5 -21t-18.5 -57q0 -29 13 -62l-44 -19q-22 40 -22 83q0 55 34.5 89.5t97.5 34.5h159q112 0 179.5 -54zM422 106.5q61 57.5 87.5 147t26.5 190.5q0 110 -50 151t-135 41
h-85l-82 -587h80q97 0 158 57.5z" />
    <glyph glyph-name="uni1E0E" unicode="&#x1e0e;" horiz-adv-x="577" 
d="M469.5 631q67.5 -54 67.5 -188q0 -119 -34.5 -219t-110.5 -162t-195 -62h-136l96 685h133q112 0 179.5 -54zM208 636l-82 -587h80q97 0 158 57.5t87.5 147t26.5 190.5q0 110 -50 151t-135 41h-85zM109 -112h218l-7 -46h-218z" />
    <glyph glyph-name="uni018B" unicode="&#x18b;" horiz-adv-x="513" 
d="M379 0h-147q-95 0 -148.5 45t-53.5 139q0 110 68 171.5t185 61.5h96l31 218h-253l6 50h312zM328 49l45 320h-95q-90 0 -139 -48.5t-49 -136.5q0 -70 36 -102.5t111 -32.5h91z" />
    <glyph glyph-name="uni01F2" unicode="&#x1f2;" horiz-adv-x="946" 
d="M469.5 631q67.5 -54 67.5 -188q0 -119 -34.5 -219t-110.5 -162t-195 -62h-136l96 685h133q112 0 179.5 -54zM208 636l-82 -587h80q97 0 158 57.5t87.5 147t26.5 190.5q0 110 -50 151t-135 41h-85zM953 523l-6 -44l-319 -430h257l-13 -49h-318l6 44l319 430h-237l8 49h303
z" />
    <glyph glyph-name="uni01C5" unicode="&#x1c5;" horiz-adv-x="946" 
d="M469.5 631q67.5 -54 67.5 -188q0 -119 -34.5 -219t-110.5 -162t-195 -62h-136l96 685h133q112 0 179.5 -54zM208 636l-82 -587h80q97 0 158 57.5t87.5 147t26.5 190.5q0 110 -50 151t-135 41h-85zM953 523l-6 -44l-319 -430h257l-13 -49h-318l6 44l319 430h-237l8 49h303
zM940 767l23 -28l-131 -106h-35l-102 106l27 28l96 -83z" />
    <glyph glyph-name="E" unicode="E" horiz-adv-x="458" 
d="M472 685l-14 -49h-250l-35 -257h216l-7 -48h-216l-40 -282h263l-8 -49h-320l96 685h315z" />
    <glyph glyph-name="Eacute" unicode="&#xc9;" horiz-adv-x="458" 
d="M472 685l-14 -49h-250l-35 -257h216l-7 -48h-216l-40 -282h263l-8 -49h-320l96 685h315zM411 884l22 -51l-188 -75l-15 32z" />
    <glyph glyph-name="Ebreve" unicode="&#x114;" horiz-adv-x="458" 
d="M472 685l-14 -49h-250l-35 -257h216l-7 -48h-216l-40 -282h263l-8 -49h-320l96 685h315zM250 793.5q-29 28.5 -28 72.5l36 5q12 -60 71 -60q32 0 55 17t36 46l38 -12q-12 -43 -47.5 -70t-82.5 -27q-49 0 -78 28.5z" />
    <glyph glyph-name="Ecaron" unicode="&#x11a;" horiz-adv-x="458" 
d="M472 685l-14 -49h-250l-35 -257h216l-7 -48h-216l-40 -282h263l-8 -49h-320l96 685h315zM453 886l24 -28l-131 -102h-35l-102 103l26 27l98 -79z" />
    <glyph glyph-name="uni0228" unicode="&#x228;" horiz-adv-x="458" 
d="M208 636l-35 -257h216l-7 -48h-216l-40 -282h263l-8 -49h-143l-11 -65q75 -7 75 -71q0 -39 -29 -65t-77 -26q-41 0 -72 23l20 32q26 -14 53 -14q25 0 40.5 12.5t15.5 35.5t-16 32.5t-57 9.5l21 96h-140l96 685h315l-14 -49h-250z" />
    <glyph glyph-name="Ecircumflex" unicode="&#xca;" horiz-adv-x="458" 
d="M472 685l-14 -49h-250l-35 -257h216l-7 -48h-216l-40 -282h263l-8 -49h-320l96 685h315zM217 762l-24 29l132 102h34l102 -103l-26 -28l-97 80z" />
    <glyph glyph-name="uni1EBE" unicode="&#x1ebe;" horiz-adv-x="458" 
d="M521 989l34 -35l-127 -121l-23 22zM213 728l-24 29l132 102h34l102 -103l-26 -28l-97 80zM472 685l-14 -49h-250l-35 -257h216l-7 -48h-216l-40 -282h263l-8 -49h-320l96 685h315z" />
    <glyph glyph-name="uni1EC6" unicode="&#x1ec6;" horiz-adv-x="458" 
d="M472 685l-14 -49h-250l-35 -257h216l-7 -48h-216l-40 -282h263l-8 -49h-320l96 685h315zM217 762l-24 29l132 102h34l102 -103l-26 -28l-97 80zM233.5 -97q10.5 -10 10.5 -27q0 -19 -13 -32t-32 -13q-17 0 -27 10.5t-10 26.5q0 19 12.5 32t31.5 13q17 0 27.5 -10z" />
    <glyph glyph-name="uni1EC0" unicode="&#x1ec0;" horiz-adv-x="458" 
d="M179 988l80 -136l-27 -19l-94 124zM211 728l-24 29l132 102h34l102 -103l-26 -28l-97 80zM472 685l-14 -49h-250l-35 -257h216l-7 -48h-216l-40 -282h263l-8 -49h-320l96 685h315z" />
    <glyph glyph-name="uni1EC2" unicode="&#x1ec2;" horiz-adv-x="458" 
d="M472 685l-14 -49h-250l-35 -257h216l-7 -48h-216l-40 -282h263l-8 -49h-320l96 685h315zM212 728l-24 29l132 102h34l102 -103l-26 -28l-97 80zM429 885q33 3 52 15t19 39q0 34 -35 34q-14 0 -25 -3.5t-28 -10.5l-13 36q37 20 73 20t57.5 -20.5t21.5 -54.5q0 -35 -21 -56
t-58 -26l-6 -46h-45z" />
    <glyph glyph-name="uni1EC4" unicode="&#x1ec4;" horiz-adv-x="458" 
d="M365 898q-14 7 -29 19q-13 10 -22.5 14.5t-19.5 4.5q-16 0 -27.5 -9.5t-28.5 -31.5l-31 21q42 65 88 65q17 0 30 -6.5t29 -18.5q15 -11 23.5 -15.5t19.5 -4.5q14 0 27 10t29 33l32 -19q-39 -69 -88 -69q-18 0 -32 7zM211 728l-24 29l132 102h34l102 -103l-26 -28l-97 80z
M472 685l-14 -49h-250l-35 -257h216l-7 -48h-216l-40 -282h263l-8 -49h-320l96 685h315z" />
    <glyph glyph-name="uni0204" unicode="&#x204;" horiz-adv-x="458" 
d="M472 685l-14 -49h-250l-35 -257h216l-7 -48h-216l-40 -282h263l-8 -49h-320l96 685h315zM243 936l51 -152l-39 -15l-66 143zM360 936l45 -148l-39 -15l-60 138z" />
    <glyph glyph-name="Edieresis" unicode="&#xcb;" horiz-adv-x="458" 
d="M472 685l-14 -49h-250l-35 -257h216l-7 -48h-216l-40 -282h263l-8 -49h-320l96 685h315zM224 799.5q-9 9.5 -9 23.5q0 19 12 31t29 12q15 0 25 -9.5t10 -24.5q0 -18 -12 -30t-30 -12q-16 0 -25 9.5zM395.5 799.5q-9.5 9.5 -9.5 23.5q0 19 12 31t30 12q15 0 24.5 -10
t9.5 -24q0 -18 -12 -30t-30 -12q-15 0 -24.5 9.5z" />
    <glyph glyph-name="Edotaccent" unicode="&#x116;" horiz-adv-x="458" 
d="M472 685l-14 -49h-250l-35 -257h216l-7 -48h-216l-40 -282h263l-8 -49h-320l96 685h315zM308.5 806q-10.5 10 -10.5 27q0 19 13 32t32 13q17 0 27 -10.5t10 -26.5q0 -19 -12.5 -32t-31.5 -13q-17 0 -27.5 10z" />
    <glyph glyph-name="uni1EB8" unicode="&#x1eb8;" horiz-adv-x="458" 
d="M472 685l-14 -49h-250l-35 -257h216l-7 -48h-216l-40 -282h263l-8 -49h-320l96 685h315zM233.5 -97q10.5 -10 10.5 -27q0 -19 -13 -32t-32 -13q-17 0 -27 10.5t-10 26.5q0 19 12.5 32t31.5 13q17 0 27.5 -10z" />
    <glyph glyph-name="Egrave" unicode="&#xc8;" horiz-adv-x="458" 
d="M472 685l-14 -49h-250l-35 -257h216l-7 -48h-216l-40 -282h263l-8 -49h-320l96 685h315zM276 883l156 -93l-20 -32l-165 75z" />
    <glyph glyph-name="uni1EBA" unicode="&#x1eba;" horiz-adv-x="458" 
d="M472 685l-14 -49h-250l-35 -257h216l-7 -48h-216l-40 -282h263l-8 -49h-320l96 685h315zM316 847q33 3 52 15t19 39q0 34 -35 34q-14 0 -25 -3.5t-28 -10.5l-13 36q37 20 73 20t57.5 -20.5t21.5 -54.5q0 -35 -21 -56t-58 -26l-6 -46h-45z" />
    <glyph glyph-name="uni0206" unicode="&#x206;" horiz-adv-x="458" 
d="M472 685l-14 -49h-250l-35 -257h216l-7 -48h-216l-40 -282h263l-8 -49h-320l96 685h315zM212 796q13 50 48.5 79t82.5 29q49 0 78 -31t28 -81l-38 -5q-7 70 -70 70q-65 0 -93 -73z" />
    <glyph glyph-name="Emacron" unicode="&#x112;" horiz-adv-x="458" 
d="M472 685l-14 -49h-250l-35 -257h216l-7 -48h-216l-40 -282h263l-8 -49h-320l96 685h315zM443 802h-218l7 46h218z" />
    <glyph glyph-name="Eogonek" unicode="&#x118;" horiz-adv-x="458" 
d="M208 636l-35 -257h216l-7 -48h-216l-40 -282h263l-8 -49h-27q-70 -32 -99 -61.5t-29 -65.5q0 -21 12.5 -32t36.5 -11q22 0 53 6l-11 -47q-27 -6 -50 -6q-43 0 -67.5 22.5t-24.5 60.5q0 42 25 74t82 60h-221l96 685h315l-14 -49h-250z" />
    <glyph glyph-name="uni0190" unicode="&#x190;" horiz-adv-x="471" 
d="M414 675q42 -21 78 -64l-37 -33q-30 34 -63.5 51t-76.5 17q-66 0 -105.5 -41.5t-39.5 -106.5q0 -51 31.5 -78.5t87.5 -27.5h51l-14 -50h-45q-84 1 -133 -46.5t-49 -129.5q0 -61 33 -93.5t92 -32.5q90 0 169 76l32 -36q-91 -91 -205 -91q-82 0 -132 47.5t-50 128.5
q0 86 49 141.5t126 63.5q-48 12 -75 44.5t-27 83.5q0 57 26.5 102t73 70.5t104.5 25.5q57 0 99 -21z" />
    <glyph glyph-name="uni018E" unicode="&#x18e;" horiz-adv-x="459" 
d="M105 685h315l-96 -685h-321l7 49h263l40 282h-218l7 48h217l36 257h-257z" />
    <glyph glyph-name="uni01A9" unicode="&#x1a9;" horiz-adv-x="449" 
d="M465 685l-6 -50h-295l151 -283l-3 -33l-226 -269h290l-7 -50h-362l5 42l249 298l-164 303l5 42h363z" />
    <glyph glyph-name="uni0246" unicode="&#x246;" horiz-adv-x="458" 
d="M458 636h-47l-97 -257h75l-7 -48h-87l-107 -282h201l-8 -49h-211l-27 -70l-31 9l23 61h-74l96 685h239l22 59l31 -9l-19 -50h42zM279 379l98 257h-169l-35 -257h106zM154 49l107 282h-95l-40 -282h28z" />
    <glyph glyph-name="uni1EBC" unicode="&#x1ebc;" horiz-adv-x="458" 
d="M472 685l-14 -49h-250l-35 -257h216l-7 -48h-216l-40 -282h263l-8 -49h-320l96 685h315zM359 800q-14 7 -29 19q-13 10 -22.5 14.5t-19.5 4.5q-16 0 -27.5 -9.5t-28.5 -31.5l-31 21q42 65 88 65q17 0 30 -6.5t29 -18.5q15 -11 23.5 -15.5t19.5 -4.5q14 0 27 10t29 33
l32 -19q-39 -69 -88 -69q-18 0 -32 7z" />
    <glyph glyph-name="uni01B7" unicode="&#x1b7;" horiz-adv-x="443" 
d="M432 637l-237 -251h14q93 0 139.5 -42t46.5 -119q0 -69 -30 -122.5t-83 -83.5t-119 -30q-62 0 -103.5 22t-72.5 66l38 30q28 -36 59.5 -52t78.5 -16q78 0 125 51t47 134q0 61 -34 88t-100 27h-78l1 1l6 45l231 251h-275l7 49h345z" />
    <glyph glyph-name="uni01EE" unicode="&#x1ee;" horiz-adv-x="443" 
d="M432 637l-237 -251h14q93 0 139.5 -42t46.5 -119q0 -69 -30 -122.5t-83 -83.5t-119 -30q-62 0 -103.5 22t-72.5 66l38 30q28 -36 59.5 -52t78.5 -16q78 0 125 51t47 134q0 61 -34 88t-100 27h-78l1 1l6 45l231 251h-275l7 49h345zM401 886l24 -28l-131 -102h-35l-102 103
l26 27l98 -79z" />
    <glyph glyph-name="uni01B8" unicode="&#x1b8;" horiz-adv-x="444" 
d="M461 636h-280l165 -251l-6 -46h-74q-84 0 -131 -47.5t-47 -128.5q0 -59 31.5 -91.5t89.5 -32.5q50 0 87.5 16.5t76.5 52.5l32 -34q-43 -43 -90 -64t-109 -21q-81 0 -129 47.5t-48 125.5q0 67 29 118t81.5 78.5t121.5 27.5h28l-172 251l7 48h344z" />
    <glyph glyph-name="F" unicode="F" horiz-adv-x="430" 
d="M466 685l-14 -49h-244l-37 -269h211l-7 -48h-211l-45 -319h-58l96 685h309z" />
    <glyph glyph-name="uni1E1E" unicode="&#x1e1e;" horiz-adv-x="430" 
d="M466 685l-14 -49h-244l-37 -269h211l-7 -48h-211l-45 -319h-58l96 685h309zM302.5 806q-10.5 10 -10.5 27q0 19 13 32t32 13q17 0 27 -10.5t10 -26.5q0 -19 -12.5 -32t-31.5 -13q-17 0 -27.5 10z" />
    <glyph glyph-name="uni0191" unicode="&#x191;" horiz-adv-x="430" 
d="M208 636l-37 -269h211l-7 -48h-211l-45 -319l-12 -79q-9 -62 -44 -94t-86 -32q-52 0 -91 35l27 36q16 -11 29.5 -16.5t32.5 -5.5q29 0 49 19.5t26 60.5l11 76l96 685h309l-14 -49h-244z" />
    <glyph glyph-name="G" unicode="G" horiz-adv-x="558" 
d="M471.5 679q39.5 -17 73.5 -52l-37 -33q-29 28 -59 40t-70 12q-84 0 -141.5 -59t-86 -152.5t-28.5 -196.5q0 -100 40 -149.5t115 -49.5q68 0 135 36l34 244h-117v50h182l-45 -322q-92 -58 -194 -58q-99 0 -154.5 65t-55.5 189q0 114 36 218t108 169.5t173 65.5
q52 0 91.5 -17z" />
    <glyph glyph-name="uni01F4" unicode="&#x1f4;" horiz-adv-x="558" 
d="M471.5 679q39.5 -17 73.5 -52l-37 -33q-29 28 -59 40t-70 12q-84 0 -141.5 -59t-86 -152.5t-28.5 -196.5q0 -100 40 -149.5t115 -49.5q68 0 135 36l34 244h-117v50h182l-45 -322q-92 -58 -194 -58q-99 0 -154.5 65t-55.5 189q0 114 36 218t108 169.5t173 65.5
q52 0 91.5 -17zM473 884l22 -51l-188 -75l-15 32z" />
    <glyph glyph-name="uni0194" unicode="&#x194;" horiz-adv-x="497" 
d="M253 59q18 -56 25 -88.5t7 -63.5q0 -52 -27.5 -82t-72.5 -30q-37 0 -57 21t-20 57t18.5 78t60.5 111l-111 623h60l89 -581l254 581h61zM228 -45q-4 25 -14 66q-27 -48 -40.5 -83t-13.5 -62q0 -34 28 -34q21 0 32.5 17t11.5 47q0 24 -4 49z" />
    <glyph glyph-name="Gbreve" unicode="&#x11e;" horiz-adv-x="558" 
d="M471.5 679q39.5 -17 73.5 -52l-37 -33q-29 28 -59 40t-70 12q-84 0 -141.5 -59t-86 -152.5t-28.5 -196.5q0 -100 40 -149.5t115 -49.5q68 0 135 36l34 244h-117v50h182l-45 -322q-92 -58 -194 -58q-99 0 -154.5 65t-55.5 189q0 114 36 218t108 169.5t173 65.5
q52 0 91.5 -17zM312 793.5q-29 28.5 -28 72.5l36 5q12 -60 71 -60q32 0 55 17t36 46l38 -12q-12 -43 -47.5 -70t-82.5 -27q-49 0 -78 28.5z" />
    <glyph glyph-name="Gcaron" unicode="&#x1e6;" horiz-adv-x="558" 
d="M471.5 679q39.5 -17 73.5 -52l-37 -33q-29 28 -59 40t-70 12q-84 0 -141.5 -59t-86 -152.5t-28.5 -196.5q0 -100 40 -149.5t115 -49.5q68 0 135 36l34 244h-117v50h182l-45 -322q-92 -58 -194 -58q-99 0 -154.5 65t-55.5 189q0 114 36 218t108 169.5t173 65.5
q52 0 91.5 -17zM515 886l24 -28l-131 -102h-35l-102 103l26 27l98 -79z" />
    <glyph glyph-name="Gcircumflex" unicode="&#x11c;" horiz-adv-x="558" 
d="M471.5 679q39.5 -17 73.5 -52l-37 -33q-29 28 -59 40t-70 12q-84 0 -141.5 -59t-86 -152.5t-28.5 -196.5q0 -100 40 -149.5t115 -49.5q68 0 135 36l34 244h-117v50h182l-45 -322q-92 -58 -194 -58q-99 0 -154.5 65t-55.5 189q0 114 36 218t108 169.5t173 65.5
q52 0 91.5 -17zM279 762l-24 29l132 102h34l102 -103l-26 -28l-97 80z" />
    <glyph glyph-name="Gcommaaccent" unicode="&#x122;" horiz-adv-x="558" 
d="M471.5 679q39.5 -17 73.5 -52l-37 -33q-29 28 -59 40t-70 12q-84 0 -141.5 -59t-86 -152.5t-28.5 -196.5q0 -100 40 -149.5t115 -49.5q68 0 135 36l34 244h-117v50h182l-45 -322q-92 -58 -194 -58q-99 0 -154.5 65t-55.5 189q0 114 36 218t108 169.5t173 65.5
q52 0 91.5 -17zM285.5 -96q10.5 -11 10.5 -27q0 -14 -5.5 -27t-21.5 -40l-51 -88h-34l46 115q-17 12 -17 33q0 19 12.5 32t31.5 13q18 0 28.5 -11z" />
    <glyph glyph-name="Gdotaccent" unicode="&#x120;" horiz-adv-x="558" 
d="M471.5 679q39.5 -17 73.5 -52l-37 -33q-29 28 -59 40t-70 12q-84 0 -141.5 -59t-86 -152.5t-28.5 -196.5q0 -100 40 -149.5t115 -49.5q68 0 135 36l34 244h-117v50h182l-45 -322q-92 -58 -194 -58q-99 0 -154.5 65t-55.5 189q0 114 36 218t108 169.5t173 65.5
q52 0 91.5 -17zM370.5 806q-10.5 10 -10.5 27q0 19 13 32t32 13q17 0 27 -10.5t10 -26.5q0 -19 -12.5 -32t-31.5 -13q-17 0 -27.5 10z" />
    <glyph glyph-name="uni0193" unicode="&#x193;" horiz-adv-x="513" 
d="M719 789l-27 -35q-15 11 -29 17t-34 6q-29 0 -48.5 -20t-25.5 -63l-9 -67l-33 -29q-32 25 -63 36.5t-71 11.5q-84 0 -141.5 -59t-86 -152.5t-28.5 -196.5q0 -100 40 -149.5t116 -49.5q67 0 134 36l34 244h-117l1 50h181l-45 -322q-92 -58 -193 -58q-100 0 -155.5 65
t-55.5 189q0 114 36 218t107.5 169.5t172.5 65.5q67 0 116 -33l5 36q9 61 42 93t85 32q50 0 92 -35z" />
    <glyph glyph-name="uni0241" unicode="&#x241;" horiz-adv-x="417" 
d="M148 304l62 18q77 21 115 69t38 129q0 60 -29 93t-84 33q-41 0 -79 -17.5t-79 -52.5l-29 37q45 41 92 62t100 21q79 0 124 -47.5t45 -125.5q0 -99 -48.5 -157.5t-140.5 -83.5l-34 -10l-38 -272h-58z" />
    <glyph glyph-name="uni01E4" unicode="&#x1e4;" horiz-adv-x="566" 
d="M554 192h-67l-20 -145q-92 -58 -194 -58q-99 0 -154.5 65t-55.5 189q0 114 36 218t108 169.5t173 65.5q52 0 91.5 -17t73.5 -52l-37 -33q-29 28 -59 40t-70 12q-84 0 -141.5 -59t-86 -152.5t-28.5 -196.5q0 -100 40 -149.5t115 -49.5q69 0 135 37l16 116h-114l7 49h114
l11 78h-117v50h182l-18 -128h67z" />
    <glyph glyph-name="uni021C" unicode="&#x21c;" horiz-adv-x="447" 
d="M380 655.5q42 -40.5 42 -109.5q0 -76 -39.5 -122t-110.5 -65q55 -7 87 -39t32 -91q0 -129 -105.5 -204.5t-284.5 -113.5l-1 48q155 38 242 100t87 168q0 54 -32.5 80t-99.5 25h-56l15 50h45q71 0 116 44t45 115q0 51 -26 78t-75 27q-44 0 -82.5 -17.5t-81.5 -51.5l-28 36
q48 42 95.5 62.5t101.5 20.5q72 0 114 -40.5z" />
    <glyph glyph-name="H" unicode="H" horiz-adv-x="601" 
d="M119 0h-58l96 685h58l-42 -300h290l42 300h58l-97 -685h-58l48 336h-290z" />
    <glyph glyph-name="Hbar" unicode="&#x126;" horiz-adv-x="601" 
d="M602 557l-6 -43h-56l-73 -514h-58l48 336h-290l-47 -336h-58l72 514h-58l6 43h58l18 128h58l-18 -128h290l18 128h58l-18 -128h56zM464 385l18 129h-290l-18 -129h290z" />
    <glyph glyph-name="uni021E" unicode="&#x21e;" horiz-adv-x="601" 
d="M119 0h-58l96 685h58l-42 -300h290l42 300h58l-97 -685h-58l48 336h-290zM494 886l24 -28l-131 -102h-35l-102 103l26 27l98 -79z" />
    <glyph glyph-name="Hcircumflex" unicode="&#x124;" horiz-adv-x="601" 
d="M119 0h-58l96 685h58l-42 -300h290l42 300h58l-97 -685h-58l48 336h-290zM258 762l-24 29l132 102h34l102 -103l-26 -28l-97 80z" />
    <glyph glyph-name="uni1E24" unicode="&#x1e24;" horiz-adv-x="601" 
d="M119 0h-58l96 685h58l-42 -300h290l42 300h58l-97 -685h-58l48 336h-290zM277.5 -97q10.5 -10 10.5 -27q0 -19 -13 -32t-32 -13q-17 0 -27 10.5t-10 26.5q0 19 12.5 32t31.5 13q17 0 27.5 -10z" />
    <glyph glyph-name="uniA7AA" unicode="&#xa7aa;" horiz-adv-x="659" 
d="M621 685l-97 -685h-58l48 336h-290l-47 -336h-58l89 637h-24q-37 0 -55.5 -21t-18.5 -57q0 -29 13 -62l-44 -19q-22 40 -22 83q0 55 34.5 89.5t97.5 34.5h84l-42 -300h290l42 300h58z" />
    <glyph glyph-name="uniA78D" unicode="&#xa78d;" horiz-adv-x="537" 
d="M498 685l-96 -685h-58l41 292q-40 -34 -81 -51.5t-88 -17.5q-71 0 -112.5 42t-41.5 111q0 22 2 34l39 275h57l-38 -274q-2 -20 -2 -29q0 -52 28 -80t81 -28q47 0 89.5 21.5t74.5 56.5l47 333h58z" />
    <glyph glyph-name="uni01F6" unicode="&#x1f6;" horiz-adv-x="865" 
d="M463.5 27q-35.5 38 -35.5 97q0 9 2 27l26 185h-290l-47 -336h-58l96 685h58l-42 -300h290l42 300h58l-75 -534q-2 -20 -2 -27q0 -42 21.5 -64.5t61.5 -22.5q102 0 140.5 116.5t38.5 277.5q0 49 -3 92h54q4 -62 4 -95q0 -189 -53.5 -314t-184.5 -125q-66 0 -101.5 38z" />
    <glyph glyph-name="I" unicode="I" horiz-adv-x="254" 
d="M215 685l-96 -685h-58l96 685h58z" />
    <glyph glyph-name="IJ" unicode="&#x132;" horiz-adv-x="519" 
d="M215 685l-96 -685h-58l96 685h58zM401 89q-8 -61 -27.5 -98.5t-52.5 -61.5t-90 -48l-13 43q45 22 69.5 43t37 50.5t19.5 77.5l83 590h58z" />
    <glyph glyph-name="Iacute" unicode="&#xcd;" horiz-adv-x="254" 
d="M215 685l-96 -685h-58l96 685h58zM280 884l22 -51l-188 -75l-15 32z" />
    <glyph glyph-name="Ibreve" unicode="&#x12c;" horiz-adv-x="254" 
d="M215 685l-96 -685h-58l96 685h58zM119 793.5q-29 28.5 -28 72.5l36 5q12 -60 71 -60q32 0 55 17t36 46l38 -12q-12 -43 -47.5 -70t-82.5 -27q-49 0 -78 28.5z" />
    <glyph glyph-name="uni01CF" unicode="&#x1cf;" horiz-adv-x="254" 
d="M215 685l-96 -685h-58l96 685h58zM322 886l24 -28l-131 -102h-35l-102 103l26 27l98 -79z" />
    <glyph glyph-name="Icircumflex" unicode="&#xce;" horiz-adv-x="254" 
d="M215 685l-96 -685h-58l96 685h58zM86 762l-24 29l132 102h34l102 -103l-26 -28l-97 80z" />
    <glyph glyph-name="uni0208" unicode="&#x208;" horiz-adv-x="254" 
d="M215 685l-96 -685h-58l96 685h58zM112 936l51 -152l-39 -15l-66 143zM229 936l45 -148l-39 -15l-60 138z" />
    <glyph glyph-name="Idieresis" unicode="&#xcf;" horiz-adv-x="254" 
d="M215 685l-96 -685h-58l96 685h58zM93 799.5q-9 9.5 -9 23.5q0 19 12 31t29 12q15 0 25 -9.5t10 -24.5q0 -18 -12 -30t-30 -12q-16 0 -25 9.5zM264.5 799.5q-9.5 9.5 -9.5 23.5q0 19 12 31t30 12q15 0 24.5 -10t9.5 -24q0 -18 -12 -30t-30 -12q-15 0 -24.5 9.5z" />
    <glyph glyph-name="uni1E2E" unicode="&#x1e2e;" horiz-adv-x="254" 
d="M215 685l-96 -685h-58l96 685h58zM293 970l34 -35l-127 -121l-23 22zM82.5 754.5q-9.5 9.5 -9.5 24.5q0 18 12 30t30 12q15 0 24.5 -9.5t9.5 -23.5q0 -19 -12 -31t-30 -12q-15 0 -24.5 9.5zM253.5 754.5q-9.5 9.5 -9.5 24.5q0 18 12 30t30 12q15 0 24.5 -9.5t9.5 -23.5
q0 -19 -12 -31t-30 -12q-15 0 -24.5 9.5z" />
    <glyph glyph-name="Idotaccent" unicode="&#x130;" horiz-adv-x="254" 
d="M215 685l-96 -685h-58l96 685h58zM177.5 806q-10.5 10 -10.5 27q0 19 13 32t32 13q17 0 27 -10.5t10 -26.5q0 -19 -12.5 -32t-31.5 -13q-17 0 -27.5 10z" />
    <glyph glyph-name="uni1ECA" unicode="&#x1eca;" horiz-adv-x="254" 
d="M215 685l-96 -685h-58l96 685h58zM103.5 -97q10.5 -10 10.5 -27q0 -19 -13 -32t-32 -13q-17 0 -27 10.5t-10 26.5q0 19 12.5 32t31.5 13q17 0 27.5 -10z" />
    <glyph glyph-name="Igrave" unicode="&#xcc;" horiz-adv-x="254" 
d="M215 685l-96 -685h-58l96 685h58zM145 883l156 -93l-20 -32l-165 75z" />
    <glyph glyph-name="uni1EC8" unicode="&#x1ec8;" horiz-adv-x="254" 
d="M215 685l-96 -685h-58l96 685h58zM185 847q33 3 52 15t19 39q0 34 -35 34q-14 0 -25 -3.5t-28 -10.5l-13 36q37 20 73 20t57.5 -20.5t21.5 -54.5q0 -35 -21 -56t-58 -26l-6 -46h-45z" />
    <glyph glyph-name="uni020A" unicode="&#x20a;" horiz-adv-x="254" 
d="M215 685l-96 -685h-58l96 685h58zM81 796q13 50 48.5 79t82.5 29q49 0 78 -31t28 -81l-38 -5q-7 70 -70 70q-65 0 -93 -73z" />
    <glyph glyph-name="Imacron" unicode="&#x12a;" horiz-adv-x="254" 
d="M215 685l-96 -685h-58l96 685h58zM312 802h-218l7 46h218z" />
    <glyph glyph-name="Iogonek" unicode="&#x12e;" horiz-adv-x="254" 
d="M215 685l-96 -685h-8q-70 -32 -99 -61.5t-29 -65.5q0 -21 12.5 -32t36.5 -11q22 0 53 6l-11 -47q-27 -6 -50 -6q-43 0 -67.5 22.5t-24.5 60.5q0 45 30 80t100 65l95 674h58z" />
    <glyph glyph-name="uni0196" unicode="&#x196;" horiz-adv-x="300" 
d="M263 22q-45 -33 -96 -33q-47 0 -74 26t-27 75q0 8 2 28l10 76l70 491h57l-69 -491l-11 -81q-1 -7 -1 -20q0 -55 48 -55q21 0 36.5 5.5t32.5 16.5z" />
    <glyph glyph-name="uni0197" unicode="&#x197;" horiz-adv-x="284" 
d="M278 385l-6 -49h-88l-47 -336h-58l47 336h-94l7 49h94l42 300h58l-42 -300h87z" />
    <glyph glyph-name="Itilde" unicode="&#x128;" horiz-adv-x="254" 
d="M215 685l-96 -685h-58l96 685h58zM228 800q-14 7 -29 19q-13 10 -22.5 14.5t-19.5 4.5q-16 0 -27.5 -9.5t-28.5 -31.5l-31 21q42 65 88 65q17 0 30 -6.5t29 -18.5q15 -11 23.5 -15.5t19.5 -4.5q14 0 27 10t29 33l32 -19q-39 -69 -88 -69q-18 0 -32 7z" />
    <glyph glyph-name="J" unicode="J" horiz-adv-x="265" 
d="M147 89q-8 -61 -27.5 -98.5t-52.5 -61.5t-90 -48l-13 43q45 22 69.5 43t37 50.5t19.5 77.5l83 590h58z" />
    <glyph glyph-name="Jcircumflex" unicode="&#x134;" horiz-adv-x="265" 
d="M147 89q-8 -61 -27.5 -98.5t-52.5 -61.5t-90 -48l-13 43q45 22 69.5 43t37 50.5t19.5 77.5l83 590h58zM100 762l-24 29l132 102h34l102 -103l-26 -28l-97 80z" />
    <glyph glyph-name="uniA7B2" unicode="&#xa7b2;" horiz-adv-x="282" 
d="M146 -18q45 -12 90 -37l-19 -34q-36 19 -77 31q-13 -70 -51.5 -108.5t-104.5 -38.5q-49 0 -76 25t-27 66q0 52 38.5 82.5t98.5 30.5q37 0 73 -6l97 692h58zM52 -134q23 29 33 87q-29 6 -68 6q-43 0 -65 -19t-22 -52q0 -24 14 -37.5t41 -13.5q44 0 67 29z" />
    <glyph glyph-name="uni0248" unicode="&#x248;" horiz-adv-x="282" 
d="M274 318h-92l-32 -229q-8 -61 -27.5 -98.5t-52.5 -61.5t-90 -48l-13 43q45 22 69.5 43t37 50.5t19.5 77.5l31 223h-90l7 50h90l45 317h58l-45 -317h91z" />
    <glyph glyph-name="K" unicode="K" horiz-adv-x="498" 
d="M61 0l96 685h58l-96 -685h-58zM391 0l-217 367l298 318h67l-300 -320l218 -365h-66z" />
    <glyph glyph-name="uni01E8" unicode="&#x1e8;" horiz-adv-x="498" 
d="M61 0l96 685h58l-96 -685h-58zM391 0l-217 367l298 318h67l-300 -320l218 -365h-66zM470 886l24 -28l-131 -102h-35l-102 103l26 27l98 -79z" />
    <glyph glyph-name="Kcommaaccent" unicode="&#x136;" horiz-adv-x="498" 
d="M61 0l96 685h58l-96 -685h-58zM391 0l-217 367l298 318h67l-300 -320l218 -365h-66zM256.5 -96q10.5 -11 10.5 -27q0 -14 -5.5 -27t-21.5 -40l-51 -88h-34l46 115q-17 12 -17 33q0 19 12.5 32t31.5 13q18 0 28.5 -11z" />
    <glyph glyph-name="uni0198" unicode="&#x198;" horiz-adv-x="529" 
d="M174 367l204 253q34 43 60 59.5t61 16.5q27 0 45.5 -10t36.5 -29l-32 -32q-13 12 -23.5 17t-25.5 5q-21 0 -37.5 -11.5t-46.5 -48.5l-177 -220l218 -367h-67zM61 0l96 685h58l-96 -685h-58z" />
    <glyph glyph-name="L" unicode="L" horiz-adv-x="423" 
d="M215 685l-89 -632h257l-16 -53h-306l96 685h58z" />
    <glyph glyph-name="uni01C7" unicode="&#x1c7;" horiz-adv-x="671" 
d="M215 685l-89 -632h257l-16 -53h-306l96 685h58zM553 89q-8 -61 -27.5 -98.5t-52.5 -61.5t-90 -48l-13 43q45 22 69.5 43t37 50.5t19.5 77.5l83 590h58z" />
    <glyph glyph-name="Lacute" unicode="&#x139;" horiz-adv-x="423" 
d="M215 685l-89 -632h257l-16 -53h-306l96 685h58zM280 884l22 -51l-188 -75l-15 32z" />
    <glyph glyph-name="uni023D" unicode="&#x23d;" horiz-adv-x="436" 
d="M139 53h257l-16 -53h-306l47 338h-88l7 50h88l42 297h58l-42 -297h93l-6 -50h-94z" />
    <glyph glyph-name="uniA7AD" unicode="&#xa7ad;" horiz-adv-x="461" 
d="M422 53l-16 -53h-306l38 269h-1q-51 1 -78.5 24.5t-27.5 66.5q0 46 29.5 73.5t74.5 27.5q8 0 29 -3l32 227h58l-52 -372q41 1 102 12l3 -41q-56 -13 -111 -14l-31 -217h257zM95 324.5q16 -11.5 49 -11.5l14 104q-12 2 -23 2q-26 0 -41 -15t-15 -43q0 -25 16 -36.5z" />
    <glyph glyph-name="Lcaron" unicode="&#x13d;" horiz-adv-x="423" 
d="M215 685l-89 -632h257l-16 -53h-306l96 685h58zM293 691l52 -7l-57 -162l-33 5z" />
    <glyph glyph-name="uni1E3C" unicode="&#x1e3c;" horiz-adv-x="423" 
d="M215 685l-89 -632h257l-16 -53h-306l96 685h58zM81 -204l-24 29l132 105h34l102 -106l-27 -28l-98 84z" />
    <glyph glyph-name="Lcommaaccent" unicode="&#x13b;" horiz-adv-x="423" 
d="M215 685l-89 -632h257l-16 -53h-306l96 685h58zM231.5 -96q10.5 -11 10.5 -27q0 -14 -5.5 -27t-21.5 -40l-51 -88h-34l46 115q-17 12 -17 33q0 19 12.5 32t31.5 13q18 0 28.5 -11z" />
    <glyph glyph-name="Ldot" unicode="&#x13f;" horiz-adv-x="423" 
d="M215 685l-89 -632h257l-16 -53h-306l96 685h58zM314.5 337q-10.5 10 -10.5 27q0 19 13 32t32 13q17 0 27 -10.5t10 -26.5q0 -19 -12.5 -32t-31.5 -13q-17 0 -27.5 10z" />
    <glyph glyph-name="uni1E36" unicode="&#x1e36;" horiz-adv-x="423" 
d="M215 685l-89 -632h257l-16 -53h-306l96 685h58zM227.5 -97q10.5 -10 10.5 -27q0 -19 -13 -32t-32 -13q-17 0 -27 10.5t-10 26.5q0 19 12.5 32t31.5 13q17 0 27.5 -10z" />
    <glyph glyph-name="uni01C8" unicode="&#x1c8;" horiz-adv-x="652" 
d="M215 685l-89 -632h257l-16 -53h-306l96 685h58zM350 -161q37 18 59 37t36.5 51t22.5 88l71 508h56l-72 -511q-9 -66 -28 -105t-48 -62t-81 -48zM562.5 680q-10.5 10 -10.5 27q0 19 13 32t32 13q17 0 27 -10.5t10 -26.5q0 -19 -12.5 -32t-31.5 -13q-17 0 -27.5 10z" />
    <glyph glyph-name="Lslash" unicode="&#x141;" horiz-adv-x="437" 
d="M141 53h257l-16 -53h-306l39 281l-61 -39l-20 37l89 56l49 350h58l-44 -310l173 109l21 -37l-201 -126z" />
    <glyph glyph-name="M" unicode="M" horiz-adv-x="697" 
d="M597 0h-56l18 328q10 191 20 301l-227 -548h-57l-81 547q-12 -79 -60 -299l-72 -329h-56l155 685h75l77 -536l218 536h83z" />
    <glyph glyph-name="uni1E3E" unicode="&#x1e3e;" horiz-adv-x="697" 
d="M597 0h-56l18 328q10 191 20 301l-227 -548h-57l-81 547q-12 -79 -60 -299l-72 -329h-56l155 685h75l77 -536l218 536h83zM497 884l22 -51l-188 -75l-15 32z" />
    <glyph glyph-name="uni1E40" unicode="&#x1e40;" horiz-adv-x="697" 
d="M597 0h-56l18 328q10 191 20 301l-227 -548h-57l-81 547q-12 -79 -60 -299l-72 -329h-56l155 685h75l77 -536l218 536h83zM394.5 806q-10.5 10 -10.5 27q0 19 13 32t32 13q17 0 27 -10.5t10 -26.5q0 -19 -12.5 -32t-31.5 -13q-17 0 -27.5 10z" />
    <glyph glyph-name="uni019C" unicode="&#x19c;" horiz-adv-x="831" 
d="M792 685l-96 -685h-50l7 88q-34 -47 -75.5 -73t-87.5 -26q-51 0 -82 28t-39 79q-78 -107 -173 -107q-59 0 -91 37.5t-32 102.5q0 21 3 43l72 513h58l-73 -518q-3 -19 -3 -37q0 -45 19.5 -68t57.5 -23q46 0 84 29.5t76 86.5q0 6 2 20l72 510h58l-72 -516q-3 -21 -3 -38
q0 -45 19.5 -68.5t57.5 -23.5q45 0 83.5 29.5t75.5 85.5l75 531h57z" />
    <glyph glyph-name="N" unicode="N" horiz-adv-x="603" 
d="M468 0h-75l-198 632q-5 -93 -26 -248l-53 -384h-55l96 685h76l199 -631q3 88 20 214l58 417h55z" />
    <glyph glyph-name="uni01CA" unicode="&#x1ca;" horiz-adv-x="868" 
d="M468 0h-75l-198 632q-5 -93 -26 -248l-53 -384h-55l96 685h76l199 -631q3 88 20 214l58 417h55zM750 89q-8 -61 -27.5 -98.5t-52.5 -61.5t-90 -48l-13 43q45 22 69.5 43t37 50.5t19.5 77.5l83 590h58z" />
    <glyph glyph-name="Nacute" unicode="&#x143;" horiz-adv-x="603" 
d="M468 0h-75l-198 632q-5 -93 -26 -248l-53 -384h-55l96 685h76l199 -631q3 88 20 214l58 417h55zM462 884l22 -51l-188 -75l-15 32z" />
    <glyph glyph-name="Ncaron" unicode="&#x147;" horiz-adv-x="603" 
d="M468 0h-75l-198 632q-5 -93 -26 -248l-53 -384h-55l96 685h76l199 -631q3 88 20 214l58 417h55zM504 886l24 -28l-131 -102h-35l-102 103l26 27l98 -79z" />
    <glyph glyph-name="uni1E4A" unicode="&#x1e4a;" horiz-adv-x="603" 
d="M468 0h-75l-198 632q-5 -93 -26 -248l-53 -384h-55l96 685h76l199 -631q3 88 20 214l58 417h55zM132 -204l-24 29l132 105h34l102 -106l-27 -28l-98 84z" />
    <glyph glyph-name="Ncommaaccent" unicode="&#x145;" horiz-adv-x="603" 
d="M468 0h-75l-198 632q-5 -93 -26 -248l-53 -384h-55l96 685h76l199 -631q3 88 20 214l58 417h55zM282.5 -96q10.5 -11 10.5 -27q0 -14 -5.5 -27t-21.5 -40l-51 -88h-34l46 115q-17 12 -17 33q0 19 12.5 32t31.5 13q18 0 28.5 -11z" />
    <glyph glyph-name="uni1E44" unicode="&#x1e44;" horiz-adv-x="603" 
d="M468 0h-75l-198 632q-5 -93 -26 -248l-53 -384h-55l96 685h76l199 -631q3 88 20 214l58 417h55zM359.5 806q-10.5 10 -10.5 27q0 19 13 32t32 13q17 0 27 -10.5t10 -26.5q0 -19 -12.5 -32t-31.5 -13q-17 0 -27.5 10z" />
    <glyph glyph-name="uni1E46" unicode="&#x1e46;" horiz-adv-x="603" 
d="M468 0h-75l-198 632q-5 -93 -26 -248l-53 -384h-55l96 685h76l199 -631q3 88 20 214l58 417h55zM278.5 -97q10.5 -10 10.5 -27q0 -19 -13 -32t-32 -13q-17 0 -27 10.5t-10 26.5q0 19 12.5 32t31.5 13q17 0 27.5 -10z" />
    <glyph glyph-name="uni01F8" unicode="&#x1f8;" horiz-adv-x="603" 
d="M468 0h-75l-198 632q-5 -93 -26 -248l-53 -384h-55l96 685h76l199 -631q3 88 20 214l58 417h55zM327 883l156 -93l-20 -32l-165 75z" />
    <glyph glyph-name="Eng" unicode="&#x14a;" horiz-adv-x="603" 
d="M565 685l-97 -685l-12 -79q-9 -62 -44 -94t-86 -32q-52 0 -91 35l27 36q16 -11 29.5 -16.5t32.5 -5.5q29 0 49 19.5t26 60.5l11 76h-17l-198 632q-5 -93 -26 -248l-53 -384h-55l96 685h76l199 -631q3 88 20 214l58 417h55z" />
    <glyph glyph-name="uni019D" unicode="&#x19d;" horiz-adv-x="603" 
d="M565 685l-97 -685h-75l-198 632q-5 -93 -26 -248l-53 -384l-12 -80q-9 -61 -43.5 -93t-84.5 -32t-89 35l27 35q15 -11 28.5 -16.5t33.5 -5.5q29 0 48.5 20t25.5 61l11 76l96 685h76l199 -631q3 88 20 214l58 417h55z" />
    <glyph glyph-name="uni01CB" unicode="&#x1cb;" horiz-adv-x="847" 
d="M468 0h-75l-198 632q-5 -93 -26 -248l-53 -384h-55l96 685h76l199 -631q3 88 20 214l58 417h55zM545 -161q37 18 59 37t36.5 51t22.5 88l71 508h56l-72 -511q-9 -66 -28 -105t-48 -62t-81 -48zM757.5 680q-10.5 10 -10.5 27q0 19 13 32t32 13q17 0 27 -10.5t10 -26.5
q0 -19 -12.5 -32t-31.5 -13q-17 0 -27.5 10z" />
    <glyph glyph-name="uni0220" unicode="&#x220;" horiz-adv-x="593" 
d="M502 656q37 -40 37 -109q0 -19 -3 -40l-99 -704h-57l98 700q3 21 3 39q0 104 -94 104q-54 0 -100 -29t-93 -81l-75 -536h-58l96 685h51l-8 -88q92 99 196 99q69 0 106 -40z" />
    <glyph glyph-name="Ntilde" unicode="&#xd1;" horiz-adv-x="603" 
d="M468 0h-75l-198 632q-5 -93 -26 -248l-53 -384h-55l96 685h76l199 -631q3 88 20 214l58 417h55zM410 800q-14 7 -29 19q-13 10 -22.5 14.5t-19.5 4.5q-16 0 -27.5 -9.5t-28.5 -31.5l-31 21q42 65 88 65q17 0 30 -6.5t29 -18.5q15 -11 23.5 -15.5t19.5 -4.5q14 0 27 10
t29 33l32 -19q-39 -69 -88 -69q-18 0 -32 7z" />
    <glyph glyph-name="O" unicode="O" horiz-adv-x="624" 
d="M528 630q55 -66 55 -190q0 -104 -31.5 -207.5t-102 -173.5t-178.5 -70q-97 0 -152.5 67t-55.5 190q0 101 32.5 204.5t103 174.5t177.5 71q97 0 152 -66zM229 582q-56 -65 -81 -157.5t-25 -180.5q0 -102 39.5 -153.5t110.5 -51.5q91 0 147 65t79.5 158t23.5 181
q0 102 -38.5 153t-111.5 51q-88 0 -144 -65z" />
    <glyph glyph-name="uni0222" unicode="&#x222;" horiz-adv-x="576" 
d="M479 438.5q-28 -38.5 -80 -57.5q54 -18 82.5 -57.5t28.5 -96.5q0 -69 -32 -123t-90.5 -84.5t-135.5 -30.5q-99 0 -151.5 49t-52.5 129q0 79 43.5 135.5t119.5 79.5q-74 32 -74 120q0 18 3 39l20 144h58l-21 -145q-3 -21 -3 -37q0 -51 27.5 -75t84.5 -24q72 0 107.5 37
t45.5 102l20 142h58l-21 -147q-9 -61 -37 -99.5zM413 321q-36 33 -110 33q-89 0 -142 -50.5t-53 -135.5q0 -62 36.5 -95.5t109.5 -33.5q91 0 143 50t52 137q0 62 -36 95z" />
    <glyph glyph-name="Oacute" unicode="&#xd3;" horiz-adv-x="624" 
d="M528 630q55 -66 55 -190q0 -104 -31.5 -207.5t-102 -173.5t-178.5 -70q-97 0 -152.5 67t-55.5 190q0 101 32.5 204.5t103 174.5t177.5 71q97 0 152 -66zM229 582q-56 -65 -81 -157.5t-25 -180.5q0 -102 39.5 -153.5t110.5 -51.5q91 0 147 65t79.5 158t23.5 181
q0 102 -38.5 153t-111.5 51q-88 0 -144 -65zM470 884l22 -51l-188 -75l-15 32z" />
    <glyph glyph-name="Obreve" unicode="&#x14e;" horiz-adv-x="624" 
d="M528 630q55 -66 55 -190q0 -104 -31.5 -207.5t-102 -173.5t-178.5 -70q-97 0 -152.5 67t-55.5 190q0 101 32.5 204.5t103 174.5t177.5 71q97 0 152 -66zM229 582q-56 -65 -81 -157.5t-25 -180.5q0 -102 39.5 -153.5t110.5 -51.5q91 0 147 65t79.5 158t23.5 181
q0 102 -38.5 153t-111.5 51q-88 0 -144 -65zM309 793.5q-29 28.5 -28 72.5l36 5q12 -60 71 -60q32 0 55 17t36 46l38 -12q-12 -43 -47.5 -70t-82.5 -27q-49 0 -78 28.5z" />
    <glyph glyph-name="uni01D1" unicode="&#x1d1;" horiz-adv-x="624" 
d="M528 630q55 -66 55 -190q0 -104 -31.5 -207.5t-102 -173.5t-178.5 -70q-97 0 -152.5 67t-55.5 190q0 101 32.5 204.5t103 174.5t177.5 71q97 0 152 -66zM229 582q-56 -65 -81 -157.5t-25 -180.5q0 -102 39.5 -153.5t110.5 -51.5q91 0 147 65t79.5 158t23.5 181
q0 102 -38.5 153t-111.5 51q-88 0 -144 -65zM512 886l24 -28l-131 -102h-35l-102 103l26 27l98 -79z" />
    <glyph glyph-name="uni019F" unicode="&#x19f;" horiz-adv-x="624" 
d="M528 630q55 -66 55 -190q0 -104 -31.5 -207.5t-102 -173.5t-178.5 -70q-97 0 -152.5 67t-55.5 190q0 101 32 205t102.5 174.5t178.5 70.5q97 0 152 -66zM216 568q-58 -79 -81 -195h386q4 33 4 70q0 103 -39 153.5t-113 50.5q-99 0 -157 -79zM436 122q59 83 79 205h-388
q-5 -48 -5 -83q0 -103 39.5 -154t111.5 -51q104 0 163 83z" />
    <glyph glyph-name="Ocircumflex" unicode="&#xd4;" horiz-adv-x="624" 
d="M528 630q55 -66 55 -190q0 -104 -31.5 -207.5t-102 -173.5t-178.5 -70q-97 0 -152.5 67t-55.5 190q0 101 32.5 204.5t103 174.5t177.5 71q97 0 152 -66zM229 582q-56 -65 -81 -157.5t-25 -180.5q0 -102 39.5 -153.5t110.5 -51.5q91 0 147 65t79.5 158t23.5 181
q0 102 -38.5 153t-111.5 51q-88 0 -144 -65zM276 762l-24 29l132 102h34l102 -103l-26 -28l-97 80z" />
    <glyph glyph-name="uni1ED0" unicode="&#x1ed0;" horiz-adv-x="624" 
d="M580 989l34 -35l-127 -121l-23 22zM272 728l-24 29l132 102h34l102 -103l-26 -28l-97 80zM528 630q55 -66 55 -190q0 -104 -31.5 -207.5t-102 -173.5t-178.5 -70q-97 0 -152.5 67t-55.5 190q0 101 32.5 204.5t103 174.5t177.5 71q97 0 152 -66zM229 582
q-56 -65 -81 -157.5t-25 -180.5q0 -102 39.5 -153.5t110.5 -51.5q91 0 147 65t79.5 158t23.5 181q0 102 -38.5 153t-111.5 51q-88 0 -144 -65z" />
    <glyph glyph-name="uni1ED8" unicode="&#x1ed8;" horiz-adv-x="624" 
d="M528 630q55 -66 55 -190q0 -104 -31.5 -207.5t-102 -173.5t-178.5 -70q-97 0 -152.5 67t-55.5 190q0 101 32.5 204.5t103 174.5t177.5 71q97 0 152 -66zM229 582q-56 -65 -81 -157.5t-25 -180.5q0 -102 39.5 -153.5t110.5 -51.5q91 0 147 65t79.5 158t23.5 181
q0 102 -38.5 153t-111.5 51q-88 0 -144 -65zM276 762l-24 29l132 102h34l102 -103l-26 -28l-97 80zM283.5 -97q10.5 -10 10.5 -27q0 -19 -13 -32t-32 -13q-17 0 -27 10.5t-10 26.5q0 19 12.5 32t31.5 13q17 0 27.5 -10z" />
    <glyph glyph-name="uni1ED2" unicode="&#x1ed2;" horiz-adv-x="624" 
d="M238 988l80 -136l-27 -19l-94 124zM270 728l-24 29l132 102h34l102 -103l-26 -28l-97 80zM528 630q55 -66 55 -190q0 -104 -31.5 -207.5t-102 -173.5t-178.5 -70q-97 0 -152.5 67t-55.5 190q0 101 32.5 204.5t103 174.5t177.5 71q97 0 152 -66zM229 582
q-56 -65 -81 -157.5t-25 -180.5q0 -102 39.5 -153.5t110.5 -51.5q91 0 147 65t79.5 158t23.5 181q0 102 -38.5 153t-111.5 51q-88 0 -144 -65z" />
    <glyph glyph-name="uni1ED4" unicode="&#x1ed4;" horiz-adv-x="624" 
d="M528 630q55 -66 55 -190q0 -104 -31.5 -207.5t-102 -173.5t-178.5 -70q-97 0 -152.5 67t-55.5 190q0 101 32.5 204.5t103 174.5t177.5 71q97 0 152 -66zM229 582q-56 -65 -81 -157.5t-25 -180.5q0 -102 39.5 -153.5t110.5 -51.5q91 0 147 65t79.5 158t23.5 181
q0 102 -38.5 153t-111.5 51q-88 0 -144 -65zM271 728l-24 29l132 102h34l102 -103l-26 -28l-97 80zM488 885q33 3 52 15t19 39q0 34 -35 34q-14 0 -25 -3.5t-28 -10.5l-13 36q37 20 73 20t57.5 -20.5t21.5 -54.5q0 -35 -21 -56t-58 -26l-6 -46h-45z" />
    <glyph glyph-name="uni1ED6" unicode="&#x1ed6;" horiz-adv-x="624" 
d="M424 898q-14 7 -29 19q-13 10 -22.5 14.5t-19.5 4.5q-16 0 -27.5 -9.5t-28.5 -31.5l-31 21q42 65 88 65q17 0 30 -6.5t29 -18.5q15 -11 23.5 -15.5t19.5 -4.5q14 0 27 10t29 33l32 -19q-39 -69 -88 -69q-18 0 -32 7zM270 728l-24 29l132 102h34l102 -103l-26 -28l-97 80z
M528 630q55 -66 55 -190q0 -104 -31.5 -207.5t-102 -173.5t-178.5 -70q-97 0 -152.5 67t-55.5 190q0 101 32.5 204.5t103 174.5t177.5 71q97 0 152 -66zM229 582q-56 -65 -81 -157.5t-25 -180.5q0 -102 39.5 -153.5t110.5 -51.5q91 0 147 65t79.5 158t23.5 181
q0 102 -38.5 153t-111.5 51q-88 0 -144 -65z" />
    <glyph glyph-name="uni020C" unicode="&#x20c;" horiz-adv-x="624" 
d="M528 630q55 -66 55 -190q0 -104 -31.5 -207.5t-102 -173.5t-178.5 -70q-97 0 -152.5 67t-55.5 190q0 101 32.5 204.5t103 174.5t177.5 71q97 0 152 -66zM229 582q-56 -65 -81 -157.5t-25 -180.5q0 -102 39.5 -153.5t110.5 -51.5q91 0 147 65t79.5 158t23.5 181
q0 102 -38.5 153t-111.5 51q-88 0 -144 -65zM302 936l51 -152l-39 -15l-66 143zM419 936l45 -148l-39 -15l-60 138z" />
    <glyph glyph-name="Odieresis" unicode="&#xd6;" horiz-adv-x="624" 
d="M528 630q55 -66 55 -190q0 -104 -31.5 -207.5t-102 -173.5t-178.5 -70q-97 0 -152.5 67t-55.5 190q0 101 32.5 204.5t103 174.5t177.5 71q97 0 152 -66zM229 582q-56 -65 -81 -157.5t-25 -180.5q0 -102 39.5 -153.5t110.5 -51.5q91 0 147 65t79.5 158t23.5 181
q0 102 -38.5 153t-111.5 51q-88 0 -144 -65zM283 799.5q-9 9.5 -9 23.5q0 19 12 31t29 12q15 0 25 -9.5t10 -24.5q0 -18 -12 -30t-30 -12q-16 0 -25 9.5zM454.5 799.5q-9.5 9.5 -9.5 23.5q0 19 12 31t30 12q15 0 24.5 -10t9.5 -24q0 -18 -12 -30t-30 -12q-15 0 -24.5 9.5z
" />
    <glyph glyph-name="uni022A" unicode="&#x22a;" horiz-adv-x="624" 
d="M528 630q55 -66 55 -190q0 -104 -31.5 -207.5t-102 -173.5t-178.5 -70q-97 0 -152.5 67t-55.5 190q0 101 32.5 204.5t103 174.5t177.5 71q97 0 152 -66zM229 582q-56 -65 -81 -157.5t-25 -180.5q0 -102 39.5 -153.5t110.5 -51.5q91 0 147 65t79.5 158t23.5 181
q0 102 -38.5 153t-111.5 51q-88 0 -144 -65zM272 754.5q-9 9.5 -9 23.5q0 19 12 31t29 12q15 0 25 -9.5t10 -24.5q0 -18 -12 -30t-30 -12q-16 0 -25 9.5zM443.5 754.5q-9.5 9.5 -9.5 23.5q0 19 12 31t30 12q15 0 24.5 -10t9.5 -24q0 -18 -12 -30t-30 -12q-15 0 -24.5 9.5z
M506 877h-218l7 46h218z" />
    <glyph glyph-name="uni022E" unicode="&#x22e;" horiz-adv-x="624" 
d="M528 630q55 -66 55 -190q0 -104 -31.5 -207.5t-102 -173.5t-178.5 -70q-97 0 -152.5 67t-55.5 190q0 101 32.5 204.5t103 174.5t177.5 71q97 0 152 -66zM229 582q-56 -65 -81 -157.5t-25 -180.5q0 -102 39.5 -153.5t110.5 -51.5q91 0 147 65t79.5 158t23.5 181
q0 102 -38.5 153t-111.5 51q-88 0 -144 -65zM367.5 806q-10.5 10 -10.5 27q0 19 13 32t32 13q17 0 27 -10.5t10 -26.5q0 -19 -12.5 -32t-31.5 -13q-17 0 -27.5 10z" />
    <glyph glyph-name="uni0230" unicode="&#x230;" horiz-adv-x="624" 
d="M528 630q55 -66 55 -190q0 -104 -31.5 -207.5t-102 -173.5t-178.5 -70q-97 0 -152.5 67t-55.5 190q0 101 32.5 204.5t103 174.5t177.5 71q97 0 152 -66zM229 582q-56 -65 -81 -157.5t-25 -180.5q0 -102 39.5 -153.5t110.5 -51.5q91 0 147 65t79.5 158t23.5 181
q0 102 -38.5 153t-111.5 51q-88 0 -144 -65zM357.5 753q-10.5 10 -10.5 27q0 19 13 32t32 13q17 0 27 -10.5t10 -26.5q0 -19 -12.5 -32t-31.5 -13q-17 0 -27.5 10zM507 877h-218l7 46h218z" />
    <glyph glyph-name="uni1ECC" unicode="&#x1ecc;" horiz-adv-x="624" 
d="M528 630q55 -66 55 -190q0 -104 -31.5 -207.5t-102 -173.5t-178.5 -70q-97 0 -152.5 67t-55.5 190q0 101 32.5 204.5t103 174.5t177.5 71q97 0 152 -66zM229 582q-56 -65 -81 -157.5t-25 -180.5q0 -102 39.5 -153.5t110.5 -51.5q91 0 147 65t79.5 158t23.5 181
q0 102 -38.5 153t-111.5 51q-88 0 -144 -65zM283.5 -97q10.5 -10 10.5 -27q0 -19 -13 -32t-32 -13q-17 0 -27 10.5t-10 26.5q0 19 12.5 32t31.5 13q17 0 27.5 -10z" />
    <glyph glyph-name="Ograve" unicode="&#xd2;" horiz-adv-x="624" 
d="M528 630q55 -66 55 -190q0 -104 -31.5 -207.5t-102 -173.5t-178.5 -70q-97 0 -152.5 67t-55.5 190q0 101 32.5 204.5t103 174.5t177.5 71q97 0 152 -66zM229 582q-56 -65 -81 -157.5t-25 -180.5q0 -102 39.5 -153.5t110.5 -51.5q91 0 147 65t79.5 158t23.5 181
q0 102 -38.5 153t-111.5 51q-88 0 -144 -65zM335 883l156 -93l-20 -32l-165 75z" />
    <glyph glyph-name="uni1ECE" unicode="&#x1ece;" horiz-adv-x="624" 
d="M528 630q55 -66 55 -190q0 -104 -31.5 -207.5t-102 -173.5t-178.5 -70q-97 0 -152.5 67t-55.5 190q0 101 32.5 204.5t103 174.5t177.5 71q97 0 152 -66zM229 582q-56 -65 -81 -157.5t-25 -180.5q0 -102 39.5 -153.5t110.5 -51.5q91 0 147 65t79.5 158t23.5 181
q0 102 -38.5 153t-111.5 51q-88 0 -144 -65zM375 847q33 3 52 15t19 39q0 34 -35 34q-14 0 -25 -3.5t-28 -10.5l-13 36q37 20 73 20t57.5 -20.5t21.5 -54.5q0 -35 -21 -56t-58 -26l-6 -46h-45z" />
    <glyph glyph-name="Ohorn" unicode="&#x1a0;" horiz-adv-x="630" 
d="M550 597q33 -63 33 -157q0 -104 -31.5 -207.5t-102 -173.5t-178.5 -70q-97 0 -152.5 67t-55.5 190q0 101 32.5 204.5t103 174.5t177.5 71q98 0 152 -66q35 7 49.5 26.5t14.5 55.5q0 29 -6 47l43 9q9 -23 9 -57q0 -95 -88 -114zM420 104q56 65 79.5 158t23.5 181
q0 102 -38.5 153t-111.5 51q-88 0 -144 -65t-81 -157.5t-25 -180.5q0 -102 39.5 -153.5t110.5 -51.5q91 0 147 65z" />
    <glyph glyph-name="uni1EDA" unicode="&#x1eda;" horiz-adv-x="630" 
d="M492 833l-188 -75l-15 32l181 94zM550 597q33 -63 33 -157q0 -104 -31.5 -207.5t-102 -173.5t-178.5 -70q-97 0 -152.5 67t-55.5 190q0 101 32.5 204.5t103 174.5t177.5 71q98 0 152 -66q35 7 49.5 26.5t14.5 55.5q0 29 -6 47l43 9q9 -23 9 -57q0 -95 -88 -114zM420 104
q56 65 79.5 158t23.5 181q0 102 -38.5 153t-111.5 51q-88 0 -144 -65t-81 -157.5t-25 -180.5q0 -102 39.5 -153.5t110.5 -51.5q91 0 147 65z" />
    <glyph glyph-name="uni1EE2" unicode="&#x1ee2;" horiz-adv-x="630" 
d="M550 597q33 -63 33 -157q0 -104 -31.5 -207.5t-102 -173.5t-178.5 -70q-97 0 -152.5 67t-55.5 190q0 101 32.5 204.5t103 174.5t177.5 71q98 0 152 -66q35 7 49.5 26.5t14.5 55.5q0 29 -6 47l43 9q9 -23 9 -57q0 -95 -88 -114zM420 104q56 65 79.5 158t23.5 181
q0 102 -38.5 153t-111.5 51q-88 0 -144 -65t-81 -157.5t-25 -180.5q0 -102 39.5 -153.5t110.5 -51.5q91 0 147 65zM283.5 -97q10.5 -10 10.5 -27q0 -19 -13 -32t-32 -13q-17 0 -27 10.5t-10 26.5q0 19 12.5 32t31.5 13q17 0 27.5 -10z" />
    <glyph glyph-name="uni1EDC" unicode="&#x1edc;" horiz-adv-x="630" 
d="M491 790l-20 -32l-165 75l29 50zM550 597q33 -63 33 -157q0 -104 -31.5 -207.5t-102 -173.5t-178.5 -70q-97 0 -152.5 67t-55.5 190q0 101 32.5 204.5t103 174.5t177.5 71q98 0 152 -66q35 7 49.5 26.5t14.5 55.5q0 29 -6 47l43 9q9 -23 9 -57q0 -95 -88 -114zM420 104
q56 65 79.5 158t23.5 181q0 102 -38.5 153t-111.5 51q-88 0 -144 -65t-81 -157.5t-25 -180.5q0 -102 39.5 -153.5t110.5 -51.5q91 0 147 65z" />
    <glyph glyph-name="uni1EDE" unicode="&#x1ede;" horiz-adv-x="630" 
d="M386 931.5q-11 -3.5 -28 -10.5l-13 36q37 20 73 20t57.5 -20.5t21.5 -54.5q0 -35 -21 -56t-58 -26l-6 -46h-45l8 73q33 3 52 15t19 39q0 34 -35 34q-14 0 -25 -3.5zM550 597q33 -63 33 -157q0 -104 -31.5 -207.5t-102 -173.5t-178.5 -70q-97 0 -152.5 67t-55.5 190
q0 101 32.5 204.5t103 174.5t177.5 71q98 0 152 -66q35 7 49.5 26.5t14.5 55.5q0 29 -6 47l43 9q9 -23 9 -57q0 -95 -88 -114zM420 104q56 65 79.5 158t23.5 181q0 102 -38.5 153t-111.5 51q-88 0 -144 -65t-81 -157.5t-25 -180.5q0 -102 39.5 -153.5t110.5 -51.5
q91 0 147 65z" />
    <glyph glyph-name="uni1EE0" unicode="&#x1ee0;" horiz-adv-x="630" 
d="M319.5 828.5q-11.5 -9.5 -28.5 -31.5l-31 21q42 65 88 65q17 0 30 -6.5t29 -18.5q15 -11 23.5 -15.5t19.5 -4.5q14 0 27 10t29 33l32 -19q-39 -69 -88 -69q-18 0 -32 7t-29 19q-13 10 -22.5 14.5t-19.5 4.5q-16 0 -27.5 -9.5zM550 597q33 -63 33 -157
q0 -104 -31.5 -207.5t-102 -173.5t-178.5 -70q-97 0 -152.5 67t-55.5 190q0 101 32.5 204.5t103 174.5t177.5 71q98 0 152 -66q35 7 49.5 26.5t14.5 55.5q0 29 -6 47l43 9q9 -23 9 -57q0 -95 -88 -114zM420 104q56 65 79.5 158t23.5 181q0 102 -38.5 153t-111.5 51
q-88 0 -144 -65t-81 -157.5t-25 -180.5q0 -102 39.5 -153.5t110.5 -51.5q91 0 147 65z" />
    <glyph glyph-name="Ohungarumlaut" unicode="&#x150;" horiz-adv-x="624" 
d="M528 630q55 -66 55 -190q0 -104 -31.5 -207.5t-102 -173.5t-178.5 -70q-97 0 -152.5 67t-55.5 190q0 101 32.5 204.5t103 174.5t177.5 71q97 0 152 -66zM229 582q-56 -65 -81 -157.5t-25 -180.5q0 -102 39.5 -153.5t110.5 -51.5q91 0 147 65t79.5 158t23.5 181
q0 102 -38.5 153t-111.5 51q-88 0 -144 -65zM394 936l45 -27l-96 -136l-33 17zM512 936l45 -26l-104 -141l-34 17z" />
    <glyph glyph-name="uni01A2" unicode="&#x1a2;" horiz-adv-x="814" 
d="M731.5 668.5q28.5 -28.5 28.5 -78.5q0 -19 -2 -29l-106 -758h-58l107 759q2 18 2 25q0 63 -64 63q-47 0 -102 -32q46 -68 46 -178q0 -104 -31.5 -207.5t-102 -173.5t-178.5 -70q-97 0 -152.5 67t-55.5 190q0 101 32.5 204.5t103 174.5t177.5 71q80 0 132 -46
q71 47 138 47q57 0 85.5 -28.5zM420 104q56 65 79.5 158t23.5 181q0 102 -38.5 153t-111.5 51q-88 0 -144 -65t-81 -157.5t-25 -180.5q0 -102 39.5 -153.5t110.5 -51.5q91 0 147 65z" />
    <glyph glyph-name="uni020E" unicode="&#x20e;" horiz-adv-x="624" 
d="M528 630q55 -66 55 -190q0 -104 -31.5 -207.5t-102 -173.5t-178.5 -70q-97 0 -152.5 67t-55.5 190q0 101 32.5 204.5t103 174.5t177.5 71q97 0 152 -66zM229 582q-56 -65 -81 -157.5t-25 -180.5q0 -102 39.5 -153.5t110.5 -51.5q91 0 147 65t79.5 158t23.5 181
q0 102 -38.5 153t-111.5 51q-88 0 -144 -65zM271 796q13 50 48.5 79t82.5 29q49 0 78 -31t28 -81l-38 -5q-7 70 -70 70q-65 0 -93 -73z" />
    <glyph glyph-name="Omacron" unicode="&#x14c;" horiz-adv-x="624" 
d="M528 630q55 -66 55 -190q0 -104 -31.5 -207.5t-102 -173.5t-178.5 -70q-97 0 -152.5 67t-55.5 190q0 101 32.5 204.5t103 174.5t177.5 71q97 0 152 -66zM229 582q-56 -65 -81 -157.5t-25 -180.5q0 -102 39.5 -153.5t110.5 -51.5q91 0 147 65t79.5 158t23.5 181
q0 102 -38.5 153t-111.5 51q-88 0 -144 -65zM502 802h-218l7 46h218z" />
    <glyph glyph-name="uni1E52" unicode="&#x1e52;" horiz-adv-x="624" 
d="M528 630q55 -66 55 -190q0 -104 -31.5 -207.5t-102 -173.5t-178.5 -70q-97 0 -152.5 67t-55.5 190q0 101 32.5 204.5t103 174.5t177.5 71q97 0 152 -66zM229 582q-56 -65 -81 -157.5t-25 -180.5q0 -102 39.5 -153.5t110.5 -51.5q91 0 147 65t79.5 158t23.5 181
q0 102 -38.5 153t-111.5 51q-88 0 -144 -65zM497 762h-218l7 46h218zM484 982l22 -51l-188 -75l-15 32z" />
    <glyph glyph-name="uni1E50" unicode="&#x1e50;" horiz-adv-x="624" 
d="M528 630q55 -66 55 -190q0 -104 -31.5 -207.5t-102 -173.5t-178.5 -70q-97 0 -152.5 67t-55.5 190q0 101 32.5 204.5t103 174.5t177.5 71q97 0 152 -66zM229 582q-56 -65 -81 -157.5t-25 -180.5q0 -102 39.5 -153.5t110.5 -51.5q91 0 147 65t79.5 158t23.5 181
q0 102 -38.5 153t-111.5 51q-88 0 -144 -65zM497 762h-218l7 46h218zM345 981l156 -93l-20 -32l-165 75z" />
    <glyph glyph-name="uniA7B6" unicode="&#xa7b6;" horiz-adv-x="764" 
d="M64 186q0 122 34.5 246t96.5 253h57q-61 -127 -96 -256t-35 -245q0 -78 23.5 -111.5t70.5 -33.5q105 0 126 148l29 210h58l-30 -215q-4 -32 -4 -45q0 -98 85 -98q98 0 137.5 125t39.5 298q0 53 -6 104.5t-18 118.5h56q12 -63 18.5 -114.5t6.5 -109.5q0 -203 -53 -337.5
t-180 -134.5q-113 0 -121 117q-23 -59 -59 -88t-90 -29q-146 0 -146 197z" />
    <glyph glyph-name="uni01EA" unicode="&#x1ea;" horiz-adv-x="624" 
d="M249 -62q-29 -29 -29 -65q0 -21 12.5 -32t36.5 -11q21 0 53 6l-11 -47q-27 -6 -50 -6q-43 0 -67.5 22.5t-24.5 60.5t20.5 67.5t66.5 55.5q-90 5 -141.5 72t-51.5 185q0 101 32.5 204.5t103 174.5t177.5 71q97 0 152 -66t55 -190q0 -90 -24 -182t-77 -163.5t-135 -95.5
q-69 -32 -98 -61zM162.5 90.5q39.5 -51.5 110.5 -51.5q91 0 147 65t79.5 158t23.5 181q0 102 -38.5 153t-111.5 51q-88 0 -144 -65t-81 -157.5t-25 -180.5q0 -102 39.5 -153.5z" />
    <glyph glyph-name="uni01EC" unicode="&#x1ec;" horiz-adv-x="624" 
d="M509 848l-7 -46h-218l7 46h218zM249 -62q-29 -29 -29 -65q0 -21 12.5 -32t36.5 -11q21 0 53 6l-11 -47q-27 -6 -50 -6q-43 0 -67.5 22.5t-24.5 60.5t20.5 67.5t66.5 55.5q-90 5 -141.5 72t-51.5 185q0 101 32.5 204.5t103 174.5t177.5 71q97 0 152 -66t55 -190
q0 -90 -24 -182t-77 -163.5t-135 -95.5q-69 -32 -98 -61zM162.5 90.5q39.5 -51.5 110.5 -51.5q91 0 147 65t79.5 158t23.5 181q0 102 -38.5 153t-111.5 51q-88 0 -144 -65t-81 -157.5t-25 -180.5q0 -102 39.5 -153.5z" />
    <glyph glyph-name="uni0186" unicode="&#x186;" horiz-adv-x="501" 
d="M408 630.5q52 -65.5 52 -188.5q1 -119 -36 -223t-107.5 -167t-164.5 -63q-54 0 -92 19t-69 53l34 35q32 -28 59 -42t69 -14q78 0 134.5 58t85 150.5t28.5 194.5q0 104 -37.5 153.5t-101.5 49.5q-41 0 -75 -12.5t-72 -38.5l-27 39q40 31 82.5 46.5t96.5 15.5
q89 0 141 -65.5z" />
    <glyph glyph-name="Oslash" unicode="&#xd8;" horiz-adv-x="624" 
d="M557 581q26 -58 26 -141q0 -104 -31.5 -207.5t-102 -173.5t-178.5 -70q-35 0 -63 9l-47 -118l-47 15l50 122q-48 29 -74.5 87.5t-26.5 141.5q0 101 32.5 204.5t103 174.5t177.5 71q34 0 64 -9l48 123l48 -14l-53 -128q48 -29 74 -87zM191 62l233 578q-21 7 -51 7
q-88 0 -144 -65t-81 -158t-25 -182q0 -134 68 -180zM420 104.5q56 65.5 79.5 158.5t23.5 183q0 133 -66 178l-233 -578q21 -7 49 -7q91 0 147 65.5z" />
    <glyph glyph-name="Oslashacute" unicode="&#x1fe;" horiz-adv-x="624" 
d="M557 581q26 -58 26 -141q0 -104 -31.5 -207.5t-102 -173.5t-178.5 -70q-35 0 -63 9l-47 -118l-47 15l50 122q-48 29 -74.5 87.5t-26.5 141.5q0 101 32.5 204.5t103 174.5t177.5 71q34 0 64 -9l48 123l48 -14l-53 -128q48 -29 74 -87zM191 62l233 578q-21 7 -51 7
q-88 0 -144 -65t-81 -158t-25 -182q0 -134 68 -180zM420 104.5q56 65.5 79.5 158.5t23.5 183q0 133 -66 178l-233 -578q21 -7 49 -7q91 0 147 65.5zM467 890l22 -51l-188 -75l-15 32z" />
    <glyph glyph-name="Otilde" unicode="&#xd5;" horiz-adv-x="624" 
d="M528 630q55 -66 55 -190q0 -104 -31.5 -207.5t-102 -173.5t-178.5 -70q-97 0 -152.5 67t-55.5 190q0 101 32.5 204.5t103 174.5t177.5 71q97 0 152 -66zM229 582q-56 -65 -81 -157.5t-25 -180.5q0 -102 39.5 -153.5t110.5 -51.5q91 0 147 65t79.5 158t23.5 181
q0 102 -38.5 153t-111.5 51q-88 0 -144 -65zM418 800q-14 7 -29 19q-13 10 -22.5 14.5t-19.5 4.5q-16 0 -27.5 -9.5t-28.5 -31.5l-31 21q42 65 88 65q17 0 30 -6.5t29 -18.5q15 -11 23.5 -15.5t19.5 -4.5q14 0 27 10t29 33l32 -19q-39 -69 -88 -69q-18 0 -32 7z" />
    <glyph glyph-name="uni1E4C" unicode="&#x1e4c;" horiz-adv-x="624" 
d="M528 630q55 -66 55 -190q0 -104 -31.5 -207.5t-102 -173.5t-178.5 -70q-97 0 -152.5 67t-55.5 190q0 101 32.5 204.5t103 174.5t177.5 71q97 0 152 -66zM229 582q-56 -65 -81 -157.5t-25 -180.5q0 -102 39.5 -153.5t110.5 -51.5q91 0 147 65t79.5 158t23.5 181
q0 102 -38.5 153t-111.5 51q-88 0 -144 -65zM414 765q-14 7 -29 19q-13 10 -22.5 14.5t-19.5 4.5q-16 0 -27.5 -9.5t-28.5 -31.5l-31 21q42 65 88 65q17 0 30 -6.5t29 -18.5q15 -11 23.5 -15.5t19.5 -4.5q14 0 27 10t29 33l32 -19q-39 -69 -88 -69q-18 0 -32 7zM485 1003
l22 -51l-188 -75l-15 32z" />
    <glyph glyph-name="uni022C" unicode="&#x22c;" horiz-adv-x="624" 
d="M511 894h-218l7 46h218zM411 765q-14 7 -29 19q-13 10 -22.5 14.5t-19.5 4.5q-16 0 -27.5 -9.5t-28.5 -31.5l-31 21q42 65 88 65q17 0 30 -6.5t29 -18.5q15 -11 23.5 -15.5t19.5 -4.5q14 0 27 10t29 33l32 -19q-39 -69 -88 -69q-18 0 -32 7zM528 630q55 -66 55 -190
q0 -104 -31.5 -207.5t-102 -173.5t-178.5 -70q-97 0 -152.5 67t-55.5 190q0 101 32.5 204.5t103 174.5t177.5 71q97 0 152 -66zM229 582q-56 -65 -81 -157.5t-25 -180.5q0 -102 39.5 -153.5t110.5 -51.5q91 0 147 65t79.5 158t23.5 181q0 102 -38.5 153t-111.5 51
q-88 0 -144 -65z" />
    <glyph glyph-name="OE" unicode="&#x152;" horiz-adv-x="780" 
d="M780 636h-283q66 -63 66 -197q0 -28 -3 -60h150l-6 -48h-150q-14 -87 -49 -162t-92 -120h298l-8 -49h-374q-33 -11 -67 -11q-92 0 -145.5 67t-53.5 189q0 100 32 204.5t99.5 175.5t168.5 71q33 0 63 -11h367zM466.5 596.5q-37.5 50.5 -104.5 50.5q-83 0 -136.5 -65.5
t-78 -159t-24.5 -180.5q0 -101 38 -152t103 -51q85 0 139 66t77.5 160t23.5 182q0 99 -37.5 149.5z" />
    <glyph glyph-name="P" unicode="P" horiz-adv-x="510" 
d="M455 642.5q53 -42.5 53 -127.5q0 -66 -25.5 -121.5t-85 -91t-155.5 -35.5h-86l-37 -267h-58l96 685h146q99 0 152 -42.5zM402.5 373q45.5 57 45.5 142q0 65 -37.5 93.5t-112.5 28.5h-90l-45 -321h83q111 0 156.5 57z" />
    <glyph glyph-name="uni1E54" unicode="&#x1e54;" horiz-adv-x="510" 
d="M455 642.5q53 -42.5 53 -127.5q0 -66 -25.5 -121.5t-85 -91t-155.5 -35.5h-86l-37 -267h-58l96 685h146q99 0 152 -42.5zM402.5 373q45.5 57 45.5 142q0 65 -37.5 93.5t-112.5 28.5h-90l-45 -321h83q111 0 156.5 57zM414 884l22 -51l-188 -75l-15 32z" />
    <glyph glyph-name="uni1E56" unicode="&#x1e56;" horiz-adv-x="510" 
d="M455 642.5q53 -42.5 53 -127.5q0 -66 -25.5 -121.5t-85 -91t-155.5 -35.5h-86l-37 -267h-58l96 685h146q99 0 152 -42.5zM402.5 373q45.5 57 45.5 142q0 65 -37.5 93.5t-112.5 28.5h-90l-45 -321h83q111 0 156.5 57zM311.5 806q-10.5 10 -10.5 27q0 19 13 32t32 13
q17 0 27 -10.5t10 -26.5q0 -19 -12.5 -32t-31.5 -13q-17 0 -27.5 10z" />
    <glyph glyph-name="uni01A4" unicode="&#x1a4;" horiz-adv-x="567" 
d="M512 642.5q53 -42.5 53 -127.5q0 -66 -25.5 -121.5t-85 -91t-155.5 -35.5h-86l-37 -267h-58l89 637h-23q-37 0 -55.5 -21t-18.5 -57q0 -29 13 -62l-44 -19q-22 40 -22 83q0 55 34.5 89.5t97.5 34.5h171q99 0 152 -42.5zM459.5 373q45.5 57 45.5 142q0 65 -37.5 93.5
t-112.5 28.5h-90l-45 -321h83q111 0 156.5 57z" />
    <glyph glyph-name="Thorn" unicode="&#xde;" horiz-adv-x="509" 
d="M436.5 519q52.5 -43 52.5 -131q0 -66 -25.5 -122.5t-84.5 -92.5t-156 -36h-85l-19 -137h-58l96 685h58l-17 -123h87q99 0 151.5 -43zM383 243q46 58 46 144q0 68 -37 97.5t-112 29.5h-89l-46 -329h82q110 0 156 58z" />
    <glyph glyph-name="Q" unicode="Q" horiz-adv-x="620" 
d="M539 -48l-45 -45q-41 48 -90 65t-134 17q-96 0 -151.5 67t-55.5 190q0 101 32.5 204.5t103 174.5t177.5 71q97 0 152 -66t55 -190q0 -84 -21 -169.5t-67.5 -153.5t-118.5 -96q103 -6 163 -69zM162.5 90q39.5 -51 110.5 -51q91 0 147 65.5t79.5 158.5t23.5 183
q0 100 -39 150.5t-111 50.5q-88 0 -144 -65t-81 -158t-25 -182q0 -101 39.5 -152z" />
    <glyph glyph-name="uni024A" unicode="&#x24a;" horiz-adv-x="602" 
d="M590 -172q-45 -33 -96 -33q-47 0 -74 26t-27 75q0 8 2 28l10 76h1l9 64q-64 -75 -155 -75q-89 0 -142.5 67t-53.5 193q0 115 36 218t102.5 166t153.5 63q86 0 138 -77l15 66h51l-96 -685h-1l-11 -81q-1 -7 -1 -20q0 -55 48 -55q21 0 36.5 5.5t32.5 16.5zM424 128l61 437
q-26 41 -56 61t-72 20q-72 0 -125 -58t-80.5 -150t-27.5 -191q0 -106 38.5 -157t103.5 -51q91 0 158 89z" />
    <glyph glyph-name="R" unicode="R" horiz-adv-x="531" 
d="M465 398q-40 -58 -124 -80l123 -318h-62l-117 308h-123l-43 -308h-58l96 685h152q99 0 147.5 -40t48.5 -116q0 -73 -40 -131zM269 356q94 0 135 50.5t41 120.5q0 57 -32.5 83.5t-105.5 26.5h-99l-39 -281h100z" />
    <glyph glyph-name="Racute" unicode="&#x154;" horiz-adv-x="531" 
d="M465 398q-40 -58 -124 -80l123 -318h-62l-117 308h-123l-43 -308h-58l96 685h152q99 0 147.5 -40t48.5 -116q0 -73 -40 -131zM269 356q94 0 135 50.5t41 120.5q0 57 -32.5 83.5t-105.5 26.5h-99l-39 -281h100zM416 884l22 -51l-188 -75l-15 32z" />
    <glyph glyph-name="Rcaron" unicode="&#x158;" horiz-adv-x="531" 
d="M465 398q-40 -58 -124 -80l123 -318h-62l-117 308h-123l-43 -308h-58l96 685h152q99 0 147.5 -40t48.5 -116q0 -73 -40 -131zM269 356q94 0 135 50.5t41 120.5q0 57 -32.5 83.5t-105.5 26.5h-99l-39 -281h100zM458 886l24 -28l-131 -102h-35l-102 103l26 27l98 -79z" />
    <glyph glyph-name="Rcommaaccent" unicode="&#x156;" horiz-adv-x="531" 
d="M465 398q-40 -58 -124 -80l123 -318h-62l-117 308h-123l-43 -308h-58l96 685h152q99 0 147.5 -40t48.5 -116q0 -73 -40 -131zM269 356q94 0 135 50.5t41 120.5q0 57 -32.5 83.5t-105.5 26.5h-99l-39 -281h100zM266.5 -96q10.5 -11 10.5 -27q0 -14 -5.5 -27t-21.5 -40
l-51 -88h-34l46 115q-17 12 -17 33q0 19 12.5 32t31.5 13q18 0 28.5 -11z" />
    <glyph glyph-name="uni0210" unicode="&#x210;" horiz-adv-x="531" 
d="M465 398q-40 -58 -124 -80l123 -318h-62l-117 308h-123l-43 -308h-58l96 685h152q99 0 147.5 -40t48.5 -116q0 -73 -40 -131zM269 356q94 0 135 50.5t41 120.5q0 57 -32.5 83.5t-105.5 26.5h-99l-39 -281h100zM248 936l51 -152l-39 -15l-66 143zM365 936l45 -148l-39 -15
l-60 138z" />
    <glyph glyph-name="uni1E5A" unicode="&#x1e5a;" horiz-adv-x="531" 
d="M465 398q-40 -58 -124 -80l123 -318h-62l-117 308h-123l-43 -308h-58l96 685h152q99 0 147.5 -40t48.5 -116q0 -73 -40 -131zM269 356q94 0 135 50.5t41 120.5q0 57 -32.5 83.5t-105.5 26.5h-99l-39 -281h100zM262.5 -97q10.5 -10 10.5 -27q0 -19 -13 -32t-32 -13
q-17 0 -27 10.5t-10 26.5q0 19 12.5 32t31.5 13q17 0 27.5 -10z" />
    <glyph glyph-name="uni0212" unicode="&#x212;" horiz-adv-x="531" 
d="M465 398q-40 -58 -124 -80l123 -318h-62l-117 308h-123l-43 -308h-58l96 685h152q99 0 147.5 -40t48.5 -116q0 -73 -40 -131zM269 356q94 0 135 50.5t41 120.5q0 57 -32.5 83.5t-105.5 26.5h-99l-39 -281h100zM217 796q13 50 48.5 79t82.5 29q49 0 78 -31t28 -81l-38 -5
q-7 70 -70 70q-65 0 -93 -73z" />
    <glyph glyph-name="uni024C" unicode="&#x24c;" horiz-adv-x="538" 
d="M473 398q-40 -58 -124 -80l123 -318h-62l-117 308h-123l-43 -308h-58l43 308h-81l7 48h81l46 329h152q99 0 147.5 -40t48.5 -116q0 -73 -40 -131zM412 406.5q41 50.5 41 120.5q0 57 -32.5 83.5t-105.5 26.5h-99l-39 -281h100q94 0 135 50.5z" />
    <glyph glyph-name="uni2C64" unicode="&#x2c64;" horiz-adv-x="531" 
d="M465 398q-40 -58 -124 -80l123 -318h-62l-117 308h-123l-43 -308l-11 -81q-1 -7 -1 -20q0 -55 48 -55q21 0 36.5 5.5t32.5 16.5l22 -38q-45 -33 -96 -33q-47 0 -74 26t-27 75q0 8 2 28l10 76l96 685h152q99 0 147.5 -40t48.5 -116q0 -73 -40 -131zM269 356q94 0 135 50.5
t41 120.5q0 57 -32.5 83.5t-105.5 26.5h-99l-39 -281h100z" />
    <glyph glyph-name="S" unicode="S" horiz-adv-x="485" 
d="M399 676.5q41 -19.5 74 -57.5l-36 -34q-31 33 -62.5 47.5t-71.5 14.5q-64 0 -105.5 -38.5t-41.5 -97.5q0 -44 25.5 -70t93.5 -53q78 -30 115 -70t37 -108q0 -56 -27 -106.5t-80.5 -82.5t-128.5 -32q-61 0 -106.5 23t-81.5 65l38 33q31 -35 66 -53t85 -18q56 0 95.5 23
t59.5 61.5t20 83.5q0 51 -26.5 80.5t-94.5 56.5q-81 33 -115 68.5t-34 96.5q0 47 25 90t72.5 70t109.5 27q54 0 95 -19.5z" />
    <glyph glyph-name="Sacute" unicode="&#x15a;" horiz-adv-x="485" 
d="M399 676.5q41 -19.5 74 -57.5l-36 -34q-31 33 -62.5 47.5t-71.5 14.5q-64 0 -105.5 -38.5t-41.5 -97.5q0 -44 25.5 -70t93.5 -53q78 -30 115 -70t37 -108q0 -56 -27 -106.5t-80.5 -82.5t-128.5 -32q-61 0 -106.5 23t-81.5 65l38 33q31 -35 66 -53t85 -18q56 0 95.5 23
t59.5 61.5t20 83.5q0 51 -26.5 80.5t-94.5 56.5q-81 33 -115 68.5t-34 96.5q0 47 25 90t72.5 70t109.5 27q54 0 95 -19.5zM399 884l22 -51l-188 -75l-15 32z" />
    <glyph glyph-name="uniA78B" unicode="&#xa78b;" horiz-adv-x="192" 
d="M87 354l38 331h61l-55 -331h-44z" />
    <glyph glyph-name="Scaron" unicode="&#x160;" horiz-adv-x="485" 
d="M399 676.5q41 -19.5 74 -57.5l-36 -34q-31 33 -62.5 47.5t-71.5 14.5q-64 0 -105.5 -38.5t-41.5 -97.5q0 -44 25.5 -70t93.5 -53q78 -30 115 -70t37 -108q0 -56 -27 -106.5t-80.5 -82.5t-128.5 -32q-61 0 -106.5 23t-81.5 65l38 33q31 -35 66 -53t85 -18q56 0 95.5 23
t59.5 61.5t20 83.5q0 51 -26.5 80.5t-94.5 56.5q-81 33 -115 68.5t-34 96.5q0 47 25 90t72.5 70t109.5 27q54 0 95 -19.5zM441 886l24 -28l-131 -102h-35l-102 103l26 27l98 -79z" />
    <glyph glyph-name="Scedilla" unicode="&#x15e;" horiz-adv-x="485" 
d="M399 676.5q41 -19.5 74 -57.5l-36 -34q-31 33 -62.5 47.5t-71.5 14.5q-64 0 -105.5 -38.5t-41.5 -97.5q0 -44 25.5 -70t93.5 -53q78 -30 115 -70t37 -108q0 -52 -23.5 -100t-70.5 -81t-113 -39l-10 -55q38 -4 56.5 -22t18.5 -49q0 -40 -29 -65.5t-76 -25.5q-42 0 -73 23
l20 33q24 -15 53 -15q24 0 40 12.5t16 35.5t-16 32.5t-57 9.5l18 85q-107 4 -178 88l38 33q31 -35 66 -53t85 -18q56 0 95.5 23t59.5 61.5t20 83.5q0 51 -26.5 80.5t-94.5 56.5q-81 33 -115 68.5t-34 96.5q0 47 25 90t72.5 70t109.5 27q54 0 95 -19.5z" />
    <glyph glyph-name="Scircumflex" unicode="&#x15c;" horiz-adv-x="485" 
d="M399 676.5q41 -19.5 74 -57.5l-36 -34q-31 33 -62.5 47.5t-71.5 14.5q-64 0 -105.5 -38.5t-41.5 -97.5q0 -44 25.5 -70t93.5 -53q78 -30 115 -70t37 -108q0 -56 -27 -106.5t-80.5 -82.5t-128.5 -32q-61 0 -106.5 23t-81.5 65l38 33q31 -35 66 -53t85 -18q56 0 95.5 23
t59.5 61.5t20 83.5q0 51 -26.5 80.5t-94.5 56.5q-81 33 -115 68.5t-34 96.5q0 47 25 90t72.5 70t109.5 27q54 0 95 -19.5zM205 762l-24 29l132 102h34l102 -103l-26 -28l-97 80z" />
    <glyph glyph-name="Scommaaccent" unicode="&#x218;" horiz-adv-x="485" 
d="M399 676.5q41 -19.5 74 -57.5l-36 -34q-31 33 -62.5 47.5t-71.5 14.5q-64 0 -105.5 -38.5t-41.5 -97.5q0 -44 25.5 -70t93.5 -53q78 -30 115 -70t37 -108q0 -56 -27 -106.5t-80.5 -82.5t-128.5 -32q-61 0 -106.5 23t-81.5 65l38 33q31 -35 66 -53t85 -18q56 0 95.5 23
t59.5 61.5t20 83.5q0 51 -26.5 80.5t-94.5 56.5q-81 33 -115 68.5t-34 96.5q0 47 25 90t72.5 70t109.5 27q54 0 95 -19.5zM220.5 -96q10.5 -11 10.5 -27q0 -14 -5.5 -27t-21.5 -40l-51 -88h-34l46 115q-17 12 -17 33q0 19 12.5 32t31.5 13q18 0 28.5 -11z" />
    <glyph glyph-name="uni1E60" unicode="&#x1e60;" horiz-adv-x="485" 
d="M399 676.5q41 -19.5 74 -57.5l-36 -34q-31 33 -62.5 47.5t-71.5 14.5q-64 0 -105.5 -38.5t-41.5 -97.5q0 -44 25.5 -70t93.5 -53q78 -30 115 -70t37 -108q0 -56 -27 -106.5t-80.5 -82.5t-128.5 -32q-61 0 -106.5 23t-81.5 65l38 33q31 -35 66 -53t85 -18q56 0 95.5 23
t59.5 61.5t20 83.5q0 51 -26.5 80.5t-94.5 56.5q-81 33 -115 68.5t-34 96.5q0 47 25 90t72.5 70t109.5 27q54 0 95 -19.5zM296.5 806q-10.5 10 -10.5 27q0 19 13 32t32 13q17 0 27 -10.5t10 -26.5q0 -19 -12.5 -32t-31.5 -13q-17 0 -27.5 10z" />
    <glyph glyph-name="uni1E62" unicode="&#x1e62;" horiz-adv-x="485" 
d="M399 676.5q41 -19.5 74 -57.5l-36 -34q-31 33 -62.5 47.5t-71.5 14.5q-64 0 -105.5 -38.5t-41.5 -97.5q0 -44 25.5 -70t93.5 -53q78 -30 115 -70t37 -108q0 -56 -27 -106.5t-80.5 -82.5t-128.5 -32q-61 0 -106.5 23t-81.5 65l38 33q31 -35 66 -53t85 -18q56 0 95.5 23
t59.5 61.5t20 83.5q0 51 -26.5 80.5t-94.5 56.5q-81 33 -115 68.5t-34 96.5q0 47 25 90t72.5 70t109.5 27q54 0 95 -19.5zM216.5 -97q10.5 -10 10.5 -27q0 -19 -13 -32t-32 -13q-17 0 -27 10.5t-10 26.5q0 19 12.5 32t31.5 13q17 0 27.5 -10z" />
    <glyph glyph-name="uni1E9E" unicode="&#x1e9e;" horiz-adv-x="586" 
d="M551 631l-4 -40l-200 -208q180 -23 180 -169q0 -65 -27 -116t-76 -80t-111 -29q-61 0 -102 23l23 42q32 -15 78 -15q71 0 113 49.5t42 125.5q0 63 -44 93.5t-136 35.5l6 49l201 216q-78 38 -149 38q-135 0 -156 -147l-70 -499h-58l71 505q13 93 68.5 142t144.5 49
q101 0 206 -65z" />
    <glyph glyph-name="uni018F" unicode="&#x18f;" horiz-adv-x="583" 
d="M493 637.5q51 -58.5 51 -177.5q0 -121 -33.5 -229t-101.5 -175t-167 -67q-91 0 -141.5 62t-50.5 177q0 35 5 75.5t12 71.5l413 -1q5 41 5 87q0 97 -35.5 141t-104.5 44q-48 0 -90 -17t-87 -52l-28 38q51 42 101 61.5t108 19.5q93 0 144 -58.5zM385.5 106
q59.5 68 86.5 217h-358q-8 -56 -8 -97q0 -188 137 -188q83 0 142.5 68z" />
    <glyph glyph-name="T" unicode="T" horiz-adv-x="446" 
d="M496 685l-14 -52h-178l-89 -633h-58l89 633h-181l7 52h424z" />
    <glyph glyph-name="Tbar" unicode="&#x166;" horiz-adv-x="446" 
d="M482 633h-178l-35 -248h109l-6 -46h-109l-48 -339h-58l48 339h-109l6 46h109l35 248h-181l7 52h424z" />
    <glyph glyph-name="Tcaron" unicode="&#x164;" horiz-adv-x="446" 
d="M496 685l-14 -52h-178l-89 -633h-58l89 633h-181l7 52h424zM417 886l24 -28l-131 -102h-35l-102 103l26 27l98 -79z" />
    <glyph glyph-name="uni0162" unicode="&#x162;" horiz-adv-x="446" 
d="M496 685l-14 -52h-178l-89 -633h-1l-10 -65q37 -3 55.5 -20.5t18.5 -46.5q0 -39 -29.5 -67t-76.5 -28q-43 0 -72 23l21 34q21 -16 50 -16q24 0 41 14t17 38q0 20 -16.5 29t-56.5 9l21 96h-20l89 633h-181l7 52h424z" />
    <glyph glyph-name="uni1E70" unicode="&#x1e70;" horiz-adv-x="446" 
d="M496 685l-14 -52h-178l-89 -633h-58l89 633h-181l7 52h424zM53 -204l-24 29l132 105h34l102 -106l-27 -28l-98 84z" />
    <glyph glyph-name="uni021A" unicode="&#x21a;" horiz-adv-x="446" 
d="M496 685l-14 -52h-178l-89 -633h-58l89 633h-181l7 52h424zM203.5 -96q10.5 -11 10.5 -27q0 -14 -5.5 -27t-21.5 -40l-51 -88h-34l46 115q-17 12 -17 33q0 19 12.5 32t31.5 13q18 0 28.5 -11z" />
    <glyph glyph-name="uni023E" unicode="&#x23e;" horiz-adv-x="446" 
d="M482 633h-99l-118 -280l-50 -353h-58l21 147l-92 -217l-28 11l136 322l52 370h-181l7 52h300l25 59l28 -11l-20 -48h91zM281 469l69 164h-46z" />
    <glyph glyph-name="uni1E6A" unicode="&#x1e6a;" horiz-adv-x="446" 
d="M496 685l-14 -52h-178l-89 -633h-58l89 633h-181l7 52h424zM272.5 806q-10.5 10 -10.5 27q0 19 13 32t32 13q17 0 27 -10.5t10 -26.5q0 -19 -12.5 -32t-31.5 -13q-17 0 -27.5 10z" />
    <glyph glyph-name="uni1E6C" unicode="&#x1e6c;" horiz-adv-x="446" 
d="M496 685l-14 -52h-178l-89 -633h-58l89 633h-181l7 52h424zM199.5 -97q10.5 -10 10.5 -27q0 -19 -13 -32t-32 -13q-17 0 -27 10.5t-10 26.5q0 19 12.5 32t31.5 13q17 0 27.5 -10z" />
    <glyph glyph-name="uni01AC" unicode="&#x1ac;" horiz-adv-x="473" 
d="M510 633h-179l-88 -633h-58l89 633h-90q-37 0 -55.5 -20t-18.5 -54q0 -29 13 -62l-44 -19q-22 40 -22 83q0 55 34.5 89.5t96.5 34.5h336z" />
    <glyph glyph-name="uni1E6E" unicode="&#x1e6e;" horiz-adv-x="446" 
d="M496 685l-14 -52h-178l-89 -633h-58l89 633h-181l7 52h424zM66 -112h218l-7 -46h-218z" />
    <glyph glyph-name="uni01BC" unicode="&#x1bc;" horiz-adv-x="448" 
d="M3 73l38 31q24 -35 54.5 -51t72.5 -16q62 0 101.5 35.5t57 88t17.5 104.5q0 61 -27 90.5t-76 29.5q-30 0 -56.5 -8t-57.5 -24h-46l47 332h312l-15 -47h-250l-33 -240q54 33 113 33q70 0 108.5 -43.5t38.5 -122.5q0 -64 -24 -127.5t-77 -106t-135 -42.5q-106 0 -163 84z
" />
    <glyph glyph-name="uni0184" unicode="&#x184;" horiz-adv-x="508" 
d="M421 377.5q52 -44.5 52 -132.5q0 -63 -25 -118.5t-82 -91t-147 -35.5h-155l78 550l-43 35q41 38 70 100h50l-37 -263h92q95 0 147 -44.5zM370 108q42 59 42 136q0 68 -35 99t-103 31h-99l-46 -325h102q97 0 139 59z" />
    <glyph glyph-name="uni01A7" unicode="&#x1a7;" horiz-adv-x="473" 
d="M433.5 657.5q41.5 -38.5 41.5 -102.5q0 -58 -23.5 -97t-68 -65.5t-115.5 -51.5q-64 -22 -101 -46.5t-54.5 -58.5t-17.5 -85q0 -54 31.5 -83t85.5 -29q50 0 92.5 19t82.5 53l30 -38q-92 -84 -209 -84q-78 0 -125.5 44t-47.5 117q0 92 52 147.5t160 91.5q61 20 96.5 40
t54 49.5t18.5 75.5q0 45 -26 68.5t-74 23.5q-45 0 -82 -14.5t-79 -46.5l-29 37q47 38 92.5 56t101.5 18q72 0 113.5 -38.5z" />
    <glyph glyph-name="uni01AE" unicode="&#x1ae;" horiz-adv-x="446" 
d="M203 -81q-1 -7 -1 -20q0 -55 48 -55q21 0 36.5 5.5t32.5 16.5l22 -38q-45 -33 -96 -33q-47 0 -74 26t-27 75q0 8 2 28l10 76h1l89 633h-181l7 52h424l-14 -52h-178l-89 -633h-1z" />
    <glyph glyph-name="U" unicode="U" horiz-adv-x="583" 
d="M485 192q-13 -90 -73 -146.5t-157 -56.5q-88 0 -133.5 46.5t-45.5 122.5q0 19 3 38l69 489h57l-68 -489q-3 -19 -3 -36q0 -57 30.5 -88.5t93.5 -31.5q74 0 117 44t53 116l68 485h58z" />
    <glyph glyph-name="Uacute" unicode="&#xda;" horiz-adv-x="583" 
d="M485 192q-13 -90 -73 -146.5t-157 -56.5q-88 0 -133.5 46.5t-45.5 122.5q0 19 3 38l69 489h57l-68 -489q-3 -19 -3 -36q0 -57 30.5 -88.5t93.5 -31.5q74 0 117 44t53 116l68 485h58zM444 884l22 -51l-188 -75l-15 32z" />
    <glyph glyph-name="uni0244" unicode="&#x244;" horiz-adv-x="603" 
d="M598 514h-57l-45 -322q-13 -90 -73 -146.5t-157 -56.5q-88 0 -133.5 46.5t-45.5 122.5q0 19 3 38l45 318h-59l7 43h58l18 128h57l-18 -128h291l18 128h58l-18 -128h58zM483 514h-291l-44 -318q-3 -19 -3 -36q0 -57 30.5 -88.5t93.5 -31.5q74 0 117 44t53 116z" />
    <glyph glyph-name="Ubreve" unicode="&#x16c;" horiz-adv-x="583" 
d="M485 192q-13 -90 -73 -146.5t-157 -56.5q-88 0 -133.5 46.5t-45.5 122.5q0 19 3 38l69 489h57l-68 -489q-3 -19 -3 -36q0 -57 30.5 -88.5t93.5 -31.5q74 0 117 44t53 116l68 485h58zM283 793.5q-29 28.5 -28 72.5l36 5q12 -60 71 -60q32 0 55 17t36 46l38 -12
q-12 -43 -47.5 -70t-82.5 -27q-49 0 -78 28.5z" />
    <glyph glyph-name="uni01D3" unicode="&#x1d3;" horiz-adv-x="583" 
d="M485 192q-13 -90 -73 -146.5t-157 -56.5q-88 0 -133.5 46.5t-45.5 122.5q0 19 3 38l69 489h57l-68 -489q-3 -19 -3 -36q0 -57 30.5 -88.5t93.5 -31.5q74 0 117 44t53 116l68 485h58zM486 886l24 -28l-131 -102h-35l-102 103l26 27l98 -79z" />
    <glyph glyph-name="Ucircumflex" unicode="&#xdb;" horiz-adv-x="583" 
d="M485 192q-13 -90 -73 -146.5t-157 -56.5q-88 0 -133.5 46.5t-45.5 122.5q0 19 3 38l69 489h57l-68 -489q-3 -19 -3 -36q0 -57 30.5 -88.5t93.5 -31.5q74 0 117 44t53 116l68 485h58zM250 762l-24 29l132 102h34l102 -103l-26 -28l-97 80z" />
    <glyph glyph-name="uni0214" unicode="&#x214;" horiz-adv-x="583" 
d="M485 192q-13 -90 -73 -146.5t-157 -56.5q-88 0 -133.5 46.5t-45.5 122.5q0 19 3 38l69 489h57l-68 -489q-3 -19 -3 -36q0 -57 30.5 -88.5t93.5 -31.5q74 0 117 44t53 116l68 485h58zM276 936l51 -152l-39 -15l-66 143zM393 936l45 -148l-39 -15l-60 138z" />
    <glyph glyph-name="Udieresis" unicode="&#xdc;" horiz-adv-x="583" 
d="M485 192q-13 -90 -73 -146.5t-157 -56.5q-88 0 -133.5 46.5t-45.5 122.5q0 19 3 38l69 489h57l-68 -489q-3 -19 -3 -36q0 -57 30.5 -88.5t93.5 -31.5q74 0 117 44t53 116l68 485h58zM257 799.5q-9 9.5 -9 23.5q0 19 12 31t29 12q15 0 25 -9.5t10 -24.5q0 -18 -12 -30
t-30 -12q-16 0 -25 9.5zM428.5 799.5q-9.5 9.5 -9.5 23.5q0 19 12 31t30 12q15 0 24.5 -10t9.5 -24q0 -18 -12 -30t-30 -12q-15 0 -24.5 9.5z" />
    <glyph glyph-name="uni01D7" unicode="&#x1d7;" horiz-adv-x="583" 
d="M485 192q-13 -90 -73 -146.5t-157 -56.5q-88 0 -133.5 46.5t-45.5 122.5q0 19 3 38l69 489h57l-68 -489q-3 -19 -3 -36q0 -57 30.5 -88.5t93.5 -31.5q74 0 117 44t53 116l68 485h58zM457 970l34 -35l-127 -121l-23 22zM246.5 754.5q-9.5 9.5 -9.5 24.5q0 18 12 30t30 12
q15 0 24.5 -9.5t9.5 -23.5q0 -19 -12 -31t-30 -12q-15 0 -24.5 9.5zM417.5 754.5q-9.5 9.5 -9.5 24.5q0 18 12 30t30 12q15 0 24.5 -9.5t9.5 -23.5q0 -19 -12 -31t-30 -12q-15 0 -24.5 9.5z" />
    <glyph glyph-name="uni01D9" unicode="&#x1d9;" horiz-adv-x="583" 
d="M485 192q-13 -90 -73 -146.5t-157 -56.5q-88 0 -133.5 46.5t-45.5 122.5q0 19 3 38l69 489h57l-68 -489q-3 -19 -3 -36q0 -57 30.5 -88.5t93.5 -31.5q74 0 117 44t53 116l68 485h58zM490 958l24 -28l-131 -102h-35l-102 103l26 27l98 -79zM247.5 754.5
q-9.5 9.5 -9.5 24.5q0 18 12 30t30 12q15 0 24.5 -9.5t9.5 -23.5q0 -19 -12 -31t-30 -12q-15 0 -24.5 9.5zM418.5 754.5q-9.5 9.5 -9.5 24.5q0 18 12 30t30 12q16 0 25 -9t9 -24q0 -19 -11.5 -31t-29.5 -12q-16 0 -25.5 9.5z" />
    <glyph glyph-name="uni01DB" unicode="&#x1db;" horiz-adv-x="583" 
d="M485 192q-13 -90 -73 -146.5t-157 -56.5q-88 0 -133.5 46.5t-45.5 122.5q0 19 3 38l69 489h57l-68 -489q-3 -19 -3 -36q0 -57 30.5 -88.5t93.5 -31.5q74 0 117 44t53 116l68 485h58zM308 969l80 -136l-27 -19l-94 124zM247.5 754.5q-9.5 9.5 -9.5 24.5q0 18 12 30t30 12
q15 0 24.5 -9.5t9.5 -23.5q0 -19 -12 -31t-30 -12q-15 0 -24.5 9.5zM418.5 754.5q-9.5 9.5 -9.5 24.5q0 18 12 30t30 12q15 0 24.5 -9.5t9.5 -23.5q0 -19 -12 -31t-30 -12q-15 0 -24.5 9.5z" />
    <glyph glyph-name="uni01D5" unicode="&#x1d5;" horiz-adv-x="583" 
d="M485 192q-13 -90 -73 -146.5t-157 -56.5q-88 0 -133.5 46.5t-45.5 122.5q0 19 3 38l69 489h57l-68 -489q-3 -19 -3 -36q0 -57 30.5 -88.5t93.5 -31.5q74 0 117 44t53 116l68 485h58zM246 754.5q-9 9.5 -9 23.5q0 19 12 31t29 12q15 0 25 -9.5t10 -24.5q0 -18 -12 -30
t-30 -12q-16 0 -25 9.5zM417.5 754.5q-9.5 9.5 -9.5 23.5q0 19 12 31t30 12q15 0 24.5 -10t9.5 -24q0 -18 -12 -30t-30 -12q-15 0 -24.5 9.5zM480 877h-218l7 46h218z" />
    <glyph glyph-name="uni1EE4" unicode="&#x1ee4;" horiz-adv-x="583" 
d="M485 192q-13 -90 -73 -146.5t-157 -56.5q-88 0 -133.5 46.5t-45.5 122.5q0 19 3 38l69 489h57l-68 -489q-3 -19 -3 -36q0 -57 30.5 -88.5t93.5 -31.5q74 0 117 44t53 116l68 485h58zM268.5 -97q10.5 -10 10.5 -27q0 -19 -13 -32t-32 -13q-17 0 -27 10.5t-10 26.5
q0 19 12.5 32t31.5 13q17 0 27.5 -10z" />
    <glyph glyph-name="Ugrave" unicode="&#xd9;" horiz-adv-x="583" 
d="M485 192q-13 -90 -73 -146.5t-157 -56.5q-88 0 -133.5 46.5t-45.5 122.5q0 19 3 38l69 489h57l-68 -489q-3 -19 -3 -36q0 -57 30.5 -88.5t93.5 -31.5q74 0 117 44t53 116l68 485h58zM309 883l156 -93l-20 -32l-165 75z" />
    <glyph glyph-name="uni1EE6" unicode="&#x1ee6;" horiz-adv-x="583" 
d="M485 192q-13 -90 -73 -146.5t-157 -56.5q-88 0 -133.5 46.5t-45.5 122.5q0 19 3 38l69 489h57l-68 -489q-3 -19 -3 -36q0 -57 30.5 -88.5t93.5 -31.5q74 0 117 44t53 116l68 485h58zM349 847q33 3 52 15t19 39q0 34 -35 34q-14 0 -25 -3.5t-28 -10.5l-13 36q37 20 73 20
t57.5 -20.5t21.5 -54.5q0 -35 -21 -56t-58 -26l-6 -46h-45z" />
    <glyph glyph-name="Uhorn" unicode="&#x1af;" horiz-adv-x="591" 
d="M541 594l-56 -402q-13 -90 -73 -146.5t-157 -56.5q-88 0 -133.5 46.5t-45.5 122.5q0 19 3 38l69 489h57l-68 -489q-3 -19 -3 -36q0 -57 30.5 -88.5t93.5 -31.5q74 0 117 44t53 116l68 485h58l-7 -52q29 7 41.5 26t12.5 53q0 29 -6 47l43 9q9 -23 9 -57q0 -104 -106 -117z
" />
    <glyph glyph-name="uni1EE8" unicode="&#x1ee8;" horiz-adv-x="591" 
d="M466 833l-188 -75l-15 32l181 94zM541 594l-56 -402q-13 -90 -73 -146.5t-157 -56.5q-88 0 -133.5 46.5t-45.5 122.5q0 19 3 38l69 489h57l-68 -489q-3 -19 -3 -36q0 -57 30.5 -88.5t93.5 -31.5q74 0 117 44t53 116l68 485h58l-7 -52q29 7 41.5 26t12.5 53q0 29 -6 47
l43 9q9 -23 9 -57q0 -104 -106 -117z" />
    <glyph glyph-name="uni1EF0" unicode="&#x1ef0;" horiz-adv-x="591" 
d="M541 594l-56 -402q-13 -90 -73 -146.5t-157 -56.5q-88 0 -133.5 46.5t-45.5 122.5q0 19 3 38l69 489h57l-68 -489q-3 -19 -3 -36q0 -57 30.5 -88.5t93.5 -31.5q74 0 117 44t53 116l68 485h58l-7 -52q29 7 41.5 26t12.5 53q0 29 -6 47l43 9q9 -23 9 -57q0 -104 -106 -117z
M268.5 -97q10.5 -10 10.5 -27q0 -19 -13 -32t-32 -13q-17 0 -27 10.5t-10 26.5q0 19 12.5 32t31.5 13q17 0 27.5 -10z" />
    <glyph glyph-name="uni1EEA" unicode="&#x1eea;" horiz-adv-x="591" 
d="M465 790l-20 -32l-165 75l29 50zM541 594l-56 -402q-13 -90 -73 -146.5t-157 -56.5q-88 0 -133.5 46.5t-45.5 122.5q0 19 3 38l69 489h57l-68 -489q-3 -19 -3 -36q0 -57 30.5 -88.5t93.5 -31.5q74 0 117 44t53 116l68 485h58l-7 -52q29 7 41.5 26t12.5 53q0 29 -6 47
l43 9q9 -23 9 -57q0 -104 -106 -117z" />
    <glyph glyph-name="uni1EEC" unicode="&#x1eec;" horiz-adv-x="591" 
d="M360 931.5q-11 -3.5 -28 -10.5l-13 36q37 20 73 20t57.5 -20.5t21.5 -54.5q0 -35 -21 -56t-58 -26l-6 -46h-45l8 73q33 3 52 15t19 39q0 34 -35 34q-14 0 -25 -3.5zM541 594l-56 -402q-13 -90 -73 -146.5t-157 -56.5q-88 0 -133.5 46.5t-45.5 122.5q0 19 3 38l69 489h57
l-68 -489q-3 -19 -3 -36q0 -57 30.5 -88.5t93.5 -31.5q74 0 117 44t53 116l68 485h58l-7 -52q29 7 41.5 26t12.5 53q0 29 -6 47l43 9q9 -23 9 -57q0 -104 -106 -117z" />
    <glyph glyph-name="uni1EEE" unicode="&#x1eee;" horiz-adv-x="591" 
d="M293.5 828.5q-11.5 -9.5 -28.5 -31.5l-31 21q42 65 88 65q17 0 30 -6.5t29 -18.5q15 -11 23.5 -15.5t19.5 -4.5q14 0 27 10t29 33l32 -19q-39 -69 -88 -69q-18 0 -32 7t-29 19q-13 10 -22.5 14.5t-19.5 4.5q-16 0 -27.5 -9.5zM541 594l-56 -402q-13 -90 -73 -146.5
t-157 -56.5q-88 0 -133.5 46.5t-45.5 122.5q0 19 3 38l69 489h57l-68 -489q-3 -19 -3 -36q0 -57 30.5 -88.5t93.5 -31.5q74 0 117 44t53 116l68 485h58l-7 -52q29 7 41.5 26t12.5 53q0 29 -6 47l43 9q9 -23 9 -57q0 -104 -106 -117z" />
    <glyph glyph-name="Uhungarumlaut" unicode="&#x170;" horiz-adv-x="583" 
d="M485 192q-13 -90 -73 -146.5t-157 -56.5q-88 0 -133.5 46.5t-45.5 122.5q0 19 3 38l69 489h57l-68 -489q-3 -19 -3 -36q0 -57 30.5 -88.5t93.5 -31.5q74 0 117 44t53 116l68 485h58zM368 936l45 -27l-96 -136l-33 17zM486 936l45 -26l-104 -141l-34 17z" />
    <glyph glyph-name="uni0216" unicode="&#x216;" horiz-adv-x="583" 
d="M485 192q-13 -90 -73 -146.5t-157 -56.5q-88 0 -133.5 46.5t-45.5 122.5q0 19 3 38l69 489h57l-68 -489q-3 -19 -3 -36q0 -57 30.5 -88.5t93.5 -31.5q74 0 117 44t53 116l68 485h58zM245 796q13 50 48.5 79t82.5 29q49 0 78 -31t28 -81l-38 -5q-7 70 -70 70
q-65 0 -93 -73z" />
    <glyph glyph-name="Umacron" unicode="&#x16a;" horiz-adv-x="583" 
d="M485 192q-13 -90 -73 -146.5t-157 -56.5q-88 0 -133.5 46.5t-45.5 122.5q0 19 3 38l69 489h57l-68 -489q-3 -19 -3 -36q0 -57 30.5 -88.5t93.5 -31.5q74 0 117 44t53 116l68 485h58zM476 802h-218l7 46h218z" />
    <glyph glyph-name="Uogonek" unicode="&#x172;" horiz-adv-x="583" 
d="M554 685l-69 -493q-10 -72 -51.5 -124t-108.5 -70q-59 -30 -83.5 -56t-24.5 -61q0 -24 14.5 -37.5t42.5 -13.5q21 0 51 6l-6 -47q-27 -6 -53 -6q-48 0 -74 25t-26 64q0 72 89 117q-88 0 -133.5 46.5t-45.5 122.5q0 19 3 38l69 489h57l-68 -489q-3 -19 -3 -36
q0 -57 30.5 -88.5t93.5 -31.5q74 0 117 44t53 116l68 485h58z" />
    <glyph glyph-name="uni01B1" unicode="&#x1b1;" horiz-adv-x="632" 
d="M122.5 55.5q-55.5 66.5 -55.5 185.5q0 125 44.5 231t138.5 164h-111l7 49h175l-7 -50q-99 -52 -143.5 -162.5t-44.5 -233.5q0 -99 39.5 -150t112.5 -51q83 0 139.5 59t83 148.5t26.5 181.5q0 77 -24.5 126.5t-72.5 82.5l7 49h174l-7 -50h-111q46 -35 69.5 -84.5
t23.5 -123.5q0 -107 -35 -207.5t-105.5 -165.5t-169.5 -65q-98 0 -153.5 66.5z" />
    <glyph glyph-name="Uring" unicode="&#x16e;" horiz-adv-x="583" 
d="M485 192q-13 -90 -73 -146.5t-157 -56.5q-88 0 -133.5 46.5t-45.5 122.5q0 19 3 38l69 489h57l-68 -489q-3 -19 -3 -36q0 -57 30.5 -88.5t93.5 -31.5q74 0 117 44t53 116l68 485h58zM443.5 923q22.5 -23 22.5 -59q0 -46 -29 -75.5t-72 -29.5q-36 0 -58.5 23t-22.5 59
q0 46 29 75.5t72 29.5q36 0 58.5 -23zM340.5 891.5q-15.5 -19.5 -15.5 -49.5q0 -23 11 -35.5t31 -12.5q27 0 42.5 20t15.5 50q0 23 -11 35t-31 12q-27 0 -42.5 -19.5z" />
    <glyph glyph-name="Utilde" unicode="&#x168;" horiz-adv-x="583" 
d="M485 192q-13 -90 -73 -146.5t-157 -56.5q-88 0 -133.5 46.5t-45.5 122.5q0 19 3 38l69 489h57l-68 -489q-3 -19 -3 -36q0 -57 30.5 -88.5t93.5 -31.5q74 0 117 44t53 116l68 485h58zM392 800q-14 7 -29 19q-13 10 -22.5 14.5t-19.5 4.5q-16 0 -27.5 -9.5t-28.5 -31.5
l-31 21q42 65 88 65q17 0 30 -6.5t29 -18.5q15 -11 23.5 -15.5t19.5 -4.5q14 0 27 10t29 33l32 -19q-39 -69 -88 -69q-18 0 -32 7z" />
    <glyph glyph-name="uni1E78" unicode="&#x1e78;" horiz-adv-x="583" 
d="M485 192q-13 -90 -73 -146.5t-157 -56.5q-88 0 -133.5 46.5t-45.5 122.5q0 19 3 38l69 489h57l-68 -489q-3 -19 -3 -36q0 -57 30.5 -88.5t93.5 -31.5q74 0 117 44t53 116l68 485h58zM388 765q-14 7 -29 19q-13 10 -22.5 14.5t-19.5 4.5q-16 0 -27.5 -9.5t-28.5 -31.5
l-31 21q42 65 88 65q17 0 30 -6.5t29 -18.5q15 -11 23.5 -15.5t19.5 -4.5q14 0 27 10t29 33l32 -19q-39 -69 -88 -69q-18 0 -32 7zM459 1003l22 -51l-188 -75l-15 32z" />
    <glyph glyph-name="V" unicode="V" horiz-adv-x="497" 
d="M540 685l-295 -685h-67l-102 685h60l84 -624l259 624h61z" />
    <glyph glyph-name="uni01B2" unicode="&#x1b2;" horiz-adv-x="574" 
d="M522 674.5q21 -21.5 21 -60.5q0 -6 -2 -22l-44 -314q-20 -138 -91 -213.5t-171 -75.5q-74 0 -117 44t-43 116q0 22 2 34l70 502h58l-70 -502q-2 -12 -2 -33q0 -53 27.5 -81.5t77.5 -28.5q77 0 131 63t71 184l43 310q1 5 1 14q0 37 -31 37q-16 0 -38 -9l-13 40
q29 17 62 17q37 0 58 -21.5z" />
    <glyph glyph-name="uni0245" unicode="&#x245;" horiz-adv-x="514" 
d="M353 685l107 -685h-59l-91 637l-270 -637h-60l300 685h73z" />
    <glyph glyph-name="W" unicode="W" horiz-adv-x="732" 
d="M762 685l-230 -685h-72l-44 620l-218 -620h-72l-37 685h55l27 -629l221 629h66l44 -630l205 630h55z" />
    <glyph glyph-name="Wacute" unicode="&#x1e82;" horiz-adv-x="732" 
d="M762 685l-230 -685h-72l-44 620l-218 -620h-72l-37 685h55l27 -629l221 629h66l44 -630l205 630h55zM518 884l22 -51l-188 -75l-15 32z" />
    <glyph glyph-name="Wcircumflex" unicode="&#x174;" horiz-adv-x="732" 
d="M762 685l-230 -685h-72l-44 620l-218 -620h-72l-37 685h55l27 -629l221 629h66l44 -630l205 630h55zM324 762l-24 29l132 102h34l102 -103l-26 -28l-97 80z" />
    <glyph glyph-name="Wdieresis" unicode="&#x1e84;" horiz-adv-x="732" 
d="M762 685l-230 -685h-72l-44 620l-218 -620h-72l-37 685h55l27 -629l221 629h66l44 -630l205 630h55zM331 799.5q-9 9.5 -9 23.5q0 19 12 31t29 12q15 0 25 -9.5t10 -24.5q0 -18 -12 -30t-30 -12q-16 0 -25 9.5zM502.5 799.5q-9.5 9.5 -9.5 23.5q0 19 12 31t30 12
q15 0 24.5 -10t9.5 -24q0 -18 -12 -30t-30 -12q-15 0 -24.5 9.5z" />
    <glyph glyph-name="Wgrave" unicode="&#x1e80;" horiz-adv-x="732" 
d="M762 685l-230 -685h-72l-44 620l-218 -620h-72l-37 685h55l27 -629l221 629h66l44 -630l205 630h55zM383 883l156 -93l-20 -32l-165 75z" />
    <glyph glyph-name="uni2C72" unicode="&#x2c72;" horiz-adv-x="759" 
d="M198 0l218 620l44 -620h72l193 594q10 30 24 42.5t36 12.5q16 0 29 -6.5t28 -18.5l28 31q-37 41 -87 41q-39 0 -65.5 -20.5t-41.5 -68.5l-174 -553l-44 631h-66l-221 -629l-27 629h-55l37 -685h72z" />
    <glyph glyph-name="uni01F7" unicode="&#x1f7;" horiz-adv-x="509" 
d="M471 655q40 -41 40 -113q0 -112 -70.5 -178.5t-197.5 -115.5l-94 -36l-30 -212h-58l96 685h58l-7 -52q74 63 157 63q66 0 106 -41zM396 394.5q54 56.5 54 145.5q0 52 -25 79t-71 27q-81 0 -154 -66l-44 -318l88 36q98 40 152 96.5z" />
    <glyph glyph-name="X" unicode="X" horiz-adv-x="462" 
d="M489 685l-212 -315l140 -370h-62l-115 328l-205 -328h-64l238 368l-123 317h63l98 -278l178 278h64z" />
    <glyph glyph-name="Y" unicode="Y" horiz-adv-x="471" 
d="M519 685l-253 -417l-38 -268h-59l38 267l-136 418h60l111 -364l213 364h64z" />
    <glyph glyph-name="Yacute" unicode="&#xdd;" horiz-adv-x="471" 
d="M519 685l-253 -417l-38 -268h-59l38 267l-136 418h60l111 -364l213 364h64zM386 884l22 -51l-188 -75l-15 32z" />
    <glyph glyph-name="Ycircumflex" unicode="&#x176;" horiz-adv-x="471" 
d="M519 685l-253 -417l-38 -268h-59l38 267l-136 418h60l111 -364l213 364h64zM192 762l-24 29l132 102h34l102 -103l-26 -28l-97 80z" />
    <glyph glyph-name="Ydieresis" unicode="&#x178;" horiz-adv-x="471" 
d="M519 685l-253 -417l-38 -268h-59l38 267l-136 418h60l111 -364l213 364h64zM199 799.5q-9 9.5 -9 23.5q0 19 12 31t29 12q15 0 25 -9.5t10 -24.5q0 -18 -12 -30t-30 -12q-16 0 -25 9.5zM370.5 799.5q-9.5 9.5 -9.5 23.5q0 19 12 31t30 12q15 0 24.5 -10t9.5 -24
q0 -18 -12 -30t-30 -12q-15 0 -24.5 9.5z" />
    <glyph glyph-name="uni1EF4" unicode="&#x1ef4;" horiz-adv-x="471" 
d="M519 685l-253 -417l-38 -268h-59l38 267l-136 418h60l111 -364l213 364h64zM212.5 -97q10.5 -10 10.5 -27q0 -19 -13 -32t-32 -13q-17 0 -27 10.5t-10 26.5q0 19 12.5 32t31.5 13q17 0 27.5 -10z" />
    <glyph glyph-name="Ygrave" unicode="&#x1ef2;" horiz-adv-x="471" 
d="M519 685l-253 -417l-38 -268h-59l38 267l-136 418h60l111 -364l213 364h64zM251 883l156 -93l-20 -32l-165 75z" />
    <glyph glyph-name="uni01B3" unicode="&#x1b3;" horiz-adv-x="492" 
d="M207 267l-136 418h61l111 -364l158 290q25 47 51 66t64 19q50 0 87 -41l-28 -31q-15 12 -28 18.5t-28 6.5q-22 0 -37 -12t-33 -43l-183 -326l-38 -268h-59z" />
    <glyph glyph-name="uni1EF6" unicode="&#x1ef6;" horiz-adv-x="471" 
d="M519 685l-253 -417l-38 -268h-59l38 267l-136 418h60l111 -364l213 364h64zM291 847q33 3 52 15t19 39q0 34 -35 34q-14 0 -25 -3.5t-28 -10.5l-13 36q37 20 73 20t57.5 -20.5t21.5 -54.5q0 -35 -21 -56t-58 -26l-6 -46h-45z" />
    <glyph glyph-name="uni0232" unicode="&#x232;" horiz-adv-x="471" 
d="M519 685l-253 -417l-38 -268h-59l38 267l-136 418h60l111 -364l213 364h64zM418 802h-218l7 46h218z" />
    <glyph glyph-name="uni01A6" unicode="&#x1a6;" horiz-adv-x="529" 
d="M446.5 271.5q-40.5 -58.5 -124.5 -80.5l124 -318h-62l-118 308h-122l-25 -181h-58l96 685h58l-18 -127h91q199 0 199 -155q0 -73 -40.5 -131.5zM250 229q94 0 135 51t41 122q0 56 -32.5 82t-105.5 26h-98l-39 -281h99z" />
    <glyph glyph-name="uni024E" unicode="&#x24e;" horiz-adv-x="473" 
d="M466 594h43l-7 -43h-62l-172 -283l-38 -268h-59l38 267l-93 284h-63l7 43h42l-30 91h61l28 -91h243l53 91h64zM244 321l135 230h-205z" />
    <glyph glyph-name="uni1EF8" unicode="&#x1ef8;" horiz-adv-x="471" 
d="M519 685l-253 -417l-38 -268h-59l38 267l-136 418h60l111 -364l213 364h64zM334 800q-14 7 -29 19q-13 10 -22.5 14.5t-19.5 4.5q-16 0 -27.5 -9.5t-28.5 -31.5l-31 21q42 65 88 65q17 0 30 -6.5t29 -18.5q15 -11 23.5 -15.5t19.5 -4.5q14 0 27 10t29 33l32 -19
q-39 -69 -88 -69q-18 0 -32 7z" />
    <glyph glyph-name="Z" unicode="Z" horiz-adv-x="462" 
d="M-7 0l7 48l409 586h-294l8 51h357l-7 -48l-407 -586l320 1l-15 -52h-378z" />
    <glyph glyph-name="Zacute" unicode="&#x179;" horiz-adv-x="462" 
d="M-7 0l7 48l409 586h-294l8 51h357l-7 -48l-407 -586l320 1l-15 -52h-378zM388 884l22 -51l-188 -75l-15 32z" />
    <glyph glyph-name="Zcaron" unicode="&#x17d;" horiz-adv-x="462" 
d="M-7 0l7 48l409 586h-294l8 51h357l-7 -48l-407 -586l320 1l-15 -52h-378zM430 886l24 -28l-131 -102h-35l-102 103l26 27l98 -79z" />
    <glyph glyph-name="Zdotaccent" unicode="&#x17b;" horiz-adv-x="462" 
d="M-7 0l7 48l409 586h-294l8 51h357l-7 -48l-407 -586l320 1l-15 -52h-378zM285.5 806q-10.5 10 -10.5 27q0 19 13 32t32 13q17 0 27 -10.5t10 -26.5q0 -19 -12.5 -32t-31.5 -13q-17 0 -27.5 10z" />
    <glyph glyph-name="uni1E92" unicode="&#x1e92;" horiz-adv-x="462" 
d="M-7 0l7 48l409 586h-294l8 51h357l-7 -48l-407 -586l320 1l-15 -52h-378zM196.5 -97q10.5 -10 10.5 -27q0 -19 -13 -32t-32 -13q-17 0 -27 10.5t-10 26.5q0 19 12.5 32t31.5 13q17 0 27.5 -10z" />
    <glyph glyph-name="uni0224" unicode="&#x224;" horiz-adv-x="461" 
d="M473 637l-407 -586l316 1l-7 -52l-12 -79q-9 -62 -43.5 -94t-85.5 -32t-90 35l27 36q15 -12 28.5 -17.5t33.5 -5.5q29 0 48.5 20t25.5 61l11 76h-325l7 48l409 586h-294l8 51h357z" />
    <glyph glyph-name="uni01B5" unicode="&#x1b5;" horiz-adv-x="462" 
d="M480 685l-7 -48l-187 -269h92l-8 -47h-117l-188 -270l321 1l-15 -52h-378l7 48l191 273h-96l8 47h120l186 266h-294l8 51h357z" />
    <glyph glyph-name="Cacute.loclPLK" horiz-adv-x="498" 
d="M459.5 680q35.5 -16 67.5 -48l-35 -34q-28 25 -55 36.5t-62 11.5q-86 0 -143 -62t-83 -154.5t-26 -184.5q0 -102 40.5 -153.5t108.5 -51.5q43 0 75.5 14.5t68.5 42.5l28 -39q-82 -69 -176 -69t-149.5 67.5t-55.5 190.5q0 105 33 208.5t103 172t175 68.5q50 0 85.5 -16z
M457 908l42 -31l-127 -145l-27 19z" />
    <glyph glyph-name="Nacute.loclPLK" horiz-adv-x="603" 
d="M468 0h-75l-198 632q-5 -93 -26 -248l-53 -384h-55l96 685h76l199 -631q3 88 20 214l58 417h55zM453 908l42 -31l-127 -145l-27 19z" />
    <glyph glyph-name="Oacute.loclPLK" horiz-adv-x="624" 
d="M528 630q55 -66 55 -190q0 -104 -31.5 -207.5t-102 -173.5t-178.5 -70q-97 0 -152.5 67t-55.5 190q0 101 32.5 204.5t103 174.5t177.5 71q97 0 152 -66zM229 582q-56 -65 -81 -157.5t-25 -180.5q0 -102 39.5 -153.5t110.5 -51.5q91 0 147 65t79.5 158t23.5 181
q0 102 -38.5 153t-111.5 51q-88 0 -144 -65zM461 908l42 -31l-127 -145l-27 19z" />
    <glyph glyph-name="Sacute.loclPLK" horiz-adv-x="485" 
d="M399 676.5q41 -19.5 74 -57.5l-36 -34q-31 33 -62.5 47.5t-71.5 14.5q-64 0 -105.5 -38.5t-41.5 -97.5q0 -44 25.5 -70t93.5 -53q78 -30 115 -70t37 -108q0 -56 -27 -106.5t-80.5 -82.5t-128.5 -32q-61 0 -106.5 23t-81.5 65l38 33q31 -35 66 -53t85 -18q56 0 95.5 23
t59.5 61.5t20 83.5q0 51 -26.5 80.5t-94.5 56.5q-81 33 -115 68.5t-34 96.5q0 47 25 90t72.5 70t109.5 27q54 0 95 -19.5zM390 908l42 -31l-127 -145l-27 19z" />
    <glyph glyph-name="Zacute.loclPLK" horiz-adv-x="462" 
d="M-7 0l7 48l409 586h-294l8 51h357l-7 -48l-407 -586l320 1l-15 -52h-378zM379 908l42 -31l-127 -145l-27 19z" />
    <glyph glyph-name="Eng.ss01" horiz-adv-x="594" 
d="M502.5 656q36.5 -40 36.5 -109q0 -19 -3 -40l-71 -507h1l-12 -79q-9 -62 -44 -94t-86 -32q-52 0 -91 35l27 36q16 -11 29.5 -16.5t32.5 -5.5q29 0 49 19.5t26 60.5l11 76h-1l71 503q3 21 3 40q0 103 -93 103q-55 0 -100 -28.5t-94 -81.5l-75 -536h-58l96 685h51l-8 -89
q93 100 197 100q69 0 105.5 -40z" />
    <glyph glyph-name="uni019D.ss01" horiz-adv-x="593" 
d="M502 656q37 -40 37 -109q0 -19 -3 -40l-71 -507h-58l71 503q3 21 3 39q0 104 -94 104q-53 0 -99 -28.5t-94 -80.5l-76 -537h1l-12 -79q-9 -62 -44 -94t-86 -32q-52 0 -91 35l27 36q16 -11 29.5 -16.5t32.5 -5.5q29 0 49 19.5t26 60.5l11 76l96 685h50l-7 -88
q92 99 196 99q69 0 106 -40z" />
    <glyph glyph-name="uni2C64.ss01" horiz-adv-x="357" 
d="M413 686l-17 -55q-26 8 -48 8q-56 0 -93.5 -39t-68.5 -124l-67 -476l-11 -81q-1 -7 -1 -20q0 -55 48 -55q21 0 36.5 5.5t32.5 16.5l22 -38q-45 -33 -96 -33q-47 0 -74 26t-27 75q0 8 2 28l10 76l96 685h51l-10 -103q28 58 66 86t92 28q31 0 57 -10z" />
    <glyph glyph-name="uni0181.ss02" horiz-adv-x="513" 
d="M418 373q52 -44 52 -129q0 -63 -24.5 -118t-81.5 -90.5t-147 -35.5h-156l96 685h314l-15 -50h-247l-31 -218h93q95 0 147 -44zM366.5 107.5q42.5 58.5 42.5 135.5q0 126 -139 126h-99l-45 -320h101q97 0 139.5 58.5z" />
    <glyph glyph-name="uniA78D.ss02" horiz-adv-x="529" 
d="M394 0h-58l38 266h-322l59 419h58l-52 -369h264l52 369h58z" />
    <glyph glyph-name="uni0299" unicode="&#x299;" horiz-adv-x="471" 
d="M423 180q0 -88 -59.5 -134t-158.5 -46h-148l73 518q78 16 144 16q76 0 117 -33t41 -90q-1 -52 -30.5 -84.5t-83.5 -43.5q105 -11 105 -103zM181 479l-25 -177h99q56 0 87.5 29t32.5 79q0 38 -24.5 57.5t-77.5 19.5q-44 0 -92 -8zM321 78.5q45 31.5 45 100.5
q0 42 -26.5 60t-81.5 18h-108l-30 -210h83q73 0 118 31.5z" />
    <glyph glyph-name="uni0262" unicode="&#x262;" horiz-adv-x="498" 
d="M382.5 520.5q33.5 -14.5 63.5 -43.5l-34 -34q-25 23 -51 33.5t-58 10.5q-60 0 -104 -41.5t-66.5 -109.5t-22.5 -147t31.5 -115t92.5 -36q55 0 109 27l23 174h-98l1 47h159l-34 -249q-78 -46 -164 -46q-85 0 -131.5 51t-46.5 151q0 94 31.5 172.5t89 124t131.5 45.5
q45 0 78.5 -14.5z" />
    <glyph glyph-name="uni029B" unicode="&#x29b;" horiz-adv-x="496" 
d="M629 708l-27 -35q-15 11 -29.5 17t-33.5 6q-29 0 -48.5 -19.5t-25.5 -61.5l-19 -138l-29 -29q-28 20 -55.5 29.5t-58.5 9.5q-61 0 -104.5 -41.5t-66.5 -109.5t-23 -147q0 -151 125 -151q56 0 108 27l24 174h-98v47h160l-34 -249q-78 -46 -164 -46q-85 0 -132 50.5
t-47 148.5q0 95 32 174t89 125t130 46q55 0 94 -24l15 106q9 62 42 94t85 32q49 0 91 -35z" />
    <glyph glyph-name="uni029C" unicode="&#x29c;" horiz-adv-x="527" 
d="M341 0l35 247h-228l-35 -247h-56l74 523h56l-33 -228h229l32 228h56l-74 -523h-56z" />
    <glyph glyph-name="uni026A" unicode="&#x26a;" horiz-adv-x="279" 
d="M289 479h-91l-61 -435h91l-6 -44h-238l6 44h90l62 435h-91l6 44h238z" />
    <glyph glyph-name="uni029F" unicode="&#x29f;" horiz-adv-x="371" 
d="M187 523l-67 -474h214l-15 -49h-262l74 523h56z" />
    <glyph glyph-name="uni0274" unicode="&#x274;" horiz-adv-x="529" 
d="M398 0h-70l-161 466q-6 -92 -19 -185l-40 -281h-51l74 523h70l161 -467q2 70 16 167l42 300h52z" />
    <glyph glyph-name="uni0276" unicode="&#x276;" horiz-adv-x="651" 
d="M640 477h-223q22 -23 34.5 -60.5t12.5 -84.5l-1 -38h123l-7 -45h-122q-11 -64 -38 -117.5t-69 -85.5h240l-6 -46h-304q-30 -11 -63 -11q-79 0 -122.5 53t-43.5 147q0 78 25 157.5t80.5 133.5t140.5 54q37 0 63 -11h294zM327.5 85.5q41.5 48.5 60 118t18.5 135.5
q0 73 -28 110.5t-82 37.5q-67 0 -109 -49t-60 -118t-18 -135q0 -73 28.5 -110.5t82.5 -37.5q66 0 107.5 48.5z" />
    <glyph glyph-name="uni0280" unicode="&#x280;" horiz-adv-x="463" 
d="M383.5 283.5q-35.5 -40.5 -98.5 -57.5l104 -226h-59l-96 217h-92l-30 -217h-55l74 523h117q84 0 127.5 -34t43.5 -100q0 -65 -35.5 -105.5zM220 262q67 0 104 33t37 93q0 46 -28 67.5t-89 21.5h-65l-30 -215h71z" />
    <glyph glyph-name="uni0281" unicode="&#x281;" horiz-adv-x="464" 
d="M364.5 251.5q23.5 -30.5 23.5 -75.5q0 -87 -56.5 -131.5t-152.5 -44.5h-122l74 523h55l-31 -217h94l155 217h60l-167 -227q44 -14 67.5 -44.5zM291 78q39 32 39 97q0 86 -105 86h-76l-31 -215h63q71 0 110 32z" />
    <glyph glyph-name="uni028F" unicode="&#x28f;" horiz-adv-x="407" 
d="M429 523l-205 -317l-29 -206h-56l29 205l-115 318h58l90 -273l166 273h62z" />
    <glyph glyph-name="a" unicode="a" horiz-adv-x="511" 
d="M383 524q35 -10 71 -30l-54 -380q-4 -30 -4 -38q0 -18 6.5 -29t21.5 -18l-18 -40q-31 9 -46.5 29.5t-14.5 61.5q-64 -91 -148 -91q-69 0 -108 51t-39 139q0 83 27 164.5t84.5 136t144.5 54.5q42 0 77 -10zM194.5 441q-44.5 -47 -65.5 -118t-21 -143q0 -71 25 -107.5
t73 -36.5q41 0 75.5 27.5t66.5 79.5l46 324q-39 21 -88 21q-67 0 -111.5 -47z" />
    <glyph glyph-name="aacute" unicode="&#xe1;" horiz-adv-x="511" 
d="M383 524q35 -10 71 -30l-54 -380q-4 -30 -4 -38q0 -18 6.5 -29t21.5 -18l-18 -40q-31 9 -46.5 29.5t-14.5 61.5q-64 -91 -148 -91q-69 0 -108 51t-39 139q0 83 27 164.5t84.5 136t144.5 54.5q42 0 77 -10zM194.5 441q-44.5 -47 -65.5 -118t-21 -143q0 -71 25 -107.5
t73 -36.5q41 0 75.5 27.5t66.5 79.5l46 324q-39 21 -88 21q-67 0 -111.5 -47zM417 781l23 -51l-188 -85l-17 32z" />
    <glyph glyph-name="abreve" unicode="&#x103;" horiz-adv-x="511" 
d="M383 524q35 -10 71 -30l-54 -380q-4 -30 -4 -38q0 -18 6.5 -29t21.5 -18l-18 -40q-31 9 -46.5 29.5t-14.5 61.5q-64 -91 -148 -91q-69 0 -108 51t-39 139q0 83 27 164.5t84.5 136t144.5 54.5q42 0 77 -10zM194.5 441q-44.5 -47 -65.5 -118t-21 -143q0 -71 25 -107.5
t73 -36.5q41 0 75.5 27.5t66.5 79.5l46 324q-39 21 -88 21q-67 0 -111.5 -47zM251.5 684q-28.5 31 -27.5 81l39 5q4 -35 20 -52.5t47 -17.5q32 0 56.5 19t37.5 54l37 -12q-13 -50 -48.5 -79t-83.5 -29q-49 0 -77.5 31z" />
    <glyph glyph-name="uni1EAF" unicode="&#x1eaf;" horiz-adv-x="511" 
d="M423 864l34 -35l-127 -121l-23 22zM245 624.5q-29 28.5 -28 72.5l36 5q12 -60 71 -60q32 0 55 17t36 46l38 -12q-12 -43 -47.5 -70t-82.5 -27q-49 0 -78 28.5zM383 524q35 -10 71 -30l-54 -380q-4 -30 -4 -38q0 -18 6.5 -29t21.5 -18l-18 -40q-31 9 -46.5 29.5
t-14.5 61.5q-64 -91 -148 -91q-69 0 -108 51t-39 139q0 83 27 164.5t84.5 136t144.5 54.5q42 0 77 -10zM194.5 441q-44.5 -47 -65.5 -118t-21 -143q0 -71 25 -107.5t73 -36.5q41 0 75.5 27.5t66.5 79.5l46 324q-39 21 -88 21q-67 0 -111.5 -47z" />
    <glyph glyph-name="uni1EB7" unicode="&#x1eb7;" horiz-adv-x="511" 
d="M383 524q35 -10 71 -30l-54 -380q-4 -30 -4 -38q0 -18 6.5 -29t21.5 -18l-18 -40q-31 9 -46.5 29.5t-14.5 61.5q-64 -91 -148 -91q-69 0 -108 51t-39 139q0 83 27 164.5t84.5 136t144.5 54.5q42 0 77 -10zM194.5 441q-44.5 -47 -65.5 -118t-21 -143q0 -71 25 -107.5
t73 -36.5q41 0 75.5 27.5t66.5 79.5l46 324q-39 21 -88 21q-67 0 -111.5 -47zM251.5 684q-28.5 31 -27.5 81l39 5q4 -35 20 -52.5t47 -17.5q32 0 56.5 19t37.5 54l37 -12q-13 -50 -48.5 -79t-83.5 -29q-49 0 -77.5 31zM254.5 -97q10.5 -10 10.5 -27q0 -19 -13 -32t-32 -13
q-17 0 -27 10.5t-10 26.5q0 19 12.5 32t31.5 13q17 0 27.5 -10z" />
    <glyph glyph-name="uni1EB1" unicode="&#x1eb1;" horiz-adv-x="511" 
d="M274 863l80 -136l-27 -19l-94 124zM245 624.5q-29 28.5 -28 72.5l36 5q12 -60 71 -60q32 0 55 17t36 46l38 -12q-12 -43 -47.5 -70t-82.5 -27q-49 0 -78 28.5zM383 524q35 -10 71 -30l-54 -380q-4 -30 -4 -38q0 -18 6.5 -29t21.5 -18l-18 -40q-31 9 -46.5 29.5
t-14.5 61.5q-64 -91 -148 -91q-69 0 -108 51t-39 139q0 83 27 164.5t84.5 136t144.5 54.5q42 0 77 -10zM194.5 441q-44.5 -47 -65.5 -118t-21 -143q0 -71 25 -107.5t73 -36.5q41 0 75.5 27.5t66.5 79.5l46 324q-39 21 -88 21q-67 0 -111.5 -47z" />
    <glyph glyph-name="uni1EB3" unicode="&#x1eb3;" horiz-adv-x="511" 
d="M383 524q35 -10 71 -30l-54 -380q-4 -30 -4 -38q0 -18 6.5 -29t21.5 -18l-18 -40q-31 9 -46.5 29.5t-14.5 61.5q-64 -91 -148 -91q-69 0 -108 51t-39 139q0 83 27 164.5t84.5 136t144.5 54.5q42 0 77 -10zM194.5 441q-44.5 -47 -65.5 -118t-21 -143q0 -71 25 -107.5
t73 -36.5q41 0 75.5 27.5t66.5 79.5l46 324q-39 21 -88 21q-67 0 -111.5 -47zM246 624.5q-29 28.5 -28 72.5l36 5q12 -60 71 -60q32 0 55 17t36 46l38 -12q-12 -43 -47.5 -70t-82.5 -27q-49 0 -78 28.5zM321 771q71 6 71 54q0 16 -9.5 25t-26.5 9q-15 0 -26.5 -3.5
t-26.5 -10.5l-13 36q37 20 73 20t57.5 -20.5t21.5 -53.5q0 -36 -21 -56.5t-58 -26.5l-8 -55h-44z" />
    <glyph glyph-name="uni1EB5" unicode="&#x1eb5;" horiz-adv-x="511" 
d="M362 752q-14 7 -29 19q-13 10 -22.5 14.5t-19.5 4.5q-16 0 -27.5 -9.5t-28.5 -31.5l-31 21q42 65 88 65q17 0 30 -6.5t29 -18.5q15 -11 23.5 -15.5t19.5 -4.5q14 0 27 10t29 33l32 -19q-39 -69 -88 -69q-18 0 -32 7zM244 624.5q-29 28.5 -28 72.5l36 5q12 -60 71 -60
q32 0 55 17t36 46l38 -12q-12 -43 -47.5 -70t-82.5 -27q-49 0 -78 28.5zM383 524q35 -10 71 -30l-54 -380q-4 -30 -4 -38q0 -18 6.5 -29t21.5 -18l-18 -40q-31 9 -46.5 29.5t-14.5 61.5q-64 -91 -148 -91q-69 0 -108 51t-39 139q0 83 27 164.5t84.5 136t144.5 54.5
q42 0 77 -10zM194.5 441q-44.5 -47 -65.5 -118t-21 -143q0 -71 25 -107.5t73 -36.5q41 0 75.5 27.5t66.5 79.5l46 324q-39 21 -88 21q-67 0 -111.5 -47z" />
    <glyph glyph-name="uni01CE" unicode="&#x1ce;" horiz-adv-x="511" 
d="M383 524q35 -10 71 -30l-54 -380q-4 -30 -4 -38q0 -18 6.5 -29t21.5 -18l-18 -40q-31 9 -46.5 29.5t-14.5 61.5q-64 -91 -148 -91q-69 0 -108 51t-39 139q0 83 27 164.5t84.5 136t144.5 54.5q42 0 77 -10zM194.5 441q-44.5 -47 -65.5 -118t-21 -143q0 -71 25 -107.5
t73 -36.5q41 0 75.5 27.5t66.5 79.5l46 324q-39 21 -88 21q-67 0 -111.5 -47zM451 767l23 -28l-131 -106h-35l-102 106l27 28l96 -83z" />
    <glyph glyph-name="acircumflex" unicode="&#xe2;" horiz-adv-x="511" 
d="M383 524q35 -10 71 -30l-54 -380q-4 -30 -4 -38q0 -18 6.5 -29t21.5 -18l-18 -40q-31 9 -46.5 29.5t-14.5 61.5q-64 -91 -148 -91q-69 0 -108 51t-39 139q0 83 27 164.5t84.5 136t144.5 54.5q42 0 77 -10zM194.5 441q-44.5 -47 -65.5 -118t-21 -143q0 -71 25 -107.5
t73 -36.5q41 0 75.5 27.5t66.5 79.5l46 324q-39 21 -88 21q-67 0 -111.5 -47zM222 644l-25 29l132 106h35l102 -107l-28 -28l-96 84z" />
    <glyph glyph-name="uni1EA5" unicode="&#x1ea5;" horiz-adv-x="511" 
d="M516 847l34 -35l-127 -121l-23 22zM208 586l-24 29l132 102h34l102 -103l-26 -28l-97 80zM383 524q35 -10 71 -30l-54 -380q-4 -30 -4 -38q0 -18 6.5 -29t21.5 -18l-18 -40q-31 9 -46.5 29.5t-14.5 61.5q-64 -91 -148 -91q-69 0 -108 51t-39 139q0 83 27 164.5t84.5 136
t144.5 54.5q42 0 77 -10zM194.5 441q-44.5 -47 -65.5 -118t-21 -143q0 -71 25 -107.5t73 -36.5q41 0 75.5 27.5t66.5 79.5l46 324q-39 21 -88 21q-67 0 -111.5 -47z" />
    <glyph glyph-name="uni1EAD" unicode="&#x1ead;" horiz-adv-x="511" 
d="M383 524q35 -10 71 -30l-54 -380q-4 -30 -4 -38q0 -18 6.5 -29t21.5 -18l-18 -40q-31 9 -46.5 29.5t-14.5 61.5q-64 -91 -148 -91q-69 0 -108 51t-39 139q0 83 27 164.5t84.5 136t144.5 54.5q42 0 77 -10zM194.5 441q-44.5 -47 -65.5 -118t-21 -143q0 -71 25 -107.5
t73 -36.5q41 0 75.5 27.5t66.5 79.5l46 324q-39 21 -88 21q-67 0 -111.5 -47zM222 644l-25 29l132 106h35l102 -107l-28 -28l-96 84zM254.5 -97q10.5 -10 10.5 -27q0 -19 -13 -32t-32 -13q-17 0 -27 10.5t-10 26.5q0 19 12.5 32t31.5 13q17 0 27.5 -10z" />
    <glyph glyph-name="uni1EA7" unicode="&#x1ea7;" horiz-adv-x="511" 
d="M176 846l80 -136l-27 -19l-94 124zM208 586l-24 29l132 102h34l102 -103l-26 -28l-97 80zM383 524q35 -10 71 -30l-54 -380q-4 -30 -4 -38q0 -18 6.5 -29t21.5 -18l-18 -40q-31 9 -46.5 29.5t-14.5 61.5q-64 -91 -148 -91q-69 0 -108 51t-39 139q0 83 27 164.5t84.5 136
t144.5 54.5q42 0 77 -10zM194.5 441q-44.5 -47 -65.5 -118t-21 -143q0 -71 25 -107.5t73 -36.5q41 0 75.5 27.5t66.5 79.5l46 324q-39 21 -88 21q-67 0 -111.5 -47z" />
    <glyph glyph-name="uni1EA9" unicode="&#x1ea9;" horiz-adv-x="511" 
d="M383 524q35 -10 71 -30l-54 -380q-4 -30 -4 -38q0 -18 6.5 -29t21.5 -18l-18 -40q-31 9 -46.5 29.5t-14.5 61.5q-64 -91 -148 -91q-69 0 -108 51t-39 139q0 83 27 164.5t84.5 136t144.5 54.5q42 0 77 -10zM194.5 441q-44.5 -47 -65.5 -118t-21 -143q0 -71 25 -107.5
t73 -36.5q41 0 75.5 27.5t66.5 79.5l46 324q-39 21 -88 21q-67 0 -111.5 -47zM205 586l-24 29l132 102h34l102 -103l-26 -28l-97 80zM432 770q71 6 71 54q0 16 -9.5 25t-26.5 9q-15 0 -26.5 -3.5t-26.5 -10.5l-13 36q37 20 73 20t57.5 -20.5t21.5 -53.5q0 -36 -21 -56.5
t-58 -26.5l-8 -55h-44z" />
    <glyph glyph-name="uni1EAB" unicode="&#x1eab;" horiz-adv-x="511" 
d="M364 747q-14 7 -29 19q-13 10 -22.5 14.5t-19.5 4.5q-16 0 -27.5 -9.5t-28.5 -31.5l-31 21q42 65 88 65q17 0 30 -6.5t29 -18.5q15 -11 23.5 -15.5t19.5 -4.5q14 0 27 10t29 33l32 -19q-39 -69 -88 -69q-18 0 -32 7zM210 576l-24 29l132 102h34l102 -103l-26 -28l-97 80z
M383 524q35 -10 71 -30l-54 -380q-4 -30 -4 -38q0 -18 6.5 -29t21.5 -18l-18 -40q-31 9 -46.5 29.5t-14.5 61.5q-64 -91 -148 -91q-69 0 -108 51t-39 139q0 83 27 164.5t84.5 136t144.5 54.5q42 0 77 -10zM194.5 441q-44.5 -47 -65.5 -118t-21 -143q0 -71 25 -107.5
t73 -36.5q41 0 75.5 27.5t66.5 79.5l46 324q-39 21 -88 21q-67 0 -111.5 -47z" />
    <glyph glyph-name="uni0201" unicode="&#x201;" horiz-adv-x="511" 
d="M383 524q35 -10 71 -30l-54 -380q-4 -30 -4 -38q0 -18 6.5 -29t21.5 -18l-18 -40q-31 9 -46.5 29.5t-14.5 61.5q-64 -91 -148 -91q-69 0 -108 51t-39 139q0 83 27 164.5t84.5 136t144.5 54.5q42 0 77 -10zM194.5 441q-44.5 -47 -65.5 -118t-21 -143q0 -71 25 -107.5
t73 -36.5q41 0 75.5 27.5t66.5 79.5l46 324q-39 21 -88 21q-67 0 -111.5 -47zM245 810l51 -152l-39 -15l-66 143zM362 810l45 -148l-39 -15l-60 138z" />
    <glyph glyph-name="adieresis" unicode="&#xe4;" horiz-adv-x="511" 
d="M383 524q35 -10 71 -30l-54 -380q-4 -30 -4 -38q0 -18 6.5 -29t21.5 -18l-18 -40q-31 9 -46.5 29.5t-14.5 61.5q-64 -91 -148 -91q-69 0 -108 51t-39 139q0 83 27 164.5t84.5 136t144.5 54.5q42 0 77 -10zM194.5 441q-44.5 -47 -65.5 -118t-21 -143q0 -71 25 -107.5
t73 -36.5q41 0 75.5 27.5t66.5 79.5l46 324q-39 21 -88 21q-67 0 -111.5 -47zM223 673.5q-9 9.5 -9 23.5q0 19 12 31t29 12q15 0 25 -9.5t10 -24.5q0 -18 -12 -30t-30 -12q-16 0 -25 9.5zM394.5 673.5q-9.5 9.5 -9.5 23.5q0 19 12 31t30 12q15 0 24.5 -10t9.5 -24
q0 -18 -12 -30t-30 -12q-15 0 -24.5 9.5z" />
    <glyph glyph-name="uni01DF" unicode="&#x1df;" horiz-adv-x="511" 
d="M383 524q35 -10 71 -30l-54 -380q-4 -30 -4 -38q0 -18 6.5 -29t21.5 -18l-18 -40q-31 9 -46.5 29.5t-14.5 61.5q-64 -91 -148 -91q-69 0 -108 51t-39 139q0 83 27 164.5t84.5 136t144.5 54.5q42 0 77 -10zM194.5 441q-44.5 -47 -65.5 -118t-21 -143q0 -71 25 -107.5
t73 -36.5q41 0 75.5 27.5t66.5 79.5l46 324q-39 21 -88 21q-67 0 -111.5 -47zM215 643.5q-9 9.5 -9 23.5q0 19 12 31t29 12q15 0 25 -9.5t10 -24.5q0 -18 -12 -30t-30 -12q-16 0 -25 9.5zM386.5 643.5q-9.5 9.5 -9.5 23.5q0 19 12 31t30 12q15 0 24.5 -10t9.5 -24
q0 -18 -12 -30t-30 -12q-15 0 -24.5 9.5zM448 772h-218l7 46h218z" />
    <glyph glyph-name="uni0227" unicode="&#x227;" horiz-adv-x="511" 
d="M383 524q35 -10 71 -30l-54 -380q-4 -30 -4 -38q0 -18 6.5 -29t21.5 -18l-18 -40q-31 9 -46.5 29.5t-14.5 61.5q-64 -91 -148 -91q-69 0 -108 51t-39 139q0 83 27 164.5t84.5 136t144.5 54.5q42 0 77 -10zM194.5 441q-44.5 -47 -65.5 -118t-21 -143q0 -71 25 -107.5
t73 -36.5q41 0 75.5 27.5t66.5 79.5l46 324q-39 21 -88 21q-67 0 -111.5 -47zM306.5 680q-10.5 10 -10.5 27q0 19 13 32t32 13q17 0 27 -10.5t10 -26.5q0 -19 -12.5 -32t-31.5 -13q-17 0 -27.5 10z" />
    <glyph glyph-name="uni1EA1" unicode="&#x1ea1;" horiz-adv-x="511" 
d="M383 524q35 -10 71 -30l-54 -380q-4 -30 -4 -38q0 -18 6.5 -29t21.5 -18l-18 -40q-31 9 -46.5 29.5t-14.5 61.5q-64 -91 -148 -91q-69 0 -108 51t-39 139q0 83 27 164.5t84.5 136t144.5 54.5q42 0 77 -10zM194.5 441q-44.5 -47 -65.5 -118t-21 -143q0 -71 25 -107.5
t73 -36.5q41 0 75.5 27.5t66.5 79.5l46 324q-39 21 -88 21q-67 0 -111.5 -47zM254.5 -97q10.5 -10 10.5 -27q0 -19 -13 -32t-32 -13q-17 0 -27 10.5t-10 26.5q0 19 12.5 32t31.5 13q17 0 27.5 -10z" />
    <glyph glyph-name="uni01E1" unicode="&#x1e1;" horiz-adv-x="511" 
d="M383 524q35 -10 71 -30l-54 -380q-4 -30 -4 -38q0 -18 6.5 -29t21.5 -18l-18 -40q-31 9 -46.5 29.5t-14.5 61.5q-64 -91 -148 -91q-69 0 -108 51t-39 139q0 83 27 164.5t84.5 136t144.5 54.5q42 0 77 -10zM194.5 441q-44.5 -47 -65.5 -118t-21 -143q0 -71 25 -107.5
t73 -36.5q41 0 75.5 27.5t66.5 79.5l46 324q-39 21 -88 21q-67 0 -111.5 -47zM299.5 630q-10.5 10 -10.5 27q0 19 13 32t32 13q17 0 27 -10.5t10 -26.5q0 -19 -12.5 -32t-31.5 -13q-17 0 -27.5 10zM452 757h-218l7 46h218z" />
    <glyph glyph-name="agrave" unicode="&#xe0;" horiz-adv-x="511" 
d="M383 524q35 -10 71 -30l-54 -380q-4 -30 -4 -38q0 -18 6.5 -29t21.5 -18l-18 -40q-31 9 -46.5 29.5t-14.5 61.5q-64 -91 -148 -91q-69 0 -108 51t-39 139q0 83 27 164.5t84.5 136t144.5 54.5q42 0 77 -10zM194.5 441q-44.5 -47 -65.5 -118t-21 -143q0 -71 25 -107.5
t73 -36.5q41 0 75.5 27.5t66.5 79.5l46 324q-39 21 -88 21q-67 0 -111.5 -47zM285 780l155 -103l-20 -32l-165 85z" />
    <glyph glyph-name="uni1EA3" unicode="&#x1ea3;" horiz-adv-x="511" 
d="M383 524q35 -10 71 -30l-54 -380q-4 -30 -4 -38q0 -18 6.5 -29t21.5 -18l-18 -40q-31 9 -46.5 29.5t-14.5 61.5q-64 -91 -148 -91q-69 0 -108 51t-39 139q0 83 27 164.5t84.5 136t144.5 54.5q42 0 77 -10zM194.5 441q-44.5 -47 -65.5 -118t-21 -143q0 -71 25 -107.5
t73 -36.5q41 0 75.5 27.5t66.5 79.5l46 324q-39 21 -88 21q-67 0 -111.5 -47zM311 699q71 6 71 54q0 16 -9.5 25t-26.5 9q-15 0 -26.5 -3.5t-26.5 -10.5l-13 36q37 20 73 20t57.5 -20.5t21.5 -53.5q0 -36 -21 -56.5t-58 -26.5l-8 -55h-44z" />
    <glyph glyph-name="uni0203" unicode="&#x203;" horiz-adv-x="511" 
d="M383 524q35 -10 71 -30l-54 -380q-4 -30 -4 -38q0 -18 6.5 -29t21.5 -18l-18 -40q-31 9 -46.5 29.5t-14.5 61.5q-64 -91 -148 -91q-69 0 -108 51t-39 139q0 83 27 164.5t84.5 136t144.5 54.5q42 0 77 -10zM194.5 441q-44.5 -47 -65.5 -118t-21 -143q0 -71 25 -107.5
t73 -36.5q41 0 75.5 27.5t66.5 79.5l46 324q-39 21 -88 21q-67 0 -111.5 -47zM206 634q13 50 48.5 79t82.5 29q49 0 78 -31t28 -81l-38 -5q-7 70 -70 70q-65 0 -93 -73z" />
    <glyph glyph-name="uni0251" unicode="&#x251;" horiz-adv-x="510" 
d="M396 77q0 -18 6 -29.5t22 -18.5l-18 -40q-32 9 -47.5 30t-14.5 61q-62 -91 -147 -91q-69 0 -108.5 51t-39.5 140q0 82 27.5 164t81 136t125.5 54q81 0 114 -77l18 66h44l-60 -409q-3 -21 -3 -37zM385 391q-15 52 -41 74t-62 22q-53 0 -92.5 -46.5t-60.5 -117.5t-21 -143
q0 -71 25 -107.5t73 -36.5q41 0 75.5 28t66.5 79z" />
    <glyph glyph-name="uni0252" unicode="&#x252;" horiz-adv-x="510" 
d="M421.5 483q39.5 -51 39.5 -140q0 -82 -27.5 -164t-81 -136t-125.5 -54q-81 0 -114 77l-18 -66h-44l60 409q3 21 3 37q0 18 -6 29.5t-22 18.5l18 40q32 -9 47.5 -30t14.5 -61q62 91 147 91q69 0 108.5 -51zM320.5 82.5q39.5 46.5 60.5 117.5t21 143q0 71 -25 107.5
t-73 36.5q-41 0 -75.5 -28t-66.5 -79l-37 -248q15 -52 41 -74t62 -22q53 0 92.5 46.5z" />
    <glyph glyph-name="amacron" unicode="&#x101;" horiz-adv-x="511" 
d="M383 524q35 -10 71 -30l-54 -380q-4 -30 -4 -38q0 -18 6.5 -29t21.5 -18l-18 -40q-31 9 -46.5 29.5t-14.5 61.5q-64 -91 -148 -91q-69 0 -108 51t-39 139q0 83 27 164.5t84.5 136t144.5 54.5q42 0 77 -10zM194.5 441q-44.5 -47 -65.5 -118t-21 -143q0 -71 25 -107.5
t73 -36.5q41 0 75.5 27.5t66.5 79.5l46 324q-39 21 -88 21q-67 0 -111.5 -47zM442 676h-218l7 46h218z" />
    <glyph glyph-name="aogonek" unicode="&#x105;" horiz-adv-x="511" 
d="M396 76q0 -18 6.5 -29t21.5 -18l-17 -39v-1q-70 -32 -99 -61.5t-29 -65.5q0 -21 12.5 -32t36.5 -11q21 0 53 6l-11 -47q-27 -6 -50 -6q-43 0 -67.5 22.5t-24.5 60.5q0 48 33 83.5t111 66.5q-28 22 -27 75q-64 -91 -148 -91q-69 0 -108 51t-39 139q0 83 27 164.5t84.5 136
t144.5 54.5q42 0 77 -10t71 -30l-54 -380q-4 -30 -4 -38zM394 467q-39 21 -88 21q-67 0 -111.5 -47t-65.5 -118t-21 -143q0 -71 25 -107.5t73 -36.5q41 0 75.5 27.5t66.5 79.5z" />
    <glyph glyph-name="aring" unicode="&#xe5;" horiz-adv-x="511" 
d="M383 524q35 -10 71 -30l-54 -380q-4 -30 -4 -38q0 -18 6.5 -29t21.5 -18l-18 -40q-31 9 -46.5 29.5t-14.5 61.5q-64 -91 -148 -91q-69 0 -108 51t-39 139q0 83 27 164.5t84.5 136t144.5 54.5q42 0 77 -10zM194.5 441q-44.5 -47 -65.5 -118t-21 -143q0 -71 25 -107.5
t73 -36.5q41 0 75.5 27.5t66.5 79.5l46 324q-39 21 -88 21q-67 0 -111.5 -47zM408.5 797q22.5 -23 22.5 -59q0 -46 -29 -75.5t-72 -29.5q-36 0 -58.5 23t-22.5 59q0 46 29 75.5t72 29.5q36 0 58.5 -23zM305.5 765.5q-15.5 -19.5 -15.5 -49.5q0 -23 11 -35.5t31 -12.5
q27 0 42.5 20t15.5 50q0 23 -11 35t-31 12q-27 0 -42.5 -19.5z" />
    <glyph glyph-name="aringacute" unicode="&#x1fb;" horiz-adv-x="511" 
d="M383 524q35 -10 71 -30l-54 -380q-4 -30 -4 -38q0 -18 6.5 -29t21.5 -18l-18 -40q-31 9 -46.5 29.5t-14.5 61.5q-64 -91 -148 -91q-69 0 -108 51t-39 139q0 83 27 164.5t84.5 136t144.5 54.5q42 0 77 -10zM194.5 441q-44.5 -47 -65.5 -118t-21 -143q0 -71 25 -107.5
t73 -36.5q41 0 75.5 27.5t66.5 79.5l46 324q-39 21 -88 21q-67 0 -111.5 -47zM401.5 751q22.5 -23 22.5 -59q0 -46 -29 -75.5t-72 -29.5q-36 0 -58.5 23t-22.5 59q0 46 29 75.5t72 29.5q36 0 58.5 -23zM298.5 719.5q-15.5 -19.5 -15.5 -49.5q0 -23 11 -35.5t31 -12.5
q27 0 42.5 20t15.5 50q0 23 -11 35t-31 12q-27 0 -42.5 -19.5zM424 909l22 -51l-188 -75l-15 32z" />
    <glyph glyph-name="uni2C65" unicode="&#x2c65;" horiz-adv-x="511" 
d="M396 76q0 -18 6.5 -29t21.5 -18l-18 -40q-32 7 -47.5 28t-13.5 63q-64 -91 -148 -91q-22 0 -38 4l-24 -63l-29 9l25 65q-39 20 -60 65.5t-21 109.5q0 83 27 164.5t84.5 136t144.5 54.5q20 0 30 -1l23 59l28 -9l-21 -55q41 -9 88 -34l-54 -380q-4 -30 -4 -38zM150 54
l169 434h-13q-67 0 -111.5 -47t-65.5 -118t-21 -143q0 -92 42 -126zM395 467q-23 12 -46 17l-172 -444q12 -4 29 -4q41 0 75.5 27.5t66.5 79.5z" />
    <glyph glyph-name="atilde" unicode="&#xe3;" horiz-adv-x="511" 
d="M383 524q35 -10 71 -30l-54 -380q-4 -30 -4 -38q0 -18 6.5 -29t21.5 -18l-18 -40q-31 9 -46.5 29.5t-14.5 61.5q-64 -91 -148 -91q-69 0 -108 51t-39 139q0 83 27 164.5t84.5 136t144.5 54.5q42 0 77 -10zM194.5 441q-44.5 -47 -65.5 -118t-21 -143q0 -71 25 -107.5
t73 -36.5q41 0 75.5 27.5t66.5 79.5l46 324q-39 21 -88 21q-67 0 -111.5 -47zM358 674q-14 7 -29 19q-13 10 -22.5 14.5t-19.5 4.5q-16 0 -27.5 -9.5t-28.5 -31.5l-31 21q42 65 88 65q17 0 30 -6.5t29 -18.5q15 -11 23.5 -15.5t19.5 -4.5q14 0 27 10t29 33l32 -19
q-39 -69 -88 -69q-18 0 -32 7z" />
    <glyph glyph-name="uni0250" unicode="&#x250;" horiz-adv-x="477" 
d="M131 145q-2 -20 -2 -28q0 -41 21 -60.5t69 -19.5q56 0 129 30l15 -43q-81 -35 -152 -35q-69 0 -104 32t-35 92q0 9 2 31l37 265q4 30 4 38q0 18 -6.5 28.5t-21.5 17.5l17 41q30 -8 46 -27.5t16 -56.5q60 84 153 84q60 0 95 -36t35 -96q0 -92 -61.5 -143t-158.5 -51h-89z
M165 391l-20 -141h81q76 0 120 39.5t44 111.5q0 42 -21 64.5t-60 22.5q-84 0 -144 -97z" />
    <glyph glyph-name="ae" unicode="&#xe6;" horiz-adv-x="743" 
d="M399 436q28 43 74 70.5t103 27.5q66 0 103 -34.5t37 -88.5q0 -96 -87.5 -143.5t-245.5 -60.5q-2 -82 27 -125.5t87 -43.5q36 0 67 12.5t66 38.5l26 -38q-39 -31 -78.5 -46.5t-84.5 -15.5q-55 0 -93.5 25.5t-56.5 74.5q-43 -54 -87 -77t-93 -23q-64 0 -100 36.5t-36 97.5
q0 77 53.5 128.5t167.5 51.5h92q9 43 24 79q-5 48 -34 76t-77 28q-32 0 -61.5 -7t-67.5 -22l-12 44q83 33 147 33q109 0 140 -98zM446.5 418.5q-46.5 -68.5 -59.5 -167.5q138 12 205 49t67 109q0 35 -21.5 56.5t-63.5 21.5q-81 0 -127.5 -68.5zM252 262q-85 0 -125 -37
t-40 -102q0 -42 22 -65t61 -23q43 0 81 24t79 78q-4 19 -4 51q0 34 6 74h-80z" />
    <glyph glyph-name="aeacute" unicode="&#x1fd;" horiz-adv-x="743" 
d="M399 436q28 43 74 70.5t103 27.5q66 0 103 -34.5t37 -88.5q0 -96 -87.5 -143.5t-245.5 -60.5q-2 -82 27 -125.5t87 -43.5q36 0 67 12.5t66 38.5l26 -38q-39 -31 -78.5 -46.5t-84.5 -15.5q-55 0 -93.5 25.5t-56.5 74.5q-43 -54 -87 -77t-93 -23q-64 0 -100 36.5t-36 97.5
q0 77 53.5 128.5t167.5 51.5h92q9 43 24 79q-5 48 -34 76t-77 28q-32 0 -61.5 -7t-67.5 -22l-12 44q83 33 147 33q109 0 140 -98zM446.5 418.5q-46.5 -68.5 -59.5 -167.5q138 12 205 49t67 109q0 35 -21.5 56.5t-63.5 21.5q-81 0 -127.5 -68.5zM252 262q-85 0 -125 -37
t-40 -102q0 -42 22 -65t61 -23q43 0 81 24t79 78q-4 19 -4 51q0 34 6 74h-80zM512 781l23 -51l-188 -85l-17 32z" />
    <glyph glyph-name="uni01E3" unicode="&#x1e3;" horiz-adv-x="743" 
d="M399 436q28 43 74 70.5t103 27.5q66 0 103 -34.5t37 -88.5q0 -96 -87.5 -143.5t-245.5 -60.5q-2 -82 27 -125.5t87 -43.5q36 0 67 12.5t66 38.5l26 -38q-39 -31 -78.5 -46.5t-84.5 -15.5q-55 0 -93.5 25.5t-56.5 74.5q-43 -54 -87 -77t-93 -23q-64 0 -100 36.5t-36 97.5
q0 77 53.5 128.5t167.5 51.5h92q9 43 24 79q-5 48 -34 76t-77 28q-32 0 -61.5 -7t-67.5 -22l-12 44q83 33 147 33q109 0 140 -98zM446.5 418.5q-46.5 -68.5 -59.5 -167.5q138 12 205 49t67 109q0 35 -21.5 56.5t-63.5 21.5q-81 0 -127.5 -68.5zM252 262q-85 0 -125 -37
t-40 -102q0 -42 22 -65t61 -23q43 0 81 24t79 78q-4 19 -4 51q0 34 6 74h-80zM537 676h-218l7 46h218z" />
    <glyph glyph-name="b" unicode="b" horiz-adv-x="519" 
d="M432.5 486q37.5 -48 37.5 -137q0 -85 -25.5 -167t-82.5 -137.5t-146 -55.5q-40 0 -75.5 8t-80.5 26l101 713l57 7l-40 -287q71 78 151 78q66 0 103.5 -48zM241 463.5q-36 -23.5 -72 -65.5l-48 -342q24 -10 47 -15t52 -5q68 0 111 49.5t62 121.5t20 144q0 136 -95 136
q-41 0 -77 -23.5z" />
    <glyph glyph-name="uni1E03" unicode="&#x1e03;" horiz-adv-x="519" 
d="M432.5 486q37.5 -48 37.5 -137q0 -85 -25.5 -167t-82.5 -137.5t-146 -55.5q-40 0 -75.5 8t-80.5 26l101 713l57 7l-40 -287q71 78 151 78q66 0 103.5 -48zM241 463.5q-36 -23.5 -72 -65.5l-48 -342q24 -10 47 -15t52 -5q68 0 111 49.5t62 121.5t20 144q0 136 -95 136
q-41 0 -77 -23.5zM334.5 857q-10.5 10 -10.5 27q0 19 13 32t32 13q17 0 27 -10.5t10 -26.5q0 -19 -12.5 -32t-31.5 -13q-17 0 -27.5 10z" />
    <glyph glyph-name="uni1E05" unicode="&#x1e05;" horiz-adv-x="519" 
d="M432.5 486q37.5 -48 37.5 -137q0 -85 -25.5 -167t-82.5 -137.5t-146 -55.5q-40 0 -75.5 8t-80.5 26l101 713l57 7l-40 -287q71 78 151 78q66 0 103.5 -48zM241 463.5q-36 -23.5 -72 -65.5l-48 -342q24 -10 47 -15t52 -5q68 0 111 49.5t62 121.5t20 144q0 136 -95 136
q-41 0 -77 -23.5zM234.5 -97q10.5 -10 10.5 -27q0 -19 -13 -32t-32 -13q-17 0 -27 10.5t-10 26.5q0 19 12.5 32t31.5 13q17 0 27.5 -10z" />
    <glyph glyph-name="uniA7B5" unicode="&#xa7b5;" horiz-adv-x="530" 
d="M131 533q15 102 70.5 156t135.5 54q68 0 110.5 -41t42.5 -111q0 -74 -43 -128t-126 -65q67 -2 111.5 -45.5t44.5 -123.5q0 -58 -24 -113t-74 -91t-122 -36q-86 0 -137 64l-35 -252l-57 -7zM348.5 66q37.5 29 54.5 72.5t17 89.5q0 71 -40.5 109.5t-115.5 38.5h-43l12 45
h41q52 0 88.5 24t54.5 63t18 82q0 53 -26.5 80t-73.5 27q-57 0 -96.5 -41t-51.5 -127l-59 -425q24 -35 54.5 -51t72.5 -16q56 0 93.5 29z" />
    <glyph glyph-name="uni0253" unicode="&#x253;" horiz-adv-x="519" 
d="M433 486q37 -48 37 -137q0 -85 -25.5 -167.5t-82.5 -137.5t-146 -55q-40 0 -75.5 8t-80.5 26l71 499l13 91q8 61 47 95.5t100 34.5q59 0 109 -29l-22 -40q-41 21 -85 21q-81 0 -94 -89l-12 -84l-9 -65q72 77 151 77q67 0 104 -48zM331 85.5q43 49.5 62 122t20 144.5
q0 135 -95 135q-41 0 -77 -23.5t-72 -65.5l-48 -342q24 -10 47 -15t52 -5q68 0 111 49.5z" />
    <glyph glyph-name="uni02AD" unicode="&#x2ad;" horiz-adv-x="300" 
d="M288 400h-43l13 91h-152l-13 -91h-43l18 131h239zM231 -1h-43l13 91h-152l-13 -91h-43l18 131h239z" />
    <glyph glyph-name="uni0298" unicode="&#x298;" horiz-adv-x="715" 
d="M605.5 625q67.5 -71 67.5 -201q0 -123 -44 -222.5t-125 -156t-188 -56.5q-116 0 -183.5 71.5t-67.5 200.5q0 122 45 221.5t126 156.5t185 57q117 0 184.5 -71zM260 597q-68 -51 -104 -139t-36 -196q0 -111 52.5 -168t144.5 -57q94 0 162 50.5t103.5 138.5t35.5 198
q0 111 -52 167.5t-146 56.5q-92 0 -160 -51zM338.5 311q-10.5 10 -10.5 27q0 19 13 32t32 13q17 0 27 -10.5t10 -26.5q0 -19 -12.5 -32t-31.5 -13q-17 0 -27.5 10z" />
    <glyph glyph-name="uni02AC" unicode="&#x2ac;" horiz-adv-x="417" 
d="M435 663l-99 -263h-55l-21 218l-83 -218h-56l-27 263h45l16 -223l86 223h51l22 -223l78 223h43zM379 263l-99 -263h-55l-21 218l-83 -218h-56l-27 263h45l16 -223l86 223h51l22 -223l78 223h43z" />
    <glyph glyph-name="uni0180" unicode="&#x180;" horiz-adv-x="525" 
d="M438.5 486q37.5 -48 37.5 -137q0 -85 -25.5 -167t-82.5 -137.5t-146 -55.5q-40 0 -75.5 8t-80.5 26l84 594h-68l7 46h68l10 73l57 7l-11 -80h150l-13 -46h-144l-22 -161q71 78 151 78q66 0 103.5 -48zM337 85.5q43 49.5 62 121.5t20 144q0 136 -95 136q-41 0 -77 -23.5
t-72 -65.5l-48 -342q24 -10 47 -15t52 -5q68 0 111 49.5z" />
    <glyph glyph-name="uni0183" unicode="&#x183;" horiz-adv-x="519" 
d="M433 486q37 -48 37 -137q0 -85 -25.5 -167.5t-82.5 -137.5t-146 -55q-40 0 -75.5 8t-80.5 26l101 713h267l-15 -46h-202l-33 -234q71 78 151 78q67 0 104 -48zM331 85.5q43 49.5 62 122t20 144.5q0 135 -95 135q-41 0 -77 -23.5t-71 -65.5l-49 -342q24 -10 47 -15t52 -5
q68 0 111 49.5z" />
    <glyph glyph-name="c" unicode="c" horiz-adv-x="422" 
d="M367 521q31 -13 58 -41l-32 -34q-21 20 -44 30t-53 10q-65 0 -106.5 -46.5t-60.5 -115.5t-19 -138q0 -74 29 -111t82 -37q31 0 58 11t57 33l24 -39q-66 -54 -143 -54t-121.5 52.5t-44.5 147.5q0 80 26 159.5t81.5 132.5t138.5 53q39 0 70 -13z" />
    <glyph glyph-name="cacute" unicode="&#x107;" horiz-adv-x="422" 
d="M367 521q31 -13 58 -41l-32 -34q-21 20 -44 30t-53 10q-65 0 -106.5 -46.5t-60.5 -115.5t-19 -138q0 -74 29 -111t82 -37q31 0 58 11t57 33l24 -39q-66 -54 -143 -54t-121.5 52.5t-44.5 147.5q0 80 26 159.5t81.5 132.5t138.5 53q39 0 70 -13zM401 781l23 -51l-188 -85
l-17 32z" />
    <glyph glyph-name="ccaron" unicode="&#x10d;" horiz-adv-x="422" 
d="M367 521q31 -13 58 -41l-32 -34q-21 20 -44 30t-53 10q-65 0 -106.5 -46.5t-60.5 -115.5t-19 -138q0 -74 29 -111t82 -37q31 0 58 11t57 33l24 -39q-66 -54 -143 -54t-121.5 52.5t-44.5 147.5q0 80 26 159.5t81.5 132.5t138.5 53q39 0 70 -13zM435 767l23 -28l-131 -106
h-35l-102 106l27 28l96 -83z" />
    <glyph glyph-name="ccedilla" unicode="&#xe7;" horiz-adv-x="422" 
d="M189.5 439.5q-41.5 -46.5 -60.5 -115.5t-19 -138q0 -74 29 -111t82 -37q31 0 58 11t57 33l24 -39q-62 -51 -134 -54l-9 -54q38 -4 56.5 -22t18.5 -49q0 -40 -29 -65.5t-76 -25.5q-42 0 -73 23l20 33q24 -15 53 -15q24 0 40 12.5t16 35.5t-16 32.5t-57 9.5l19 87
q-65 9 -101.5 60.5t-36.5 137.5q0 80 26 159.5t81.5 132.5t138.5 53q39 0 70 -13t58 -41l-32 -34q-21 20 -44 30t-53 10q-65 0 -106.5 -46.5z" />
    <glyph glyph-name="ccircumflex" unicode="&#x109;" horiz-adv-x="422" 
d="M367 521q31 -13 58 -41l-32 -34q-21 20 -44 30t-53 10q-65 0 -106.5 -46.5t-60.5 -115.5t-19 -138q0 -74 29 -111t82 -37q31 0 58 11t57 33l24 -39q-66 -54 -143 -54t-121.5 52.5t-44.5 147.5q0 80 26 159.5t81.5 132.5t138.5 53q39 0 70 -13zM206 644l-25 29l132 106h35
l102 -107l-28 -28l-96 84z" />
    <glyph glyph-name="uni0255" unicode="&#x255;" horiz-adv-x="429" 
d="M190 439.5q-42 -46.5 -61 -115.5t-19 -138q0 -71 28 -108q38 75 75 106.5t82 31.5q43 0 67.5 -24.5t24.5 -66.5q0 -63 -45.5 -99.5t-116.5 -36.5q-47 0 -81 17l-40 -72l-35 18l41 76q-28 27 -43.5 68t-15.5 93q0 80 26 159.5t81.5 132.5t138.5 53q39 0 70 -13t58 -41
l-32 -34q-21 20 -43.5 30t-52.5 10q-65 0 -107 -46.5zM232.5 146.5q-27.5 -26.5 -63.5 -95.5q27 -13 61 -13q48 0 78 22.5t30 64.5q0 23 -11.5 35.5t-34.5 12.5q-32 0 -59.5 -26.5z" />
    <glyph glyph-name="cdotaccent" unicode="&#x10b;" horiz-adv-x="422" 
d="M367 521q31 -13 58 -41l-32 -34q-21 20 -44 30t-53 10q-65 0 -106.5 -46.5t-60.5 -115.5t-19 -138q0 -74 29 -111t82 -37q31 0 58 11t57 33l24 -39q-66 -54 -143 -54t-121.5 52.5t-44.5 147.5q0 80 26 159.5t81.5 132.5t138.5 53q39 0 70 -13zM290.5 680
q-10.5 10 -10.5 27q0 19 13 32t32 13q17 0 27 -10.5t10 -26.5q0 -19 -12.5 -32t-31.5 -13q-17 0 -27.5 10z" />
    <glyph glyph-name="uni0188" unicode="&#x188;" horiz-adv-x="422" 
d="M607 708l-26 -35q-16 12 -30 17.5t-34 5.5q-29 0 -48.5 -19.5t-25.5 -61.5l-18 -135l-27 -29q-25 17 -48.5 26t-53.5 9q-65 0 -106.5 -46.5t-60.5 -115.5t-19 -138q0 -74 29 -111t82 -37q31 0 58 11t57 33l24 -39q-66 -54 -143 -54t-121.5 52.5t-44.5 147.5
q0 79 26 158.5t81 133t136 53.5q46 0 80 -21l15 104q9 62 42 94t85 32t91 -35z" />
    <glyph glyph-name="uni0297" unicode="&#x297;" horiz-adv-x="441" 
d="M387 521q30 -13 58 -41l-32 -34q-21 20 -43 30t-51 10q-65 0 -112.5 -66.5t-72 -169.5t-24.5 -210q0 -104 28 -151.5t81 -47.5q29 0 55.5 11t57.5 33l24 -39q-66 -54 -140 -54q-79 0 -121.5 62.5t-43.5 186.5q1 128 32.5 241t92.5 182.5t143 69.5q38 0 68 -13z" />
    <glyph glyph-name="uni023C" unicode="&#x23c;" horiz-adv-x="422" 
d="M348 477l-168 -432q18 -7 41 -7q31 0 58 11t57 33l24 -39q-66 -54 -143 -54q-28 0 -55 8l-26 -67l-29 9l27 70q-40 23 -61.5 69t-21.5 111q0 80 26 159.5t81.5 132.5t138.5 53q23 0 39 -4l24 62l29 -9l-24 -61q30 -12 60 -42l-32 -34q-20 20 -45 31zM318 485q-7 1 -22 1
q-65 0 -106.5 -46.5t-60.5 -115.5t-19 -138q0 -90 44 -126z" />
    <glyph glyph-name="d" unicode="d" horiz-adv-x="523" 
d="M496 736l-104 -736h-48l8 104q-65 -115 -160 -115q-67 0 -104.5 51.5t-37.5 141.5q0 80 25 161.5t77 136t129 54.5q80 0 121 -70l38 279zM186 439q-40 -48 -59 -119t-19 -140q0 -70 24.5 -107t69.5 -37q47 0 84 37t76 108l32 228q-17 37 -42.5 57.5t-65.5 20.5
q-60 0 -100 -48z" />
    <glyph glyph-name="eth" unicode="&#xf0;" horiz-adv-x="514" 
d="M429.5 553q24.5 -62 24.5 -150q0 -107 -26.5 -201.5t-82 -153.5t-136.5 -59q-76 0 -118.5 49t-42.5 136q0 71 24 138.5t73 111.5t118 44q85 0 136 -75q1 81 -17.5 135t-62.5 100l-80 -75l-38 18l86 84q-48 33 -101 45l16 43q66 -16 119 -54l77 72l28 -30l-72 -69
q51 -47 75.5 -109zM336 120.5q45 84.5 59 209.5q-45 91 -126 91q-57 0 -94 -37t-53.5 -93.5t-16.5 -117.5q0 -67 27 -102t78 -35q81 0 126 84.5z" />
    <glyph glyph-name="uni0238" unicode="&#x238;" horiz-adv-x="760" 
d="M674.5 484.5q34.5 -49.5 34.5 -141.5t-25 -173t-73.5 -131t-114.5 -50q-77 0 -112 92l-17 -81h-42l5 83q-56 -94 -141 -94q-63 0 -100.5 53.5t-37.5 145.5q0 90 27 169.5t76.5 128t114.5 48.5q39 0 67.5 -21t45.5 -58l39 281l57 7l-41 -288q60 79 139 79q64 0 98.5 -49.5
zM374 402q-21 43 -43.5 64t-55.5 21q-51 0 -88.5 -44t-57 -113t-19.5 -142q0 -74 23.5 -113t64.5 -39t74.5 27.5t66.5 86.5zM579 82q36 46 54 117t18 145q0 143 -86 143q-39 0 -72 -24t-64 -66l-36 -256q17 -55 40 -80t59 -25q51 0 87 46z" />
    <glyph glyph-name="dcaron" unicode="&#x10f;" horiz-adv-x="535" 
d="M496 736l-104 -736h-48l8 104q-65 -115 -160 -115q-67 0 -104.5 51.5t-37.5 141.5q0 80 25 161.5t77 136t129 54.5q80 0 121 -70l38 279zM186 439q-40 -48 -59 -119t-19 -140q0 -70 24.5 -107t69.5 -37q47 0 84 37t76 108l32 228q-17 37 -42.5 57.5t-65.5 20.5
q-60 0 -100 -48zM575 742l52 -7l-57 -162l-33 5z" />
    <glyph glyph-name="uni1E13" unicode="&#x1e13;" horiz-adv-x="523" 
d="M496 736l-104 -736h-48l8 104q-65 -115 -160 -115q-67 0 -104.5 51.5t-37.5 141.5q0 80 25 161.5t77 136t129 54.5q80 0 121 -70l38 279zM186 439q-40 -48 -59 -119t-19 -140q0 -70 24.5 -107t69.5 -37q47 0 84 37t76 108l32 228q-17 37 -42.5 57.5t-65.5 20.5
q-60 0 -100 -48zM90 -204l-24 29l132 105h34l102 -106l-27 -28l-98 84z" />
    <glyph glyph-name="dcroat" unicode="&#x111;" horiz-adv-x="530" 
d="M547 617h-68l-87 -617h-48l8 104q-65 -115 -160 -115q-67 0 -104.5 51.5t-37.5 141.5q0 80 25 161.5t77 136t129 54.5q80 0 121 -70l21 153h-142l1 45h147l11 81l56 -7l-10 -74h68zM394 409q-17 37 -42.5 57.5t-65.5 20.5q-60 0 -100 -48t-59 -119t-19 -140
q0 -70 24.5 -107t69.5 -37q47 0 84 37t76 108z" />
    <glyph glyph-name="uni0221" unicode="&#x221;" horiz-adv-x="623" 
d="M601 177.5q23 -22.5 23 -60.5q0 -58 -43.5 -93t-107.5 -35q-45 0 -73 17l-44 -72l-35 18l51 80q-19 28 -19 72q-68 -115 -161 -115q-67 0 -104.5 51.5t-37.5 141.5q0 80 25 161.5t77 136t129 54.5q80 0 121 -70l38 279l56 -7l-87 -611q-2 -13 -2 -33q31 56 62 82t71 26
q38 0 61 -22.5zM286 73q37 37 76 108l32 228q-17 37 -42.5 57.5t-65.5 20.5q-60 0 -100 -48t-59 -119t-19 -140q0 -70 24.5 -107t69.5 -37q47 0 84 37zM548 58.5q27 20.5 27 57.5q0 19 -10.5 30t-28.5 11q-27 0 -50 -22t-59 -86q16 -11 53 -11q41 0 68 20.5z" />
    <glyph glyph-name="uni1E0B" unicode="&#x1e0b;" horiz-adv-x="523" 
d="M496 736l-104 -736h-48l8 104q-65 -115 -160 -115q-67 0 -104.5 51.5t-37.5 141.5q0 80 25 161.5t77 136t129 54.5q80 0 121 -70l38 279zM186 439q-40 -48 -59 -119t-19 -140q0 -70 24.5 -107t69.5 -37q47 0 84 37t76 108l32 228q-17 37 -42.5 57.5t-65.5 20.5
q-60 0 -100 -48zM316.5 857q-10.5 10 -10.5 27q0 19 13 32t32 13q17 0 27 -10.5t10 -26.5q0 -19 -12.5 -32t-31.5 -13q-17 0 -27.5 10z" />
    <glyph glyph-name="uni1E0D" unicode="&#x1e0d;" horiz-adv-x="523" 
d="M496 736l-104 -736h-48l8 104q-65 -115 -160 -115q-67 0 -104.5 51.5t-37.5 141.5q0 80 25 161.5t77 136t129 54.5q80 0 121 -70l38 279zM186 439q-40 -48 -59 -119t-19 -140q0 -70 24.5 -107t69.5 -37q47 0 84 37t76 108l32 228q-17 37 -42.5 57.5t-65.5 20.5
q-60 0 -100 -48zM236.5 -97q10.5 -10 10.5 -27q0 -19 -13 -32t-32 -13q-17 0 -27 10.5t-10 26.5q0 19 12.5 32t31.5 13q17 0 27.5 -10z" />
    <glyph glyph-name="uni018D" unicode="&#x18d;" horiz-adv-x="512" 
d="M36 -148l32 33q26 -24 52.5 -34.5t60.5 -10.5q55 0 83 24.5t28 63.5q0 31 -20.5 52.5t-74.5 46.5q-75 35 -108.5 80.5t-33.5 118.5q0 66 24 137t78 121t137 50q78 0 122.5 -53t44.5 -142q0 -106 -43 -179t-147 -118q41 -25 59.5 -51t18.5 -61q0 -36 -19 -67t-57 -50
t-92 -19q-87 0 -145 58zM366.5 176.5q36.5 67.5 36.5 165.5q0 67 -29 105.5t-82 38.5q-65 0 -105.5 -43.5t-57 -103.5t-16.5 -114q0 -59 26.5 -96t93.5 -68q97 48 133.5 115.5z" />
    <glyph glyph-name="uni02A4" unicode="&#x2a4;" horiz-adv-x="814" 
d="M793 479l-236 -280h6q95 0 141.5 -41t46.5 -119q0 -72 -29 -127t-81.5 -86t-118.5 -31q-57 0 -97 22t-71 65l37 29q29 -36 59.5 -52t71.5 -16q79 0 124.5 55t45.5 141q0 62 -33.5 89t-105.5 27h-61l1 1l6 43l227 276h-267l-67 -475h-48l8 104q-65 -115 -160 -115
q-67 0 -104.5 51.5t-37.5 141.5q0 80 25 161.5t77 136t129 54.5q80 0 121 -70l38 279l56 -7l-30 -213h333zM394 409q-17 37 -42.5 57.5t-65.5 20.5q-60 0 -100 -48t-59 -119t-19 -140q0 -70 24.5 -107t69.5 -37q47 0 84 37t76 108z" />
    <glyph glyph-name="uni0257" unicode="&#x257;" horiz-adv-x="522" 
d="M603 733.5q21 -9.5 40 -25.5l-27 -34q-15 11 -29 16.5t-34 5.5q-28 0 -48 -19.5t-26 -59.5l-13 -94l-74 -523h-48l8 104q-65 -115 -160 -115q-67 0 -104.5 51.5t-37.5 141.5q0 80 25 161.5t77 136t129 54.5q80 0 121 -70l8 59l14 95q9 62 42.5 93.5t85.5 31.5
q30 0 51 -9.5zM394 409q-17 37 -42.5 57.5t-65.5 20.5q-60 0 -100 -48t-59 -119t-19 -140q0 -70 24.5 -107t69.5 -37q47 0 84 37t76 108z" />
    <glyph glyph-name="uni1E0F" unicode="&#x1e0f;" horiz-adv-x="523" 
d="M496 736l-104 -736h-48l8 104q-65 -115 -160 -115q-67 0 -104.5 51.5t-37.5 141.5q0 80 25 161.5t77 136t129 54.5q80 0 121 -70l38 279zM186 439q-40 -48 -59 -119t-19 -140q0 -70 24.5 -107t69.5 -37q47 0 84 37t76 108l32 228q-17 37 -42.5 57.5t-65.5 20.5
q-60 0 -100 -48zM103 -112h218l-7 -46h-218z" />
    <glyph glyph-name="uni0256" unicode="&#x256;" horiz-adv-x="523" 
d="M521 -172q-40 -33 -95 -33q-48 0 -75 26.5t-27 75.5q0 8 2 28l10 75l14 100q-65 -111 -158 -111q-67 0 -104.5 51.5t-37.5 141.5q0 80 25 161.5t77 136t129 54.5q80 0 121 -70l38 279l56 -7l-104 -736l-11 -82q-1 -7 -1 -20q0 -56 51 -56q20 0 35 5.5t33 16.5zM286 73
q37 37 76 108l32 228q-17 37 -42.5 57.5t-65.5 20.5q-60 0 -100 -48t-59 -119t-19 -140q0 -70 24.5 -107t69.5 -37q47 0 84 37z" />
    <glyph glyph-name="uni018C" unicode="&#x18c;" horiz-adv-x="523" 
d="M392 0h-48l8 104q-65 -115 -160 -115q-67 0 -104.5 51.5t-37.5 141.5q0 80 25 161.5t77 136t129 54.5q80 0 121 -70l32 226h-208l6 46h264zM394 409q-17 37 -42.5 57.5t-65.5 20.5q-60 0 -100 -48t-59 -119t-19 -140q0 -70 24.5 -107t69.5 -37q47 0 84 37t76 108z" />
    <glyph glyph-name="uni01F3" unicode="&#x1f3;" horiz-adv-x="902" 
d="M496 736l-104 -736h-48l8 104q-65 -115 -160 -115q-67 0 -104.5 51.5t-37.5 141.5q0 80 25 161.5t77 136t129 54.5q80 0 121 -70l38 279zM186 439q-40 -48 -59 -119t-19 -140q0 -70 24.5 -107t69.5 -37q47 0 84 37t76 108l32 228q-17 37 -42.5 57.5t-65.5 20.5
q-60 0 -100 -48zM909 523l-6 -44l-319 -430h257l-13 -49h-318l6 44l319 430h-237l8 49h303z" />
    <glyph glyph-name="uni02A3" unicode="&#x2a3;" horiz-adv-x="783" 
d="M783 479l-321 -430h260l-13 -49h-365l8 104q-65 -115 -160 -115q-67 0 -104.5 51.5t-37.5 141.5q0 80 25 161.5t77 136t129 54.5q80 0 121 -70l38 279l56 -7l-30 -213h324zM394 409q-17 37 -42.5 57.5t-65.5 20.5q-60 0 -100 -48t-59 -119t-19 -140q0 -70 24.5 -107
t69.5 -37q47 0 84 37t76 108zM399 46l317 428h-257z" />
    <glyph glyph-name="uni01C6" unicode="&#x1c6;" horiz-adv-x="902" 
d="M496 736l-104 -736h-48l8 104q-65 -115 -160 -115q-67 0 -104.5 51.5t-37.5 141.5q0 80 25 161.5t77 136t129 54.5q80 0 121 -70l38 279zM186 439q-40 -48 -59 -119t-19 -140q0 -70 24.5 -107t69.5 -37q47 0 84 37t76 108l32 228q-17 37 -42.5 57.5t-65.5 20.5
q-60 0 -100 -48zM909 523l-6 -44l-319 -430h257l-13 -49h-318l6 44l319 430h-237l8 49h303zM896 767l23 -28l-131 -106h-35l-102 106l27 28l96 -83z" />
    <glyph glyph-name="uni02A5" unicode="&#x2a5;" horiz-adv-x="796" 
d="M622 0q-11 -46 -18 -112l-44 3q7 54 18 109h-234l8 104q-65 -115 -160 -115q-67 0 -104.5 51.5t-37.5 141.5q0 80 25 161.5t77 136t129 54.5q80 0 121 -70l38 279l56 -7l-30 -213h324l-7 -44l-320 -430h127q38 154 133 154q37 0 59.5 -21.5t22.5 -58.5q0 -123 -183 -123z
M394 409q-17 37 -42.5 57.5t-65.5 20.5q-60 0 -100 -48t-59 -119t-19 -140q0 -70 24.5 -107t69.5 -37q47 0 84 37t76 108zM459 474l-60 -428l318 428h-258zM727 66.5q30 16.5 30 56.5q0 39 -38 39q-29 0 -49.5 -27t-35.5 -86h5q58 1 88 17.5z" />
    <glyph glyph-name="e" unicode="e" horiz-adv-x="467" 
d="M354.5 267.5q-87.5 -47.5 -245.5 -61.5v-18q0 -77 30 -113.5t83 -36.5q36 0 67 12.5t67 38.5l25 -38q-39 -31 -78.5 -46.5t-84.5 -15.5q-80 0 -123.5 52t-43.5 146q0 84 27.5 164t84 131.5t139.5 51.5q66 0 103 -34.5t37 -88.5q0 -96 -87.5 -143.5zM172.5 418
q-46.5 -69 -59.5 -167q137 12 204 49t67 109q0 35 -21 56.5t-64 21.5q-80 0 -126.5 -69z" />
    <glyph glyph-name="eacute" unicode="&#xe9;" horiz-adv-x="467" 
d="M354.5 267.5q-87.5 -47.5 -245.5 -61.5v-18q0 -77 30 -113.5t83 -36.5q36 0 67 12.5t67 38.5l25 -38q-39 -31 -78.5 -46.5t-84.5 -15.5q-80 0 -123.5 52t-43.5 146q0 84 27.5 164t84 131.5t139.5 51.5q66 0 103 -34.5t37 -88.5q0 -96 -87.5 -143.5zM172.5 418
q-46.5 -69 -59.5 -167q137 12 204 49t67 109q0 35 -21 56.5t-64 21.5q-80 0 -126.5 -69zM397 781l23 -51l-188 -85l-17 32z" />
    <glyph glyph-name="ebreve" unicode="&#x115;" horiz-adv-x="467" 
d="M354.5 267.5q-87.5 -47.5 -245.5 -61.5v-18q0 -77 30 -113.5t83 -36.5q36 0 67 12.5t67 38.5l25 -38q-39 -31 -78.5 -46.5t-84.5 -15.5q-80 0 -123.5 52t-43.5 146q0 84 27.5 164t84 131.5t139.5 51.5q66 0 103 -34.5t37 -88.5q0 -96 -87.5 -143.5zM172.5 418
q-46.5 -69 -59.5 -167q137 12 204 49t67 109q0 35 -21 56.5t-64 21.5q-80 0 -126.5 -69zM231.5 684q-28.5 31 -27.5 81l39 5q4 -35 20 -52.5t47 -17.5q32 0 56.5 19t37.5 54l37 -12q-13 -50 -48.5 -79t-83.5 -29q-49 0 -77.5 31z" />
    <glyph glyph-name="ecaron" unicode="&#x11b;" horiz-adv-x="467" 
d="M354.5 267.5q-87.5 -47.5 -245.5 -61.5v-18q0 -77 30 -113.5t83 -36.5q36 0 67 12.5t67 38.5l25 -38q-39 -31 -78.5 -46.5t-84.5 -15.5q-80 0 -123.5 52t-43.5 146q0 84 27.5 164t84 131.5t139.5 51.5q66 0 103 -34.5t37 -88.5q0 -96 -87.5 -143.5zM172.5 418
q-46.5 -69 -59.5 -167q137 12 204 49t67 109q0 35 -21 56.5t-64 21.5q-80 0 -126.5 -69zM431 767l23 -28l-131 -106h-35l-102 106l27 28l96 -83z" />
    <glyph glyph-name="uni0229" unicode="&#x229;" horiz-adv-x="467" 
d="M354.5 267.5q-87.5 -47.5 -245.5 -61.5v-18q0 -77 30 -113.5t83 -36.5q36 0 67 12.5t67 38.5l25 -38q-74 -58 -153 -62l-9 -54q38 -4 56.5 -22t18.5 -49q0 -40 -29 -65.5t-76 -25.5q-42 0 -73 23l20 33q24 -15 53 -15q24 0 40 12.5t16 35.5t-16 32.5t-57 9.5l19 87
q-67 8 -103.5 59t-36.5 137q0 84 27.5 164t84 131.5t139.5 51.5q66 0 103 -34.5t37 -88.5q0 -96 -87.5 -143.5zM172.5 418q-46.5 -69 -59.5 -167q137 12 204 49t67 109q0 35 -21 56.5t-64 21.5q-80 0 -126.5 -69z" />
    <glyph glyph-name="ecircumflex" unicode="&#xea;" horiz-adv-x="467" 
d="M354.5 267.5q-87.5 -47.5 -245.5 -61.5v-18q0 -77 30 -113.5t83 -36.5q36 0 67 12.5t67 38.5l25 -38q-39 -31 -78.5 -46.5t-84.5 -15.5q-80 0 -123.5 52t-43.5 146q0 84 27.5 164t84 131.5t139.5 51.5q66 0 103 -34.5t37 -88.5q0 -96 -87.5 -143.5zM172.5 418
q-46.5 -69 -59.5 -167q137 12 204 49t67 109q0 35 -21 56.5t-64 21.5q-80 0 -126.5 -69zM202 644l-25 29l132 106h35l102 -107l-28 -28l-96 84z" />
    <glyph glyph-name="uni1EBF" unicode="&#x1ebf;" horiz-adv-x="467" 
d="M530 812l-127 -121l-23 22l116 134zM309 666l-121 -80l-24 29l132 102h34l102 -103l-26 -28zM405 499.5q37 -34.5 37 -88.5q0 -96 -87.5 -143.5t-245.5 -61.5v-18q0 -77 30 -113.5t83 -36.5q36 0 67 12.5t67 38.5l25 -38q-39 -31 -78.5 -46.5t-84.5 -15.5
q-80 0 -123.5 52t-43.5 146q0 84 27.5 164t84 131.5t139.5 51.5q66 0 103 -34.5zM317 300q67 37 67 109q0 35 -21 56.5t-64 21.5q-80 0 -126.5 -69t-59.5 -167q137 12 204 49z" />
    <glyph glyph-name="uni1EC7" unicode="&#x1ec7;" horiz-adv-x="467" 
d="M354.5 267.5q-87.5 -47.5 -245.5 -61.5v-18q0 -77 30 -113.5t83 -36.5q36 0 67 12.5t67 38.5l25 -38q-39 -31 -78.5 -46.5t-84.5 -15.5q-80 0 -123.5 52t-43.5 146q0 84 27.5 164t84 131.5t139.5 51.5q66 0 103 -34.5t37 -88.5q0 -96 -87.5 -143.5zM172.5 418
q-46.5 -69 -59.5 -167q137 12 204 49t67 109q0 35 -21 56.5t-64 21.5q-80 0 -126.5 -69zM202 644l-25 29l132 106h35l102 -107l-28 -28l-96 84zM228.5 -97q10.5 -10 10.5 -27q0 -19 -13 -32t-32 -13q-17 0 -27 10.5t-10 26.5q0 19 12.5 32t31.5 13q17 0 27.5 -10z" />
    <glyph glyph-name="uni1EC1" unicode="&#x1ec1;" horiz-adv-x="467" 
d="M236 710l-27 -19l-94 124l41 31zM188 586l-24 29l132 102h34l102 -103l-26 -28l-97 80zM354.5 267.5q-87.5 -47.5 -245.5 -61.5v-18q0 -77 30 -113.5t83 -36.5q36 0 67 12.5t67 38.5l25 -38q-39 -31 -78.5 -46.5t-84.5 -15.5q-80 0 -123.5 52t-43.5 146q0 84 27.5 164
t84 131.5t139.5 51.5q66 0 103 -34.5t37 -88.5q0 -96 -87.5 -143.5zM172.5 418q-46.5 -69 -59.5 -167q137 12 204 49t67 109q0 35 -21 56.5t-64 21.5q-80 0 -126.5 -69z" />
    <glyph glyph-name="uni1EC3" unicode="&#x1ec3;" horiz-adv-x="467" 
d="M354.5 267.5q-87.5 -47.5 -245.5 -61.5v-18q0 -77 30 -113.5t83 -36.5q36 0 67 12.5t67 38.5l25 -38q-39 -31 -78.5 -46.5t-84.5 -15.5q-80 0 -123.5 52t-43.5 146q0 84 27.5 164t84 131.5t139.5 51.5q66 0 103 -34.5t37 -88.5q0 -96 -87.5 -143.5zM172.5 418
q-46.5 -69 -59.5 -167q137 12 204 49t67 109q0 35 -21 56.5t-64 21.5q-80 0 -126.5 -69zM185 586l-24 29l132 102h34l102 -103l-26 -28l-97 80zM412 770q71 6 71 54q0 16 -9.5 25t-26.5 9q-15 0 -26.5 -3.5t-26.5 -10.5l-13 36q37 20 73 20t57.5 -20.5t21.5 -53.5
q0 -36 -21 -56.5t-58 -26.5l-8 -55h-44z" />
    <glyph glyph-name="uni1EC5" unicode="&#x1ec5;" horiz-adv-x="467" 
d="M245.5 775.5q-11.5 -9.5 -28.5 -31.5l-31 21q42 65 88 65q17 0 30 -6.5t29 -18.5q15 -11 23.5 -15.5t19.5 -4.5q14 0 27 10t29 33l32 -19q-39 -69 -88 -69q-18 0 -32 7t-29 19q-13 10 -22.5 14.5t-19.5 4.5q-16 0 -27.5 -9.5zM311 656l-121 -80l-24 29l132 102h34
l102 -103l-26 -28zM405 499.5q37 -34.5 37 -88.5q0 -96 -87.5 -143.5t-245.5 -61.5v-18q0 -77 30 -113.5t83 -36.5q36 0 67 12.5t67 38.5l25 -38q-39 -31 -78.5 -46.5t-84.5 -15.5q-80 0 -123.5 52t-43.5 146q0 84 27.5 164t84 131.5t139.5 51.5q66 0 103 -34.5zM317 300
q67 37 67 109q0 35 -21 56.5t-64 21.5q-80 0 -126.5 -69t-59.5 -167q137 12 204 49z" />
    <glyph glyph-name="uni0205" unicode="&#x205;" horiz-adv-x="467" 
d="M354.5 267.5q-87.5 -47.5 -245.5 -61.5v-18q0 -77 30 -113.5t83 -36.5q36 0 67 12.5t67 38.5l25 -38q-39 -31 -78.5 -46.5t-84.5 -15.5q-80 0 -123.5 52t-43.5 146q0 84 27.5 164t84 131.5t139.5 51.5q66 0 103 -34.5t37 -88.5q0 -96 -87.5 -143.5zM172.5 418
q-46.5 -69 -59.5 -167q137 12 204 49t67 109q0 35 -21 56.5t-64 21.5q-80 0 -126.5 -69zM225 810l51 -152l-39 -15l-66 143zM342 810l45 -148l-39 -15l-60 138z" />
    <glyph glyph-name="edieresis" unicode="&#xeb;" horiz-adv-x="467" 
d="M354.5 267.5q-87.5 -47.5 -245.5 -61.5v-18q0 -77 30 -113.5t83 -36.5q36 0 67 12.5t67 38.5l25 -38q-39 -31 -78.5 -46.5t-84.5 -15.5q-80 0 -123.5 52t-43.5 146q0 84 27.5 164t84 131.5t139.5 51.5q66 0 103 -34.5t37 -88.5q0 -96 -87.5 -143.5zM172.5 418
q-46.5 -69 -59.5 -167q137 12 204 49t67 109q0 35 -21 56.5t-64 21.5q-80 0 -126.5 -69zM203 673.5q-9 9.5 -9 23.5q0 19 12 31t29 12q15 0 25 -9.5t10 -24.5q0 -18 -12 -30t-30 -12q-16 0 -25 9.5zM374.5 673.5q-9.5 9.5 -9.5 23.5q0 19 12 31t30 12q15 0 24.5 -10t9.5 -24
q0 -18 -12 -30t-30 -12q-15 0 -24.5 9.5z" />
    <glyph glyph-name="edotaccent" unicode="&#x117;" horiz-adv-x="467" 
d="M354.5 267.5q-87.5 -47.5 -245.5 -61.5v-18q0 -77 30 -113.5t83 -36.5q36 0 67 12.5t67 38.5l25 -38q-39 -31 -78.5 -46.5t-84.5 -15.5q-80 0 -123.5 52t-43.5 146q0 84 27.5 164t84 131.5t139.5 51.5q66 0 103 -34.5t37 -88.5q0 -96 -87.5 -143.5zM172.5 418
q-46.5 -69 -59.5 -167q137 12 204 49t67 109q0 35 -21 56.5t-64 21.5q-80 0 -126.5 -69zM286.5 680q-10.5 10 -10.5 27q0 19 13 32t32 13q17 0 27 -10.5t10 -26.5q0 -19 -12.5 -32t-31.5 -13q-17 0 -27.5 10z" />
    <glyph glyph-name="uni1EB9" unicode="&#x1eb9;" horiz-adv-x="467" 
d="M354.5 267.5q-87.5 -47.5 -245.5 -61.5v-18q0 -77 30 -113.5t83 -36.5q36 0 67 12.5t67 38.5l25 -38q-39 -31 -78.5 -46.5t-84.5 -15.5q-80 0 -123.5 52t-43.5 146q0 84 27.5 164t84 131.5t139.5 51.5q66 0 103 -34.5t37 -88.5q0 -96 -87.5 -143.5zM172.5 418
q-46.5 -69 -59.5 -167q137 12 204 49t67 109q0 35 -21 56.5t-64 21.5q-80 0 -126.5 -69zM228.5 -97q10.5 -10 10.5 -27q0 -19 -13 -32t-32 -13q-17 0 -27 10.5t-10 26.5q0 19 12.5 32t31.5 13q17 0 27.5 -10z" />
    <glyph glyph-name="egrave" unicode="&#xe8;" horiz-adv-x="467" 
d="M354.5 267.5q-87.5 -47.5 -245.5 -61.5v-18q0 -77 30 -113.5t83 -36.5q36 0 67 12.5t67 38.5l25 -38q-39 -31 -78.5 -46.5t-84.5 -15.5q-80 0 -123.5 52t-43.5 146q0 84 27.5 164t84 131.5t139.5 51.5q66 0 103 -34.5t37 -88.5q0 -96 -87.5 -143.5zM172.5 418
q-46.5 -69 -59.5 -167q137 12 204 49t67 109q0 35 -21 56.5t-64 21.5q-80 0 -126.5 -69zM265 780l155 -103l-20 -32l-165 85z" />
    <glyph glyph-name="uni1EBB" unicode="&#x1ebb;" horiz-adv-x="467" 
d="M354.5 267.5q-87.5 -47.5 -245.5 -61.5v-18q0 -77 30 -113.5t83 -36.5q36 0 67 12.5t67 38.5l25 -38q-39 -31 -78.5 -46.5t-84.5 -15.5q-80 0 -123.5 52t-43.5 146q0 84 27.5 164t84 131.5t139.5 51.5q66 0 103 -34.5t37 -88.5q0 -96 -87.5 -143.5zM172.5 418
q-46.5 -69 -59.5 -167q137 12 204 49t67 109q0 35 -21 56.5t-64 21.5q-80 0 -126.5 -69zM291 699q71 6 71 54q0 16 -9.5 25t-26.5 9q-15 0 -26.5 -3.5t-26.5 -10.5l-13 36q37 20 73 20t57.5 -20.5t21.5 -53.5q0 -36 -21 -56.5t-58 -26.5l-8 -55h-44z" />
    <glyph glyph-name="uni0207" unicode="&#x207;" horiz-adv-x="467" 
d="M354.5 267.5q-87.5 -47.5 -245.5 -61.5v-18q0 -77 30 -113.5t83 -36.5q36 0 67 12.5t67 38.5l25 -38q-39 -31 -78.5 -46.5t-84.5 -15.5q-80 0 -123.5 52t-43.5 146q0 84 27.5 164t84 131.5t139.5 51.5q66 0 103 -34.5t37 -88.5q0 -96 -87.5 -143.5zM172.5 418
q-46.5 -69 -59.5 -167q137 12 204 49t67 109q0 35 -21 56.5t-64 21.5q-80 0 -126.5 -69zM186 634q13 50 48.5 79t82.5 29q49 0 78 -31t28 -81l-38 -5q-7 70 -70 70q-65 0 -93 -73z" />
    <glyph glyph-name="emacron" unicode="&#x113;" horiz-adv-x="467" 
d="M354.5 267.5q-87.5 -47.5 -245.5 -61.5v-18q0 -77 30 -113.5t83 -36.5q36 0 67 12.5t67 38.5l25 -38q-39 -31 -78.5 -46.5t-84.5 -15.5q-80 0 -123.5 52t-43.5 146q0 84 27.5 164t84 131.5t139.5 51.5q66 0 103 -34.5t37 -88.5q0 -96 -87.5 -143.5zM172.5 418
q-46.5 -69 -59.5 -167q137 12 204 49t67 109q0 35 -21 56.5t-64 21.5q-80 0 -126.5 -69zM422 676h-218l7 46h218z" />
    <glyph glyph-name="eogonek" unicode="&#x119;" horiz-adv-x="467" 
d="M354.5 267.5q-87.5 -47.5 -245.5 -61.5v-18q0 -77 30 -113.5t83 -36.5q36 0 67 12.5t67 38.5l25 -38q-42 -33 -86 -49q-58 -30 -82 -55.5t-24 -60.5q0 -24 14.5 -37.5t42.5 -13.5q21 0 51 6l-6 -47q-27 -6 -53 -6q-48 0 -74 25t-26 64q0 69 79 112q-79 0 -122.5 52
t-43.5 146q0 84 27.5 164t84 131.5t139.5 51.5q66 0 103 -34.5t37 -88.5q0 -96 -87.5 -143.5zM172.5 418q-46.5 -69 -59.5 -167q137 12 204 49t67 109q0 35 -21 56.5t-64 21.5q-80 0 -126.5 -69z" />
    <glyph glyph-name="uni025B" unicode="&#x25b;" horiz-adv-x="428" 
d="M83 28q-44 39 -44 103q0 58 36 99t107 48q-42 11 -64.5 36t-22.5 68q0 37 19 72t58.5 57.5t97.5 22.5q81 0 141 -51l-31 -33q-25 19 -50.5 28.5t-59.5 9.5q-60 0 -89.5 -31.5t-29.5 -74.5q0 -40 25.5 -62.5t75.5 -22.5h50l-14 -47h-45q-79 0 -112 -33.5t-33 -85.5
q0 -44 27.5 -69t76.5 -25q41 0 72 12.5t67 38.5l27 -36q-75 -63 -169 -63q-72 0 -116 39z" />
    <glyph glyph-name="uni029A" unicode="&#x29a;" horiz-adv-x="505" 
d="M82.5 27q-43.5 38 -43.5 101q0 59 37 101t109 49q-82 23 -82 102q0 37 19.5 72.5t58.5 58.5t96 23q84 0 129.5 -54t45.5 -150q0 -98 -30 -175.5t-87.5 -121.5t-137.5 -44q-71 0 -114.5 38zM345.5 120.5q49.5 83.5 49.5 210.5q0 156 -120 156q-59 0 -88.5 -31.5
t-29.5 -76.5q0 -39 24 -60.5t71 -21.5h35l-14 -47h-32q-79 0 -111 -35t-32 -87q0 -44 26.5 -67.5t76.5 -23.5q95 0 144.5 83.5z" />
    <glyph glyph-name="uni025C" unicode="&#x25c;" horiz-adv-x="434" 
d="M343 500.5q39 -33.5 39 -89.5q0 -54 -32 -88.5t-91 -45.5q50 -6 79.5 -35t29.5 -78q0 -44 -21.5 -84t-67 -65.5t-113.5 -25.5q-101 0 -164 67l33 35q54 -54 132 -54q73 0 107.5 37t34.5 89q0 45 -33 67t-90 22h-55l12 45h44q65 0 101 30.5t36 80.5q0 38 -22.5 59
t-64.5 21q-39 0 -68.5 -11t-68.5 -34l-24 35q41 28 80.5 42t85.5 14q62 0 101 -33.5z" />
    <glyph glyph-name="uni025E" unicode="&#x25e;" horiz-adv-x="495" 
d="M95.5 41.5q-44.5 52.5 -44.5 146.5q0 96 30.5 175t87.5 125t135 46q62 0 100.5 -34t38.5 -90q0 -53 -31.5 -87t-90.5 -46q51 -7 79 -35.5t28 -78.5q0 -45 -21.5 -84.5t-67 -64.5t-113.5 -25q-86 0 -130.5 52.5zM336.5 73q33.5 36 33.5 89q0 90 -120 90h-31l13 45h21
q64 0 98.5 30.5t34.5 79.5q0 38 -21.5 59t-63.5 21q-63 0 -106.5 -42.5t-65 -111t-21.5 -147.5q0 -75 30 -112t91 -37q74 0 107.5 36z" />
    <glyph glyph-name="uni025D" unicode="&#x25d;" horiz-adv-x="602" 
d="M641 356q-45 -33 -96 -33q-46 0 -72 26t-26 71q0 7 2 23l4 31l-73 -38q2 -16 2 -25q0 -54 -32 -88.5t-91 -45.5q50 -6 79.5 -35t29.5 -78q0 -44 -21.5 -84t-67 -65.5t-113.5 -25.5q-101 0 -164 67l33 35q54 -54 132 -54q73 0 107.5 37t34.5 89q0 45 -33 67t-90 22h-55
l12 45h44q65 0 101 30.5t36 80.5q0 38 -22.5 59t-64.5 21q-39 0 -68.5 -11t-68.5 -34l-24 35q41 28 80.5 42t85.5 14q42 0 74 -15.5t49 -44.5l95 49h53l-11 -79q-2 -16 -2 -21q0 -53 50 -53q20 0 36 5.5t35 16.5z" />
    <glyph glyph-name="uni0258" unicode="&#x258;" horiz-adv-x="467" 
d="M369.5 475.5q44.5 -58.5 44.5 -152.5q0 -93 -30.5 -169t-86.5 -120.5t-129 -44.5q-48 0 -84 16t-65 48l33 34q26 -25 53 -37t65 -12q63 0 107 45.5t64 121.5q-140 6 -208 44t-68 118q0 48 22 86t61 59.5t88 21.5q89 0 133.5 -58.5zM356 326q0 71 -29 116t-91 45
q-52 0 -82.5 -32.5t-30.5 -85.5q0 -60 53 -86.5t174 -32.5q6 38 6 76z" />
    <glyph glyph-name="uni0283" unicode="&#x283;" horiz-adv-x="243" 
d="M323 733.5q21 -9.5 40 -25.5l-27 -34q-15 11 -29 16.5t-34 5.5q-28 0 -48 -19.5t-26 -59.5l-13 -94l-74 -523l-11 -80q-9 -62 -44.5 -93.5t-86.5 -31.5t-90 35l28 34q15 -11 28.5 -16.5t32.5 -5.5q29 0 49 19t26 60l12 79l74 523l14 95q9 62 42.5 93.5t85.5 31.5
q30 0 51 -9.5z" />
    <glyph glyph-name="uni0286" unicode="&#x286;" horiz-adv-x="264" 
d="M344 733.5q21 -9.5 40 -25.5l-27 -34q-15 11 -29 16.5t-34 5.5q-28 0 -48 -19.5t-26 -59.5l-13 -94l-76 -542q52 -15 88 -36l-18 -33q-35 18 -76 29q-13 -69 -51 -107.5t-100 -38.5q-45 0 -71.5 25.5t-26.5 66.5q0 52 36.5 81.5t92.5 29.5q41 0 71 -7l75 532l14 95
q9 62 42.5 93.5t85.5 31.5q30 0 51 -9.5zM38.5 -133.5q22.5 28.5 31.5 86.5q-27 6 -65 6q-39 0 -60.5 -18.5t-21.5 -51.5q0 -24 13.5 -37.5t39.5 -13.5q40 0 62.5 28.5z" />
    <glyph glyph-name="uni01AA" unicode="&#x1aa;" horiz-adv-x="266" 
d="M264 -172q-40 -33 -95 -33q-48 0 -75 26.5t-27 75.5q0 8 2 28l10 75l72 514q-28 -13 -55 -13q-39 0 -64.5 26.5t-25.5 71.5q0 42 16.5 75t45 51t62.5 18q43 0 68 -25.5t25 -70.5q0 -8 -2 -28l-86 -619l-11 -82q-1 -7 -1 -20q0 -56 51 -56q20 0 35 5.5t33 16.5zM157 559
l10 69q1 7 1 20q0 49 -40 49q-30 0 -48.5 -27.5t-18.5 -69.5q0 -53 45 -53q25 0 51 12z" />
    <glyph glyph-name="uni0285" unicode="&#x285;" horiz-adv-x="364" 
d="M329 22q-40 -33 -95 -33q-48 0 -75 26.5t-27 75.5q0 8 2 28l10 75l19 135l11 82q1 7 1 20q0 56 -51 56q-20 0 -35 -5.5t-33 -16.5l-22 36q40 33 95 33q48 0 75 -26.5t27 -75.5q0 -8 -2 -28l-10 -75l-19 -135l-11 -82q-1 -7 -1 -20q0 -56 51 -56q20 0 35 5.5t33 16.5z" />
    <glyph glyph-name="uni0247" unicode="&#x247;" horiz-adv-x="467" 
d="M390.5 293q-51.5 -45 -146.5 -67l-70 -179q23 -9 48 -9q36 0 67 12.5t67 38.5l25 -38q-39 -31 -78.5 -46.5t-84.5 -15.5q-36 0 -62 10l-27 -69l-29 9l28 73q-38 23 -57.5 67.5t-19.5 107.5q0 84 27.5 164t84 131.5t139.5 51.5q10 0 28 -2l23 60l29 -9l-22 -58
q39 -13 60.5 -43.5t21.5 -70.5q0 -73 -51.5 -118zM172.5 418q-46.5 -69 -59.5 -167q57 4 114 16l85 219q-4 1 -13 1q-80 0 -126.5 -69zM342 479l-78 -202q60 19 90 51.5t30 80.5q0 53 -42 70zM208 219q-42 -8 -99 -13v-18q0 -86 40 -124z" />
    <glyph glyph-name="uni1EBD" unicode="&#x1ebd;" horiz-adv-x="467" 
d="M354.5 267.5q-87.5 -47.5 -245.5 -61.5v-18q0 -77 30 -113.5t83 -36.5q36 0 67 12.5t67 38.5l25 -38q-39 -31 -78.5 -46.5t-84.5 -15.5q-80 0 -123.5 52t-43.5 146q0 84 27.5 164t84 131.5t139.5 51.5q66 0 103 -34.5t37 -88.5q0 -96 -87.5 -143.5zM172.5 418
q-46.5 -69 -59.5 -167q137 12 204 49t67 109q0 35 -21 56.5t-64 21.5q-80 0 -126.5 -69zM338 674q-14 7 -29 19q-13 10 -22.5 14.5t-19.5 4.5q-16 0 -27.5 -9.5t-28.5 -31.5l-31 21q42 65 88 65q17 0 30 -6.5t29 -18.5q15 -11 23.5 -15.5t19.5 -4.5q14 0 27 10t29 33l32 -19
q-39 -69 -88 -69q-18 0 -32 7z" />
    <glyph glyph-name="uni01DD" unicode="&#x1dd;" horiz-adv-x="467" 
d="M372.5 482q43.5 -52 43.5 -146q0 -84 -27.5 -164t-84 -131.5t-139.5 -51.5q-66 0 -103 34.5t-37 88.5q0 96 87.5 143.5t245.5 61.5v18q0 77 -30 113.5t-83 36.5q-36 0 -67 -12.5t-67 -38.5l-25 38q39 31 78.5 46.5t84.5 15.5q80 0 123.5 -52zM294.5 105q46.5 69 59.5 167
q-137 -12 -204 -49t-67 -109q0 -35 21 -56.5t64 -21.5q80 0 126.5 69z" />
    <glyph glyph-name="uni0259" unicode="&#x259;" horiz-adv-x="467" 
d="M372.5 482q43.5 -52 43.5 -146q0 -84 -27.5 -164t-84 -131.5t-139.5 -51.5q-66 0 -103 34.5t-37 88.5q0 96 87.5 143.5t245.5 61.5v18q0 77 -30 113.5t-83 36.5q-36 0 -67 -12.5t-67 -38.5l-25 38q39 31 78.5 46.5t84.5 15.5q80 0 123.5 -52zM294.5 105q46.5 69 59.5 167
q-137 -12 -204 -49t-67 -109q0 -35 21 -56.5t64 -21.5q80 0 126.5 69z" />
    <glyph glyph-name="uni025A" unicode="&#x25a;" horiz-adv-x="632" 
d="M672 356q-45 -33 -96 -33q-46 0 -72 26t-26 71q0 7 2 23l4 31l-83 -43q15 -40 15 -95q0 -84 -27.5 -164t-84 -131.5t-139.5 -51.5q-66 0 -103 34.5t-37 88.5q0 96 87.5 143.5t245.5 61.5v18q0 77 -30 113.5t-83 36.5q-36 0 -67 -12.5t-67 -38.5l-25 38q39 31 78.5 46.5
t84.5 15.5q91 0 134 -66l108 55h53l-11 -79q-2 -16 -2 -21q0 -53 50 -53q20 0 36 5.5t35 16.5zM294.5 105q46.5 69 59.5 167q-137 -12 -204 -49t-67 -109q0 -35 21 -56.5t64 -21.5q80 0 126.5 69z" />
    <glyph glyph-name="uni0292" unicode="&#x292;" horiz-adv-x="416" 
d="M395 479l-236 -280h6q95 0 141.5 -41t46.5 -119q0 -72 -29 -127t-81.5 -86t-118.5 -31q-57 0 -97 22t-71 65l37 29q29 -36 59.5 -52t71.5 -16q79 0 124.5 55t45.5 141q0 62 -33.5 89t-105.5 27h-61l1 1l6 43l227 276h-268l7 48h334z" />
    <glyph glyph-name="uni01EF" unicode="&#x1ef;" horiz-adv-x="416" 
d="M395 479l-236 -280h6q95 0 141.5 -41t46.5 -119q0 -72 -29 -127t-81.5 -86t-118.5 -31q-57 0 -97 22t-71 65l37 29q29 -36 59.5 -52t71.5 -16q79 0 124.5 55t45.5 141q0 62 -33.5 89t-105.5 27h-61l1 1l6 43l227 276h-268l7 48h334zM373 767l23 -28l-131 -106h-35
l-102 106l27 28l96 -83z" />
    <glyph glyph-name="uni0293" unicode="&#x293;" horiz-adv-x="417" 
d="M397 479l-235 -280h6q95 0 141 -40.5t46 -117.5q0 -81 -42.5 -141.5t-117.5 -86.5l17 -58l-42 -15l-17 61q-32 -6 -67 -6q-72 0 -110 30.5t-38 82.5q0 47 30.5 79.5t77.5 32.5q52 0 83.5 -35.5t52.5 -125.5q56 22 85 70t29 111q0 61 -33.5 88t-105.5 27h-61l1 1l6 43
l228 276h-268l6 48h334zM88 -157q26 0 53 5q-19 75 -40.5 102t-54.5 27q-27 0 -43.5 -18.5t-16.5 -47.5q0 -68 102 -68z" />
    <glyph glyph-name="uni01B9" unicode="&#x1b9;" horiz-adv-x="418" 
d="M415 475h-272l155 -276l-6 -44l-3 2l2 -2h-56q-89 0 -137 -49t-48 -136q0 -60 30 -93.5t87 -33.5q45 0 82.5 16.5t73.5 52.5l32 -32q-41 -43 -87 -64t-103 -21q-81 0 -127.5 48t-46.5 127q0 70 30 122t84.5 80t127.5 28h11l-161 279l6 44h333z" />
    <glyph glyph-name="uni01BA" unicode="&#x1ba;" horiz-adv-x="408" 
d="M-22 -94q0 52 40.5 79.5t130.5 45.5q56 11 89 23.5t51 36t18 63.5q0 37 -20 54t-60 17h-132l6 45l210 205h-256l7 48h330l-6 -44l-219 -209h67q64 0 98 -29.5t34 -85.5q0 -74 -49.5 -112.5t-147.5 -57.5q-77 -15 -106 -32.5t-29 -48.5q0 -21 13.5 -37t43.5 -35l-23 -37
q-90 46 -90 111z" />
    <glyph glyph-name="f" unicode="f" horiz-adv-x="287" 
d="M236.5 674q-23.5 -22 -30.5 -68l-12 -83h124l-14 -46h-116l-65 -465q-9 -66 -28 -105t-48 -62t-81 -48l-16 42q38 19 59.5 37.5t36 51t22.5 87.5l64 462h-81l7 46h81l12 88q9 62 48 97t101 35q29 0 55 -9t53 -26l-23 -38q-41 26 -83 26t-65.5 -22z" />
    <glyph glyph-name="uni1E1F" unicode="&#x1e1f;" horiz-adv-x="287" 
d="M236.5 674q-23.5 -22 -30.5 -68l-12 -83h124l-14 -46h-116l-65 -465q-9 -66 -28 -105t-48 -62t-81 -48l-16 42q38 19 59.5 37.5t36 51t22.5 87.5l64 462h-81l7 46h81l12 88q9 62 48 97t101 35q29 0 55 -9t53 -26l-23 -38q-41 26 -83 26t-65.5 -22zM278.5 857
q-10.5 10 -10.5 27q0 19 13 32t32 13q17 0 27 -10.5t10 -26.5q0 -19 -12.5 -32t-31.5 -13q-17 0 -27.5 10z" />
    <glyph glyph-name="uni02A9" unicode="&#x2a9;" horiz-adv-x="783" 
d="M683.5 501.5q29.5 -32.5 29.5 -91.5q0 -16 -3 -36l-53 -374l-11 -80q-9 -62 -44.5 -93.5t-86.5 -31.5t-90 35l28 34q15 -11 28.5 -16.5t32.5 -5.5q29 0 49 19t26 60l12 79l53 372q3 20 3 35q0 79 -66 79q-47 0 -91 -46t-83 -122l-44 -318h-56l67 477h-196l-65 -465
q-9 -66 -28 -105t-48 -62t-81 -48l-16 42q38 19 59.5 37.5t36 51t22.5 87.5l64 462h-81l7 46h81l12 88q9 62 48 97t101 35q29 0 55 -9t53 -26l-23 -38q-41 26 -83 26t-65.5 -22t-30.5 -68l-12 -83h244l-13 -125q80 136 177 136q52 0 81.5 -32.5z" />
    <glyph glyph-name="g" unicode="g" horiz-adv-x="513" 
d="M385.5 524q35.5 -10 71.5 -30l-71 -494q-30 -206 -203 -206q-42 0 -82.5 13t-72.5 35l23 41q66 -41 131 -41q127 0 149 158l12 87q-63 -87 -144 -87q-69 0 -108.5 50.5t-39.5 138.5q0 81 27 160.5t85 132t145 52.5q42 0 77.5 -10zM196.5 442.5q-44.5 -45.5 -66 -114
t-21.5 -138.5t25.5 -106.5t73.5 -36.5q76 0 143 107l46 313q-40 21 -89 21q-67 0 -111.5 -45.5z" />
    <glyph glyph-name="uni01F5" unicode="&#x1f5;" horiz-adv-x="513" 
d="M385.5 524q35.5 -10 71.5 -30l-71 -494q-30 -206 -203 -206q-42 0 -82.5 13t-72.5 35l23 41q66 -41 131 -41q127 0 149 158l12 87q-63 -87 -144 -87q-69 0 -108.5 50.5t-39.5 138.5q0 81 27 160.5t85 132t145 52.5q42 0 77.5 -10zM196.5 442.5q-44.5 -45.5 -66 -114
t-21.5 -138.5t25.5 -106.5t73.5 -36.5q76 0 143 107l46 313q-40 21 -89 21q-67 0 -111.5 -45.5zM408 781l23 -51l-188 -85l-17 32z" />
    <glyph glyph-name="uni0263" unicode="&#x263;" horiz-adv-x="427" 
d="M215 52q17 -49 24.5 -82t7.5 -64q0 -52 -25.5 -81.5t-70.5 -29.5q-35 0 -55 20.5t-20 55.5q0 34 20 78.5t60 104.5l-103 469h59l79 -429l197 429h61zM180 14q-55 -96 -55 -140q0 -34 29 -34q22 0 33 18t11 49q0 45 -18 107z" />
    <glyph glyph-name="gbreve" unicode="&#x11f;" horiz-adv-x="513" 
d="M385.5 524q35.5 -10 71.5 -30l-71 -494q-30 -206 -203 -206q-42 0 -82.5 13t-72.5 35l23 41q66 -41 131 -41q127 0 149 158l12 87q-63 -87 -144 -87q-69 0 -108.5 50.5t-39.5 138.5q0 81 27 160.5t85 132t145 52.5q42 0 77.5 -10zM196.5 442.5q-44.5 -45.5 -66 -114
t-21.5 -138.5t25.5 -106.5t73.5 -36.5q76 0 143 107l46 313q-40 21 -89 21q-67 0 -111.5 -45.5zM242.5 684q-28.5 31 -27.5 81l39 5q4 -35 20 -52.5t47 -17.5q32 0 56.5 19t37.5 54l37 -12q-13 -50 -48.5 -79t-83.5 -29q-49 0 -77.5 31z" />
    <glyph glyph-name="gcaron" unicode="&#x1e7;" horiz-adv-x="513" 
d="M385.5 524q35.5 -10 71.5 -30l-71 -494q-30 -206 -203 -206q-42 0 -82.5 13t-72.5 35l23 41q66 -41 131 -41q127 0 149 158l12 87q-63 -87 -144 -87q-69 0 -108.5 50.5t-39.5 138.5q0 81 27 160.5t85 132t145 52.5q42 0 77.5 -10zM196.5 442.5q-44.5 -45.5 -66 -114
t-21.5 -138.5t25.5 -106.5t73.5 -36.5q76 0 143 107l46 313q-40 21 -89 21q-67 0 -111.5 -45.5zM442 767l23 -28l-131 -106h-35l-102 106l27 28l96 -83z" />
    <glyph glyph-name="gcircumflex" unicode="&#x11d;" horiz-adv-x="513" 
d="M385.5 524q35.5 -10 71.5 -30l-71 -494q-30 -206 -203 -206q-42 0 -82.5 13t-72.5 35l23 41q66 -41 131 -41q127 0 149 158l12 87q-63 -87 -144 -87q-69 0 -108.5 50.5t-39.5 138.5q0 81 27 160.5t85 132t145 52.5q42 0 77.5 -10zM196.5 442.5q-44.5 -45.5 -66 -114
t-21.5 -138.5t25.5 -106.5t73.5 -36.5q76 0 143 107l46 313q-40 21 -89 21q-67 0 -111.5 -45.5zM213 644l-25 29l132 106h35l102 -107l-28 -28l-96 84z" />
    <glyph glyph-name="gcommaaccent" unicode="&#x123;" horiz-adv-x="513" 
d="M385.5 524q35.5 -10 71.5 -30l-71 -494q-30 -206 -203 -206q-42 0 -82.5 13t-72.5 35l23 41q66 -41 131 -41q127 0 149 158l12 87q-63 -87 -144 -87q-69 0 -108.5 50.5t-39.5 138.5q0 81 27 160.5t85 132t145 52.5q42 0 77.5 -10zM196.5 442.5q-44.5 -45.5 -66 -114
t-21.5 -138.5t25.5 -106.5t73.5 -36.5q76 0 143 107l46 313q-40 21 -89 21q-67 0 -111.5 -45.5zM285.5 600q-10.5 11 -10.5 27q0 14 5.5 27t21.5 40l51 88h34l-46 -115q17 -12 17 -33q0 -19 -12.5 -32t-31.5 -13q-18 0 -28.5 11z" />
    <glyph glyph-name="gdotaccent" unicode="&#x121;" horiz-adv-x="513" 
d="M385.5 524q35.5 -10 71.5 -30l-71 -494q-30 -206 -203 -206q-42 0 -82.5 13t-72.5 35l23 41q66 -41 131 -41q127 0 149 158l12 87q-63 -87 -144 -87q-69 0 -108.5 50.5t-39.5 138.5q0 81 27 160.5t85 132t145 52.5q42 0 77.5 -10zM196.5 442.5q-44.5 -45.5 -66 -114
t-21.5 -138.5t25.5 -106.5t73.5 -36.5q76 0 143 107l46 313q-40 21 -89 21q-67 0 -111.5 -45.5zM297.5 680q-10.5 10 -10.5 27q0 19 13 32t32 13q17 0 27 -10.5t10 -26.5q0 -19 -12.5 -32t-31.5 -13q-17 0 -27.5 10z" />
    <glyph glyph-name="uni0260" unicode="&#x260;" horiz-adv-x="518" 
d="M598 733.5q21 -9.5 40 -25.5l-27 -34q-15 11 -29 16.5t-34 5.5q-28 0 -48 -19.5t-26 -59.5l-13 -94l-75 -523q-31 -206 -203 -206q-42 0 -82.5 13t-72.5 35l23 41q66 -41 131 -41q127 0 149 158l12 87q-63 -87 -144 -87q-70 0 -109 50.5t-39 138.5q0 81 27 160.5t85 132
t144 52.5q51 0 97 -21l1 10l14 95q9 62 42.5 93.5t85.5 31.5q30 0 51 -9.5zM397 468q-43 20 -89 20q-67 0 -111.5 -45.5t-66 -114t-21.5 -138.5t25.5 -106.5t73.5 -36.5q76 0 143 107z" />
    <glyph glyph-name="uni01BE" unicode="&#x1be;" horiz-adv-x="448" 
d="M386 243q0 -70 -28.5 -127.5t-79 -90t-113.5 -32.5q-54 0 -92.5 20.5t-72.5 61.5l34 29q29 -32 59 -47.5t72 -15.5q49 0 86 26.5t57 72.5t20 103q0 62 -28 93t-78 45l-59 16l23 161h-60l7 46h59l19 132l56 7l-19 -139h108l-6 -46h-109l-18 -131l28 -8q135 -37 135 -176z
" />
    <glyph glyph-name="uni0294" unicode="&#x294;" horiz-adv-x="392" 
d="M131 340l57 17q80 25 118 73.5t38 136.5q0 60 -29.5 94t-85.5 34q-41 0 -75.5 -16.5t-72.5 -48.5l-29 34q44 41 87 60t95 19q79 0 123.5 -48t44.5 -127q0 -106 -48 -163.5t-143 -86.5l-29 -9l-43 -309h-56z" />
    <glyph glyph-name="uni0296" unicode="&#x296;" horiz-adv-x="448" 
d="M267 743l-44 -316l28 -8q135 -37 135 -176q0 -70 -28.5 -127.5t-79 -90t-113.5 -32.5q-54 0 -92.5 20.5t-72.5 61.5l34 29q29 -32 59 -47.5t72 -15.5q49 0 86 26.5t57 72.5t20 103q0 62 -28 93t-78 45l-59 16l48 339z" />
    <glyph glyph-name="uni0295" unicode="&#x295;" horiz-adv-x="390" 
d="M179 0l43 308l-23 7q-63 21 -99 59t-36 115q0 71 29 129t80 91.5t116 33.5q52 0 90 -20.5t71 -61.5l-35 -30q-28 32 -57 48t-69 16q-51 0 -88.5 -28t-57.5 -75.5t-20 -104.5q0 -58 27.5 -87.5t77.5 -45.5l54 -16l-47 -338h-56z" />
    <glyph glyph-name="uni0242" unicode="&#x242;" horiz-adv-x="385" 
d="M103 185l65 19q132 38 132 167q0 54 -27 84t-75 30q-39 0 -69.5 -15t-66.5 -43l-29 37q40 35 79.5 52.5t90.5 17.5q71 0 113 -44.5t42 -117.5q0 -83 -44 -134.5t-123 -73.5l-37 -10l-22 -154h-56z" />
    <glyph glyph-name="uni02A1" unicode="&#x2a1;" horiz-adv-x="392" 
d="M182 309l-14 -100h104l-7 -45h-103l-23 -164h-56l23 164h-61l7 45h61l18 131l57 17q80 25 118 73.5t38 136.5q0 60 -29.5 94t-85.5 34q-41 0 -75.5 -16.5t-72.5 -48.5l-29 34q44 41 87 60t95 19q79 0 123.5 -48t44.5 -127q0 -106 -48 -163.5t-143 -86.5z" />
    <glyph glyph-name="uni02A2" unicode="&#x2a2;" horiz-adv-x="390" 
d="M379 722.5q38 -20.5 71 -61.5l-35 -30q-28 32 -57 48t-69 16q-51 0 -88.5 -28t-57.5 -75.5t-20 -104.5q0 -58 27.5 -87.5t77.5 -45.5l54 -16l-18 -129h61l-7 -45h-60l-23 -164h-56l23 164h-103l6 45h103l14 99l-23 7q-63 21 -99 59t-36 115q0 71 29 129t80 91.5t116 33.5
q52 0 90 -20.5z" />
    <glyph glyph-name="uni0261" unicode="&#x261;" horiz-adv-x="513" 
d="M385.5 524q35.5 -10 71.5 -30l-71 -494q-30 -206 -203 -206q-42 0 -82.5 13t-72.5 35l23 41q66 -41 131 -41q127 0 149 158l12 87q-63 -87 -144 -87q-69 0 -108.5 50.5t-39.5 138.5q0 81 27 160.5t85 132t145 52.5q42 0 77.5 -10zM196.5 442.5q-44.5 -45.5 -66 -114
t-21.5 -138.5t25.5 -106.5t73.5 -36.5q76 0 143 107l46 313q-40 21 -89 21q-67 0 -111.5 -45.5z" />
    <glyph glyph-name="uni01E5" unicode="&#x1e5;" horiz-adv-x="485" 
d="M378 -41h63l-6 -43h-70q-49 -122 -182 -122q-42 0 -82.5 13t-72.5 35l23 40q65 -40 133 -40q87 0 124 74h-121l5 43h131q6 23 8 40l13 93q-63 -88 -144 -88q-69 0 -108.5 50.5t-40.5 137.5q0 79 27 158t85 131.5t145 52.5q41 0 76 -10t73 -30l-71 -494q-2 -15 -8 -41z
M352 158l45 309q-40 21 -89 21q-67 0 -112 -45.5t-66 -114t-20 -136.5q0 -68 25.5 -104t72.5 -36q78 0 144 106z" />
    <glyph glyph-name="uni021D" unicode="&#x21d;" horiz-adv-x="423" 
d="M328.5 499q39.5 -35 39.5 -94q0 -55 -32 -89.5t-90 -46.5q54 -1 83 -26t29 -71q0 -100 -93.5 -166t-239.5 -102l-4 44q134 40 206 92t72 130q0 39 -25 55.5t-77 16.5h-72l11 45h37q62 0 99.5 31t37.5 86q0 40 -24 61.5t-66 21.5q-38 0 -69 -11t-67 -33l-23 36
q39 28 78.5 41.5t84.5 13.5q65 0 104.5 -35z" />
    <glyph glyph-name="h" unicode="h" horiz-adv-x="523" 
d="M423.5 501.5q29.5 -32.5 29.5 -90.5q0 -16 -3 -36l-53 -375h-56l53 372q3 20 3 35q0 79 -66 79q-47 0 -91 -46t-83 -122l-44 -318h-56l104 736l56 7l-48 -342q74 133 172 133q53 0 82.5 -32.5z" />
    <glyph glyph-name="hbar" unicode="&#x127;" horiz-adv-x="529" 
d="M429.5 501.5q29.5 -32.5 29.5 -90.5q0 -16 -3 -36l-53 -375h-56l53 372q3 20 3 35q0 79 -66 79q-47 0 -91 -46t-83 -122l-44 -318h-56l87 617h-68l7 45h68l10 74l56 7l-11 -81h151l-14 -45h-144l-30 -216q74 133 172 133q53 0 82.5 -32.5z" />
    <glyph glyph-name="uni021F" unicode="&#x21f;" horiz-adv-x="523" 
d="M423.5 501.5q29.5 -32.5 29.5 -90.5q0 -16 -3 -36l-53 -375h-56l53 372q3 20 3 35q0 79 -66 79q-47 0 -91 -46t-83 -122l-44 -318h-56l104 736l56 7l-48 -342q74 133 172 133q53 0 82.5 -32.5zM466 937l24 -28l-131 -102h-35l-102 103l26 27l98 -79z" />
    <glyph glyph-name="hcircumflex" unicode="&#x125;" horiz-adv-x="523" 
d="M423.5 501.5q29.5 -32.5 29.5 -90.5q0 -16 -3 -36l-53 -375h-56l53 372q3 20 3 35q0 79 -66 79q-47 0 -91 -46t-83 -122l-44 -318h-56l104 736l56 7l-48 -342q74 133 172 133q53 0 82.5 -32.5zM230 813l-24 29l132 102h34l102 -103l-26 -28l-97 80z" />
    <glyph glyph-name="uni1E25" unicode="&#x1e25;" horiz-adv-x="523" 
d="M423.5 501.5q29.5 -32.5 29.5 -90.5q0 -16 -3 -36l-53 -375h-56l53 372q3 20 3 35q0 79 -66 79q-47 0 -91 -46t-83 -122l-44 -318h-56l104 736l56 7l-48 -342q74 133 172 133q53 0 82.5 -32.5zM241.5 -97q10.5 -10 10.5 -27q0 -19 -13 -32t-32 -13q-17 0 -27 10.5
t-10 26.5q0 19 12.5 32t31.5 13q17 0 27.5 -10z" />
    <glyph glyph-name="uni0267" unicode="&#x267;" horiz-adv-x="524" 
d="M424.5 501.5q29.5 -32.5 29.5 -90.5q0 -16 -3 -36l-53 -375l-11 -80q-9 -62 -44.5 -93.5t-86.5 -31.5t-90 35l28 34q15 -11 28.5 -16.5t32.5 -5.5q29 0 49 19t26 60l12 79l52 372q3 21 3 37q0 77 -66 77q-47 0 -91 -46t-83 -122l-44 -318h-56l73 522l13 91q8 61 47 95.5
t100 34.5q59 0 109 -29l-22 -40q-41 21 -85 21q-81 0 -94 -89l-12 -84h1l-17 -121q34 62 77.5 97.5t94.5 35.5q53 0 82.5 -32.5z" />
    <glyph glyph-name="uni0266" unicode="&#x266;" horiz-adv-x="524" 
d="M424.5 501.5q29.5 -32.5 29.5 -90.5q0 -16 -3 -36l-53 -375h-56l52 372q3 21 3 37q0 77 -66 77q-47 0 -91 -46t-83 -122l-44 -318h-56l73 522l13 91q8 61 47 95.5t100 34.5q59 0 109 -29l-22 -40q-41 21 -85 21q-81 0 -94 -89l-12 -84h1l-17 -121q34 62 77.5 97.5
t94.5 35.5q53 0 82.5 -32.5z" />
    <glyph glyph-name="uni0265" unicode="&#x265;" horiz-adv-x="519" 
d="M355 120q-77 -131 -173 -131q-53 0 -82.5 32.5t-29.5 89.5q0 17 3 35l53 377h56l-53 -376q-3 -19 -3 -34q0 -77 65 -77q88 0 175 165l45 322h56l-102 -722l-56 -7z" />
    <glyph glyph-name="uni02AE" unicode="&#x2ae;" horiz-adv-x="599" 
d="M548 523l-102 -722l-57 -7l47 326q-77 -131 -174 -131q-53 0 -82 32.5t-29 90.5q0 22 2 34l26 183h-1l11 82q1 7 1 20q0 56 -51 56q-20 0 -35 -5.5t-33 -16.5l-22 36q40 33 95 33q48 0 75 -26.5t27 -75.5q0 -8 -2 -28l-10 -75h1l-26 -182q-3 -19 -3 -34q0 -77 65 -77
q89 0 176 165l45 322h56z" />
    <glyph glyph-name="uni02AF" unicode="&#x2af;" horiz-adv-x="600" 
d="M603 -172q-40 -33 -95 -33q-48 0 -75 26.5t-27 75.5q0 8 2 28l10 75l18 120q-77 -131 -174 -131q-53 0 -82 32.5t-29 90.5q0 22 2 34l26 183h-1l11 82q1 7 1 20q0 56 -51 56q-20 0 -35 -5.5t-33 -16.5l-22 36q40 33 95 33q48 0 75 -26.5t27 -75.5q0 -8 -2 -28l-10 -75h1
l-26 -182q-3 -19 -3 -34q0 -77 65 -77q89 0 176 165l45 322h56l-74 -523l-11 -82q-1 -7 -1 -20q0 -56 51 -56q20 0 35 5.5t33 16.5z" />
    <glyph glyph-name="uni0195" unicode="&#x195;" horiz-adv-x="796" 
d="M396 25.5q-35 36.5 -35 96.5q0 9 2 29l31 221q3 20 3 35q0 79 -66 79q-47 0 -91 -46t-83 -122l-44 -318h-56l104 736l56 7l-48 -342q74 133 172 133q53 0 82.5 -32.5t29.5 -90.5q0 -16 -3 -36l-31 -224q-2 -18 -2 -27q0 -43 21.5 -65t61.5 -22q102 0 141 117t39 277
q0 53 -4 92h54q5 -52 5 -95q0 -189 -54 -314t-185 -125q-65 0 -100 36.5z" />
    <glyph glyph-name="i" unicode="i" horiz-adv-x="243" 
d="M187 523l-74 -523h-56l74 523h56zM152.5 680q-10.5 10 -10.5 27q0 19 13 32t32 13q17 0 27 -10.5t10 -26.5q0 -19 -12.5 -32t-31.5 -13q-17 0 -27.5 10z" />
    <glyph glyph-name="dotlessi" unicode="&#x131;" horiz-adv-x="243" 
d="M187 523l-74 -523h-56l74 523h56z" />
    <glyph glyph-name="iacute" unicode="&#xed;" horiz-adv-x="243" 
d="M187 523l-74 -523h-56l74 523h56zM263 781l23 -51l-188 -85l-17 32z" />
    <glyph glyph-name="ibreve" unicode="&#x12d;" horiz-adv-x="243" 
d="M187 523l-74 -523h-56l74 523h56zM97.5 684q-28.5 31 -27.5 81l39 5q4 -35 20 -52.5t47 -17.5q32 0 56.5 19t37.5 54l37 -12q-13 -50 -48.5 -79t-83.5 -29q-49 0 -77.5 31z" />
    <glyph glyph-name="uni01D0" unicode="&#x1d0;" horiz-adv-x="243" 
d="M187 523l-74 -523h-56l74 523h56zM297 767l23 -28l-131 -106h-35l-102 106l27 28l96 -83z" />
    <glyph glyph-name="icircumflex" unicode="&#xee;" horiz-adv-x="243" 
d="M187 523l-74 -523h-56l74 523h56zM68 644l-25 29l132 106h35l102 -107l-28 -28l-96 84z" />
    <glyph glyph-name="uni0209" unicode="&#x209;" horiz-adv-x="243" 
d="M187 523l-74 -523h-56l74 523h56zM91 810l51 -152l-39 -15l-66 143zM208 810l45 -148l-39 -15l-60 138z" />
    <glyph glyph-name="idieresis" unicode="&#xef;" horiz-adv-x="243" 
d="M187 523l-74 -523h-56l74 523h56zM69 673.5q-9 9.5 -9 23.5q0 19 12 31t29 12q15 0 25 -9.5t10 -24.5q0 -18 -12 -30t-30 -12q-16 0 -25 9.5zM240.5 673.5q-9.5 9.5 -9.5 23.5q0 19 12 31t30 12q15 0 24.5 -10t9.5 -24q0 -18 -12 -30t-30 -12q-15 0 -24.5 9.5z" />
    <glyph glyph-name="uni1E2F" unicode="&#x1e2f;" horiz-adv-x="243" 
d="M187 523l-74 -523h-56l74 523h56zM269 859l34 -35l-127 -121l-23 22zM60.5 643.5q-9.5 9.5 -9.5 24.5q0 18 12 30t29 12q16 0 25.5 -9.5t9.5 -23.5q0 -19 -12 -31t-30 -12q-15 0 -24.5 9.5zM231.5 644q-9.5 10 -9.5 24q0 18 12 30t30 12q15 0 24.5 -9.5t9.5 -23.5
q0 -19 -12 -31t-30 -12q-15 0 -24.5 10z" />
    <glyph glyph-name="i.loclTRK" horiz-adv-x="243" 
d="M187 523l-74 -523h-56l74 523h56zM152.5 680q-10.5 10 -10.5 27q0 19 13 32t32 13q17 0 27 -10.5t10 -26.5q0 -19 -12.5 -32t-31.5 -13q-17 0 -27.5 10z" />
    <glyph glyph-name="uni1ECB" unicode="&#x1ecb;" horiz-adv-x="243" 
d="M187 523l-74 -523h-56l74 523h56zM152.5 680q-10.5 10 -10.5 27q0 19 13 32t32 13q17 0 27 -10.5t10 -26.5q0 -19 -12.5 -32t-31.5 -13q-17 0 -27.5 10zM97.5 -97q10.5 -10 10.5 -27q0 -19 -13 -32t-32 -13q-17 0 -27 10.5t-10 26.5q0 19 12.5 32t31.5 13q17 0 27.5 -10z
" />
    <glyph glyph-name="igrave" unicode="&#xec;" horiz-adv-x="243" 
d="M187 523l-74 -523h-56l74 523h56zM131 780l155 -103l-20 -32l-165 85z" />
    <glyph glyph-name="uni1EC9" unicode="&#x1ec9;" horiz-adv-x="243" 
d="M187 523l-74 -523h-56l74 523h56zM157 699q71 6 71 54q0 16 -9.5 25t-26.5 9q-15 0 -26.5 -3.5t-26.5 -10.5l-13 36q37 20 73 20t57.5 -20.5t21.5 -53.5q0 -36 -21 -56.5t-58 -26.5l-8 -55h-44z" />
    <glyph glyph-name="uni020B" unicode="&#x20b;" horiz-adv-x="243" 
d="M187 523l-74 -523h-56l74 523h56zM52 634q13 50 48.5 79t82.5 29q49 0 78 -31t28 -81l-38 -5q-7 70 -70 70q-65 0 -93 -73z" />
    <glyph glyph-name="ij" unicode="&#x133;" horiz-adv-x="487" 
d="M187 523l-74 -523h-56l74 523h56zM152.5 680q-10.5 10 -10.5 27q0 19 13 32t32 13q17 0 27 -10.5t10 -26.5q0 -19 -12.5 -32t-31.5 -13q-17 0 -27.5 10zM185 -161q37 18 59 37t36.5 51t22.5 88l71 508h56l-72 -511q-9 -66 -28 -105t-48 -62t-81 -48zM397.5 680
q-10.5 10 -10.5 27q0 19 13 32t32 13q17 0 27 -10.5t10 -26.5q0 -19 -12.5 -32t-31.5 -13q-17 0 -27.5 10z" />
    <glyph glyph-name="imacron" unicode="&#x12b;" horiz-adv-x="243" 
d="M187 523l-74 -523h-56l74 523h56zM288 676h-218l7 46h218z" />
    <glyph glyph-name="iogonek" unicode="&#x12f;" horiz-adv-x="243" 
d="M214 741.5q10 -10.5 10 -26.5q0 -19 -12.5 -32t-31.5 -13q-17 0 -27.5 10t-10.5 27q0 19 13 32t32 13q17 0 27 -10.5zM131 523h56l-74 -523h-11q-70 -32 -99 -61.5t-29 -65.5q0 -21 12.5 -32t36.5 -11q22 0 53 6l-11 -47q-27 -6 -50 -6q-43 0 -67.5 22.5t-24.5 60.5
q0 46 31.5 81.5t104.5 65.5z" />
    <glyph glyph-name="uni0269" unicode="&#x269;" horiz-adv-x="255" 
d="M126 523h56l-63 -439q-1 -6 -1 -15q0 -17 7 -24.5t23 -7.5q13 0 34 7l12 -41q-30 -14 -57 -14q-35 0 -55 20t-20 58q0 6 2 22z" />
    <glyph glyph-name="uni0268" unicode="&#x268;" horiz-adv-x="267" 
d="M164.5 680q-10.5 10 -10.5 27q0 19 13 32t32 13q17 0 27 -10.5t10 -26.5q0 -19 -12.5 -32t-31.5 -13q-17 0 -27.5 10zM259 304l-6 -45h-91l-37 -259h-56l37 259h-93l7 45h92l31 219h56l-31 -219h91z" />
    <glyph glyph-name="itilde" unicode="&#x129;" horiz-adv-x="243" 
d="M187 523l-74 -523h-56l74 523h56zM204 674q-14 7 -29 19q-13 10 -22.5 14.5t-19.5 4.5q-16 0 -27.5 -9.5t-28.5 -31.5l-31 21q42 65 88 65q17 0 30 -6.5t29 -18.5q15 -11 23.5 -15.5t19.5 -4.5q14 0 27 10t29 33l32 -19q-39 -69 -88 -69q-18 0 -32 7z" />
    <glyph glyph-name="j" unicode="j" horiz-adv-x="244" 
d="M-58 -161q37 18 59 37t36.5 51t22.5 88l71 508h56l-72 -511q-9 -66 -28 -105t-48 -62t-81 -48zM153.5 680q-10.5 10 -10.5 27q0 19 13 32t32 13q17 0 27 -10.5t10 -26.5q0 -19 -12.5 -32t-31.5 -13q-17 0 -27.5 10z" />
    <glyph glyph-name="uni0237" unicode="&#x237;" horiz-adv-x="244" 
d="M-58 -161q37 18 59 37t36.5 51t22.5 88l71 508h56l-72 -511q-9 -66 -28 -105t-48 -62t-81 -48z" />
    <glyph glyph-name="uni01F0" unicode="&#x1f0;" horiz-adv-x="244" 
d="M-58 -161q37 18 59 37t36.5 51t22.5 88l71 508h56l-72 -511q-9 -66 -28 -105t-48 -62t-81 -48zM298 767l23 -28l-131 -106h-35l-102 106l27 28l96 -83z" />
    <glyph glyph-name="jcircumflex" unicode="&#x135;" horiz-adv-x="244" 
d="M-58 -161q37 18 59 37t36.5 51t22.5 88l71 508h56l-72 -511q-9 -66 -28 -105t-48 -62t-81 -48zM69 644l-25 29l132 106h35l102 -107l-28 -28l-96 84z" />
    <glyph glyph-name="uni029D" unicode="&#x29d;" horiz-adv-x="287" 
d="M235 741.5q10 -10.5 10 -26.5q0 -19 -12.5 -32t-31.5 -13q-17 0 -27.5 10t-10.5 27q0 19 13 32t32 13q17 0 27 -10.5zM131 -19q52 -15 88 -36l-18 -33q-35 18 -76 29q-13 -69 -51 -107.5t-100 -38.5q-45 0 -71.5 25.5t-26.5 66.5q0 52 36.5 81.5t92.5 29.5q41 0 71 -7
l75 532h56zM38.5 -133.5q22.5 28.5 31.5 86.5q-27 6 -65 6q-39 0 -60.5 -18.5t-21.5 -51.5q0 -24 13.5 -37.5t39.5 -13.5q40 0 62.5 28.5z" />
    <glyph glyph-name="uni025F" unicode="&#x25f;" horiz-adv-x="269" 
d="M251 224h-92l-30 -212q-9 -66 -28 -105t-48 -62t-81 -48l-16 42q37 18 59 37t36.5 51t22.5 88l29 209h-91l6 46h92l35 253h56l-36 -253h92z" />
    <glyph glyph-name="uni0284" unicode="&#x284;" horiz-adv-x="300" 
d="M342 733.5q21 -9.5 40 -25.5l-27 -34q-15 11 -29 16.5t-34 5.5q-28 0 -48 -19.5t-26 -59.5l-13 -94l-67 -477h91l-7 -46h-91q-10 -62 -29 -98.5t-47.5 -58.5t-79.5 -46l-15 42q36 18 57 35.5t35.5 47t22.5 78.5h-92l7 46h92l67 477l14 95q9 62 42.5 93.5t85.5 31.5
q30 0 51 -9.5z" />
    <glyph glyph-name="uni0249" unicode="&#x249;" horiz-adv-x="269" 
d="M251 224h-92l-30 -212q-9 -66 -28 -105t-48 -62t-81 -48l-16 42q37 18 59 37t36.5 51t22.5 88l29 209h-91l6 46h92l35 253h56l-36 -253h92zM167.5 680q-10.5 10 -10.5 27q0 19 13 32t32 13q17 0 27 -10.5t10 -26.5q0 -19 -12.5 -32t-31.5 -13q-17 0 -27.5 10z" />
    <glyph glyph-name="k" unicode="k" horiz-adv-x="476" 
d="M168 396q76 138 177 138q50 0 80 -30t30 -78q0 -64 -41 -111.5t-119 -76.5l104 -238h-61l-108 254q85 26 126 67t41 101q0 31 -16 48.5t-48 17.5q-47 0 -92.5 -47.5t-85.5 -135.5l-42 -305h-56l104 736l56 7z" />
    <glyph glyph-name="uni01E9" unicode="&#x1e9;" horiz-adv-x="476" 
d="M168 396q76 138 177 138q50 0 80 -30t30 -78q0 -64 -41 -111.5t-119 -76.5l104 -238h-61l-108 254q85 26 126 67t41 101q0 31 -16 48.5t-48 17.5q-47 0 -92.5 -47.5t-85.5 -135.5l-42 -305h-56l104 736l56 7zM464 937l24 -28l-131 -102h-35l-102 103l26 27l98 -79z" />
    <glyph glyph-name="kcommaaccent" unicode="&#x137;" horiz-adv-x="476" 
d="M168 396q76 138 177 138q50 0 80 -30t30 -78q0 -64 -41 -111.5t-119 -76.5l104 -238h-61l-108 254q85 26 126 67t41 101q0 31 -16 48.5t-48 17.5q-47 0 -92.5 -47.5t-85.5 -135.5l-42 -305h-56l104 736l56 7zM236.5 -96q10.5 -11 10.5 -27q0 -14 -5.5 -27t-21.5 -40
l-51 -88h-34l46 115q-17 12 -17 33q0 19 12.5 32t31.5 13q18 0 28.5 -11z" />
    <glyph glyph-name="kgreenlandic" unicode="&#x138;" horiz-adv-x="443" 
d="M187 523l-74 -523h-56l74 523h56zM450 523l-230 -248l175 -275h-63l-176 276l227 247h67z" />
    <glyph glyph-name="uni0199" unicode="&#x199;" horiz-adv-x="476" 
d="M414.5 314.5q-40.5 -47.5 -119.5 -76.5l104 -238h-61l-108 254q85 26 126 67t41 101q0 31 -16 48.5t-47 17.5q-48 0 -93.5 -47.5t-85.5 -135.5l-42 -305h-56l73 522l13 91q8 61 47 95.5t100 34.5q59 0 109 -29l-22 -40q-41 21 -85 21q-81 0 -94 -89l-12 -84l-17 -127
q74 139 176 139q50 0 80 -30t30 -78q0 -64 -40.5 -111.5z" />
    <glyph glyph-name="uni029E" unicode="&#x29e;" horiz-adv-x="439" 
d="M-7 0l232 243l-177 280h62l176 -286l-224 -237h-69zM228 -206l103 729h56l-102 -722z" />
    <glyph glyph-name="l" unicode="l" horiz-adv-x="255" 
d="M119 84q-1 -5 -1 -14q0 -17 7 -24.5t23 -7.5q12 0 34 6l12 -41q-28 -14 -57 -14q-35 0 -54.5 19.5t-19.5 56.5q0 8 2 24l91 647l56 7z" />
    <glyph glyph-name="lacute" unicode="&#x13a;" horiz-adv-x="255" 
d="M119 84q-1 -5 -1 -14q0 -17 7 -24.5t23 -7.5q12 0 34 6l12 -41q-28 -14 -57 -14q-35 0 -54.5 19.5t-19.5 56.5q0 8 2 24l91 647l56 7zM276 935l22 -51l-188 -75l-15 32z" />
    <glyph glyph-name="uni019B" unicode="&#x19b;" horiz-adv-x="423" 
d="M320.5 251q13.5 -88 31 -137.5t46.5 -102.5l-53 -19q-28 56 -45.5 107t-30.5 137t-17 221l-206 -466l-54 14l235 510l22 -4q-3 71 -17 110l-72 -71l-36 20l88 89q-26 31 -79 44l11 41q68 -18 102 -55l71 72l29 -30l-77 -78q14 -28 21.5 -68.5t10.5 -101.5
q6 -144 19.5 -232z" />
    <glyph glyph-name="uni019A" unicode="&#x19a;" horiz-adv-x="267" 
d="M136 84q-1 -5 -1 -14q0 -17 7 -24.5t23 -7.5q12 0 34 6l12 -41q-28 -14 -57 -14q-35 0 -54.5 19.5t-19.5 56.5q0 8 2 24l36 259h-92l7 48h92l48 340l56 7l-49 -347h92l-6 -48h-93z" />
    <glyph glyph-name="uni026C" unicode="&#x26c;" horiz-adv-x="305" 
d="M224 44l12 -41q-28 -14 -57 -14q-35 0 -54.5 19.5t-19.5 56.5q0 8 2 24l25 178h-1q-50 1 -78 24t-28 65q0 44 29.5 71t74.5 27q13 0 29 -2l40 284l56 7l-61 -434q29 1 72 8l4 -38q-43 -10 -82 -11l-26 -184q-1 -5 -1 -14q0 -17 7 -24.5t23 -7.5q12 0 34 6zM138 309
l15 104q-16 2 -24 2q-26 0 -41.5 -15.5t-15.5 -42.5q0 -25 16 -36.5t49 -11.5h1z" />
    <glyph glyph-name="lcaron" unicode="&#x13e;" horiz-adv-x="255" 
d="M119 84q-1 -5 -1 -14q0 -17 7 -24.5t23 -7.5q12 0 34 6l12 -41q-28 -14 -57 -14q-35 0 -54.5 19.5t-19.5 56.5q0 8 2 24l91 647l56 7zM278 742l52 -7l-57 -162l-33 5z" />
    <glyph glyph-name="uni1E3D" unicode="&#x1e3d;" horiz-adv-x="255" 
d="M119 84q-1 -5 -1 -14q0 -17 7 -24.5t23 -7.5q12 0 34 6l12 -41q-28 -14 -57 -14q-35 0 -54.5 19.5t-19.5 56.5q0 8 2 24l91 647l56 7zM-1 -204l-24 29l132 105h34l102 -106l-27 -28l-98 84z" />
    <glyph glyph-name="lcommaaccent" unicode="&#x13c;" horiz-adv-x="255" 
d="M119 84q-1 -5 -1 -14q0 -17 7 -24.5t23 -7.5q12 0 34 6l12 -41q-28 -14 -57 -14q-35 0 -54.5 19.5t-19.5 56.5q0 8 2 24l91 647l56 7zM145.5 -96q10.5 -11 10.5 -27q0 -14 -5.5 -27t-21.5 -40l-51 -88h-34l46 115q-17 12 -17 33q0 19 12.5 32t31.5 13q18 0 28.5 -11z" />
    <glyph glyph-name="uni0234" unicode="&#x234;" horiz-adv-x="339" 
d="M316 177.5q23 -22.5 23 -60.5q0 -58 -43.5 -93t-108.5 -35q-44 0 -72 17l-44 -72l-35 18l51 80q-20 26 -20 67q0 7 2 25l87 612l56 7l-88 -627q-2 -18 -2 -25q31 57 62 83t72 26q37 0 60 -22.5zM263 58.5q27 20.5 27 57.5q0 20 -10 30.5t-29 10.5q-27 0 -50 -22t-59 -86
q17 -11 53 -11q41 0 68 20.5z" />
    <glyph glyph-name="ldot" unicode="&#x140;" horiz-adv-x="273" 
d="M119 84q-1 -5 -1 -14q0 -17 7 -24.5t23 -7.5q12 0 34 6l12 -41q-28 -14 -57 -14q-35 0 -54.5 19.5t-19.5 56.5q0 8 2 24l91 647l56 7zM235.5 345q-10.5 10 -10.5 27q0 19 13 32t32 13q17 0 27 -10.5t10 -26.5q0 -19 -12.5 -32t-31.5 -13q-17 0 -27.5 10z" />
    <glyph glyph-name="uni1E37" unicode="&#x1e37;" horiz-adv-x="255" 
d="M119 84q-1 -5 -1 -14q0 -17 7 -24.5t23 -7.5q12 0 34 6l12 -41q-28 -14 -57 -14q-35 0 -54.5 19.5t-19.5 56.5q0 8 2 24l91 647l56 7zM145.5 -97q10.5 -10 10.5 -27q0 -19 -13 -32t-32 -13q-17 0 -27 10.5t-10 26.5q0 19 12.5 32t31.5 13q17 0 27.5 -10z" />
    <glyph glyph-name="uni026E" unicode="&#x26e;" horiz-adv-x="571" 
d="M550 479l-235 -280h5q95 0 141.5 -41t46.5 -118q0 -72 -29 -127.5t-81.5 -86.5t-118.5 -31q-56 0 -96 22t-71 64l37 29q28 -36 58.5 -51.5t71.5 -15.5q79 0 124.5 55t45.5 141q0 62 -33.5 89t-105.5 27h-61l1 1l6 43l227 276h-309l-55 -391q-1 -5 -1 -14q0 -17 7 -24.5
t23 -7.5q12 0 34 6l12 -41q-28 -14 -57 -14q-35 0 -54.5 19.5t-19.5 56.5q0 8 2 24l91 647l56 7l-31 -220h375z" />
    <glyph glyph-name="uni026D" unicode="&#x26d;" horiz-adv-x="243" 
d="M242 -172q-40 -33 -95 -33q-48 0 -75 26.5t-27 75.5q0 8 2 28l10 75l104 736l56 7l-104 -743l-11 -82q-1 -7 -1 -20q0 -56 51 -56q20 0 35 5.5t33 16.5z" />
    <glyph glyph-name="uni01C9" unicode="&#x1c9;" horiz-adv-x="499" 
d="M119 84q-1 -5 -1 -14q0 -17 7 -24.5t23 -7.5q12 0 34 6l12 -41q-28 -14 -57 -14q-35 0 -54.5 19.5t-19.5 56.5q0 8 2 24l91 647l56 7zM197 -161q37 18 59 37t36.5 51t22.5 88l71 508h56l-72 -511q-9 -66 -28 -105t-48 -62t-81 -48zM408.5 680q-10.5 10 -10.5 27
q0 19 13 32t32 13q17 0 27 -10.5t10 -26.5q0 -19 -12.5 -32t-31.5 -13q-17 0 -27.5 10z" />
    <glyph glyph-name="uni026B" unicode="&#x26b;" horiz-adv-x="298" 
d="M323 381q-25 -34 -49.5 -53t-56.5 -19q-19 0 -43 11l-33 -236q-1 -5 -1 -14q0 -17 7 -24.5t23 -7.5q12 0 34 6l12 -41q-28 -14 -57 -14q-35 0 -54.5 19.5t-19.5 56.5q0 8 2 24l37 264q-21 14 -38 14q-22 0 -37.5 -12t-34.5 -35l-32 21q24 35 49.5 54.5t59.5 19.5
q20 0 40 -10l47 331l56 7l-52 -371q21 -14 38 -14q21 0 37 11.5t33 32.5z" />
    <glyph glyph-name="uni02AA" unicode="&#x2aa;" horiz-adv-x="583" 
d="M128 27.5q-53 38.5 -53 115.5q0 22 2 34l79 559l57 7l-80 -567q-2 -20 -2 -28q0 -58 37.5 -84t108.5 -26q91 0 139 31t48 90q0 34 -21 55.5t-76 41.5q-63 24 -90 53.5t-27 77.5q0 42 22.5 75.5t60.5 52.5t85 19q82 0 144 -59l-30 -34q-28 24 -54.5 35t-60.5 11
q-48 0 -79 -26.5t-31 -70.5q0 -33 20.5 -53t72.5 -39q64 -23 93 -55t29 -81q0 -82 -67 -127.5t-182 -45.5q-92 0 -145 38.5z" />
    <glyph glyph-name="lslash" unicode="&#x142;" horiz-adv-x="263" 
d="M183 44l12 -41q-28 -14 -57 -14q-35 0 -54.5 19.5t-19.5 56.5q0 8 2 24l33 236l-47 -29l-17 38l72 44l50 358l56 7l-46 -328l93 57l17 -38l-118 -72l-39 -278q-1 -5 -1 -14q0 -17 7 -24.5t23 -7.5q12 0 34 6z" />
    <glyph glyph-name="uni02AB" unicode="&#x2ab;" horiz-adv-x="569" 
d="M569 479l-320 -430h258l-13 -49h-307q-25 -11 -50 -11q-35 0 -55 20t-20 58q0 6 2 22l92 647l56 7l-93 -659q-1 -5 -1 -14q0 -33 30 -33q15 0 34 7l319 430h-237l8 49h303z" />
    <glyph glyph-name="m" unicode="m" horiz-adv-x="764" 
d="M667 501q27 -33 27 -90q0 -18 -3 -38l-53 -373h-56l52 370q3 21 3 38q0 78 -58 78q-41 0 -79.5 -44.5t-78.5 -122.5l-46 -319h-56l52 370q3 21 3 39q0 77 -58 77q-42 0 -80.5 -45.5t-78.5 -125.5l-44 -315h-56l74 523h47l-13 -126q73 137 164 137q47 0 74.5 -33.5
t27.5 -94.5q74 128 162 128q47 0 74 -33z" />
    <glyph glyph-name="uni1E3F" unicode="&#x1e3f;" horiz-adv-x="764" 
d="M667 501q27 -33 27 -90q0 -18 -3 -38l-53 -373h-56l52 370q3 21 3 38q0 78 -58 78q-41 0 -79.5 -44.5t-78.5 -122.5l-46 -319h-56l52 370q3 21 3 39q0 77 -58 77q-42 0 -80.5 -45.5t-78.5 -125.5l-44 -315h-56l74 523h47l-13 -126q73 137 164 137q47 0 74.5 -33.5
t27.5 -94.5q74 128 162 128q47 0 74 -33zM531 781l23 -51l-188 -85l-17 32z" />
    <glyph glyph-name="uni1E41" unicode="&#x1e41;" horiz-adv-x="764" 
d="M667 501q27 -33 27 -90q0 -18 -3 -38l-53 -373h-56l52 370q3 21 3 38q0 78 -58 78q-41 0 -79.5 -44.5t-78.5 -122.5l-46 -319h-56l52 370q3 21 3 39q0 77 -58 77q-42 0 -80.5 -45.5t-78.5 -125.5l-44 -315h-56l74 523h47l-13 -126q73 137 164 137q47 0 74.5 -33.5
t27.5 -94.5q74 128 162 128q47 0 74 -33zM420.5 680q-10.5 10 -10.5 27q0 19 13 32t32 13q17 0 27 -10.5t10 -26.5q0 -19 -12.5 -32t-31.5 -13q-17 0 -27.5 10z" />
    <glyph glyph-name="uni0271" unicode="&#x271;" horiz-adv-x="764" 
d="M667 501q27 -33 27 -90q0 -18 -3 -38l-53 -373l-11 -80q-9 -62 -44.5 -93.5t-86.5 -31.5t-90 35l28 34q15 -11 28.5 -16.5t32.5 -5.5q29 0 49 19t26 60l12 79l52 370q3 21 3 38q0 78 -58 78q-41 0 -79.5 -44.5t-78.5 -122.5l-46 -319h-56l52 370q3 21 3 39q0 77 -58 77
q-42 0 -80.5 -45.5t-78.5 -125.5l-44 -315h-56l74 523h47l-13 -126q73 137 164 137q47 0 74.5 -33.5t27.5 -94.5q74 128 162 128q47 0 74 -33z" />
    <glyph glyph-name="uni0270" unicode="&#x270;" horiz-adv-x="759" 
d="M708 523l-102 -722l-58 -7l47 326q-70 -131 -160 -131q-48 0 -75 34.5t-26 94.5q-73 -129 -162 -129q-47 0 -74.5 33t-27.5 91q0 18 3 37l53 373h56l-52 -370q-3 -21 -3 -38q0 -78 58 -78q42 0 81 44.5t78 123.5l46 318h55l-52 -370q-3 -21 -3 -37q0 -79 59 -79
q41 0 80 44.5t78 123.5l45 318h56z" />
    <glyph glyph-name="uni026F" unicode="&#x26f;" horiz-adv-x="764" 
d="M707 523l-74 -523h-47l13 126q-73 -137 -164 -137q-47 0 -74.5 33.5t-27.5 94.5q-74 -128 -162 -128q-47 0 -74 33t-27 90q0 19 3 38l53 373h56l-52 -370q-3 -21 -3 -38q0 -78 58 -78q41 0 79.5 44.5t78.5 122.5l46 319h56l-52 -370q-3 -21 -3 -39q0 -77 58 -77
q42 0 80.5 45.5t78.5 125.5l44 315h56z" />
    <glyph glyph-name="n" unicode="n" horiz-adv-x="523" 
d="M423.5 501.5q29.5 -32.5 29.5 -91.5q0 -16 -3 -36l-53 -374h-56l53 372q3 20 3 35q0 79 -66 79q-47 0 -91 -46t-83 -122l-44 -318h-56l74 523h47l-13 -125q80 136 177 136q52 0 81.5 -32.5z" />
    <glyph glyph-name="nacute" unicode="&#x144;" horiz-adv-x="523" 
d="M423.5 501.5q29.5 -32.5 29.5 -91.5q0 -16 -3 -36l-53 -374h-56l53 372q3 20 3 35q0 79 -66 79q-47 0 -91 -46t-83 -122l-44 -318h-56l74 523h47l-13 -125q80 136 177 136q52 0 81.5 -32.5zM404 781l23 -51l-188 -85l-17 32z" />
    <glyph glyph-name="napostrophe" unicode="&#x149;" horiz-adv-x="601" 
d="M185.5 734q10.5 -11 10.5 -27q0 -13 -5 -25.5t-21 -41.5l-50 -92h-34l45 119q-18 11 -18 32q0 20 12.5 33t31.5 13q18 0 28.5 -11zM501.5 501.5q29.5 -32.5 29.5 -91.5q0 -16 -3 -36l-53 -374h-56l53 372q3 20 3 35q0 79 -66 79q-47 0 -91 -46t-83 -122l-44 -318h-56
l74 523h47l-13 -125q80 136 177 136q52 0 81.5 -32.5z" />
    <glyph glyph-name="ncaron" unicode="&#x148;" horiz-adv-x="523" 
d="M423.5 501.5q29.5 -32.5 29.5 -91.5q0 -16 -3 -36l-53 -374h-56l53 372q3 20 3 35q0 79 -66 79q-47 0 -91 -46t-83 -122l-44 -318h-56l74 523h47l-13 -125q80 136 177 136q52 0 81.5 -32.5zM438 767l23 -28l-131 -106h-35l-102 106l27 28l96 -83z" />
    <glyph glyph-name="uni1E4B" unicode="&#x1e4b;" horiz-adv-x="523" 
d="M423.5 501.5q29.5 -32.5 29.5 -91.5q0 -16 -3 -36l-53 -374h-56l53 372q3 20 3 35q0 79 -66 79q-47 0 -91 -46t-83 -122l-44 -318h-56l74 523h47l-13 -125q80 136 177 136q52 0 81.5 -32.5zM95 -204l-24 29l132 105h34l102 -106l-27 -28l-98 84z" />
    <glyph glyph-name="ncommaaccent" unicode="&#x146;" horiz-adv-x="523" 
d="M423.5 501.5q29.5 -32.5 29.5 -91.5q0 -16 -3 -36l-53 -374h-56l53 372q3 20 3 35q0 79 -66 79q-47 0 -91 -46t-83 -122l-44 -318h-56l74 523h47l-13 -125q80 136 177 136q52 0 81.5 -32.5zM241.5 -96q10.5 -11 10.5 -27q0 -14 -5.5 -27t-21.5 -40l-51 -88h-34l46 115
q-17 12 -17 33q0 19 12.5 32t31.5 13q18 0 28.5 -11z" />
    <glyph glyph-name="uni0235" unicode="&#x235;" horiz-adv-x="629" 
d="M607 178q23 -23 23 -60q0 -58 -44 -93.5t-108 -35.5q-45 0 -74 17l-43 -72l-35 18l51 80q-19 26 -19 68q0 8 2 26l34 243q3 20 3 36q0 81 -67 81q-87 0 -174 -170l-43 -316h-56l74 523h47l-13 -128q79 139 179 139q52 0 80.5 -33t28.5 -92q0 -18 -3 -38l-36 -253
q-2 -22 -2 -29q31 58 62.5 85t72.5 27q37 0 60 -23zM553.5 58.5q27.5 20.5 27.5 57.5q0 19 -10.5 30t-28.5 11q-27 0 -50 -22.5t-59 -85.5q15 -11 52 -11q41 0 68.5 20.5z" />
    <glyph glyph-name="uni1E45" unicode="&#x1e45;" horiz-adv-x="523" 
d="M423.5 501.5q29.5 -32.5 29.5 -91.5q0 -16 -3 -36l-53 -374h-56l53 372q3 20 3 35q0 79 -66 79q-47 0 -91 -46t-83 -122l-44 -318h-56l74 523h47l-13 -125q80 136 177 136q52 0 81.5 -32.5zM293.5 680q-10.5 10 -10.5 27q0 19 13 32t32 13q17 0 27 -10.5t10 -26.5
q0 -19 -12.5 -32t-31.5 -13q-17 0 -27.5 10z" />
    <glyph glyph-name="uni1E47" unicode="&#x1e47;" horiz-adv-x="523" 
d="M423.5 501.5q29.5 -32.5 29.5 -91.5q0 -16 -3 -36l-53 -374h-56l53 372q3 20 3 35q0 79 -66 79q-47 0 -91 -46t-83 -122l-44 -318h-56l74 523h47l-13 -125q80 136 177 136q52 0 81.5 -32.5zM241.5 -97q10.5 -10 10.5 -27q0 -19 -13 -32t-32 -13q-17 0 -27 10.5t-10 26.5
q0 19 12.5 32t31.5 13q17 0 27.5 -10z" />
    <glyph glyph-name="uni01F9" unicode="&#x1f9;" horiz-adv-x="523" 
d="M423.5 501.5q29.5 -32.5 29.5 -91.5q0 -16 -3 -36l-53 -374h-56l53 372q3 20 3 35q0 79 -66 79q-47 0 -91 -46t-83 -122l-44 -318h-56l74 523h47l-13 -125q80 136 177 136q52 0 81.5 -32.5zM272 780l155 -103l-20 -32l-165 85z" />
    <glyph glyph-name="eng" unicode="&#x14b;" horiz-adv-x="523" 
d="M423.5 501.5q29.5 -32.5 29.5 -91.5q0 -16 -3 -36l-53 -374l-11 -80q-9 -62 -44.5 -93.5t-86.5 -31.5t-90 35l28 34q15 -11 28.5 -16.5t32.5 -5.5q29 0 49 19t26 60l12 79l53 372q3 20 3 35q0 79 -66 79q-47 0 -91 -46t-83 -122l-44 -318h-56l74 523h47l-13 -125
q80 136 177 136q52 0 81.5 -32.5z" />
    <glyph glyph-name="uni0272" unicode="&#x272;" horiz-adv-x="523" 
d="M423.5 501.5q29.5 -32.5 29.5 -91.5q0 -16 -3 -36l-53 -374h-56l53 372q3 20 3 35q0 79 -66 79q-47 0 -91 -46t-83 -122l-44 -318l-11 -80q-9 -62 -44.5 -93.5t-86.5 -31.5t-90 35l28 34q15 -11 28.5 -16.5t32.5 -5.5q29 0 49 19t26 60l12 79l74 523h47l-13 -125
q80 136 177 136q52 0 81.5 -32.5z" />
    <glyph glyph-name="uni0273" unicode="&#x273;" horiz-adv-x="523" 
d="M526 -172q-40 -33 -95 -33q-48 0 -75 26.5t-27 75.5q0 8 2 28l10 75l53 372q3 20 3 35q0 79 -66 79q-47 0 -91 -46t-83 -122l-44 -318h-56l74 523h47l-13 -125q80 136 177 136q52 0 81.5 -32.5t29.5 -91.5q0 -16 -3 -36l-53 -374l-11 -82q-1 -7 -1 -20q0 -56 51 -56
q20 0 35 5.5t33 16.5z" />
    <glyph glyph-name="uni01CC" unicode="&#x1cc;" horiz-adv-x="767" 
d="M423.5 501.5q29.5 -32.5 29.5 -91.5q0 -16 -3 -36l-53 -374h-56l53 372q3 20 3 35q0 79 -66 79q-47 0 -91 -46t-83 -122l-44 -318h-56l74 523h47l-13 -125q80 136 177 136q52 0 81.5 -32.5zM465 -161q37 18 59 37t36.5 51t22.5 88l71 508h56l-72 -511q-9 -66 -28 -105
t-48 -62t-81 -48zM676.5 680q-10.5 10 -10.5 27q0 19 13 32t32 13q17 0 27 -10.5t10 -26.5q0 -19 -12.5 -32t-31.5 -13q-17 0 -27.5 10z" />
    <glyph glyph-name="uni019E" unicode="&#x19e;" horiz-adv-x="523" 
d="M423.5 501.5q29.5 -32.5 29.5 -91.5q0 -16 -3 -36l-81 -573l-57 -7l82 578q3 20 3 35q0 79 -67 79q-46 0 -90 -46t-83 -122l-44 -318h-56l74 523h47l-13 -125q80 136 177 136q52 0 81.5 -32.5z" />
    <glyph glyph-name="ntilde" unicode="&#xf1;" horiz-adv-x="523" 
d="M423.5 501.5q29.5 -32.5 29.5 -91.5q0 -16 -3 -36l-53 -374h-56l53 372q3 20 3 35q0 79 -66 79q-47 0 -91 -46t-83 -122l-44 -318h-56l74 523h47l-13 -125q80 136 177 136q52 0 81.5 -32.5zM345 674q-14 7 -29 19q-13 10 -22.5 14.5t-19.5 4.5q-16 0 -27.5 -9.5
t-28.5 -31.5l-31 21q42 65 88 65q17 0 30 -6.5t29 -18.5q15 -11 23.5 -15.5t19.5 -4.5q14 0 27 10t29 33l32 -19q-39 -69 -88 -69q-18 0 -32 7z" />
    <glyph glyph-name="o" unicode="o" horiz-adv-x="515" 
d="M94.5 42q-43.5 53 -43.5 147q0 78 25 157.5t80.5 133.5t140.5 54q80 0 123.5 -52.5t43.5 -146.5q0 -77 -25 -157t-80 -134.5t-141 -54.5q-80 0 -123.5 53zM327.5 85.5q41.5 48.5 60 118t18.5 135.5q0 73 -28 110.5t-82 37.5q-67 0 -109 -49t-60 -118t-18 -135
q0 -73 28.5 -110.5t82.5 -37.5q66 0 107.5 48.5z" />
    <glyph glyph-name="oacute" unicode="&#xf3;" horiz-adv-x="515" 
d="M94.5 42q-43.5 53 -43.5 147q0 78 25 157.5t80.5 133.5t140.5 54q80 0 123.5 -52.5t43.5 -146.5q0 -77 -25 -157t-80 -134.5t-141 -54.5q-80 0 -123.5 53zM327.5 85.5q41.5 48.5 60 118t18.5 135.5q0 73 -28 110.5t-82 37.5q-67 0 -109 -49t-60 -118t-18 -135
q0 -73 28.5 -110.5t82.5 -37.5q66 0 107.5 48.5zM402 781l23 -51l-188 -85l-17 32z" />
    <glyph glyph-name="uni0275" unicode="&#x275;" horiz-adv-x="515" 
d="M420.5 481.5q43.5 -52.5 43.5 -146.5q0 -77 -25 -157t-80 -134.5t-141 -54.5q-80 0 -123.5 53t-43.5 147q0 78 25 157.5t80.5 133.5t140.5 54q80 0 123.5 -52.5zM179.5 430.5q-43.5 -56.5 -60.5 -141.5h285q3 27 3 50q0 73 -28.5 110.5t-82.5 37.5q-73 0 -116.5 -56.5z
M337.5 96q43.5 59 60.5 147h-287q-3 -31 -3 -58q0 -73 28.5 -110.5t83.5 -37.5q74 0 117.5 59z" />
    <glyph glyph-name="obreve" unicode="&#x14f;" horiz-adv-x="515" 
d="M94.5 42q-43.5 53 -43.5 147q0 78 25 157.5t80.5 133.5t140.5 54q80 0 123.5 -52.5t43.5 -146.5q0 -77 -25 -157t-80 -134.5t-141 -54.5q-80 0 -123.5 53zM327.5 85.5q41.5 48.5 60 118t18.5 135.5q0 73 -28 110.5t-82 37.5q-67 0 -109 -49t-60 -118t-18 -135
q0 -73 28.5 -110.5t82.5 -37.5q66 0 107.5 48.5zM236.5 684q-28.5 31 -27.5 81l39 5q4 -35 20 -52.5t47 -17.5q32 0 56.5 19t37.5 54l37 -12q-13 -50 -48.5 -79t-83.5 -29q-49 0 -77.5 31z" />
    <glyph glyph-name="uni01D2" unicode="&#x1d2;" horiz-adv-x="515" 
d="M94.5 42q-43.5 53 -43.5 147q0 78 25 157.5t80.5 133.5t140.5 54q80 0 123.5 -52.5t43.5 -146.5q0 -77 -25 -157t-80 -134.5t-141 -54.5q-80 0 -123.5 53zM327.5 85.5q41.5 48.5 60 118t18.5 135.5q0 73 -28 110.5t-82 37.5q-67 0 -109 -49t-60 -118t-18 -135
q0 -73 28.5 -110.5t82.5 -37.5q66 0 107.5 48.5zM436 767l23 -28l-131 -106h-35l-102 106l27 28l96 -83z" />
    <glyph glyph-name="ocircumflex" unicode="&#xf4;" horiz-adv-x="515" 
d="M94.5 42q-43.5 53 -43.5 147q0 78 25 157.5t80.5 133.5t140.5 54q80 0 123.5 -52.5t43.5 -146.5q0 -77 -25 -157t-80 -134.5t-141 -54.5q-80 0 -123.5 53zM327.5 85.5q41.5 48.5 60 118t18.5 135.5q0 73 -28 110.5t-82 37.5q-67 0 -109 -49t-60 -118t-18 -135
q0 -73 28.5 -110.5t82.5 -37.5q66 0 107.5 48.5zM207 644l-25 29l132 106h35l102 -107l-28 -28l-96 84z" />
    <glyph glyph-name="uni1ED1" unicode="&#x1ed1;" horiz-adv-x="515" 
d="M501 847l34 -35l-127 -121l-23 22zM193 586l-24 29l132 102h34l102 -103l-26 -28l-97 80zM94.5 42q-43.5 53 -43.5 147q0 78 25 157.5t80.5 133.5t140.5 54q80 0 123.5 -52.5t43.5 -146.5q0 -77 -25 -157t-80 -134.5t-141 -54.5q-80 0 -123.5 53zM327.5 85.5
q41.5 48.5 60 118t18.5 135.5q0 73 -28 110.5t-82 37.5q-67 0 -109 -49t-60 -118t-18 -135q0 -73 28.5 -110.5t82.5 -37.5q66 0 107.5 48.5z" />
    <glyph glyph-name="uni1ED9" unicode="&#x1ed9;" horiz-adv-x="515" 
d="M94.5 42q-43.5 53 -43.5 147q0 78 25 157.5t80.5 133.5t140.5 54q80 0 123.5 -52.5t43.5 -146.5q0 -77 -25 -157t-80 -134.5t-141 -54.5q-80 0 -123.5 53zM327.5 85.5q41.5 48.5 60 118t18.5 135.5q0 73 -28 110.5t-82 37.5q-67 0 -109 -49t-60 -118t-18 -135
q0 -73 28.5 -110.5t82.5 -37.5q66 0 107.5 48.5zM207 644l-25 29l132 106h35l102 -107l-28 -28l-96 84zM231.5 -97q10.5 -10 10.5 -27q0 -19 -13 -32t-32 -13q-17 0 -27 10.5t-10 26.5q0 19 12.5 32t31.5 13q17 0 27.5 -10z" />
    </font>
</defs>
</svg>
