<?xml version="1.0" standalone="no"?>
<!DOCTYPE svg PUBLIC "-//W3C//DTD SVG 1.1//EN" "http://www.w3.org/Graphics/SVG/1.1/DTD/svg11.dtd" >
<svg>
<metadata>
Created by FontForge 20120731 at Fri May  5 09:37:37 2017
 By www-data
Digitized data copyright 2012-2016, The Mozilla Foundation and Telefonica S.A.
</metadata>
<defs>
<font id="FiraSansCondensed-Italic" horiz-adv-x="504" >
  <font-face 
    font-family="Fira Sans Condensed"
    font-weight="400"
    font-style="italic"
    font-stretch="condensed"
    units-per-em="1000"
    panose-1="2 11 5 3 5 0 0 2 0 4"
    ascent="800"
    descent="-200"
    x-height="527"
    cap-height="689"
    bbox="-699 -352 1417 1092"
    underline-thickness="50"
    underline-position="-50"
    slope="-8"
    unicode-range="U+000D-FEFF"
  />
<missing-glyph horiz-adv-x="660" 
d="M649 1050l-198 -1400h-416l198 1400h416zM587 998h-307l-183 -1296h307zM418.5 425.5q23.5 -25.5 23.5 -67.5q0 -9 -2 -27q-7 -52 -32 -79t-75 -34l-9 -48q-1 -10 -8 -15.5t-16 -5.5q-11 0 -18.5 8t-6.5 19l9 81q54 3 76.5 21.5t28.5 60.5q2 14 2 20q0 21 -11 32.5
t-39 11.5q-31 0 -54 -13l-12 -1q-13 0 -19.5 8.5t-4.5 19.5q2 17 30.5 25.5t61.5 8.5q52 0 75.5 -25.5zM312 110.5q9 -9.5 9 -24.5q0 -16 -10 -27t-25 -11q-16 0 -25.5 12.5t-6.5 29.5q1 13 10.5 21.5t23.5 8.5q15 0 24 -9.5z" />
    <glyph glyph-name="fi" unicode="fi" horiz-adv-x="526" 
d="M406 0h-87l64 458h-175l-61 -436q-10 -72 -32.5 -114t-56.5 -67.5t-94 -52.5l-24 66q38 18 60.5 35.5t37.5 50t23 88.5l60 430h-81l9 69h81l11 76q10 67 56 106.5t121 39.5q40 0 72 -11.5t63 -32.5l-34 -58q-45 31 -97 31q-45 0 -67.5 -20t-27.5 -60l-10 -71h263z" />
    <glyph glyph-name="fl" unicode="fl" horiz-adv-x="544" 
d="M476 67l16 -62q-34 -17 -68 -17q-42 0 -65 24t-23 68q0 9 2 27l77 553q-27 9 -49 13.5t-49 4.5q-41 0 -63 -20t-27 -60l-10 -71h112l-20 -69h-101l-61 -436q-10 -72 -32.5 -114t-56.5 -67.5t-94 -52.5l-24 66q38 18 60.5 35.5t37.5 50t23 88.5l60 430h-82l10 69h81l11 76
q10 67 55.5 106.5t118.5 39.5q63 0 118 -22l79 9l-89 -637q-1 -5 -1 -14q0 -13 5.5 -18.5t17.5 -5.5q15 0 31 6z" />
    <glyph glyph-name=".notdef" horiz-adv-x="660" 
d="M649 1050l-198 -1400h-416l198 1400h416zM587 998h-307l-183 -1296h307zM418.5 425.5q23.5 -25.5 23.5 -67.5q0 -9 -2 -27q-7 -52 -32 -79t-75 -34l-9 -48q-1 -10 -8 -15.5t-16 -5.5q-11 0 -18.5 8t-6.5 19l9 81q54 3 76.5 21.5t28.5 60.5q2 14 2 20q0 21 -11 32.5
t-39 11.5q-31 0 -54 -13l-12 -1q-13 0 -19.5 8.5t-4.5 19.5q2 17 30.5 25.5t61.5 8.5q52 0 75.5 -25.5zM312 110.5q9 -9.5 9 -24.5q0 -16 -10 -27t-25 -11q-16 0 -25.5 12.5t-6.5 29.5q1 13 10.5 21.5t23.5 8.5q15 0 24 -9.5z" />
    <glyph glyph-name="nonmarkingreturn" unicode="&#xd;" horiz-adv-x="230" 
 />
    <glyph glyph-name="space" unicode=" " horiz-adv-x="230" 
 />
    <glyph glyph-name="A" unicode="A" horiz-adv-x="520" 
d="M381 0l-21 175h-227l-70 -175h-93l293 689h113l99 -689h-94zM162 248h189l-43 365z" />
    <glyph glyph-name="Aacute" unicode="&#xc1;" horiz-adv-x="520" 
d="M381 0l-21 175h-227l-70 -175h-93l293 689h113l99 -689h-94zM162 248h189l-43 365zM416 904l33 -73l-201 -76l-21 46z" />
    <glyph glyph-name="Abreve" unicode="&#x102;" horiz-adv-x="520" 
d="M381 0l-21 175h-227l-70 -175h-93l293 689h113l99 -689h-94zM162 248h189l-43 365zM239.5 793q-32.5 34 -30.5 89l54 8q6 -31 22 -47.5t46 -16.5q32 0 55.5 18t37.5 50l55 -18q-13 -54 -54 -85.5t-96 -31.5q-57 0 -89.5 34z" />
    <glyph glyph-name="uni1EAE" unicode="&#x1eae;" horiz-adv-x="520" 
d="M483 1002l-140 -129l-34 31l126 147zM385.5 825q23.5 18 37.5 50l55 -18q-13 -54 -54 -85.5t-96 -31.5q-57 0 -89.5 34t-30.5 89l54 8q6 -31 22 -47.5t46 -16.5q32 0 55.5 18zM263 689h113l99 -689h-94l-21 175h-227l-70 -175h-93zM162 248h189l-43 365z" />
    <glyph glyph-name="uni1EB6" unicode="&#x1eb6;" horiz-adv-x="520" 
d="M381 0l-21 175h-227l-70 -175h-93l293 689h113l99 -689h-94zM162 248h189l-43 365zM239.5 793q-32.5 34 -30.5 89l54 8q6 -31 22 -47.5t46 -16.5q32 0 55.5 18t37.5 50l55 -18q-13 -54 -54 -85.5t-96 -31.5q-57 0 -89.5 34zM249 -91q15 -15 15 -39q0 -29 -19 -47.5
t-46 -18.5q-25 0 -40 15t-15 39q0 29 19 47.5t46 18.5q25 0 40 -15z" />
    <glyph glyph-name="uni1EB0" unicode="&#x1eb0;" horiz-adv-x="520" 
d="M371 901l-38 -28l-106 131l58 45zM237.5 774q-32.5 34 -30.5 89l54 8q6 -31 22 -47.5t46 -16.5q32 0 55.5 18t37.5 50l55 -18q-13 -54 -54 -85.5t-96 -31.5q-57 0 -89.5 34zM263 689h113l99 -689h-94l-21 175h-227l-70 -175h-93zM162 248h189l-43 365z" />
    <glyph glyph-name="uni1EB2" unicode="&#x1eb2;" horiz-adv-x="520" 
d="M381 0l-21 175h-227l-70 -175h-93l293 689h113l99 -689h-94zM162 248h189l-43 365zM238.5 774q-32.5 34 -30.5 89l54 8q6 -31 22 -47.5t46 -16.5q32 0 55.5 18t37.5 50l55 -18q-13 -54 -54 -85.5t-96 -31.5q-57 0 -89.5 34zM317 939q35 5 53 16t18 36q0 14 -8.5 21.5
t-23.5 7.5q-24 0 -52 -15l-17 52q20 11 39.5 16.5t43.5 5.5q42 0 66 -23.5t24 -61.5q0 -75 -84 -90l-6 -48h-63z" />
    <glyph glyph-name="uni1EB4" unicode="&#x1eb4;" horiz-adv-x="520" 
d="M275.5 943q-12.5 -11 -28.5 -34l-47 28q49 84 105 84q19 0 32.5 -7t30.5 -21q11 -10 19 -15t18 -5q14 0 26.5 10.5t27.5 33.5l49 -28q-45 -83 -103 -83q-19 0 -33 7t-32 21q-12 10 -20.5 15t-17.5 5q-14 0 -26.5 -11zM386.5 825q23.5 18 37.5 50l55 -18
q-13 -54 -54 -85.5t-96 -31.5q-57 0 -89.5 34t-30.5 89l54 8q6 -31 22 -47.5t46 -16.5q32 0 55.5 18zM263 689h113l99 -689h-94l-21 175h-227l-70 -175h-93zM162 248h189l-43 365z" />
    <glyph glyph-name="uni01CD" unicode="&#x1cd;" horiz-adv-x="520" 
d="M381 0l-21 175h-227l-70 -175h-93l293 689h113l99 -689h-94zM162 248h189l-43 365zM459 907l35 -42l-137 -111h-56l-106 114l38 39l103 -81z" />
    <glyph glyph-name="Acircumflex" unicode="&#xc2;" horiz-adv-x="520" 
d="M381 0l-21 175h-227l-70 -175h-93l293 689h113l99 -689h-94zM162 248h189l-43 365zM216 759l-36 42l138 111h56l106 -114l-38 -39l-103 81z" />
    <glyph glyph-name="uni1EA4" unicode="&#x1ea4;" horiz-adv-x="520" 
d="M595 966l-140 -129l-34 31l126 147zM313 870h56l106 -114l-38 -39l-103 81l-123 -81l-36 42zM263 689h113l99 -689h-94l-21 175h-227l-70 -175h-93zM162 248h189l-43 365z" />
    <glyph glyph-name="uni1EAC" unicode="&#x1eac;" horiz-adv-x="520" 
d="M381 0l-21 175h-227l-70 -175h-93l293 689h113l99 -689h-94zM162 248h189l-43 365zM216 759l-36 42l138 111h56l106 -114l-38 -39l-103 81zM249 -91q15 -15 15 -39q0 -29 -19 -47.5t-46 -18.5q-25 0 -40 15t-15 39q0 29 19 47.5t46 18.5q25 0 40 -15z" />
    <glyph glyph-name="uni1EA6" unicode="&#x1ea6;" horiz-adv-x="520" 
d="M255 865l-38 -28l-106 131l58 45zM208 717l-36 42l138 111h56l106 -114l-38 -39l-103 81zM381 0l-21 175h-227l-70 -175h-93l293 689h113l99 -689h-94zM162 248h189l-43 365z" />
    <glyph glyph-name="uni1EA8" unicode="&#x1ea8;" horiz-adv-x="520" 
d="M381 0l-21 175h-227l-70 -175h-93l293 689h113l99 -689h-94zM162 248h189l-43 365zM209 717l-36 42l138 111h56l106 -114l-38 -39l-103 81zM446 898q35 5 53 16t18 36q0 14 -8.5 21.5t-23.5 7.5q-24 0 -52 -15l-17 52q20 11 39.5 16.5t43.5 5.5q42 0 66 -23.5t24 -61.5
q0 -75 -84 -90l-6 -48h-63z" />
    <glyph glyph-name="uni1EAA" unicode="&#x1eaa;" horiz-adv-x="520" 
d="M276 937q-12 -11 -28 -34l-47 28q49 84 105 84q19 0 32.5 -7t30.5 -21q11 -10 19 -15t18 -5q14 0 26.5 10.5t27.5 33.5l49 -28q-45 -83 -103 -83q-19 0 -33 7t-32 21q-12 10 -20.5 15t-17.5 5q-15 0 -27 -11zM333 798l-123 -81l-36 42l138 111h56l106 -114l-38 -39z
M263 689h113l99 -689h-94l-21 175h-227l-70 -175h-93zM162 248h189l-43 365z" />
    <glyph glyph-name="uni0200" unicode="&#x200;" horiz-adv-x="520" 
d="M381 0l-21 175h-227l-70 -175h-93l293 689h113l99 -689h-94zM162 248h189l-43 365zM244 956l55 -173l-57 -22l-76 159zM380 955l47 -167l-57 -22l-69 154z" />
    <glyph glyph-name="Adieresis" unicode="&#xc4;" horiz-adv-x="520" 
d="M381 0l-21 175h-227l-70 -175h-93l293 689h113l99 -689h-94zM162 248h189l-43 365zM207.5 795.5q-13.5 13.5 -13.5 34.5q0 26 17.5 43t42.5 17q21 0 34.5 -14t13.5 -34q0 -27 -17 -43.5t-42 -16.5q-22 0 -35.5 13.5zM395.5 795.5q-13.5 13.5 -13.5 34.5q0 26 17.5 43
t42.5 17q21 0 34.5 -14t13.5 -34q0 -26 -17 -43t-42 -17q-22 0 -35.5 13.5z" />
    <glyph glyph-name="uni01DE" unicode="&#x1de;" horiz-adv-x="520" 
d="M381 0l-21 175h-227l-70 -175h-93l293 689h113l99 -689h-94zM162 248h189l-43 365zM194.5 760.5q-13.5 13.5 -13.5 34.5q0 26 17.5 43t42.5 17q21 0 34.5 -14t13.5 -34q0 -27 -17 -43.5t-42 -16.5q-22 0 -35.5 13.5zM382.5 760.5q-13.5 13.5 -13.5 34.5q0 26 17.5 43
t42.5 17q21 0 34.5 -14t13.5 -34q0 -26 -17 -43t-42 -17q-22 0 -35.5 13.5zM463 902h-244l9 66h245z" />
    <glyph glyph-name="uni0226" unicode="&#x226;" horiz-adv-x="520" 
d="M381 0l-21 175h-227l-70 -175h-93l293 689h113l99 -689h-94zM162 248h189l-43 365zM298 798q-15 15 -15 39q0 29 19 47.5t46 18.5q25 0 40 -15t15 -39q0 -29 -19 -47.5t-46 -18.5q-25 0 -40 15z" />
    <glyph glyph-name="uni1EA0" unicode="&#x1ea0;" horiz-adv-x="520" 
d="M381 0l-21 175h-227l-70 -175h-93l293 689h113l99 -689h-94zM162 248h189l-43 365zM249 -91q15 -15 15 -39q0 -29 -19 -47.5t-46 -18.5q-25 0 -40 15t-15 39q0 29 19 47.5t46 18.5q25 0 40 -15z" />
    <glyph glyph-name="uni01E0" unicode="&#x1e0;" horiz-adv-x="520" 
d="M381 0l-21 175h-227l-70 -175h-93l293 689h113l99 -689h-94zM162 248h189l-43 365zM287 757q-15 15 -15 39q0 29 19 47.5t46 18.5q25 0 40 -15t15 -39q0 -29 -19 -47.5t-46 -18.5q-25 0 -40 15zM464 903h-244l9 66h245z" />
    <glyph glyph-name="Agrave" unicode="&#xc0;" horiz-adv-x="520" 
d="M381 0l-21 175h-227l-70 -175h-93l293 689h113l99 -689h-94zM162 248h189l-43 365zM281 903l166 -102l-29 -46l-179 76z" />
    <glyph glyph-name="uni1EA2" unicode="&#x1ea2;" horiz-adv-x="520" 
d="M381 0l-21 175h-227l-70 -175h-93l293 689h113l99 -689h-94zM162 248h189l-43 365zM310 847q35 5 53 16t18 36q0 14 -8.5 21.5t-23.5 7.5q-24 0 -52 -15l-17 52q20 11 39.5 16.5t43.5 5.5q42 0 66 -23.5t24 -61.5q0 -75 -84 -90l-6 -48h-63z" />
    <glyph glyph-name="uni0202" unicode="&#x202;" horiz-adv-x="520" 
d="M381 0l-21 175h-227l-70 -175h-93l293 689h113l99 -689h-94zM162 248h189l-43 365zM196 792q16 61 57 94.5t96 33.5q56 0 88.5 -36t31.5 -97l-56 -8q-5 38 -21.5 56t-47.5 18q-63 0 -93 -78z" />
    <glyph glyph-name="uni2C6D" unicode="&#x2c6d;" horiz-adv-x="613" 
d="M501 96q0 -17 6.5 -28t22.5 -18l-26 -62q-77 11 -88 80q-64 -80 -154 -80q-61 0 -107.5 30.5t-72.5 91t-26 145.5q0 122 39 224t107 161.5t153 59.5q79 0 131 -69l18 58h79l-80 -570q-2 -18 -2 -23zM350.5 83.5q33.5 20.5 66.5 61.5l56 408q-23 36 -49.5 54.5t-65.5 18.5
q-63 0 -110.5 -51.5t-73 -137.5t-25.5 -186q0 -98 34.5 -143t92.5 -45q41 0 74.5 20.5z" />
    <glyph glyph-name="Amacron" unicode="&#x100;" horiz-adv-x="520" 
d="M381 0l-21 175h-227l-70 -175h-93l293 689h113l99 -689h-94zM162 248h189l-43 365zM457 794h-244l9 66h245z" />
    <glyph glyph-name="Aogonek" unicode="&#x104;" horiz-adv-x="520" 
d="M336 -65q-26 -30 -26 -61q0 -17 11 -27t32 -10q20 0 55 7l-14 -67q-27 -6 -56 -6q-47 0 -74.5 25.5t-27.5 67.5q0 98 143 154l-19 157h-227l-70 -175h-93l293 689h113l99 -689h-37q-76 -35 -102 -65zM162 248h189l-43 365z" />
    <glyph glyph-name="Aring" unicode="&#xc5;" horiz-adv-x="520" 
d="M381 0l-21 175h-227l-70 -175h-93l293 689h113l99 -689h-94zM162 248h189l-43 365zM423 933.5q26 -26.5 26 -67.5q0 -49 -33 -81.5t-82 -32.5q-41 0 -67 26.5t-26 66.5q0 49 33 82t81 33q42 0 68 -26.5zM312.5 893q-14.5 -19 -14.5 -47q0 -22 10 -34.5t29 -12.5
q26 0 40.5 19t14.5 47q0 23 -10 35t-29 12q-26 0 -40.5 -19z" />
    <glyph glyph-name="Aringacute" unicode="&#x1fa;" horiz-adv-x="520" 
d="M381 0l-21 175h-227l-70 -175h-93l293 689h113l99 -689h-94zM162 248h189l-43 365zM413 912.5q26 -26.5 26 -67.5q0 -49 -33 -81.5t-82 -32.5q-41 0 -67 26.5t-26 66.5q0 49 33 82t81 33q42 0 68 -26.5zM302.5 872q-14.5 -19 -14.5 -47q0 -22 10 -34.5t29 -12.5
q26 0 40.5 19t14.5 47q0 23 -10 35t-29 12q-26 0 -40.5 -19zM425 1092l33 -73l-201 -76l-21 46z" />
    <glyph glyph-name="uni023A" unicode="&#x23a;" horiz-adv-x="520" 
d="M387 0l-22 175h-120l-93 -245l-41 11l89 234h-70l-71 -175h-89l293 689h113l6 -38l37 98l41 -11l-66 -173l81 -565h-88zM159 246h68l97 253l-15 118zM272 246h84l-21 164z" />
    <glyph glyph-name="Atilde" unicode="&#xc3;" horiz-adv-x="520" 
d="M381 0l-21 175h-227l-70 -175h-93l293 689h113l99 -689h-94zM162 248h189l-43 365zM359 790q-14 7 -32 21q-12 10 -20.5 15t-17.5 5q-15 0 -27 -11t-28 -34l-47 28q49 84 105 84q19 0 32.5 -7t30.5 -21q11 -10 19 -15t18 -5q14 0 26.5 10.5t27.5 33.5l49 -28
q-45 -83 -103 -83q-19 0 -33 7z" />
    <glyph glyph-name="AE" unicode="&#xc6;" horiz-adv-x="733" 
d="M689 616h-272l17 -230h226l-10 -73h-210l18 -240h204l-12 -73h-272l-11 174h-236l-81 -174h-94l339 689h416zM166 248h196l-24 368z" />
    <glyph glyph-name="AEacute" unicode="&#x1fc;" horiz-adv-x="733" 
d="M689 616h-272l17 -230h226l-10 -73h-210l18 -240h204l-12 -73h-272l-11 174h-236l-81 -174h-94l339 689h416zM166 248h196l-24 368zM582 904l33 -73l-201 -76l-21 46z" />
    <glyph glyph-name="uni01E2" unicode="&#x1e2;" horiz-adv-x="733" 
d="M689 616h-272l17 -230h226l-10 -73h-210l18 -240h204l-12 -73h-272l-11 174h-236l-81 -174h-94l339 689h416zM166 248h196l-24 368zM623 794h-244l9 66h245z" />
    <glyph glyph-name="B" unicode="B" horiz-adv-x="549" 
d="M466.5 319q34.5 -32 34.5 -94q0 -99 -65.5 -162t-210.5 -63h-175l97 689h180q91 0 144.5 -39.5t53.5 -112.5q0 -70 -41.5 -114t-110.5 -59q59 -13 93.5 -45zM227 617l-31 -221h91q68 0 107 35t39 103q0 83 -105 83h-101zM369.5 114.5q38.5 41.5 38.5 111.5q0 53 -31.5 76
t-90.5 23h-100l-36 -252h83q98 0 136.5 41.5z" />
    <glyph glyph-name="uni1E02" unicode="&#x1e02;" horiz-adv-x="549" 
d="M466.5 319q34.5 -32 34.5 -94q0 -99 -65.5 -162t-210.5 -63h-175l97 689h180q91 0 144.5 -39.5t53.5 -112.5q0 -70 -41.5 -114t-110.5 -59q59 -13 93.5 -45zM227 617l-31 -221h91q68 0 107 35t39 103q0 83 -105 83h-101zM369.5 114.5q38.5 41.5 38.5 111.5q0 53 -31.5 76
t-90.5 23h-100l-36 -252h83q98 0 136.5 41.5zM303 798q-15 15 -15 39q0 29 19 47.5t46 18.5q25 0 40 -15t15 -39q0 -29 -19 -47.5t-46 -18.5q-25 0 -40 15z" />
    <glyph glyph-name="uni1E04" unicode="&#x1e04;" horiz-adv-x="549" 
d="M466.5 319q34.5 -32 34.5 -94q0 -99 -65.5 -162t-210.5 -63h-175l97 689h180q91 0 144.5 -39.5t53.5 -112.5q0 -70 -41.5 -114t-110.5 -59q59 -13 93.5 -45zM227 617l-31 -221h91q68 0 107 35t39 103q0 83 -105 83h-101zM369.5 114.5q38.5 41.5 38.5 111.5q0 53 -31.5 76
t-90.5 23h-100l-36 -252h83q98 0 136.5 41.5zM269 -91q15 -15 15 -39q0 -29 -19 -47.5t-46 -18.5q-25 0 -40 15t-15 39q0 29 19 47.5t46 18.5q25 0 40 -15z" />
    <glyph glyph-name="uniA7B4" unicode="&#xa7b4;" horiz-adv-x="546" 
d="M500 227q0 -64 -30.5 -116t-86 -81.5t-127.5 -29.5q-59 0 -113 19l-31 -221h-90l125 891h172q91 0 144.5 -39.5t53.5 -113.5q0 -69 -40.5 -113t-103.5 -59q127 -28 127 -137zM366 116q40 43 40 110q0 53 -31.5 76t-90.5 23h-41l18 71h24q64 0 102 34.5t38 102.5
q0 46 -28 65t-77 19h-93l-74 -529q53 -15 103 -15q70 0 110 43z" />
    <glyph glyph-name="uni0181" unicode="&#x181;" horiz-adv-x="627" 
d="M544.5 319q34.5 -32 34.5 -94q0 -99 -65.5 -162t-210.5 -63h-175l87 617h-25q-59 0 -59 -67q0 -26 11 -59l-66 -28q-25 46 -25 91q0 61 38 98t108 37h208q91 0 144.5 -39.5t53.5 -112.5q0 -70 -41.5 -114t-110.5 -59q59 -13 93.5 -45zM305 617l-31 -221h91q68 0 107 35
t39 103q0 83 -105 83h-101zM447.5 114.5q38.5 41.5 38.5 111.5q0 53 -31.5 76t-90.5 23h-100l-36 -252h83q98 0 136.5 41.5z" />
    <glyph glyph-name="uni0243" unicode="&#x243;" horiz-adv-x="558" 
d="M476.5 319q34.5 -32 34.5 -94q0 -99 -65.5 -162t-210.5 -63h-175l24 169h-79l10 67h78l64 453h180q91 0 144.5 -39.5t53.5 -112.5q0 -70 -41.5 -114t-110.5 -59q59 -13 93.5 -45zM237 617l-31 -221h91q68 0 107 35t39 103q0 83 -105 83h-101zM379.5 114.5
q38.5 41.5 38.5 111.5q0 53 -31.5 76t-90.5 23h-100l-13 -89h137l-11 -67h-135l-14 -96h83q98 0 136.5 41.5z" />
    <glyph glyph-name="uni0182" unicode="&#x182;" horiz-adv-x="518" 
d="M432.5 381q56.5 -47 56.5 -135q0 -64 -26 -120t-86.5 -91t-156.5 -35h-170l97 689h339l-22 -75h-238l-26 -186h73q103 0 159.5 -47zM357.5 122.5q36.5 49.5 36.5 123.5q0 58 -31 84.5t-91 26.5h-82l-40 -284h82q89 0 125.5 49.5z" />
    <glyph glyph-name="C" unicode="C" horiz-adv-x="506" 
d="M464 682.5q40 -17.5 73 -52.5l-52 -50q-28 24 -54 35t-58 11q-78 0 -128.5 -58.5t-73 -145.5t-22.5 -176q0 -93 34.5 -137t94.5 -44q40 0 70.5 14.5t69.5 42.5l38 -60q-84 -74 -187 -74q-98 0 -156 69t-58 195q0 106 34 209t105 171t177 68q53 0 93 -17.5z" />
    <glyph glyph-name="Cacute" unicode="&#x106;" horiz-adv-x="506" 
d="M464 682.5q40 -17.5 73 -52.5l-52 -50q-28 24 -54 35t-58 11q-78 0 -128.5 -58.5t-73 -145.5t-22.5 -176q0 -93 34.5 -137t94.5 -44q40 0 70.5 14.5t69.5 42.5l38 -60q-84 -74 -187 -74q-98 0 -156 69t-58 195q0 106 34 209t105 171t177 68q53 0 93 -17.5zM471 904
l33 -73l-201 -76l-21 46z" />
    <glyph glyph-name="Ccaron" unicode="&#x10c;" horiz-adv-x="506" 
d="M464 682.5q40 -17.5 73 -52.5l-52 -50q-28 24 -54 35t-58 11q-78 0 -128.5 -58.5t-73 -145.5t-22.5 -176q0 -93 34.5 -137t94.5 -44q40 0 70.5 14.5t69.5 42.5l38 -60q-84 -74 -187 -74q-98 0 -156 69t-58 195q0 106 34 209t105 171t177 68q53 0 93 -17.5zM514 907
l35 -42l-137 -111h-56l-106 114l38 39l103 -81z" />
    <glyph glyph-name="Ccedilla" unicode="&#xc7;" horiz-adv-x="506" 
d="M244.5 567.5q-50.5 -58.5 -73 -145.5t-22.5 -176q0 -93 34.5 -137t94.5 -44q40 0 70.5 14.5t69.5 42.5l38 -60q-73 -64 -162 -73l-8 -48q37 -4 55.5 -24t18.5 -52q0 -43 -32 -73.5t-89 -30.5q-52 0 -83 26l29 46q14 -7 26 -11t28 -4q22 0 36.5 12t14.5 32
q0 22 -15.5 30.5t-58.5 8.5l21 89q-84 12 -133 79.5t-49 182.5q0 106 34 209t105 171t177 68q53 0 93 -17.5t73 -52.5l-52 -50q-28 24 -54 35t-58 11q-78 0 -128.5 -58.5z" />
    <glyph glyph-name="Ccircumflex" unicode="&#x108;" horiz-adv-x="506" 
d="M464 682.5q40 -17.5 73 -52.5l-52 -50q-28 24 -54 35t-58 11q-78 0 -128.5 -58.5t-73 -145.5t-22.5 -176q0 -93 34.5 -137t94.5 -44q40 0 70.5 14.5t69.5 42.5l38 -60q-84 -74 -187 -74q-98 0 -156 69t-58 195q0 106 34 209t105 171t177 68q53 0 93 -17.5zM271 759
l-36 42l138 111h56l106 -114l-38 -39l-103 81z" />
    <glyph glyph-name="Cdotaccent" unicode="&#x10a;" horiz-adv-x="506" 
d="M464 682.5q40 -17.5 73 -52.5l-52 -50q-28 24 -54 35t-58 11q-78 0 -128.5 -58.5t-73 -145.5t-22.5 -176q0 -93 34.5 -137t94.5 -44q40 0 70.5 14.5t69.5 42.5l38 -60q-84 -74 -187 -74q-98 0 -156 69t-58 195q0 106 34 209t105 171t177 68q53 0 93 -17.5zM353 798
q-15 15 -15 39q0 29 19 47.5t46 18.5q25 0 40 -15t15 -39q0 -29 -19 -47.5t-46 -18.5q-25 0 -40 15z" />
    <glyph glyph-name="uniA7B3" unicode="&#xa7b3;" horiz-adv-x="475" 
d="M513 689l-219 -382l122 -435h-94l-88 371l-184 -371h-102l241 436l-109 381h95l74 -321l164 321h100z" />
    <glyph glyph-name="uni0187" unicode="&#x187;" horiz-adv-x="503" 
d="M712 792l-38 -52q-15 10 -29 15t-33 5q-28 0 -45.5 -18t-21.5 -54l-8 -58l-46 -45q-59 41 -118 41q-78 0 -128.5 -58.5t-73 -145.5t-22.5 -176q0 -93 34.5 -137t94.5 -44q39 0 69 14.5t71 42.5l38 -60q-84 -74 -187 -74q-98 0 -156 69t-58 195q0 106 34 209t104 171
t173 68q53 0 92 -21l3 18q10 63 48 98.5t100 35.5q58 0 103 -39z" />
    <glyph glyph-name="uni023B" unicode="&#x23b;" horiz-adv-x="506" 
d="M433 614l-207 -539q23 -10 52 -10q40 0 70.5 14.5t69.5 42.5l38 -60q-84 -74 -187 -74q-37 0 -72 11l-26 -69l-41 11l29 76q-50 31 -77 90.5t-27 144.5q0 106 34 209t105 171t177 68q28 0 48 -4l20 53l41 -11l-21 -54q43 -17 78 -54l-52 -50q-30 25 -52 34zM392 625
q-6 1 -19 1q-78 0 -128.5 -58.5t-73 -145.5t-22.5 -176q0 -99 42 -146z" />
    <glyph glyph-name="D" unicode="D" horiz-adv-x="586" 
d="M481.5 634q72.5 -55 72.5 -190q0 -122 -35.5 -222t-114.5 -161t-201 -61h-153l97 689h140q122 0 194.5 -55zM227 616l-77 -544h69q87 0 142 54.5t78.5 139t23.5 179.5q0 99 -44.5 135t-122.5 36h-69z" />
    <glyph glyph-name="uni01F1" unicode="&#x1f1;" horiz-adv-x="1026" 
d="M481.5 634q72.5 -55 72.5 -190q0 -122 -35.5 -222t-114.5 -161t-201 -61h-153l97 689h140q122 0 194.5 -55zM227 616l-77 -544h69q87 0 142 54.5t78.5 139t23.5 179.5q0 99 -44.5 135t-122.5 36h-69zM549 0l11 73l380 539h-273l11 77h372l-11 -74l-379 -538l304 1
l-22 -78h-393z" />
    <glyph glyph-name="uni01C4" unicode="&#x1c4;" horiz-adv-x="1026" 
d="M481.5 634q72.5 -55 72.5 -190q0 -122 -35.5 -222t-114.5 -161t-201 -61h-153l97 689h140q122 0 194.5 -55zM227 616l-77 -544h69q87 0 142 54.5t78.5 139t23.5 179.5q0 99 -44.5 135t-122.5 36h-69zM549 0l11 73l380 539h-273l11 77h372l-11 -74l-379 -538l304 1
l-22 -78h-393zM1003 907l35 -42l-137 -111h-56l-106 114l38 39l103 -81z" />
    <glyph glyph-name="uni0189" unicode="&#x189;" horiz-adv-x="594" 
d="M489.5 634q72.5 -55 72.5 -190q0 -122 -35.5 -222t-114.5 -161t-201 -61h-153l45 319h-77l10 68h76l43 302h140q122 0 194.5 -55zM369 126.5q55 54.5 78.5 139t23.5 179.5q0 99 -44.5 135t-122.5 36h-69l-32 -229h139l-9 -68h-140l-35 -247h69q87 0 142 54.5z" />
    <glyph glyph-name="Eth" unicode="&#xd0;" horiz-adv-x="594" 
d="M489.5 634q72.5 -55 72.5 -190q0 -122 -35.5 -222t-114.5 -161t-201 -61h-153l45 319h-77l10 68h76l43 302h140q122 0 194.5 -55zM369 126.5q55 54.5 78.5 139t23.5 179.5q0 99 -44.5 135t-122.5 36h-69l-32 -229h139l-9 -68h-140l-35 -247h69q87 0 142 54.5z" />
    <glyph glyph-name="Dcaron" unicode="&#x10e;" horiz-adv-x="586" 
d="M481.5 634q72.5 -55 72.5 -190q0 -122 -35.5 -222t-114.5 -161t-201 -61h-153l97 689h140q122 0 194.5 -55zM227 616l-77 -544h69q87 0 142 54.5t78.5 139t23.5 179.5q0 99 -44.5 135t-122.5 36h-69zM482 907l35 -42l-137 -111h-56l-106 114l38 39l103 -81z" />
    <glyph glyph-name="uni1E12" unicode="&#x1e12;" horiz-adv-x="586" 
d="M481.5 634q72.5 -55 72.5 -190q0 -122 -35.5 -222t-114.5 -161t-201 -61h-153l97 689h140q122 0 194.5 -55zM227 616l-77 -544h69q87 0 142 54.5t78.5 139t23.5 179.5q0 99 -44.5 135t-122.5 36h-69zM90 -222l-36 41l138 113h56l106 -115l-41 -39l-100 82z" />
    <glyph glyph-name="Dcroat" unicode="&#x110;" horiz-adv-x="594" 
d="M489.5 634q72.5 -55 72.5 -190q0 -122 -35.5 -222t-114.5 -161t-201 -61h-153l45 319h-77l10 68h76l43 302h140q122 0 194.5 -55zM369 126.5q55 54.5 78.5 139t23.5 179.5q0 99 -44.5 135t-122.5 36h-69l-32 -229h139l-9 -68h-140l-35 -247h69q87 0 142 54.5z" />
    <glyph glyph-name="uni1E0A" unicode="&#x1e0a;" horiz-adv-x="586" 
d="M481.5 634q72.5 -55 72.5 -190q0 -122 -35.5 -222t-114.5 -161t-201 -61h-153l97 689h140q122 0 194.5 -55zM227 616l-77 -544h69q87 0 142 54.5t78.5 139t23.5 179.5q0 99 -44.5 135t-122.5 36h-69zM321 798q-15 15 -15 39q0 29 19 47.5t46 18.5q25 0 40 -15t15 -39
q0 -29 -19 -47.5t-46 -18.5q-25 0 -40 15z" />
    <glyph glyph-name="uni1E0C" unicode="&#x1e0c;" horiz-adv-x="586" 
d="M481.5 634q72.5 -55 72.5 -190q0 -122 -35.5 -222t-114.5 -161t-201 -61h-153l97 689h140q122 0 194.5 -55zM227 616l-77 -544h69q87 0 142 54.5t78.5 139t23.5 179.5q0 99 -44.5 135t-122.5 36h-69zM255 -91q15 -15 15 -39q0 -29 -19 -47.5t-46 -18.5q-25 0 -40 15
t-15 39q0 29 19 47.5t46 18.5q25 0 40 -15z" />
    <glyph glyph-name="uni018A" unicode="&#x18a;" horiz-adv-x="664" 
d="M559.5 634q72.5 -55 72.5 -190q0 -122 -35.5 -222t-114.5 -161t-201 -61h-153l87 617h-25q-59 0 -59 -67q0 -26 11 -59l-66 -28q-25 46 -25 91q0 61 38 98t108 37h168q122 0 194.5 -55zM439 126.5q55 54.5 78.5 139t23.5 179.5q0 99 -44.5 135t-122.5 36h-69l-77 -544h69
q87 0 142 54.5z" />
    <glyph glyph-name="uni1E0E" unicode="&#x1e0e;" horiz-adv-x="586" 
d="M481.5 634q72.5 -55 72.5 -190q0 -122 -35.5 -222t-114.5 -161t-201 -61h-153l97 689h140q122 0 194.5 -55zM227 616l-77 -544h69q87 0 142 54.5t78.5 139t23.5 179.5q0 99 -44.5 135t-122.5 36h-69zM98 -105h244l-9 -66h-245z" />
    <glyph glyph-name="uni018B" unicode="&#x18b;" horiz-adv-x="519" 
d="M396 0h-159q-103 0 -161 47t-58 147q0 110 71 172.5t195 62.5h82l26 185h-247l10 75h338zM316 73l40 284h-78q-83 0 -124 -42t-41 -122q0 -63 31 -91.5t100 -28.5h72z" />
    <glyph glyph-name="uni01F2" unicode="&#x1f2;" horiz-adv-x="967" 
d="M481.5 634q72.5 -55 72.5 -190q0 -122 -35.5 -222t-114.5 -161t-201 -61h-153l97 689h140q122 0 194.5 -55zM227 616l-77 -544h69q87 0 142 54.5t78.5 139t23.5 179.5q0 99 -44.5 135t-122.5 36h-69zM975 527l-9 -68l-293 -385h242l-20 -74h-335l9 66l293 386h-219l12 75
h320z" />
    <glyph glyph-name="uni01C5" unicode="&#x1c5;" horiz-adv-x="967" 
d="M481.5 634q72.5 -55 72.5 -190q0 -122 -35.5 -222t-114.5 -161t-201 -61h-153l97 689h140q122 0 194.5 -55zM227 616l-77 -544h69q87 0 142 54.5t78.5 139t23.5 179.5q0 99 -44.5 135t-122.5 36h-69zM975 527l-9 -68l-293 -385h242l-20 -74h-335l9 66l293 386h-219l12 75
h320zM958 781l32 -41l-137 -112h-55l-107 112l39 41l100 -82z" />
    <glyph glyph-name="E" unicode="E" horiz-adv-x="475" 
d="M483 689l-21 -73h-235l-33 -229h206l-10 -73h-206l-34 -241h254l-12 -73h-342l97 689h336z" />
    <glyph glyph-name="Eacute" unicode="&#xc9;" horiz-adv-x="475" 
d="M483 689l-21 -73h-235l-33 -229h206l-10 -73h-206l-34 -241h254l-12 -73h-342l97 689h336zM414 904l33 -73l-201 -76l-21 46z" />
    <glyph glyph-name="Ebreve" unicode="&#x114;" horiz-adv-x="475" 
d="M483 689l-21 -73h-235l-33 -229h206l-10 -73h-206l-34 -241h254l-12 -73h-342l97 689h336zM237.5 793q-32.5 34 -30.5 89l54 8q6 -31 22 -47.5t46 -16.5q32 0 55.5 18t37.5 50l55 -18q-13 -54 -54 -85.5t-96 -31.5q-57 0 -89.5 34z" />
    <glyph glyph-name="Ecaron" unicode="&#x11a;" horiz-adv-x="475" 
d="M483 689l-21 -73h-235l-33 -229h206l-10 -73h-206l-34 -241h254l-12 -73h-342l97 689h336zM457 907l35 -42l-137 -111h-56l-106 114l38 39l103 -81z" />
    <glyph glyph-name="uni0228" unicode="&#x228;" horiz-adv-x="475" 
d="M227 616l-33 -229h206l-10 -73h-206l-34 -241h254l-12 -73h-144l-9 -59q38 -4 56 -24t18 -52q0 -42 -32 -73t-91 -31q-50 0 -81 26l29 45q25 -14 54 -14q23 0 37 11.5t14 32.5q0 22 -15.5 30.5t-58.5 8.5l23 99h-142l97 689h336l-21 -73h-235z" />
    <glyph glyph-name="Ecircumflex" unicode="&#xca;" horiz-adv-x="475" 
d="M483 689l-21 -73h-235l-33 -229h206l-10 -73h-206l-34 -241h254l-12 -73h-342l97 689h336zM214 759l-36 42l138 111h56l106 -114l-38 -39l-103 81z" />
    <glyph glyph-name="uni1EBE" unicode="&#x1ebe;" horiz-adv-x="475" 
d="M545 1015l48 -49l-140 -129l-34 31zM209 717l-36 42l138 111h56l106 -114l-38 -39l-103 81zM483 689l-21 -73h-235l-33 -229h206l-10 -73h-206l-34 -241h254l-12 -73h-342l97 689h336z" />
    <glyph glyph-name="uni1EC6" unicode="&#x1ec6;" horiz-adv-x="475" 
d="M483 689l-21 -73h-235l-33 -229h206l-10 -73h-206l-34 -241h254l-12 -73h-342l97 689h336zM214 759l-36 42l138 111h56l106 -114l-38 -39l-103 81zM247 -91q15 -15 15 -39q0 -29 -19 -47.5t-46 -18.5q-25 0 -40 15t-15 39q0 29 19 47.5t46 18.5q25 0 40 -15z" />
    <glyph glyph-name="uni1EC0" unicode="&#x1ec0;" horiz-adv-x="475" 
d="M167 1013l86 -148l-38 -28l-106 131zM206 717l-36 42l138 111h56l106 -114l-38 -39l-103 81zM483 689l-21 -73h-235l-33 -229h206l-10 -73h-206l-34 -241h254l-12 -73h-342l97 689h336z" />
    <glyph glyph-name="uni1EC2" unicode="&#x1ec2;" horiz-adv-x="475" 
d="M483 689l-21 -73h-235l-33 -229h206l-10 -73h-206l-34 -241h254l-12 -73h-342l97 689h336zM207 717l-36 42l138 111h56l106 -114l-38 -39l-103 81zM444 898q35 5 53 16t18 36q0 14 -8.5 21.5t-23.5 7.5q-24 0 -52 -15l-17 52q20 11 39.5 16.5t43.5 5.5q42 0 66 -23.5
t24 -61.5q0 -75 -84 -90l-6 -48h-63z" />
    <glyph glyph-name="uni1EC4" unicode="&#x1ec4;" horiz-adv-x="475" 
d="M371 907q-14 7 -32 21q-12 10 -20.5 15t-17.5 5q-14 0 -26.5 -11t-28.5 -34l-47 28q49 84 105 84q19 0 32.5 -7t30.5 -21q11 -10 19 -15t18 -5q14 0 26.5 10.5t27.5 33.5l49 -28q-45 -83 -103 -83q-19 0 -33 7zM208 717l-36 42l138 111h56l106 -114l-38 -39l-103 81z
M483 689l-21 -73h-235l-33 -229h206l-10 -73h-206l-34 -241h254l-12 -73h-342l97 689h336z" />
    <glyph glyph-name="uni0204" unicode="&#x204;" horiz-adv-x="475" 
d="M483 689l-21 -73h-235l-33 -229h206l-10 -73h-206l-34 -241h254l-12 -73h-342l97 689h336zM242 956l55 -173l-57 -22l-76 159zM378 955l47 -167l-57 -22l-69 154z" />
    <glyph glyph-name="Edieresis" unicode="&#xcb;" horiz-adv-x="475" 
d="M483 689l-21 -73h-235l-33 -229h206l-10 -73h-206l-34 -241h254l-12 -73h-342l97 689h336zM205.5 795.5q-13.5 13.5 -13.5 34.5q0 26 17.5 43t42.5 17q21 0 34.5 -14t13.5 -34q0 -27 -17 -43.5t-42 -16.5q-22 0 -35.5 13.5zM393.5 795.5q-13.5 13.5 -13.5 34.5
q0 26 17.5 43t42.5 17q21 0 34.5 -14t13.5 -34q0 -26 -17 -43t-42 -17q-22 0 -35.5 13.5z" />
    <glyph glyph-name="Edotaccent" unicode="&#x116;" horiz-adv-x="475" 
d="M483 689l-21 -73h-235l-33 -229h206l-10 -73h-206l-34 -241h254l-12 -73h-342l97 689h336zM296 798q-15 15 -15 39q0 29 19 47.5t46 18.5q25 0 40 -15t15 -39q0 -29 -19 -47.5t-46 -18.5q-25 0 -40 15z" />
    <glyph glyph-name="uni1EB8" unicode="&#x1eb8;" horiz-adv-x="475" 
d="M483 689l-21 -73h-235l-33 -229h206l-10 -73h-206l-34 -241h254l-12 -73h-342l97 689h336zM247 -91q15 -15 15 -39q0 -29 -19 -47.5t-46 -18.5q-25 0 -40 15t-15 39q0 29 19 47.5t46 18.5q25 0 40 -15z" />
    <glyph glyph-name="Egrave" unicode="&#xc8;" horiz-adv-x="475" 
d="M483 689l-21 -73h-235l-33 -229h206l-10 -73h-206l-34 -241h254l-12 -73h-342l97 689h336zM279 903l166 -102l-29 -46l-179 76z" />
    <glyph glyph-name="uni1EBA" unicode="&#x1eba;" horiz-adv-x="475" 
d="M483 689l-21 -73h-235l-33 -229h206l-10 -73h-206l-34 -241h254l-12 -73h-342l97 689h336zM308 847q35 5 53 16t18 36q0 14 -8.5 21.5t-23.5 7.5q-24 0 -52 -15l-17 52q20 11 39.5 16.5t43.5 5.5q42 0 66 -23.5t24 -61.5q0 -75 -84 -90l-6 -48h-63z" />
    <glyph glyph-name="uni0206" unicode="&#x206;" horiz-adv-x="475" 
d="M483 689l-21 -73h-235l-33 -229h206l-10 -73h-206l-34 -241h254l-12 -73h-342l97 689h336zM194 792q16 61 57 94.5t96 33.5q56 0 88.5 -36t31.5 -97l-56 -8q-5 38 -21.5 56t-47.5 18q-63 0 -93 -78z" />
    <glyph glyph-name="Emacron" unicode="&#x112;" horiz-adv-x="475" 
d="M483 689l-21 -73h-235l-33 -229h206l-10 -73h-206l-34 -241h254l-12 -73h-342l97 689h336zM455 794h-244l9 66h245z" />
    <glyph glyph-name="Eogonek" unicode="&#x118;" horiz-adv-x="475" 
d="M227 616l-33 -229h206l-10 -73h-206l-34 -241h254l-12 -73h-34q-76 -35 -102 -65t-26 -61q0 -17 11 -27t32 -10q20 0 55 7l-14 -67q-27 -6 -56 -6q-47 0 -74.5 25.5t-27.5 67.5q0 83 103 136h-209l97 689h336l-21 -73h-235z" />
    <glyph glyph-name="uni0190" unicode="&#x190;" horiz-adv-x="471" 
d="M420.5 678.5q44.5 -21.5 80.5 -64.5l-55 -50q-30 31 -61 46.5t-67 15.5q-59 0 -92 -38t-33 -93q0 -45 27 -69t74 -24h57l-22 -75h-45q-76 0 -118 -40t-42 -116q0 -52 27.5 -79t80.5 -27q83 0 153 67l48 -53q-87 -91 -209 -91q-88 0 -142 49.5t-54 131.5q0 83 49.5 137.5
t129.5 63.5q-49 12 -77 44.5t-28 83.5q0 58 28.5 104t78 72t109.5 26q58 0 102.5 -21.5z" />
    <glyph glyph-name="uni018E" unicode="&#x18e;" horiz-adv-x="474" 
d="M109 689h338l-97 -689h-342l10 73h252l34 241h-206l10 73h206l33 229h-248z" />
    <glyph glyph-name="uni01A9" unicode="&#x1a9;" horiz-adv-x="456" 
d="M477 689l-10 -75h-281l143 -250l-6 -58l-208 -231h276l-10 -75h-380l10 74l237 268l-160 273l10 74h379z" />
    <glyph glyph-name="uni0246" unicode="&#x246;" horiz-adv-x="475" 
d="M462 616h-46l-87 -229h71l-10 -73h-89l-91 -241h194l-12 -73h-210l-27 -70l-41 11l22 59h-86l97 689h252l23 60l41 -11l-19 -49h39zM284 387l87 229h-144l-33 -229h90zM164 73l92 241h-72l-34 -241h14z" />
    <glyph glyph-name="uni1EBC" unicode="&#x1ebc;" horiz-adv-x="475" 
d="M483 689l-21 -73h-235l-33 -229h206l-10 -73h-206l-34 -241h254l-12 -73h-342l97 689h336zM357 790q-14 7 -32 21q-12 10 -20.5 15t-17.5 5q-15 0 -27 -11t-28 -34l-47 28q49 84 105 84q19 0 32.5 -7t30.5 -21q11 -10 19 -15t18 -5q14 0 26.5 10.5t27.5 33.5l49 -28
q-45 -83 -103 -83q-19 0 -33 7z" />
    <glyph glyph-name="uni01B7" unicode="&#x1b7;" horiz-adv-x="462" 
d="M452 615l-217 -219q94 -2 139.5 -45.5t45.5 -120.5q0 -71 -32.5 -126t-89.5 -85.5t-128 -30.5q-66 0 -110 23t-74 69l56 46q26 -34 55.5 -48.5t73.5 -14.5q70 0 112.5 45t42.5 120q0 55 -29 78t-92 23h-82l1 1l9 65l213 219h-258l10 75h365z" />
    <glyph glyph-name="uni01EE" unicode="&#x1ee;" horiz-adv-x="462" 
d="M452 615l-217 -219q94 -2 139.5 -45.5t45.5 -120.5q0 -71 -32.5 -126t-89.5 -85.5t-128 -30.5q-66 0 -110 23t-74 69l56 46q26 -34 55.5 -48.5t73.5 -14.5q70 0 112.5 45t42.5 120q0 55 -29 78t-92 23h-82l1 1l9 65l213 219h-258l10 75h365zM419 907l35 -42l-137 -111
h-56l-106 114l38 39l103 -81z" />
    <glyph glyph-name="uni01B8" unicode="&#x1b8;" horiz-adv-x="463" 
d="M471 614h-268l160 -220l-8 -65l-2 1l1 -1h-77q-76 0 -118 -42.5t-42 -116.5q0 -52 26.5 -79.5t79.5 -27.5q47 0 83 16t72 49l48 -52q-43 -44 -93 -66t-115 -22q-90 0 -142 49.5t-52 131.5q0 68 30.5 119.5t85 79.5t124.5 28h9l-165 219l11 74h363z" />
    <glyph glyph-name="F" unicode="F" horiz-adv-x="435" 
d="M476 689l-21 -73h-228l-34 -239h199l-10 -72h-199l-43 -305h-90l97 689h329z" />
    <glyph glyph-name="uni1E1E" unicode="&#x1e1e;" horiz-adv-x="435" 
d="M476 689l-21 -73h-228l-34 -239h199l-10 -72h-199l-43 -305h-90l97 689h329zM290 798q-15 15 -15 39q0 29 19 47.5t46 18.5q25 0 40 -15t15 -39q0 -29 -19 -47.5t-46 -18.5q-25 0 -40 15z" />
    <glyph glyph-name="uni0191" unicode="&#x191;" horiz-adv-x="435" 
d="M227 616l-34 -239h199l-10 -72h-199l-43 -305l-10 -67q-10 -72 -51 -108.5t-103 -36.5q-35 0 -59 11t-44 28l38 55q17 -11 29.5 -16t31.5 -5q28 0 46.5 18.5t22.5 53.5l9 67l97 689h329l-21 -73h-228z" />
    <glyph glyph-name="G" unicode="G" horiz-adv-x="570" 
d="M483 680.5q43 -19.5 79 -57.5l-57 -49q-30 28 -58 40t-66 12q-79 0 -131.5 -59t-77.5 -149t-25 -185q0 -88 33 -129t98 -41q63 0 120 33l30 211h-105l1 74h203l-45 -328q-102 -65 -213 -65q-103 0 -159.5 65t-56.5 190q0 111 36.5 216t110.5 173t182 68q58 0 101 -19.5z
" />
    <glyph glyph-name="uni01F4" unicode="&#x1f4;" horiz-adv-x="570" 
d="M483 680.5q43 -19.5 79 -57.5l-57 -49q-30 28 -58 40t-66 12q-79 0 -131.5 -59t-77.5 -149t-25 -185q0 -88 33 -129t98 -41q63 0 120 33l30 211h-105l1 74h203l-45 -328q-102 -65 -213 -65q-103 0 -159.5 65t-56.5 190q0 111 36.5 216t110.5 173t182 68q58 0 101 -19.5z
M479 904l33 -73l-201 -76l-21 46z" />
    <glyph glyph-name="uni0194" unicode="&#x194;" 
d="M276 67q18 -48 25.5 -83.5t7.5 -70.5q0 -59 -32.5 -92t-88.5 -33q-47 0 -72 25t-25 65q0 38 19 80t63 110l-106 621h93l73 -557l229 557h94zM217 10q-47 -82 -47 -124q0 -28 23 -28q38 0 38 54q0 37 -14 98z" />
    <glyph glyph-name="Gbreve" unicode="&#x11e;" horiz-adv-x="570" 
d="M483 680.5q43 -19.5 79 -57.5l-57 -49q-30 28 -58 40t-66 12q-79 0 -131.5 -59t-77.5 -149t-25 -185q0 -88 33 -129t98 -41q63 0 120 33l30 211h-105l1 74h203l-45 -328q-102 -65 -213 -65q-103 0 -159.5 65t-56.5 190q0 111 36.5 216t110.5 173t182 68q58 0 101 -19.5z
M302.5 793q-32.5 34 -30.5 89l54 8q6 -31 22 -47.5t46 -16.5q32 0 55.5 18t37.5 50l55 -18q-13 -54 -54 -85.5t-96 -31.5q-57 0 -89.5 34z" />
    <glyph glyph-name="Gcaron" unicode="&#x1e6;" horiz-adv-x="570" 
d="M483 680.5q43 -19.5 79 -57.5l-57 -49q-30 28 -58 40t-66 12q-79 0 -131.5 -59t-77.5 -149t-25 -185q0 -88 33 -129t98 -41q63 0 120 33l30 211h-105l1 74h203l-45 -328q-102 -65 -213 -65q-103 0 -159.5 65t-56.5 190q0 111 36.5 216t110.5 173t182 68q58 0 101 -19.5z
M522 907l35 -42l-137 -111h-56l-106 114l38 39l103 -81z" />
    <glyph glyph-name="Gcircumflex" unicode="&#x11c;" horiz-adv-x="570" 
d="M483 680.5q43 -19.5 79 -57.5l-57 -49q-30 28 -58 40t-66 12q-79 0 -131.5 -59t-77.5 -149t-25 -185q0 -88 33 -129t98 -41q63 0 120 33l30 211h-105l1 74h203l-45 -328q-102 -65 -213 -65q-103 0 -159.5 65t-56.5 190q0 111 36.5 216t110.5 173t182 68q58 0 101 -19.5z
M279 759l-36 42l138 111h56l106 -114l-38 -39l-103 81z" />
    <glyph glyph-name="Gcommaaccent" unicode="&#x122;" horiz-adv-x="570" 
d="M483 680.5q43 -19.5 79 -57.5l-57 -49q-30 28 -58 40t-66 12q-79 0 -131.5 -59t-77.5 -149t-25 -185q0 -88 33 -129t98 -41q63 0 120 33l30 211h-105l1 74h203l-45 -328q-102 -65 -213 -65q-103 0 -159.5 65t-56.5 190q0 111 36.5 216t110.5 173t182 68q58 0 101 -19.5z
M289 -93q13 -15 13 -34q0 -17 -7 -34t-27 -51l-49 -82h-49l44 118q-8 7 -13 17.5t-5 22.5q0 25 16.5 41.5t40.5 16.5q23 0 36 -15z" />
    <glyph glyph-name="Gdotaccent" unicode="&#x120;" horiz-adv-x="570" 
d="M483 680.5q43 -19.5 79 -57.5l-57 -49q-30 28 -58 40t-66 12q-79 0 -131.5 -59t-77.5 -149t-25 -185q0 -88 33 -129t98 -41q63 0 120 33l30 211h-105l1 74h203l-45 -328q-102 -65 -213 -65q-103 0 -159.5 65t-56.5 190q0 111 36.5 216t110.5 173t182 68q58 0 101 -19.5z
M361 798q-15 15 -15 39q0 29 19 47.5t46 18.5q25 0 40 -15t15 -39q0 -29 -19 -47.5t-46 -18.5q-25 0 -40 15z" />
    <glyph glyph-name="uni0193" unicode="&#x193;" horiz-adv-x="530" 
d="M738 792l-38 -52q-16 11 -29 15.5t-32 4.5q-28 0 -45.5 -18t-22.5 -54l-8 -65l-50 -44q-33 24 -63 35.5t-68 11.5q-79 0 -131.5 -59t-77.5 -149t-25 -185q0 -88 33 -129t97 -41t121 33l29 211h-105l1 74h204l-45 -328q-104 -65 -214 -65q-102 0 -158.5 65t-56.5 190
q0 111 35.5 216t109 173t180.5 68q62 0 105 -26l3 23q10 63 48 98.5t101 35.5q59 0 102 -39z" />
    <glyph glyph-name="uni0241" unicode="&#x241;" horiz-adv-x="424" 
d="M144 318l63 19q68 22 102.5 65.5t34.5 115.5q0 51 -24.5 79.5t-70.5 28.5q-36 0 -72 -16.5t-76 -48.5l-41 56q90 83 195 83q85 0 134.5 -48.5t49.5 -129.5q0 -98 -48 -156t-139 -85l-25 -8l-38 -273h-90z" />
    <glyph glyph-name="uni01E4" unicode="&#x1e4;" horiz-adv-x="578" 
d="M563 172h-65l-16 -119q-102 -65 -213 -65q-103 0 -159.5 65t-56.5 190q0 111 36.5 216t110.5 173t182 68q58 0 101 -19.5t79 -57.5l-57 -49q-30 28 -58 40t-66 12q-79 0 -131.5 -59t-77.5 -149t-25 -185q0 -88 33 -129t98 -41q64 0 120 35l11 74h-101l10 74h101l9 61
h-105l1 74h203l-19 -135h65z" />
    <glyph glyph-name="uni021C" unicode="&#x21c;" horiz-adv-x="447" 
d="M387.5 657q44.5 -43 44.5 -113q0 -74 -40 -120.5t-114 -65.5q56 -8 89.5 -41t33.5 -91q0 -129 -112 -210.5t-289 -116.5v74q144 36 224.5 94.5t80.5 156.5q0 93 -115 93h-61l22 75h48q59 0 98.5 38.5t39.5 102.5q0 45 -19.5 69t-64.5 24q-38 0 -74.5 -16t-78.5 -48
l-39 55q95 83 202 83q80 0 124.5 -43z" />
    <glyph glyph-name="H" unicode="H" horiz-adv-x="606" 
d="M140 0h-90l97 689h90l-41 -290h252l41 290h90l-97 -689h-90l46 324h-253z" />
    <glyph glyph-name="Hbar" unicode="&#x126;" horiz-adv-x="609" 
d="M623 575l-9 -66h-59l-72 -509h-90l46 324h-253l-45 -324h-90l72 509h-59l9 66h59l16 114h90l-16 -114h252l16 114h90l-16 -114h59zM449 399l16 110h-252l-16 -110h252z" />
    <glyph glyph-name="uni021E" unicode="&#x21e;" horiz-adv-x="606" 
d="M140 0h-90l97 689h90l-41 -290h252l41 290h90l-97 -689h-90l46 324h-253zM502 907l35 -42l-137 -111h-56l-106 114l38 39l103 -81z" />
    <glyph glyph-name="Hcircumflex" unicode="&#x124;" horiz-adv-x="606" 
d="M140 0h-90l97 689h90l-41 -290h252l41 290h90l-97 -689h-90l46 324h-253zM259 759l-36 42l138 111h56l106 -114l-38 -39l-103 81z" />
    <glyph glyph-name="uni1E24" unicode="&#x1e24;" horiz-adv-x="606" 
d="M140 0h-90l97 689h90l-41 -290h252l41 290h90l-97 -689h-90l46 324h-253zM297 -91q15 -15 15 -39q0 -29 -19 -47.5t-46 -18.5q-25 0 -40 15t-15 39q0 29 19 47.5t46 18.5q25 0 40 -15z" />
    <glyph glyph-name="uniA7AA" unicode="&#xa7aa;" horiz-adv-x="684" 
d="M657 689l-97 -689h-90l46 324h-253l-45 -324h-90l87 617h-25q-59 0 -59 -67q0 -26 11 -59l-66 -28q-25 46 -25 91q0 61 38 98t108 37h118l-41 -290h252l41 290h90z" />
    <glyph glyph-name="uniA78D" unicode="&#xa78d;" horiz-adv-x="550" 
d="M523 689l-97 -689h-90l39 278q-41 -32 -78 -46t-82 -14q-73 0 -115.5 44.5t-42.5 117.5q0 23 2 35l38 274h89l-38 -273q-2 -20 -2 -28q0 -93 96 -93q78 0 144 64l47 330h90z" />
    <glyph glyph-name="uni01F6" unicode="&#x1f6;" horiz-adv-x="864" 
d="M450.5 29.5q-37.5 41.5 -37.5 101.5q0 8 2 26l23 167h-253l-45 -324h-90l97 689h90l-41 -290h252l41 290h90l-74 -533q-2 -18 -2 -26q0 -33 16 -52t48 -19q93 0 126.5 109t33.5 251q0 65 -4 108h83q7 -66 7 -114q0 -187 -58.5 -306t-191.5 -119q-75 0 -112.5 41.5z" />
    <glyph glyph-name="I" unicode="I" horiz-adv-x="264" 
d="M237 689l-97 -689h-90l97 689h90z" />
    <glyph glyph-name="IJ" unicode="&#x132;" horiz-adv-x="539" 
d="M237 689l-97 -689h-90l97 689h90zM432 90q-10 -68 -35 -111.5t-63 -69t-95 -45.5l-20 65q44 20 68.5 41.5t36.5 51t19 77.5l84 590h90z" />
    <glyph glyph-name="Iacute" unicode="&#xcd;" horiz-adv-x="264" 
d="M237 689l-97 -689h-90l97 689h90zM288 904l33 -73l-201 -76l-21 46z" />
    <glyph glyph-name="Ibreve" unicode="&#x12c;" horiz-adv-x="264" 
d="M237 689l-97 -689h-90l97 689h90zM111.5 793q-32.5 34 -30.5 89l54 8q6 -31 22 -47.5t46 -16.5q32 0 55.5 18t37.5 50l55 -18q-13 -54 -54 -85.5t-96 -31.5q-57 0 -89.5 34z" />
    <glyph glyph-name="uni01CF" unicode="&#x1cf;" horiz-adv-x="264" 
d="M237 689l-97 -689h-90l97 689h90zM331 907l35 -42l-137 -111h-56l-106 114l38 39l103 -81z" />
    <glyph glyph-name="Icircumflex" unicode="&#xce;" horiz-adv-x="264" 
d="M237 689l-97 -689h-90l97 689h90zM88 759l-36 42l138 111h56l106 -114l-38 -39l-103 81z" />
    <glyph glyph-name="uni0208" unicode="&#x208;" horiz-adv-x="264" 
d="M237 689l-97 -689h-90l97 689h90zM116 956l55 -173l-57 -22l-76 159zM252 955l47 -167l-57 -22l-69 154z" />
    <glyph glyph-name="Idieresis" unicode="&#xcf;" horiz-adv-x="264" 
d="M237 689l-97 -689h-90l97 689h90zM79.5 795.5q-13.5 13.5 -13.5 34.5q0 26 17.5 43t42.5 17q21 0 34.5 -14t13.5 -34q0 -27 -17 -43.5t-42 -16.5q-22 0 -35.5 13.5zM267.5 795.5q-13.5 13.5 -13.5 34.5q0 26 17.5 43t42.5 17q21 0 34.5 -14t13.5 -34q0 -26 -17 -43
t-42 -17q-22 0 -35.5 13.5z" />
    <glyph glyph-name="uni1E2E" unicode="&#x1e2e;" horiz-adv-x="264" 
d="M237 689l-97 -689h-90l97 689h90zM302 1010l48 -49l-140 -129l-34 31zM71 761q-14 14 -14 34q0 27 17.5 44t42.5 17q21 0 34.5 -14t13.5 -34q0 -27 -17 -44t-42 -17q-21 0 -35 14zM259 761q-14 14 -14 34q0 27 17.5 44t42.5 17q21 0 34.5 -14t13.5 -34q0 -27 -17 -44
t-42 -17q-21 0 -35 14z" />
    <glyph glyph-name="Idotaccent" unicode="&#x130;" horiz-adv-x="264" 
d="M237 689l-97 -689h-90l97 689h90zM170 798q-15 15 -15 39q0 29 19 47.5t46 18.5q25 0 40 -15t15 -39q0 -29 -19 -47.5t-46 -18.5q-25 0 -40 15z" />
    <glyph glyph-name="uni1ECA" unicode="&#x1eca;" horiz-adv-x="264" 
d="M237 689l-97 -689h-90l97 689h90zM120 -91q15 -15 15 -39q0 -29 -19 -47.5t-46 -18.5q-25 0 -40 15t-15 39q0 29 19 47.5t46 18.5q25 0 40 -15z" />
    <glyph glyph-name="Igrave" unicode="&#xcc;" horiz-adv-x="264" 
d="M237 689l-97 -689h-90l97 689h90zM153 903l166 -102l-29 -46l-179 76z" />
    <glyph glyph-name="uni1EC8" unicode="&#x1ec8;" horiz-adv-x="264" 
d="M237 689l-97 -689h-90l97 689h90zM182 847q35 5 53 16t18 36q0 14 -8.5 21.5t-23.5 7.5q-24 0 -52 -15l-17 52q20 11 39.5 16.5t43.5 5.5q42 0 66 -23.5t24 -61.5q0 -75 -84 -90l-6 -48h-63z" />
    <glyph glyph-name="uni020A" unicode="&#x20a;" horiz-adv-x="264" 
d="M237 689l-97 -689h-90l97 689h90zM68 792q16 61 57 94.5t96 33.5q56 0 88.5 -36t31.5 -97l-56 -8q-5 38 -21.5 56t-47.5 18q-63 0 -93 -78z" />
    <glyph glyph-name="Imacron" unicode="&#x12a;" horiz-adv-x="264" 
d="M237 689l-97 -689h-90l97 689h90zM329 794h-244l9 66h245z" />
    <glyph glyph-name="Iogonek" unicode="&#x12e;" horiz-adv-x="264" 
d="M237 689l-97 -689h-20q-76 -35 -102 -65t-26 -61q0 -17 11 -27t32 -10q20 0 55 7l-14 -67q-27 -6 -56 -6q-47 0 -74.5 25.5t-27.5 67.5q0 44 30.5 82t103.5 68l95 675h90z" />
    <glyph glyph-name="uni0196" unicode="&#x196;" horiz-adv-x="321" 
d="M287 24q-49 -36 -108 -36q-58 0 -90 31t-32 89q0 8 2 30l9 62l70 489h89l-69 -489l-10 -73q-1 -7 -1 -18q0 -48 43 -48q20 0 34 5t33 16z" />
    <glyph glyph-name="uni0197" unicode="&#x197;" horiz-adv-x="283" 
d="M288 395l-11 -70h-80l-46 -325h-90l46 325h-85l10 70h85l41 294h90l-41 -294h81z" />
    <glyph glyph-name="Itilde" unicode="&#x128;" horiz-adv-x="264" 
d="M237 689l-97 -689h-90l97 689h90zM231 790q-14 7 -32 21q-12 10 -20.5 15t-17.5 5q-15 0 -27 -11t-28 -34l-47 28q49 84 105 84q19 0 32.5 -7t30.5 -21q11 -10 19 -15t18 -5q14 0 26.5 10.5t27.5 33.5l49 -28q-45 -83 -103 -83q-19 0 -33 7z" />
    <glyph glyph-name="J" unicode="J" horiz-adv-x="275" 
d="M168 90q-10 -68 -35 -111.5t-63 -69t-95 -45.5l-20 65q44 20 68.5 41.5t36.5 51t19 77.5l84 590h90z" />
    <glyph glyph-name="Jcircumflex" unicode="&#x134;" horiz-adv-x="275" 
d="M168 90q-10 -68 -35 -111.5t-63 -69t-95 -45.5l-20 65q44 20 68.5 41.5t36.5 51t19 77.5l84 590h90zM104 759l-36 42l138 111h56l106 -114l-38 -39l-103 81z" />
    <glyph glyph-name="uniA7B2" unicode="&#xa7b2;" horiz-adv-x="300" 
d="M176 -10q46 -12 95 -40l-27 -47q-37 19 -77 31q-16 -73 -58.5 -109.5t-114.5 -36.5q-54 0 -84 26.5t-30 72.5q0 56 42 90t105 34q42 0 62 -4l95 682h90zM53 -126q19 25 28 78q-21 3 -55 3q-36 0 -55.5 -17.5t-19.5 -45.5q0 -43 44 -43q39 0 58 25z" />
    <glyph glyph-name="uni0248" unicode="&#x248;" horiz-adv-x="287" 
d="M283 305h-81l-31 -215q-10 -68 -35 -111.5t-63 -69t-95 -45.5l-20 65q44 20 68.5 41.5t36.5 51t19 77.5l29 206h-83l10 74h84l44 310h90l-44 -310h82z" />
    <glyph glyph-name="K" unicode="K" horiz-adv-x="532" 
d="M50 0l97 689h90l-97 -689h-90zM389 0l-193 368l276 321h101l-278 -324l197 -365h-103z" />
    <glyph glyph-name="uni01E8" unicode="&#x1e8;" horiz-adv-x="532" 
d="M50 0l97 689h90l-97 -689h-90zM389 0l-193 368l276 321h101l-278 -324l197 -365h-103zM490 907l35 -42l-137 -111h-56l-106 114l38 39l103 -81z" />
    <glyph glyph-name="Kcommaaccent" unicode="&#x136;" horiz-adv-x="532" 
d="M50 0l97 689h90l-97 -689h-90zM389 0l-193 368l276 321h101l-278 -324l197 -365h-103zM268 -93q13 -15 13 -34q0 -17 -7 -34t-27 -51l-49 -82h-49l44 118q-8 7 -13 17.5t-5 22.5q0 25 16.5 41.5t40.5 16.5q23 0 36 -15z" />
    <glyph glyph-name="uni0198" unicode="&#x198;" horiz-adv-x="564" 
d="M196 368l196 252q34 44 63 62t71 18q29 0 50.5 -10.5t40.5 -30.5l-47 -48q-13 9 -22 12.5t-21 3.5q-18 0 -33 -11t-39 -42l-160 -208l197 -366h-104zM50 0l97 689h90l-97 -689h-90z" />
    <glyph glyph-name="L" unicode="L" horiz-adv-x="440" 
d="M237 689l-86 -609h251l-21 -80h-331l97 689h90z" />
    <glyph glyph-name="uni01C7" unicode="&#x1c7;" horiz-adv-x="696" 
d="M237 689l-86 -609h251l-21 -80h-331l97 689h90zM589 90q-10 -68 -35 -111.5t-63 -69t-95 -45.5l-20 65q44 20 68.5 41.5t36.5 51t19 77.5l84 590h90z" />
    <glyph glyph-name="Lacute" unicode="&#x139;" horiz-adv-x="440" 
d="M237 689l-86 -609h251l-21 -80h-331l97 689h90zM288 904l33 -73l-201 -76l-21 46z" />
    <glyph glyph-name="uni023D" unicode="&#x23d;" horiz-adv-x="446" 
d="M157 80h251l-21 -80h-331l46 326h-79l10 74h79l41 289h90l-41 -289h87l-11 -74h-86z" />
    <glyph glyph-name="uniA7AD" unicode="&#xa7ad;" horiz-adv-x="492" 
d="M454 80l-21 -80h-331l37 260q-58 3 -87 29.5t-29 74.5q0 51 32 81.5t81 30.5q19 0 33 -3l30 216h90l-51 -364q21 1 73 7l28 4l5 -59q-58 -12 -115 -15l-26 -182h251zM107 334.5q14 -9.5 41 -9.5l12 89q-9 3 -22 3q-21 0 -33 -13t-12 -38q0 -22 14 -31.5z" />
    <glyph glyph-name="Lcaron" unicode="&#x13d;" horiz-adv-x="440" 
d="M237 689l-86 -609h251l-21 -80h-331l97 689h90zM302 698l75 -10l-67 -181l-48 8z" />
    <glyph glyph-name="uni1E3C" unicode="&#x1e3c;" horiz-adv-x="440" 
d="M237 689l-86 -609h251l-21 -80h-331l97 689h90zM77 -222l-36 41l138 113h56l106 -115l-41 -39l-100 82z" />
    <glyph glyph-name="Lcommaaccent" unicode="&#x13b;" horiz-adv-x="440" 
d="M237 689l-86 -609h251l-21 -80h-331l97 689h90zM239 -93q13 -15 13 -34q0 -17 -7 -34t-27 -51l-49 -82h-49l44 118q-8 7 -13 17.5t-5 22.5q0 25 16.5 41.5t40.5 16.5q23 0 36 -15z" />
    <glyph glyph-name="Ldot" unicode="&#x13f;" horiz-adv-x="440" 
d="M237 689l-86 -609h251l-21 -80h-331l97 689h90zM318 341q-15 15 -15 39q0 29 19 47.5t46 18.5q25 0 40 -15t15 -39q0 -29 -19 -47.5t-46 -18.5q-25 0 -40 15z" />
    <glyph glyph-name="uni1E36" unicode="&#x1e36;" horiz-adv-x="440" 
d="M237 689l-86 -609h251l-21 -80h-331l97 689h90zM242 -91q15 -15 15 -39q0 -29 -19 -47.5t-46 -18.5q-25 0 -40 15t-15 39q0 29 19 47.5t46 18.5q25 0 40 -15z" />
    <glyph glyph-name="uni01C8" unicode="&#x1c8;" horiz-adv-x="678" 
d="M237 689l-86 -609h251l-21 -80h-331l97 689h90zM355 -146q38 18 60 35.5t37.5 50t23.5 88.5l70 499h87l-71 -505q-10 -72 -32.5 -114t-56.5 -67.5t-94 -52.5zM569 672q-15 15 -15 39q0 29 19 47.5t46 18.5q25 0 40 -15t15 -39q0 -29 -19 -47.5t-46 -18.5q-25 0 -40 15z
" />
    <glyph glyph-name="Lslash" unicode="&#x141;" horiz-adv-x="454" 
d="M166 80h251l-21 -80h-331l36 257l-51 -33l-29 55l91 57l50 353h90l-41 -291l153 96l30 -55l-194 -121z" />
    <glyph glyph-name="M" unicode="M" horiz-adv-x="707" 
d="M611 0h-87l22 310q11 152 25 285l-199 -517h-88l-64 516q-11 -90 -50 -290l-61 -304h-88l149 689h114l59 -504l188 504h125z" />
    <glyph glyph-name="uni1E3E" unicode="&#x1e3e;" horiz-adv-x="707" 
d="M611 0h-87l22 310q11 152 25 285l-199 -517h-88l-64 516q-11 -90 -50 -290l-61 -304h-88l149 689h114l59 -504l188 504h125zM503 904l33 -73l-201 -76l-21 46z" />
    <glyph glyph-name="uni1E40" unicode="&#x1e40;" horiz-adv-x="707" 
d="M611 0h-87l22 310q11 152 25 285l-199 -517h-88l-64 516q-11 -90 -50 -290l-61 -304h-88l149 689h114l59 -504l188 504h125zM385 798q-15 15 -15 39q0 29 19 47.5t46 18.5q25 0 40 -15t15 -39q0 -29 -19 -47.5t-46 -18.5q-25 0 -40 15z" />
    <glyph glyph-name="uni019C" unicode="&#x19c;" horiz-adv-x="830" 
d="M803 689l-97 -689h-78l3 73q-66 -85 -151 -85q-48 0 -79.5 26t-43.5 71q-74 -97 -165 -97q-63 0 -96.5 42t-33.5 107q0 19 3 37l72 515h90l-73 -519q-2 -20 -2 -29q0 -37 16 -57.5t46 -20.5q38 0 69 22.5t68 73.5q0 7 2 21l72 509h90l-72 -513q-2 -12 -2 -32
q0 -39 15.5 -60t46.5 -21q37 0 68 22.5t67 73.5l75 530h90z" />
    <glyph glyph-name="N" unicode="N" horiz-adv-x="608" 
d="M484 0h-118l-162 610q-3 -126 -26 -289l-44 -321h-84l97 689h118l163 -611q3 123 17 233l52 378h84z" />
    <glyph glyph-name="uni01CA" unicode="&#x1ca;" horiz-adv-x="883" 
d="M484 0h-118l-162 610q-3 -126 -26 -289l-44 -321h-84l97 689h118l163 -611q3 123 17 233l52 378h84zM776 90q-10 -68 -35 -111.5t-63 -69t-95 -45.5l-20 65q44 20 68.5 41.5t36.5 51t19 77.5l84 590h90z" />
    <glyph glyph-name="Nacute" unicode="&#x143;" horiz-adv-x="608" 
d="M484 0h-118l-162 610q-3 -126 -26 -289l-44 -321h-84l97 689h118l163 -611q3 123 17 233l52 378h84zM469 904l33 -73l-201 -76l-21 46z" />
    <glyph glyph-name="Ncaron" unicode="&#x147;" horiz-adv-x="608" 
d="M484 0h-118l-162 610q-3 -126 -26 -289l-44 -321h-84l97 689h118l163 -611q3 123 17 233l52 378h84zM512 907l35 -42l-137 -111h-56l-106 114l38 39l103 -81z" />
    <glyph glyph-name="uni1E4A" unicode="&#x1e4a;" horiz-adv-x="608" 
d="M484 0h-118l-162 610q-3 -126 -26 -289l-44 -321h-84l97 689h118l163 -611q3 123 17 233l52 378h84zM129 -222l-36 41l138 113h56l106 -115l-41 -39l-100 82z" />
    <glyph glyph-name="Ncommaaccent" unicode="&#x145;" horiz-adv-x="608" 
d="M484 0h-118l-162 610q-3 -126 -26 -289l-44 -321h-84l97 689h118l163 -611q3 123 17 233l52 378h84zM291 -93q13 -15 13 -34q0 -17 -7 -34t-27 -51l-49 -82h-49l44 118q-8 7 -13 17.5t-5 22.5q0 25 16.5 41.5t40.5 16.5q23 0 36 -15z" />
    <glyph glyph-name="uni1E44" unicode="&#x1e44;" horiz-adv-x="608" 
d="M484 0h-118l-162 610q-3 -126 -26 -289l-44 -321h-84l97 689h118l163 -611q3 123 17 233l52 378h84zM351 798q-15 15 -15 39q0 29 19 47.5t46 18.5q25 0 40 -15t15 -39q0 -29 -19 -47.5t-46 -18.5q-25 0 -40 15z" />
    <glyph glyph-name="uni1E46" unicode="&#x1e46;" horiz-adv-x="608" 
d="M484 0h-118l-162 610q-3 -126 -26 -289l-44 -321h-84l97 689h118l163 -611q3 123 17 233l52 378h84zM294 -91q15 -15 15 -39q0 -29 -19 -47.5t-46 -18.5q-25 0 -40 15t-15 39q0 29 19 47.5t46 18.5q25 0 40 -15z" />
    <glyph glyph-name="uni01F8" unicode="&#x1f8;" horiz-adv-x="608" 
d="M484 0h-118l-162 610q-3 -126 -26 -289l-44 -321h-84l97 689h118l163 -611q3 123 17 233l52 378h84zM334 903l166 -102l-29 -46l-179 76z" />
    <glyph glyph-name="Eng" unicode="&#x14a;" horiz-adv-x="608" 
d="M581 689l-97 -689l-10 -67q-10 -72 -51 -108.5t-103 -36.5q-35 0 -59 11t-44 28l38 55q17 -11 29.5 -16t31.5 -5q28 0 46.5 18.5t22.5 53.5l9 67h-28l-162 610q-3 -126 -26 -289l-44 -321h-84l97 689h118l163 -611q3 123 17 233l52 378h84z" />
    <glyph glyph-name="uni019D" unicode="&#x19d;" horiz-adv-x="608" 
d="M581 689l-97 -689h-118l-162 610q-3 -126 -26 -289l-44 -321l-11 -70q-10 -69 -50 -105.5t-99 -36.5q-34 0 -57.5 11t-43.5 28l38 53q16 -11 29 -16t32 -5q28 0 46.5 19t22.5 55l9 67l97 689h118l163 -611q3 123 17 233l52 378h84z" />
    <glyph glyph-name="uni01CB" unicode="&#x1cb;" horiz-adv-x="861" 
d="M484 0h-118l-162 610q-3 -126 -26 -289l-44 -321h-84l97 689h118l163 -611q3 123 17 233l52 378h84zM538 -146q38 18 60 35.5t37.5 50t23.5 88.5l70 499h87l-71 -505q-10 -72 -32.5 -114t-56.5 -67.5t-94 -52.5zM752 672q-15 15 -15 39q0 29 19 47.5t46 18.5q25 0 40 -15
t15 -39q0 -29 -19 -47.5t-46 -18.5q-25 0 -40 15z" />
    <glyph glyph-name="uni0220" unicode="&#x220;" horiz-adv-x="596" 
d="M515.5 657q38.5 -43 38.5 -110q0 -22 -2 -33l-100 -716h-90l99 711q2 12 2 33q0 42 -18.5 63t-58.5 21q-45 0 -84 -22.5t-86 -66.5l-76 -537h-90l97 689h78l-3 -73q87 84 182 84q73 0 111.5 -43z" />
    <glyph glyph-name="Ntilde" unicode="&#xd1;" horiz-adv-x="608" 
d="M484 0h-118l-162 610q-3 -126 -26 -289l-44 -321h-84l97 689h118l163 -611q3 123 17 233l52 378h84zM412 790q-14 7 -32 21q-12 10 -20.5 15t-17.5 5q-15 0 -27 -11t-28 -34l-47 28q49 84 105 84q19 0 32.5 -7t30.5 -21q11 -10 19 -15t18 -5q14 0 26.5 10.5t27.5 33.5
l49 -28q-45 -83 -103 -83q-19 0 -33 7z" />
    <glyph glyph-name="O" unicode="O" horiz-adv-x="624" 
d="M534.5 631.5q57.5 -68.5 57.5 -194.5q0 -106 -32.5 -209t-104.5 -171.5t-183 -68.5q-102 0 -160 68t-58 193q0 103 33 206.5t105 174t183 70.5q102 0 159.5 -68.5zM240 565q-50 -61 -71 -148.5t-21 -170.5q0 -183 128 -183q81 0 131 61.5t71 149t21 171.5q0 93 -32.5 137
t-96.5 44q-80 0 -130 -61z" />
    <glyph glyph-name="uni0222" unicode="&#x222;" horiz-adv-x="585" 
d="M498 440q-27 -36 -75 -55q50 -21 77.5 -60t27.5 -93q0 -66 -33 -122t-95 -89t-144 -33q-68 0 -117 24.5t-74 67.5t-25 97q0 73 42 128.5t114 80.5q-35 17 -52.5 45t-17.5 71q0 17 3 36l21 151h90l-22 -152q-3 -18 -3 -33q0 -43 24 -64t73 -21q61 0 92.5 34.5t39.5 89.5
l21 146h91l-23 -156q-8 -57 -35 -93zM388 108q46 45 46 122q0 55 -32 84.5t-96 29.5q-80 0 -126 -44.5t-46 -120.5q0 -116 127 -116q81 0 127 45z" />
    <glyph glyph-name="Oacute" unicode="&#xd3;" horiz-adv-x="624" 
d="M534.5 631.5q57.5 -68.5 57.5 -194.5q0 -106 -32.5 -209t-104.5 -171.5t-183 -68.5q-102 0 -160 68t-58 193q0 103 33 206.5t105 174t183 70.5q102 0 159.5 -68.5zM240 565q-50 -61 -71 -148.5t-21 -170.5q0 -183 128 -183q81 0 131 61.5t71 149t21 171.5q0 93 -32.5 137
t-96.5 44q-80 0 -130 -61zM473 904l33 -73l-201 -76l-21 46z" />
    <glyph glyph-name="Obreve" unicode="&#x14e;" horiz-adv-x="624" 
d="M534.5 631.5q57.5 -68.5 57.5 -194.5q0 -106 -32.5 -209t-104.5 -171.5t-183 -68.5q-102 0 -160 68t-58 193q0 103 33 206.5t105 174t183 70.5q102 0 159.5 -68.5zM240 565q-50 -61 -71 -148.5t-21 -170.5q0 -183 128 -183q81 0 131 61.5t71 149t21 171.5q0 93 -32.5 137
t-96.5 44q-80 0 -130 -61zM296.5 793q-32.5 34 -30.5 89l54 8q6 -31 22 -47.5t46 -16.5q32 0 55.5 18t37.5 50l55 -18q-13 -54 -54 -85.5t-96 -31.5q-57 0 -89.5 34z" />
    <glyph glyph-name="uni01D1" unicode="&#x1d1;" horiz-adv-x="624" 
d="M534.5 631.5q57.5 -68.5 57.5 -194.5q0 -106 -32.5 -209t-104.5 -171.5t-183 -68.5q-102 0 -160 68t-58 193q0 103 33 206.5t105 174t183 70.5q102 0 159.5 -68.5zM240 565q-50 -61 -71 -148.5t-21 -170.5q0 -183 128 -183q81 0 131 61.5t71 149t21 171.5q0 93 -32.5 137
t-96.5 44q-80 0 -130 -61zM516 907l35 -42l-137 -111h-56l-106 114l38 39l103 -81z" />
    <glyph glyph-name="uni019F" unicode="&#x19f;" horiz-adv-x="624" 
d="M534.5 631.5q57.5 -68.5 57.5 -194.5q0 -106 -32.5 -209t-104.5 -171.5t-183 -68.5q-102 0 -160 68t-58 193q0 103 32.5 207t104.5 174t184 70q102 0 159.5 -68.5zM232.5 557.5q-51.5 -68.5 -73.5 -172.5h340q3 32 3 60q0 94 -33 137.5t-99 43.5q-86 0 -137.5 -68.5z
M418.5 136q52.5 73 71.5 181h-341q-4 -33 -4 -71q0 -183 131 -183q90 0 142.5 73z" />
    <glyph glyph-name="Ocircumflex" unicode="&#xd4;" horiz-adv-x="624" 
d="M534.5 631.5q57.5 -68.5 57.5 -194.5q0 -106 -32.5 -209t-104.5 -171.5t-183 -68.5q-102 0 -160 68t-58 193q0 103 33 206.5t105 174t183 70.5q102 0 159.5 -68.5zM240 565q-50 -61 -71 -148.5t-21 -170.5q0 -183 128 -183q81 0 131 61.5t71 149t21 171.5q0 93 -32.5 137
t-96.5 44q-80 0 -130 -61zM273 759l-36 42l138 111h56l106 -114l-38 -39l-103 81z" />
    <glyph glyph-name="uni1ED0" unicode="&#x1ed0;" horiz-adv-x="624" 
d="M604 1015l48 -49l-140 -129l-34 31zM268 717l-36 42l138 111h56l106 -114l-38 -39l-103 81zM534.5 631.5q57.5 -68.5 57.5 -194.5q0 -106 -32.5 -209t-104.5 -171.5t-183 -68.5q-102 0 -160 68t-58 193q0 103 33 206.5t105 174t183 70.5q102 0 159.5 -68.5zM240 565
q-50 -61 -71 -148.5t-21 -170.5q0 -183 128 -183q81 0 131 61.5t71 149t21 171.5q0 93 -32.5 137t-96.5 44q-80 0 -130 -61z" />
    <glyph glyph-name="uni1ED8" unicode="&#x1ed8;" horiz-adv-x="624" 
d="M534.5 631.5q57.5 -68.5 57.5 -194.5q0 -106 -32.5 -209t-104.5 -171.5t-183 -68.5q-102 0 -160 68t-58 193q0 103 33 206.5t105 174t183 70.5q102 0 159.5 -68.5zM240 565q-50 -61 -71 -148.5t-21 -170.5q0 -183 128 -183q81 0 131 61.5t71 149t21 171.5q0 93 -32.5 137
t-96.5 44q-80 0 -130 -61zM273 759l-36 42l138 111h56l106 -114l-38 -39l-103 81zM296 -91q15 -15 15 -39q0 -29 -19 -47.5t-46 -18.5q-25 0 -40 15t-15 39q0 29 19 47.5t46 18.5q25 0 40 -15z" />
    <glyph glyph-name="uni1ED2" unicode="&#x1ed2;" horiz-adv-x="624" 
d="M226 1013l86 -148l-38 -28l-106 131zM265 717l-36 42l138 111h56l106 -114l-38 -39l-103 81zM534.5 631.5q57.5 -68.5 57.5 -194.5q0 -106 -32.5 -209t-104.5 -171.5t-183 -68.5q-102 0 -160 68t-58 193q0 103 33 206.5t105 174t183 70.5q102 0 159.5 -68.5zM240 565
q-50 -61 -71 -148.5t-21 -170.5q0 -183 128 -183q81 0 131 61.5t71 149t21 171.5q0 93 -32.5 137t-96.5 44q-80 0 -130 -61z" />
    <glyph glyph-name="uni1ED4" unicode="&#x1ed4;" horiz-adv-x="624" 
d="M534.5 631.5q57.5 -68.5 57.5 -194.5q0 -106 -32.5 -209t-104.5 -171.5t-183 -68.5q-102 0 -160 68t-58 193q0 103 33 206.5t105 174t183 70.5q102 0 159.5 -68.5zM240 565q-50 -61 -71 -148.5t-21 -170.5q0 -183 128 -183q81 0 131 61.5t71 149t21 171.5q0 93 -32.5 137
t-96.5 44q-80 0 -130 -61zM266 717l-36 42l138 111h56l106 -114l-38 -39l-103 81zM503 898q35 5 53 16t18 36q0 14 -8.5 21.5t-23.5 7.5q-24 0 -52 -15l-17 52q20 11 39.5 16.5t43.5 5.5q42 0 66 -23.5t24 -61.5q0 -75 -84 -90l-6 -48h-63z" />
    <glyph glyph-name="uni1ED6" unicode="&#x1ed6;" horiz-adv-x="624" 
d="M430 907q-14 7 -32 21q-12 10 -20.5 15t-17.5 5q-14 0 -26.5 -11t-28.5 -34l-47 28q49 84 105 84q19 0 32.5 -7t30.5 -21q11 -10 19 -15t18 -5q14 0 26.5 10.5t27.5 33.5l49 -28q-45 -83 -103 -83q-19 0 -33 7zM267 717l-36 42l138 111h56l106 -114l-38 -39l-103 81z
M534.5 631.5q57.5 -68.5 57.5 -194.5q0 -106 -32.5 -209t-104.5 -171.5t-183 -68.5q-102 0 -160 68t-58 193q0 103 33 206.5t105 174t183 70.5q102 0 159.5 -68.5zM240 565q-50 -61 -71 -148.5t-21 -170.5q0 -183 128 -183q81 0 131 61.5t71 149t21 171.5q0 93 -32.5 137
t-96.5 44q-80 0 -130 -61z" />
    <glyph glyph-name="uni020C" unicode="&#x20c;" horiz-adv-x="624" 
d="M534.5 631.5q57.5 -68.5 57.5 -194.5q0 -106 -32.5 -209t-104.5 -171.5t-183 -68.5q-102 0 -160 68t-58 193q0 103 33 206.5t105 174t183 70.5q102 0 159.5 -68.5zM240 565q-50 -61 -71 -148.5t-21 -170.5q0 -183 128 -183q81 0 131 61.5t71 149t21 171.5q0 93 -32.5 137
t-96.5 44q-80 0 -130 -61zM301 956l55 -173l-57 -22l-76 159zM437 955l47 -167l-57 -22l-69 154z" />
    <glyph glyph-name="Odieresis" unicode="&#xd6;" horiz-adv-x="624" 
d="M534.5 631.5q57.5 -68.5 57.5 -194.5q0 -106 -32.5 -209t-104.5 -171.5t-183 -68.5q-102 0 -160 68t-58 193q0 103 33 206.5t105 174t183 70.5q102 0 159.5 -68.5zM240 565q-50 -61 -71 -148.5t-21 -170.5q0 -183 128 -183q81 0 131 61.5t71 149t21 171.5q0 93 -32.5 137
t-96.5 44q-80 0 -130 -61zM264.5 795.5q-13.5 13.5 -13.5 34.5q0 26 17.5 43t42.5 17q21 0 34.5 -14t13.5 -34q0 -27 -17 -43.5t-42 -16.5q-22 0 -35.5 13.5zM452.5 795.5q-13.5 13.5 -13.5 34.5q0 26 17.5 43t42.5 17q21 0 34.5 -14t13.5 -34q0 -26 -17 -43t-42 -17
q-22 0 -35.5 13.5z" />
    <glyph glyph-name="uni022A" unicode="&#x22a;" horiz-adv-x="624" 
d="M534.5 631.5q57.5 -68.5 57.5 -194.5q0 -106 -32.5 -209t-104.5 -171.5t-183 -68.5q-102 0 -160 68t-58 193q0 103 33 206.5t105 174t183 70.5q102 0 159.5 -68.5zM240 565q-50 -61 -71 -148.5t-21 -170.5q0 -183 128 -183q81 0 131 61.5t71 149t21 171.5q0 93 -32.5 137
t-96.5 44q-80 0 -130 -61zM251.5 760.5q-13.5 13.5 -13.5 34.5q0 26 17.5 43t42.5 17q21 0 34.5 -14t13.5 -34q0 -27 -17 -43.5t-42 -16.5q-22 0 -35.5 13.5zM439.5 760.5q-13.5 13.5 -13.5 34.5q0 26 17.5 43t42.5 17q21 0 34.5 -14t13.5 -34q0 -26 -17 -43t-42 -17
q-22 0 -35.5 13.5zM520 902h-244l9 66h245z" />
    <glyph glyph-name="uni022E" unicode="&#x22e;" horiz-adv-x="624" 
d="M534.5 631.5q57.5 -68.5 57.5 -194.5q0 -106 -32.5 -209t-104.5 -171.5t-183 -68.5q-102 0 -160 68t-58 193q0 103 33 206.5t105 174t183 70.5q102 0 159.5 -68.5zM240 565q-50 -61 -71 -148.5t-21 -170.5q0 -183 128 -183q81 0 131 61.5t71 149t21 171.5q0 93 -32.5 137
t-96.5 44q-80 0 -130 -61zM355 798q-15 15 -15 39q0 29 19 47.5t46 18.5q25 0 40 -15t15 -39q0 -29 -19 -47.5t-46 -18.5q-25 0 -40 15z" />
    <glyph glyph-name="uni0230" unicode="&#x230;" horiz-adv-x="624" 
d="M534.5 631.5q57.5 -68.5 57.5 -194.5q0 -106 -32.5 -209t-104.5 -171.5t-183 -68.5q-102 0 -160 68t-58 193q0 103 33 206.5t105 174t183 70.5q102 0 159.5 -68.5zM240 565q-50 -61 -71 -148.5t-21 -170.5q0 -183 128 -183q81 0 131 61.5t71 149t21 171.5q0 93 -32.5 137
t-96.5 44q-80 0 -130 -61zM344 757q-15 15 -15 39q0 29 19 47.5t46 18.5q25 0 40 -15t15 -39q0 -29 -19 -47.5t-46 -18.5q-25 0 -40 15zM521 903h-244l9 66h245z" />
    <glyph glyph-name="uni1ECC" unicode="&#x1ecc;" horiz-adv-x="624" 
d="M534.5 631.5q57.5 -68.5 57.5 -194.5q0 -106 -32.5 -209t-104.5 -171.5t-183 -68.5q-102 0 -160 68t-58 193q0 103 33 206.5t105 174t183 70.5q102 0 159.5 -68.5zM240 565q-50 -61 -71 -148.5t-21 -170.5q0 -183 128 -183q81 0 131 61.5t71 149t21 171.5q0 93 -32.5 137
t-96.5 44q-80 0 -130 -61zM296 -91q15 -15 15 -39q0 -29 -19 -47.5t-46 -18.5q-25 0 -40 15t-15 39q0 29 19 47.5t46 18.5q25 0 40 -15z" />
    <glyph glyph-name="Ograve" unicode="&#xd2;" horiz-adv-x="624" 
d="M534.5 631.5q57.5 -68.5 57.5 -194.5q0 -106 -32.5 -209t-104.5 -171.5t-183 -68.5q-102 0 -160 68t-58 193q0 103 33 206.5t105 174t183 70.5q102 0 159.5 -68.5zM240 565q-50 -61 -71 -148.5t-21 -170.5q0 -183 128 -183q81 0 131 61.5t71 149t21 171.5q0 93 -32.5 137
t-96.5 44q-80 0 -130 -61zM338 903l166 -102l-29 -46l-179 76z" />
    <glyph glyph-name="uni1ECE" unicode="&#x1ece;" horiz-adv-x="624" 
d="M534.5 631.5q57.5 -68.5 57.5 -194.5q0 -106 -32.5 -209t-104.5 -171.5t-183 -68.5q-102 0 -160 68t-58 193q0 103 33 206.5t105 174t183 70.5q102 0 159.5 -68.5zM240 565q-50 -61 -71 -148.5t-21 -170.5q0 -183 128 -183q81 0 131 61.5t71 149t21 171.5q0 93 -32.5 137
t-96.5 44q-80 0 -130 -61zM367 847q35 5 53 16t18 36q0 14 -8.5 21.5t-23.5 7.5q-24 0 -52 -15l-17 52q20 11 39.5 16.5t43.5 5.5q42 0 66 -23.5t24 -61.5q0 -75 -84 -90l-6 -48h-63z" />
    <glyph glyph-name="Ohorn" unicode="&#x1a0;" horiz-adv-x="639" 
d="M562 588q30 -60 30 -151q0 -106 -32.5 -209t-104.5 -171.5t-183 -68.5q-102 0 -160 68t-58 193q0 103 33 206.5t105 174t183 70.5q97 0 154 -62q32 3 47 22.5t15 55.5q0 14 -5 44l65 11q8 -22 8 -57q0 -104 -97 -126zM407 124.5q50 61.5 71 149t21 171.5q0 93 -32.5 137
t-96.5 44q-80 0 -130 -61t-71 -148.5t-21 -170.5q0 -183 128 -183q81 0 131 61.5z" />
    <glyph glyph-name="uni1EDA" unicode="&#x1eda;" horiz-adv-x="639" 
d="M506 831l-201 -76l-21 46l189 103zM562 588q30 -60 30 -151q0 -106 -32.5 -209t-104.5 -171.5t-183 -68.5q-102 0 -160 68t-58 193q0 103 33 206.5t105 174t183 70.5q97 0 154 -62q32 3 47 22.5t15 55.5q0 14 -5 44l65 11q8 -22 8 -57q0 -104 -97 -126zM407 124.5
q50 61.5 71 149t21 171.5q0 93 -32.5 137t-96.5 44q-80 0 -130 -61t-71 -148.5t-21 -170.5q0 -183 128 -183q81 0 131 61.5z" />
    <glyph glyph-name="uni1EE2" unicode="&#x1ee2;" horiz-adv-x="639" 
d="M562 588q30 -60 30 -151q0 -106 -32.5 -209t-104.5 -171.5t-183 -68.5q-102 0 -160 68t-58 193q0 103 33 206.5t105 174t183 70.5q97 0 154 -62q32 3 47 22.5t15 55.5q0 14 -5 44l65 11q8 -22 8 -57q0 -104 -97 -126zM407 124.5q50 61.5 71 149t21 171.5q0 93 -32.5 137
t-96.5 44q-80 0 -130 -61t-71 -148.5t-21 -170.5q0 -183 128 -183q81 0 131 61.5zM296 -91q15 -15 15 -39q0 -29 -19 -47.5t-46 -18.5q-25 0 -40 15t-15 39q0 29 19 47.5t46 18.5q25 0 40 -15z" />
    <glyph glyph-name="uni1EDC" unicode="&#x1edc;" horiz-adv-x="639" 
d="M504 801l-29 -46l-179 76l42 72zM562 588q30 -60 30 -151q0 -106 -32.5 -209t-104.5 -171.5t-183 -68.5q-102 0 -160 68t-58 193q0 103 33 206.5t105 174t183 70.5q97 0 154 -62q32 3 47 22.5t15 55.5q0 14 -5 44l65 11q8 -22 8 -57q0 -104 -97 -126zM407 124.5
q50 61.5 71 149t21 171.5q0 93 -32.5 137t-96.5 44q-80 0 -130 -61t-71 -148.5t-21 -170.5q0 -183 128 -183q81 0 131 61.5z" />
    <glyph glyph-name="uni1EDE" unicode="&#x1ede;" horiz-adv-x="639" 
d="M354 913l-17 52q20 11 39.5 16.5t43.5 5.5q42 0 66 -23.5t24 -61.5q0 -75 -84 -90l-6 -48h-63l10 83q35 5 53 16t18 36q0 14 -8.5 21.5t-23.5 7.5q-24 0 -52 -15zM562 588q30 -60 30 -151q0 -106 -32.5 -209t-104.5 -171.5t-183 -68.5q-102 0 -160 68t-58 193
q0 103 33 206.5t105 174t183 70.5q97 0 154 -62q32 3 47 22.5t15 55.5q0 14 -5 44l65 11q8 -22 8 -57q0 -104 -97 -126zM407 124.5q50 61.5 71 149t21 171.5q0 93 -32.5 137t-96.5 44q-80 0 -130 -61t-71 -148.5t-21 -170.5q0 -183 128 -183q81 0 131 61.5z" />
    <glyph glyph-name="uni1EE0" unicode="&#x1ee0;" horiz-adv-x="639" 
d="M319.5 820q-12.5 -11 -28.5 -34l-47 28q49 84 105 84q19 0 32.5 -7t30.5 -21q11 -10 19 -15t18 -5q14 0 26.5 10.5t27.5 33.5l49 -28q-45 -83 -103 -83q-19 0 -33 7t-32 21q-12 10 -20.5 15t-17.5 5q-14 0 -26.5 -11zM562 588q30 -60 30 -151q0 -106 -32.5 -209
t-104.5 -171.5t-183 -68.5q-102 0 -160 68t-58 193q0 103 33 206.5t105 174t183 70.5q97 0 154 -62q32 3 47 22.5t15 55.5q0 14 -5 44l65 11q8 -22 8 -57q0 -104 -97 -126zM407 124.5q50 61.5 71 149t21 171.5q0 93 -32.5 137t-96.5 44q-80 0 -130 -61t-71 -148.5
t-21 -170.5q0 -183 128 -183q81 0 131 61.5z" />
    <glyph glyph-name="Ohungarumlaut" unicode="&#x150;" horiz-adv-x="624" 
d="M534.5 631.5q57.5 -68.5 57.5 -194.5q0 -106 -32.5 -209t-104.5 -171.5t-183 -68.5q-102 0 -160 68t-58 193q0 103 33 206.5t105 174t183 70.5q102 0 159.5 -68.5zM240 565q-50 -61 -71 -148.5t-21 -170.5q0 -183 128 -183q81 0 131 61.5t71 149t21 171.5q0 93 -32.5 137
t-96.5 44q-80 0 -130 -61zM518 956l66 -40l-116 -155l-50 24zM382 955l66 -39l-107 -150l-51 24z" />
    <glyph glyph-name="uni01A2" unicode="&#x1a2;" horiz-adv-x="832" 
d="M755 669q33 -33 33 -91q0 -9 -2 -29l-106 -751h-90l106 754q2 18 2 25q0 28 -13 41t-43 13q-45 0 -89 -28q39 -67 39 -166q0 -106 -32.5 -209t-104.5 -171.5t-183 -68.5q-102 0 -160 68t-58 193q0 103 33 206.5t105 174t183 70.5q82 0 138 -48q68 50 143 50q66 0 99 -33z
M407 124.5q50 61.5 71 149t21 171.5q0 93 -32.5 137t-96.5 44q-80 0 -130 -61t-71 -148.5t-21 -170.5q0 -183 128 -183q81 0 131 61.5z" />
    <glyph glyph-name="uni020E" unicode="&#x20e;" horiz-adv-x="624" 
d="M534.5 631.5q57.5 -68.5 57.5 -194.5q0 -106 -32.5 -209t-104.5 -171.5t-183 -68.5q-102 0 -160 68t-58 193q0 103 33 206.5t105 174t183 70.5q102 0 159.5 -68.5zM240 565q-50 -61 -71 -148.5t-21 -170.5q0 -183 128 -183q81 0 131 61.5t71 149t21 171.5q0 93 -32.5 137
t-96.5 44q-80 0 -130 -61zM253 792q16 61 57 94.5t96 33.5q56 0 88.5 -36t31.5 -97l-56 -8q-5 38 -21.5 56t-47.5 18q-63 0 -93 -78z" />
    <glyph glyph-name="Omacron" unicode="&#x14c;" horiz-adv-x="624" 
d="M534.5 631.5q57.5 -68.5 57.5 -194.5q0 -106 -32.5 -209t-104.5 -171.5t-183 -68.5q-102 0 -160 68t-58 193q0 103 33 206.5t105 174t183 70.5q102 0 159.5 -68.5zM240 565q-50 -61 -71 -148.5t-21 -170.5q0 -183 128 -183q81 0 131 61.5t71 149t21 171.5q0 93 -32.5 137
t-96.5 44q-80 0 -130 -61zM514 794h-244l9 66h245z" />
    <glyph glyph-name="uni1E52" unicode="&#x1e52;" horiz-adv-x="624" 
d="M534.5 631.5q57.5 -68.5 57.5 -194.5q0 -106 -32.5 -209t-104.5 -171.5t-183 -68.5q-102 0 -160 68t-58 193q0 103 33 206.5t105 174t183 70.5q102 0 159.5 -68.5zM240 565q-50 -61 -71 -148.5t-21 -170.5q0 -183 128 -183q81 0 131 61.5t71 149t21 171.5q0 93 -32.5 137
t-96.5 44q-80 0 -130 -61zM510 759h-244l9 66h245zM485 1022l33 -73l-201 -76l-21 46z" />
    <glyph glyph-name="uni1E50" unicode="&#x1e50;" horiz-adv-x="624" 
d="M534.5 631.5q57.5 -68.5 57.5 -194.5q0 -106 -32.5 -209t-104.5 -171.5t-183 -68.5q-102 0 -160 68t-58 193q0 103 33 206.5t105 174t183 70.5q102 0 159.5 -68.5zM240 565q-50 -61 -71 -148.5t-21 -170.5q0 -183 128 -183q81 0 131 61.5t71 149t21 171.5q0 93 -32.5 137
t-96.5 44q-80 0 -130 -61zM510 759h-244l9 66h245zM350 1021l166 -102l-29 -46l-179 76z" />
    <glyph glyph-name="uniA7B6" unicode="&#xa7b6;" horiz-adv-x="765" 
d="M96.5 37.5q-40.5 49.5 -40.5 155.5q0 118 36 250t96 246h87q-58 -112 -94.5 -251t-36.5 -250q0 -68 18.5 -96.5t58.5 -28.5t67 27t35 85l32 223h88l-32 -229q-2 -10 -2 -29q0 -78 70 -78q87 0 121.5 122t34.5 285q0 60 -6 111.5t-18 108.5h86q26 -102 26 -224
q0 -209 -55.5 -343t-186.5 -134q-57 0 -87.5 30t-35.5 84q-22 -56 -58.5 -85t-89.5 -29q-73 0 -113.5 49.5z" />
    <glyph glyph-name="uni01EA" unicode="&#x1ea;" horiz-adv-x="624" 
d="M251.5 -66.5q-25.5 -29.5 -25.5 -59.5q0 -17 11 -27t32 -10q20 0 55 7l-14 -67q-27 -6 -56 -6q-47 0 -74.5 25.5t-27.5 67.5q0 76 85 126q-86 11 -134.5 78.5t-48.5 180.5q0 103 33 206.5t105 174t183 70.5q102 0 159.5 -68.5t57.5 -194.5q0 -91 -24.5 -182.5t-79 -161.5
t-137.5 -94q-74 -36 -99.5 -65.5zM276 63q81 0 131 61.5t71 149t21 171.5q0 93 -32.5 137t-96.5 44q-80 0 -130 -61t-71 -148.5t-21 -170.5q0 -183 128 -183z" />
    <glyph glyph-name="uni01EC" unicode="&#x1ec;" horiz-adv-x="624" 
d="M524 860l-10 -66h-244l9 66h245zM251.5 -66.5q-25.5 -29.5 -25.5 -59.5q0 -17 11 -27t32 -10q20 0 55 7l-14 -67q-27 -6 -56 -6q-47 0 -74.5 25.5t-27.5 67.5q0 76 85 126q-86 11 -134.5 78.5t-48.5 180.5q0 103 33 206.5t105 174t183 70.5q102 0 159.5 -68.5
t57.5 -194.5q0 -91 -24.5 -182.5t-79 -161.5t-137.5 -94q-74 -36 -99.5 -65.5zM276 63q81 0 131 61.5t71 149t21 171.5q0 93 -32.5 137t-96.5 44q-80 0 -130 -61t-71 -148.5t-21 -170.5q0 -183 128 -183z" />
    <glyph glyph-name="uni0186" unicode="&#x186;" horiz-adv-x="509" 
d="M421.5 632.5q54.5 -67.5 54.5 -192.5q0 -121 -38 -224.5t-110 -165.5t-170 -62q-58 0 -98 21.5t-72 56.5l51 53q32 -27 57.5 -40.5t62.5 -13.5q73 0 124 55t75.5 141t24.5 179q0 186 -120 186q-36 0 -69 -12.5t-70 -38.5l-39 60q43 33 87 49t99 16q96 0 150.5 -67.5z" />
    <glyph glyph-name="Oslash" unicode="&#xd8;" horiz-adv-x="624" 
d="M566.5 576.5q25.5 -58.5 25.5 -139.5q0 -106 -32.5 -209t-104.5 -171.5t-183 -68.5q-29 0 -55 6l-48 -120l-71 20l53 129q-47 32 -72 89.5t-25 136.5q0 103 33 206.5t105 174t183 70.5q29 0 54 -6l50 124l71 -20l-55 -132q46 -31 71.5 -89.5zM240 564.5
q-50 -61.5 -71 -149t-21 -172.5q0 -109 44 -151l214 530q-15 4 -36 4q-80 0 -130 -61.5zM407.5 125q49.5 62 70.5 150t21 174q0 109 -45 149l-213 -531q15 -4 35 -4q82 0 131.5 62z" />
    <glyph glyph-name="Oslashacute" unicode="&#x1fe;" horiz-adv-x="624" 
d="M566.5 576.5q25.5 -58.5 25.5 -139.5q0 -106 -32.5 -209t-104.5 -171.5t-183 -68.5q-29 0 -55 6l-48 -120l-71 20l53 129q-47 32 -72 89.5t-25 136.5q0 103 33 206.5t105 174t183 70.5q29 0 54 -6l50 124l71 -20l-55 -132q46 -31 71.5 -89.5zM240 564.5
q-50 -61.5 -71 -149t-21 -172.5q0 -109 44 -151l214 530q-15 4 -36 4q-80 0 -130 -61.5zM407.5 125q49.5 62 70.5 150t21 174q0 109 -45 149l-213 -531q15 -4 35 -4q82 0 131.5 62zM467 918l33 -73l-201 -76l-21 46z" />
    <glyph glyph-name="Otilde" unicode="&#xd5;" horiz-adv-x="624" 
d="M534.5 631.5q57.5 -68.5 57.5 -194.5q0 -106 -32.5 -209t-104.5 -171.5t-183 -68.5q-102 0 -160 68t-58 193q0 103 33 206.5t105 174t183 70.5q102 0 159.5 -68.5zM240 565q-50 -61 -71 -148.5t-21 -170.5q0 -183 128 -183q81 0 131 61.5t71 149t21 171.5q0 93 -32.5 137
t-96.5 44q-80 0 -130 -61zM416 790q-14 7 -32 21q-12 10 -20.5 15t-17.5 5q-15 0 -27 -11t-28 -34l-47 28q49 84 105 84q19 0 32.5 -7t30.5 -21q11 -10 19 -15t18 -5q14 0 26.5 10.5t27.5 33.5l49 -28q-45 -83 -103 -83q-19 0 -33 7z" />
    <glyph glyph-name="uni1E4C" unicode="&#x1e4c;" horiz-adv-x="624" 
d="M534.5 631.5q57.5 -68.5 57.5 -194.5q0 -106 -32.5 -209t-104.5 -171.5t-183 -68.5q-102 0 -160 68t-58 193q0 103 33 206.5t105 174t183 70.5q102 0 159.5 -68.5zM240 565q-50 -61 -71 -148.5t-21 -170.5q0 -183 128 -183q81 0 131 61.5t71 149t21 171.5q0 93 -32.5 137
t-96.5 44q-80 0 -130 -61zM416 765q-14 7 -32 21q-12 10 -20.5 15t-17.5 5q-14 0 -26.5 -11t-28.5 -34l-47 28q49 84 105 84q19 0 32.5 -7t30.5 -21q11 -10 19 -15t18 -5q14 0 26.5 10.5t27.5 33.5l49 -28q-45 -83 -103 -83q-19 0 -33 7zM491 1050l33 -73l-201 -76l-21 46z
" />
    <glyph glyph-name="uni022C" unicode="&#x22c;" horiz-adv-x="624" 
d="M525 911h-244l9 66h245zM409 765q-14 7 -32 21q-12 10 -20.5 15t-17.5 5q-15 0 -27 -11t-28 -34l-47 28q49 84 105 84q19 0 32.5 -7t30.5 -21q11 -10 19 -15t18 -5q14 0 26.5 10.5t27.5 33.5l49 -28q-45 -83 -103 -83q-19 0 -33 7zM534.5 631.5q57.5 -68.5 57.5 -194.5
q0 -106 -32.5 -209t-104.5 -171.5t-183 -68.5q-102 0 -160 68t-58 193q0 103 33 206.5t105 174t183 70.5q102 0 159.5 -68.5zM240 565q-50 -61 -71 -148.5t-21 -170.5q0 -183 128 -183q81 0 131 61.5t71 149t21 171.5q0 93 -32.5 137t-96.5 44q-80 0 -130 -61z" />
    <glyph glyph-name="OE" unicode="&#x152;" horiz-adv-x="800" 
d="M788 616h-270q54 -63 54 -181q0 -16 -2 -48h155l-10 -73h-154q-14 -71 -43.5 -133.5t-75.5 -107.5h287l-11 -73h-385q-33 -12 -71 -12q-95 0 -151.5 68.5t-56.5 191.5q0 102 32.5 206.5t101 175t171.5 70.5q36 0 66 -11h383zM391 125q47 62 67.5 151t20.5 173
q0 177 -120 177q-75 0 -122 -62t-68 -150.5t-21 -170.5q0 -93 32 -136.5t88 -43.5q76 0 123 62z" />
    <glyph glyph-name="P" unicode="P" horiz-adv-x="513" 
d="M465.5 643q55.5 -46 55.5 -135q0 -67 -27.5 -124t-89 -93t-158.5 -36h-70l-36 -255h-90l97 689h160q103 0 158.5 -46zM387.5 379q39.5 52 39.5 130q0 58 -32.5 83t-97.5 25h-70l-41 -290h64q98 0 137.5 52z" />
    <glyph glyph-name="uni1E54" unicode="&#x1e54;" horiz-adv-x="513" 
d="M465.5 643q55.5 -46 55.5 -135q0 -67 -27.5 -124t-89 -93t-158.5 -36h-70l-36 -255h-90l97 689h160q103 0 158.5 -46zM387.5 379q39.5 52 39.5 130q0 58 -32.5 83t-97.5 25h-70l-41 -290h64q98 0 137.5 52zM417 904l33 -73l-201 -76l-21 46z" />
    <glyph glyph-name="uni1E56" unicode="&#x1e56;" horiz-adv-x="513" 
d="M465.5 643q55.5 -46 55.5 -135q0 -67 -27.5 -124t-89 -93t-158.5 -36h-70l-36 -255h-90l97 689h160q103 0 158.5 -46zM387.5 379q39.5 52 39.5 130q0 58 -32.5 83t-97.5 25h-70l-41 -290h64q98 0 137.5 52zM299 798q-15 15 -15 39q0 29 19 47.5t46 18.5q25 0 40 -15
t15 -39q0 -29 -19 -47.5t-46 -18.5q-25 0 -40 15z" />
    <glyph glyph-name="uni01A4" unicode="&#x1a4;" horiz-adv-x="591" 
d="M543.5 643q55.5 -46 55.5 -135q0 -67 -27.5 -124t-89 -93t-158.5 -36h-70l-36 -255h-90l87 617h-25q-59 0 -59 -67q0 -26 11 -59l-66 -28q-25 46 -25 91q0 61 38 98t108 37h188q103 0 158.5 -46zM465.5 379q39.5 52 39.5 130q0 58 -32.5 83t-97.5 25h-70l-41 -290h64
q98 0 137.5 52z" />
    <glyph glyph-name="Thorn" unicode="&#xde;" horiz-adv-x="516" 
d="M451.5 522.5q55.5 -46.5 55.5 -137.5q0 -67 -27 -125t-88.5 -95t-159.5 -37h-74l-18 -128h-90l97 689h90l-17 -120h74q102 0 157.5 -46.5zM373 253q40 53 40 133q0 60 -32 86t-97 26h-74l-42 -298h68q97 0 137 53z" />
    <glyph glyph-name="Q" unicode="Q" horiz-adv-x="623" 
d="M572.5 276q-19.5 -80 -63 -145t-111.5 -96q92 -4 161 -66l-70 -71q-42 52 -87.5 71t-129.5 19q-102 0 -160 68t-58 193q0 103 33 206.5t105 174t183 70.5q102 0 159.5 -68.5t57.5 -194.5q0 -81 -19.5 -161zM181.5 106.5q33.5 -43.5 94.5 -43.5q82 0 131.5 62t70.5 150
t21 174q0 177 -129 177q-80 0 -130 -61.5t-71 -149t-21 -172.5q0 -93 33.5 -136.5z" />
    <glyph glyph-name="uni024A" unicode="&#x24a;" horiz-adv-x="609" 
d="M611 -176q-49 -36 -108 -36q-58 0 -90 31t-32 89q0 8 2 30l9 62l7 51q-58 -63 -138 -63q-60 0 -106.5 30t-73 88.5t-26.5 142.5q0 120 37.5 223.5t105.5 165.5t155 62q78 0 130 -67l17 56h78l-96 -689l-10 -73q-1 -7 -1 -18q0 -48 43 -48q20 0 34 5t33 16zM345.5 81
q32.5 18 65.5 55l59 423q-23 34 -49.5 50.5t-63.5 16.5q-65 0 -112.5 -54t-72 -141t-24.5 -184q0 -96 34.5 -140t91.5 -44q39 0 71.5 18z" />
    <glyph glyph-name="R" unicode="R" horiz-adv-x="542" 
d="M479.5 396q-38.5 -58 -116.5 -86l121 -310h-97l-109 293h-97l-41 -293h-90l97 689h159q105 0 158.5 -43t53.5 -123q0 -69 -38.5 -127zM268 364q84 0 120.5 46t36.5 110q0 51 -29 74t-93 23h-76l-36 -253h77z" />
    <glyph glyph-name="Racute" unicode="&#x154;" horiz-adv-x="542" 
d="M479.5 396q-38.5 -58 -116.5 -86l121 -310h-97l-109 293h-97l-41 -293h-90l97 689h159q105 0 158.5 -43t53.5 -123q0 -69 -38.5 -127zM268 364q84 0 120.5 46t36.5 110q0 51 -29 74t-93 23h-76l-36 -253h77zM418 904l33 -73l-201 -76l-21 46z" />
    <glyph glyph-name="Rcaron" unicode="&#x158;" horiz-adv-x="542" 
d="M479.5 396q-38.5 -58 -116.5 -86l121 -310h-97l-109 293h-97l-41 -293h-90l97 689h159q105 0 158.5 -43t53.5 -123q0 -69 -38.5 -127zM268 364q84 0 120.5 46t36.5 110q0 51 -29 74t-93 23h-76l-36 -253h77zM461 907l35 -42l-137 -111h-56l-106 114l38 39l103 -81z" />
    <glyph glyph-name="Rcommaaccent" unicode="&#x156;" horiz-adv-x="542" 
d="M479.5 396q-38.5 -58 -116.5 -86l121 -310h-97l-109 293h-97l-41 -293h-90l97 689h159q105 0 158.5 -43t53.5 -123q0 -69 -38.5 -127zM268 364q84 0 120.5 46t36.5 110q0 51 -29 74t-93 23h-76l-36 -253h77zM272 -93q13 -15 13 -34q0 -17 -7 -34t-27 -51l-49 -82h-49
l44 118q-8 7 -13 17.5t-5 22.5q0 25 16.5 41.5t40.5 16.5q23 0 36 -15z" />
    <glyph glyph-name="uni0210" unicode="&#x210;" horiz-adv-x="542" 
d="M479.5 396q-38.5 -58 -116.5 -86l121 -310h-97l-109 293h-97l-41 -293h-90l97 689h159q105 0 158.5 -43t53.5 -123q0 -69 -38.5 -127zM268 364q84 0 120.5 46t36.5 110q0 51 -29 74t-93 23h-76l-36 -253h77zM246 956l55 -173l-57 -22l-76 159zM382 955l47 -167l-57 -22
l-69 154z" />
    <glyph glyph-name="uni1E5A" unicode="&#x1e5a;" horiz-adv-x="542" 
d="M479.5 396q-38.5 -58 -116.5 -86l121 -310h-97l-109 293h-97l-41 -293h-90l97 689h159q105 0 158.5 -43t53.5 -123q0 -69 -38.5 -127zM268 364q84 0 120.5 46t36.5 110q0 51 -29 74t-93 23h-76l-36 -253h77zM275 -91q15 -15 15 -39q0 -29 -19 -47.5t-46 -18.5
q-25 0 -40 15t-15 39q0 29 19 47.5t46 18.5q25 0 40 -15z" />
    <glyph glyph-name="uni0212" unicode="&#x212;" horiz-adv-x="542" 
d="M479.5 396q-38.5 -58 -116.5 -86l121 -310h-97l-109 293h-97l-41 -293h-90l97 689h159q105 0 158.5 -43t53.5 -123q0 -69 -38.5 -127zM268 364q84 0 120.5 46t36.5 110q0 51 -29 74t-93 23h-76l-36 -253h77zM198 792q16 61 57 94.5t96 33.5q56 0 88.5 -36t31.5 -97
l-56 -8q-5 38 -21.5 56t-47.5 18q-63 0 -93 -78z" />
    <glyph glyph-name="uni024C" unicode="&#x24c;" horiz-adv-x="553" 
d="M490.5 396q-38.5 -58 -116.5 -86l121 -310h-97l-109 293h-97l-41 -293h-90l41 294h-80l10 70h80l46 325h159q105 0 158.5 -43t53.5 -123q0 -69 -38.5 -127zM399.5 410q36.5 46 36.5 110q0 51 -29 74t-93 23h-76l-36 -253h77q84 0 120.5 46z" />
    <glyph glyph-name="uni2C64" unicode="&#x2c64;" horiz-adv-x="542" 
d="M479.5 396q-38.5 -58 -116.5 -86l121 -310h-97l-109 293h-97l-41 -293l-10 -73q-1 -7 -1 -18q0 -48 43 -48q20 0 34 5t33 16l30 -58q-49 -36 -108 -36q-58 0 -90 31t-32 89q0 8 2 30l9 62l97 689h159q105 0 158.5 -43t53.5 -123q0 -69 -38.5 -127zM268 364q84 0 120.5 46
t36.5 110q0 51 -29 74t-93 23h-76l-36 -253h77z" />
    <glyph glyph-name="S" unicode="S" horiz-adv-x="489" 
d="M408.5 679q44.5 -21 80.5 -61l-55 -51q-30 31 -61 45t-68 14q-56 0 -92.5 -33t-36.5 -86q0 -39 23.5 -62t87.5 -49q78 -31 117.5 -71t39.5 -113q0 -59 -29.5 -110t-86 -82.5t-134.5 -31.5q-124 0 -203 92l57 51q31 -34 66 -51t82 -17q70 0 112.5 39.5t42.5 105.5
q0 44 -24.5 69.5t-89.5 52.5q-82 34 -117.5 71.5t-35.5 101.5q0 49 27 94.5t78 74t117 28.5q58 0 102.5 -21z" />
    <glyph glyph-name="Sacute" unicode="&#x15a;" horiz-adv-x="489" 
d="M408.5 679q44.5 -21 80.5 -61l-55 -51q-30 31 -61 45t-68 14q-56 0 -92.5 -33t-36.5 -86q0 -39 23.5 -62t87.5 -49q78 -31 117.5 -71t39.5 -113q0 -59 -29.5 -110t-86 -82.5t-134.5 -31.5q-124 0 -203 92l57 51q31 -34 66 -51t82 -17q70 0 112.5 39.5t42.5 105.5
q0 44 -24.5 69.5t-89.5 52.5q-82 34 -117.5 71.5t-35.5 101.5q0 49 27 94.5t78 74t117 28.5q58 0 102.5 -21zM405 904l33 -73l-201 -76l-21 46z" />
    <glyph glyph-name="uniA78B" unicode="&#xa78b;" horiz-adv-x="204" 
d="M80 348l35 341h94l-63 -341h-66z" />
    <glyph glyph-name="Scaron" unicode="&#x160;" horiz-adv-x="489" 
d="M408.5 679q44.5 -21 80.5 -61l-55 -51q-30 31 -61 45t-68 14q-56 0 -92.5 -33t-36.5 -86q0 -39 23.5 -62t87.5 -49q78 -31 117.5 -71t39.5 -113q0 -59 -29.5 -110t-86 -82.5t-134.5 -31.5q-124 0 -203 92l57 51q31 -34 66 -51t82 -17q70 0 112.5 39.5t42.5 105.5
q0 44 -24.5 69.5t-89.5 52.5q-82 34 -117.5 71.5t-35.5 101.5q0 49 27 94.5t78 74t117 28.5q58 0 102.5 -21zM448 907l35 -42l-137 -111h-56l-106 114l38 39l103 -81z" />
    <glyph glyph-name="Scedilla" unicode="&#x15e;" horiz-adv-x="489" 
d="M404.5 325q39.5 -40 39.5 -113q0 -53 -24 -101t-71.5 -80.5t-113.5 -40.5l-8 -49q37 -4 55.5 -24t18.5 -52q0 -43 -32 -73.5t-89 -30.5q-52 0 -83 26l29 46q14 -7 26 -11t28 -4q22 0 36.5 12t14.5 32q0 22 -15.5 30.5t-58.5 8.5l21 87q-115 7 -187 92l57 51
q31 -34 66 -51t82 -17q70 0 112.5 39.5t42.5 105.5q0 44 -24.5 69.5t-89.5 52.5q-82 34 -117.5 71.5t-35.5 101.5q0 49 27 94.5t78 74t117 28.5q58 0 102.5 -21t80.5 -61l-55 -51q-30 31 -61 45t-68 14q-56 0 -92.5 -33t-36.5 -86q0 -39 23.5 -62t87.5 -49q78 -31 117.5 -71
z" />
    <glyph glyph-name="Scircumflex" unicode="&#x15c;" horiz-adv-x="489" 
d="M408.5 679q44.5 -21 80.5 -61l-55 -51q-30 31 -61 45t-68 14q-56 0 -92.5 -33t-36.5 -86q0 -39 23.5 -62t87.5 -49q78 -31 117.5 -71t39.5 -113q0 -59 -29.5 -110t-86 -82.5t-134.5 -31.5q-124 0 -203 92l57 51q31 -34 66 -51t82 -17q70 0 112.5 39.5t42.5 105.5
q0 44 -24.5 69.5t-89.5 52.5q-82 34 -117.5 71.5t-35.5 101.5q0 49 27 94.5t78 74t117 28.5q58 0 102.5 -21zM205 759l-36 42l138 111h56l106 -114l-38 -39l-103 81z" />
    <glyph glyph-name="Scommaaccent" unicode="&#x218;" horiz-adv-x="489" 
d="M408.5 679q44.5 -21 80.5 -61l-55 -51q-30 31 -61 45t-68 14q-56 0 -92.5 -33t-36.5 -86q0 -39 23.5 -62t87.5 -49q78 -31 117.5 -71t39.5 -113q0 -59 -29.5 -110t-86 -82.5t-134.5 -31.5q-124 0 -203 92l57 51q31 -34 66 -51t82 -17q70 0 112.5 39.5t42.5 105.5
q0 44 -24.5 69.5t-89.5 52.5q-82 34 -117.5 71.5t-35.5 101.5q0 49 27 94.5t78 74t117 28.5q58 0 102.5 -21zM232 -93q13 -15 13 -34q0 -17 -7 -34t-27 -51l-49 -82h-49l44 118q-8 7 -13 17.5t-5 22.5q0 25 16.5 41.5t40.5 16.5q23 0 36 -15z" />
    <glyph glyph-name="uni1E60" unicode="&#x1e60;" horiz-adv-x="489" 
d="M408.5 679q44.5 -21 80.5 -61l-55 -51q-30 31 -61 45t-68 14q-56 0 -92.5 -33t-36.5 -86q0 -39 23.5 -62t87.5 -49q78 -31 117.5 -71t39.5 -113q0 -59 -29.5 -110t-86 -82.5t-134.5 -31.5q-124 0 -203 92l57 51q31 -34 66 -51t82 -17q70 0 112.5 39.5t42.5 105.5
q0 44 -24.5 69.5t-89.5 52.5q-82 34 -117.5 71.5t-35.5 101.5q0 49 27 94.5t78 74t117 28.5q58 0 102.5 -21zM287 798q-15 15 -15 39q0 29 19 47.5t46 18.5q25 0 40 -15t15 -39q0 -29 -19 -47.5t-46 -18.5q-25 0 -40 15z" />
    <glyph glyph-name="uni1E62" unicode="&#x1e62;" horiz-adv-x="489" 
d="M408.5 679q44.5 -21 80.5 -61l-55 -51q-30 31 -61 45t-68 14q-56 0 -92.5 -33t-36.5 -86q0 -39 23.5 -62t87.5 -49q78 -31 117.5 -71t39.5 -113q0 -59 -29.5 -110t-86 -82.5t-134.5 -31.5q-124 0 -203 92l57 51q31 -34 66 -51t82 -17q70 0 112.5 39.5t42.5 105.5
q0 44 -24.5 69.5t-89.5 52.5q-82 34 -117.5 71.5t-35.5 101.5q0 49 27 94.5t78 74t117 28.5q58 0 102.5 -21zM235 -91q15 -15 15 -39q0 -29 -19 -47.5t-46 -18.5q-25 0 -40 15t-15 39q0 29 19 47.5t46 18.5q25 0 40 -15z" />
    <glyph glyph-name="uni1E9E" unicode="&#x1e9e;" horiz-adv-x="589" 
d="M456 681.5q57 -18.5 106 -48.5l-5 -61l-187 -187q83 -10 127 -52t44 -113q0 -69 -29.5 -121.5t-82 -81.5t-118.5 -29t-104 24l34 63q27 -12 68 -12q64 0 101 43.5t37 111.5q0 57 -41 82.5t-124 26.5l8 72l189 198q-67 29 -140 29q-112 0 -130 -129l-69 -497h-90l71 503
q13 96 69.5 146.5t149.5 50.5q59 0 116 -18.5z" />
    <glyph glyph-name="uni018F" unicode="&#x18f;" horiz-adv-x="583" 
d="M498.5 641q54.5 -59 54.5 -179q0 -123 -34.5 -231.5t-105 -175.5t-172.5 -67q-96 0 -147.5 63t-51.5 178q0 75 18 158h397q5 39 5 80q0 86 -31.5 122.5t-92.5 36.5q-46 0 -87.5 -17.5t-82.5 -48.5l-40 58q52 42 104.5 62t113.5 20q98 0 152.5 -59zM367 118q51 57 78 191
h-313q-6 -45 -6 -84q0 -84 29.5 -124t87.5 -40q73 0 124 57z" />
    <glyph glyph-name="T" unicode="T" horiz-adv-x="463" 
d="M515 689l-21 -78h-169l-86 -611h-90l86 611h-174l11 78h443z" />
    <glyph glyph-name="Tbar" unicode="&#x166;" horiz-adv-x="463" 
d="M494 611h-169l-31 -222h108l-9 -68h-109l-45 -321h-90l45 321h-108l9 68h109l31 222h-174l11 78h443z" />
    <glyph glyph-name="Tcaron" unicode="&#x164;" horiz-adv-x="463" 
d="M515 689l-21 -78h-169l-86 -611h-90l86 611h-174l11 78h443zM430 907l35 -42l-137 -111h-56l-106 114l38 39l103 -81z" />
    <glyph glyph-name="uni0162" unicode="&#x162;" horiz-adv-x="463" 
d="M515 689l-21 -78h-169l-86 -611l-9 -57q37 -4 55 -24t18 -50q0 -44 -31 -76t-91 -32q-52 0 -81 26l29 47q25 -16 51 -16q21 0 37 12t17 32q1 22 -15 30.5t-59 8.5l23 99h-34l86 611h-174l11 78h443z" />
    <glyph glyph-name="uni1E70" unicode="&#x1e70;" horiz-adv-x="463" 
d="M515 689l-21 -78h-169l-86 -611h-90l86 611h-174l11 78h443zM56 -222l-36 41l138 113h56l106 -115l-41 -39l-100 82z" />
    <glyph glyph-name="uni021A" unicode="&#x21a;" horiz-adv-x="463" 
d="M515 689l-21 -78h-169l-86 -611h-90l86 611h-174l11 78h443zM218 -93q13 -15 13 -34q0 -17 -7 -34t-27 -51l-49 -82h-49l44 118q-8 7 -13 17.5t-5 22.5q0 25 16.5 41.5t40.5 16.5q23 0 36 -15z" />
    <glyph glyph-name="uni023E" unicode="&#x23e;" horiz-adv-x="463" 
d="M494 611h-86l-119 -253l-50 -358h-89l12 86l-73 -156l-36 16l127 272l55 393h-174l11 78h329l28 60l36 -16l-21 -44h71zM308 491l56 120h-39z" />
    <glyph glyph-name="uni1E6A" unicode="&#x1e6a;" horiz-adv-x="463" 
d="M515 689l-21 -78h-169l-86 -611h-90l86 611h-174l11 78h443zM269 798q-15 15 -15 39q0 29 19 47.5t46 18.5q25 0 40 -15t15 -39q0 -29 -19 -47.5t-46 -18.5q-25 0 -40 15z" />
    <glyph glyph-name="uni1E6C" unicode="&#x1e6c;" horiz-adv-x="463" 
d="M515 689l-21 -78h-169l-86 -611h-90l86 611h-174l11 78h443zM221 -91q15 -15 15 -39q0 -29 -19 -47.5t-46 -18.5q-25 0 -40 15t-15 39q0 29 19 47.5t46 18.5q25 0 40 -15z" />
    <glyph glyph-name="uni01AC" unicode="&#x1ac;" horiz-adv-x="499" 
d="M530 611h-170l-86 -611h-89l85 611h-80q-29 0 -44 -16t-15 -45q0 -26 11 -59l-66 -28q-25 46 -25 91q0 61 38 98t108 37h353z" />
    <glyph glyph-name="uni1E6E" unicode="&#x1e6e;" horiz-adv-x="463" 
d="M515 689l-21 -78h-169l-86 -611h-90l86 611h-174l11 78h443zM64 -105h244l-9 -66h-245z" />
    <glyph glyph-name="uni01BC" unicode="&#x1bc;" horiz-adv-x="463" 
d="M-3 75l57 47q23 -32 52 -47t67 -15q56 0 91.5 32.5t51 80t15.5 95.5q0 99 -86 99q-25 0 -48.5 -6t-52.5 -18h-70l49 346h334l-21 -70h-240l-29 -212q50 28 107 28q69 0 107.5 -44t38.5 -124q0 -66 -25.5 -130t-82 -106.5t-144.5 -42.5q-109 0 -171 87z" />
    <glyph glyph-name="uni0184" unicode="&#x184;" horiz-adv-x="516" 
d="M436 386q57 -48 57 -139q0 -65 -27 -121t-87 -91t-156 -35h-170l74 527l-55 41q48 45 90 121h78l-36 -255h72q103 0 160 -48zM360.5 122.5q36.5 49.5 36.5 123.5q0 62 -30.5 89.5t-91.5 27.5h-81l-41 -290h82q89 0 125.5 49.5z" />
    <glyph glyph-name="uni01A7" unicode="&#x1a7;" horiz-adv-x="477" 
d="M441.5 660.5q46.5 -39.5 46.5 -109.5q0 -88 -51.5 -137.5t-162.5 -87.5q-62 -21 -96 -43.5t-48 -52t-14 -73.5q0 -46 28 -70t75 -24q85 0 170 68l44 -56q-93 -87 -221 -87q-86 0 -137.5 46.5t-51.5 120.5q0 92 53 149t161 92q58 19 91.5 37.5t50.5 45.5t17 69
q0 78 -86 78q-42 0 -78 -14t-77 -45l-41 56q49 39 97 58t107 19q77 0 123.5 -39.5z" />
    <glyph glyph-name="uni01AE" unicode="&#x1ae;" horiz-adv-x="463" 
d="M229 -73q-1 -7 -1 -18q0 -48 43 -48q20 0 34 5t33 16l30 -58q-49 -36 -108 -36q-58 0 -90 31t-32 89q0 8 2 30l9 62l86 611h-174l11 78h443l-21 -78h-169l-86 -611z" />
    <glyph glyph-name="U" unicode="U" horiz-adv-x="588" 
d="M502 197q-13 -92 -78 -150.5t-167 -58.5q-92 0 -141.5 50.5t-49.5 130.5q0 23 2 35l69 485h90l-68 -487q-2 -12 -2 -33q0 -104 106 -104q65 0 103 38t47 105l67 481h90z" />
    <glyph glyph-name="Uacute" unicode="&#xda;" horiz-adv-x="588" 
d="M502 197q-13 -92 -78 -150.5t-167 -58.5q-92 0 -141.5 50.5t-49.5 130.5q0 23 2 35l69 485h90l-68 -487q-2 -12 -2 -33q0 -104 106 -104q65 0 103 38t47 105l67 481h90zM449 904l33 -73l-201 -76l-21 46z" />
    <glyph glyph-name="uni0244" unicode="&#x244;" horiz-adv-x="611" 
d="M616 509h-59l-43 -312q-13 -92 -78 -150.5t-167 -58.5q-92 0 -141.5 50.5t-49.5 130.5q0 23 2 35l43 305h-59l9 66h60l16 114h90l-16 -114h253l16 114h90l-16 -114h60zM467 509h-253l-43 -307q-2 -12 -2 -33q0 -104 106 -104q65 0 103 38t47 105z" />
    <glyph glyph-name="Ubreve" unicode="&#x16c;" horiz-adv-x="588" 
d="M502 197q-13 -92 -78 -150.5t-167 -58.5q-92 0 -141.5 50.5t-49.5 130.5q0 23 2 35l69 485h90l-68 -487q-2 -12 -2 -33q0 -104 106 -104q65 0 103 38t47 105l67 481h90zM272.5 793q-32.5 34 -30.5 89l54 8q6 -31 22 -47.5t46 -16.5q32 0 55.5 18t37.5 50l55 -18
q-13 -54 -54 -85.5t-96 -31.5q-57 0 -89.5 34z" />
    <glyph glyph-name="uni01D3" unicode="&#x1d3;" horiz-adv-x="588" 
d="M502 197q-13 -92 -78 -150.5t-167 -58.5q-92 0 -141.5 50.5t-49.5 130.5q0 23 2 35l69 485h90l-68 -487q-2 -12 -2 -33q0 -104 106 -104q65 0 103 38t47 105l67 481h90zM492 907l35 -42l-137 -111h-56l-106 114l38 39l103 -81z" />
    <glyph glyph-name="Ucircumflex" unicode="&#xdb;" horiz-adv-x="588" 
d="M502 197q-13 -92 -78 -150.5t-167 -58.5q-92 0 -141.5 50.5t-49.5 130.5q0 23 2 35l69 485h90l-68 -487q-2 -12 -2 -33q0 -104 106 -104q65 0 103 38t47 105l67 481h90zM249 759l-36 42l138 111h56l106 -114l-38 -39l-103 81z" />
    <glyph glyph-name="uni0214" unicode="&#x214;" horiz-adv-x="588" 
d="M502 197q-13 -92 -78 -150.5t-167 -58.5q-92 0 -141.5 50.5t-49.5 130.5q0 23 2 35l69 485h90l-68 -487q-2 -12 -2 -33q0 -104 106 -104q65 0 103 38t47 105l67 481h90zM277 956l55 -173l-57 -22l-76 159zM413 955l47 -167l-57 -22l-69 154z" />
    <glyph glyph-name="Udieresis" unicode="&#xdc;" horiz-adv-x="588" 
d="M502 197q-13 -92 -78 -150.5t-167 -58.5q-92 0 -141.5 50.5t-49.5 130.5q0 23 2 35l69 485h90l-68 -487q-2 -12 -2 -33q0 -104 106 -104q65 0 103 38t47 105l67 481h90zM240.5 795.5q-13.5 13.5 -13.5 34.5q0 26 17.5 43t42.5 17q21 0 34.5 -14t13.5 -34q0 -27 -17 -43.5
t-42 -16.5q-22 0 -35.5 13.5zM428.5 795.5q-13.5 13.5 -13.5 34.5q0 26 17.5 43t42.5 17q21 0 34.5 -14t13.5 -34q0 -26 -17 -43t-42 -17q-22 0 -35.5 13.5z" />
    <glyph glyph-name="uni01D7" unicode="&#x1d7;" horiz-adv-x="588" 
d="M502 197q-13 -92 -78 -150.5t-167 -58.5q-92 0 -141.5 50.5t-49.5 130.5q0 23 2 35l69 485h90l-68 -487q-2 -12 -2 -33q0 -104 106 -104q65 0 103 38t47 105l67 481h90zM463 1010l48 -49l-140 -129l-34 31zM232 761q-14 14 -14 34q0 27 17.5 44t42.5 17q21 0 34.5 -14
t13.5 -34q0 -27 -17 -44t-42 -17q-21 0 -35 14zM420 761q-14 14 -14 34q0 27 17.5 44t42.5 17q21 0 34.5 -14t13.5 -34q0 -27 -17 -44t-42 -17q-21 0 -35 14z" />
    <glyph glyph-name="uni01D9" unicode="&#x1d9;" horiz-adv-x="588" 
d="M502 197q-13 -92 -78 -150.5t-167 -58.5q-92 0 -141.5 50.5t-49.5 130.5q0 23 2 35l69 485h90l-68 -487q-2 -12 -2 -33q0 -104 106 -104q65 0 103 38t47 105l67 481h90zM500 1014l35 -42l-137 -111h-56l-106 114l38 39l103 -81zM232 761q-14 14 -14 34q0 27 17.5 44
t41.5 17q22 0 35.5 -13.5t13.5 -34.5q0 -27 -17 -44t-42 -17q-21 0 -35 14zM420 761q-14 14 -14 34q0 27 17.5 44t41.5 17q22 0 35.5 -13.5t13.5 -34.5q0 -27 -17 -44t-42 -17q-21 0 -35 14z" />
    <glyph glyph-name="uni01DB" unicode="&#x1db;" horiz-adv-x="588" 
d="M502 197q-13 -92 -78 -150.5t-167 -58.5q-92 0 -141.5 50.5t-49.5 130.5q0 23 2 35l69 485h90l-68 -487q-2 -12 -2 -33q0 -104 106 -104q65 0 103 38t47 105l67 481h90zM319 1008l86 -148l-38 -28l-106 131zM231 761q-14 14 -14 34q0 26 17.5 43.5t42.5 17.5
q21 0 34.5 -14t13.5 -34q0 -27 -17 -44t-42 -17q-21 0 -35 14zM419 761q-14 14 -14 34q0 26 17.5 43.5t42.5 17.5q21 0 34.5 -13.5t13.5 -34.5q0 -27 -17 -44t-42 -17q-21 0 -35 14z" />
    <glyph glyph-name="uni01D5" unicode="&#x1d5;" horiz-adv-x="588" 
d="M502 197q-13 -92 -78 -150.5t-167 -58.5q-92 0 -141.5 50.5t-49.5 130.5q0 23 2 35l69 485h90l-68 -487q-2 -12 -2 -33q0 -104 106 -104q65 0 103 38t47 105l67 481h90zM227.5 760.5q-13.5 13.5 -13.5 34.5q0 26 17.5 43t42.5 17q21 0 34.5 -14t13.5 -34q0 -27 -17 -43.5
t-42 -16.5q-22 0 -35.5 13.5zM415.5 760.5q-13.5 13.5 -13.5 34.5q0 26 17.5 43t42.5 17q21 0 34.5 -14t13.5 -34q0 -26 -17 -43t-42 -17q-22 0 -35.5 13.5zM496 902h-244l9 66h245z" />
    <glyph glyph-name="uni1EE4" unicode="&#x1ee4;" horiz-adv-x="588" 
d="M502 197q-13 -92 -78 -150.5t-167 -58.5q-92 0 -141.5 50.5t-49.5 130.5q0 23 2 35l69 485h90l-68 -487q-2 -12 -2 -33q0 -104 106 -104q65 0 103 38t47 105l67 481h90zM282 -91q15 -15 15 -39q0 -29 -19 -47.5t-46 -18.5q-25 0 -40 15t-15 39q0 29 19 47.5t46 18.5
q25 0 40 -15z" />
    <glyph glyph-name="Ugrave" unicode="&#xd9;" horiz-adv-x="588" 
d="M502 197q-13 -92 -78 -150.5t-167 -58.5q-92 0 -141.5 50.5t-49.5 130.5q0 23 2 35l69 485h90l-68 -487q-2 -12 -2 -33q0 -104 106 -104q65 0 103 38t47 105l67 481h90zM314 903l166 -102l-29 -46l-179 76z" />
    <glyph glyph-name="uni1EE6" unicode="&#x1ee6;" horiz-adv-x="588" 
d="M502 197q-13 -92 -78 -150.5t-167 -58.5q-92 0 -141.5 50.5t-49.5 130.5q0 23 2 35l69 485h90l-68 -487q-2 -12 -2 -33q0 -104 106 -104q65 0 103 38t47 105l67 481h90zM343 847q35 5 53 16t18 36q0 14 -8.5 21.5t-23.5 7.5q-24 0 -52 -15l-17 52q20 11 39.5 16.5
t43.5 5.5q42 0 66 -23.5t24 -61.5q0 -75 -84 -90l-6 -48h-63z" />
    <glyph glyph-name="Uhorn" unicode="&#x1af;" horiz-adv-x="606" 
d="M556 584l-54 -387q-13 -92 -78 -150.5t-167 -58.5q-92 0 -141.5 50.5t-49.5 130.5q0 23 2 35l69 485h90l-68 -487q-2 -12 -2 -33q0 -104 106 -104q65 0 103 38t47 105l67 481h90l-7 -49q26 6 37.5 25t11.5 51q0 14 -5 44l65 11q8 -22 8 -57q0 -119 -124 -130z" />
    <glyph glyph-name="uni1EE8" unicode="&#x1ee8;" horiz-adv-x="606" 
d="M482 831l-201 -76l-21 46l189 103zM556 584l-54 -387q-13 -92 -78 -150.5t-167 -58.5q-92 0 -141.5 50.5t-49.5 130.5q0 23 2 35l69 485h90l-68 -487q-2 -12 -2 -33q0 -104 106 -104q65 0 103 38t47 105l67 481h90l-7 -49q26 6 37.5 25t11.5 51q0 14 -5 44l65 11
q8 -22 8 -57q0 -119 -124 -130z" />
    <glyph glyph-name="uni1EF0" unicode="&#x1ef0;" horiz-adv-x="606" 
d="M556 584l-54 -387q-13 -92 -78 -150.5t-167 -58.5q-92 0 -141.5 50.5t-49.5 130.5q0 23 2 35l69 485h90l-68 -487q-2 -12 -2 -33q0 -104 106 -104q65 0 103 38t47 105l67 481h90l-7 -49q26 6 37.5 25t11.5 51q0 14 -5 44l65 11q8 -22 8 -57q0 -119 -124 -130zM282 -91
q15 -15 15 -39q0 -29 -19 -47.5t-46 -18.5q-25 0 -40 15t-15 39q0 29 19 47.5t46 18.5q25 0 40 -15z" />
    <glyph glyph-name="uni1EEA" unicode="&#x1eea;" horiz-adv-x="606" 
d="M480 801l-29 -46l-179 76l42 72zM556 584l-54 -387q-13 -92 -78 -150.5t-167 -58.5q-92 0 -141.5 50.5t-49.5 130.5q0 23 2 35l69 485h90l-68 -487q-2 -12 -2 -33q0 -104 106 -104q65 0 103 38t47 105l67 481h90l-7 -49q26 6 37.5 25t11.5 51q0 14 -5 44l65 11
q8 -22 8 -57q0 -119 -124 -130z" />
    <glyph glyph-name="uni1EEC" unicode="&#x1eec;" horiz-adv-x="606" 
d="M330 913l-17 52q20 11 39.5 16.5t43.5 5.5q42 0 66 -23.5t24 -61.5q0 -75 -84 -90l-6 -48h-63l10 83q35 5 53 16t18 36q0 14 -8.5 21.5t-23.5 7.5q-24 0 -52 -15zM556 584l-54 -387q-13 -92 -78 -150.5t-167 -58.5q-92 0 -141.5 50.5t-49.5 130.5q0 23 2 35l69 485h90
l-68 -487q-2 -12 -2 -33q0 -104 106 -104q65 0 103 38t47 105l67 481h90l-7 -49q26 6 37.5 25t11.5 51q0 14 -5 44l65 11q8 -22 8 -57q0 -119 -124 -130z" />
    <glyph glyph-name="uni1EEE" unicode="&#x1eee;" horiz-adv-x="606" 
d="M295.5 820q-12.5 -11 -28.5 -34l-47 28q49 84 105 84q19 0 32.5 -7t30.5 -21q11 -10 19 -15t18 -5q14 0 26.5 10.5t27.5 33.5l49 -28q-45 -83 -103 -83q-19 0 -33 7t-32 21q-12 10 -20.5 15t-17.5 5q-14 0 -26.5 -11zM556 584l-54 -387q-13 -92 -78 -150.5t-167 -58.5
q-92 0 -141.5 50.5t-49.5 130.5q0 23 2 35l69 485h90l-68 -487q-2 -12 -2 -33q0 -104 106 -104q65 0 103 38t47 105l67 481h90l-7 -49q26 6 37.5 25t11.5 51q0 14 -5 44l65 11q8 -22 8 -57q0 -119 -124 -130z" />
    <glyph glyph-name="Uhungarumlaut" unicode="&#x170;" horiz-adv-x="588" 
d="M502 197q-13 -92 -78 -150.5t-167 -58.5q-92 0 -141.5 50.5t-49.5 130.5q0 23 2 35l69 485h90l-68 -487q-2 -12 -2 -33q0 -104 106 -104q65 0 103 38t47 105l67 481h90zM494 956l66 -40l-116 -155l-50 24zM358 955l66 -39l-107 -150l-51 24z" />
    <glyph glyph-name="uni0216" unicode="&#x216;" horiz-adv-x="588" 
d="M502 197q-13 -92 -78 -150.5t-167 -58.5q-92 0 -141.5 50.5t-49.5 130.5q0 23 2 35l69 485h90l-68 -487q-2 -12 -2 -33q0 -104 106 -104q65 0 103 38t47 105l67 481h90zM229 792q16 61 57 94.5t96 33.5q56 0 88.5 -36t31.5 -97l-56 -8q-5 38 -21.5 56t-47.5 18
q-63 0 -93 -78z" />
    <glyph glyph-name="Umacron" unicode="&#x16a;" horiz-adv-x="588" 
d="M502 197q-13 -92 -78 -150.5t-167 -58.5q-92 0 -141.5 50.5t-49.5 130.5q0 23 2 35l69 485h90l-68 -487q-2 -12 -2 -33q0 -104 106 -104q65 0 103 38t47 105l67 481h90zM490 794h-244l9 66h245z" />
    <glyph glyph-name="Uogonek" unicode="&#x172;" horiz-adv-x="588" 
d="M570 689l-68 -492q-11 -74 -55.5 -127.5t-116.5 -72.5q-61 -30 -84 -56.5t-23 -56.5q0 -47 50 -47q24 0 55 7l-10 -67q-33 -7 -58 -7q-51 0 -81 27t-30 69q0 39 23.5 70t68.5 52q-85 5 -130 55t-45 126q0 23 2 35l69 485h90l-68 -487q-2 -12 -2 -33q0 -104 106 -104
q65 0 103 38t47 105l67 481h90z" />
    <glyph glyph-name="uni01B1" unicode="&#x1b1;" horiz-adv-x="630" 
d="M115 56.5q-59 67.5 -59 185.5q0 260 172 373h-102l10 74h190l-10 -76q-89 -49 -128 -152.5t-39 -220.5q0 -88 34 -133t97 -45q76 0 125.5 53.5t72.5 136t23 170.5q0 73 -19.5 116.5t-60.5 77.5l9 73h189l-10 -75h-102q43 -35 65 -80.5t22 -113.5q0 -107 -36.5 -206
t-108.5 -162t-173 -63q-102 0 -161 67.5z" />
    <glyph glyph-name="Uring" unicode="&#x16e;" horiz-adv-x="588" 
d="M502 197q-13 -92 -78 -150.5t-167 -58.5q-92 0 -141.5 50.5t-49.5 130.5q0 23 2 35l69 485h90l-68 -487q-2 -12 -2 -33q0 -104 106 -104q65 0 103 38t47 105l67 481h90zM456 933.5q26 -26.5 26 -67.5q0 -49 -33 -81.5t-82 -32.5q-41 0 -67 26.5t-26 66.5q0 49 33 82
t81 33q42 0 68 -26.5zM345.5 893q-14.5 -19 -14.5 -47q0 -22 10 -34.5t29 -12.5q26 0 40.5 19t14.5 47q0 23 -10 35t-29 12q-26 0 -40.5 -19z" />
    <glyph glyph-name="Utilde" unicode="&#x168;" horiz-adv-x="588" 
d="M502 197q-13 -92 -78 -150.5t-167 -58.5q-92 0 -141.5 50.5t-49.5 130.5q0 23 2 35l69 485h90l-68 -487q-2 -12 -2 -33q0 -104 106 -104q65 0 103 38t47 105l67 481h90zM392 790q-14 7 -32 21q-12 10 -20.5 15t-17.5 5q-15 0 -27 -11t-28 -34l-47 28q49 84 105 84
q19 0 32.5 -7t30.5 -21q11 -10 19 -15t18 -5q14 0 26.5 10.5t27.5 33.5l49 -28q-45 -83 -103 -83q-19 0 -33 7z" />
    <glyph glyph-name="uni1E78" unicode="&#x1e78;" horiz-adv-x="588" 
d="M502 197q-13 -92 -78 -150.5t-167 -58.5q-92 0 -141.5 50.5t-49.5 130.5q0 23 2 35l69 485h90l-68 -487q-2 -12 -2 -33q0 -104 106 -104q65 0 103 38t47 105l67 481h90zM392 765q-14 7 -32 21q-12 10 -20.5 15t-17.5 5q-14 0 -26.5 -11t-28.5 -34l-47 28q49 84 105 84
q19 0 32.5 -7t30.5 -21q11 -10 19 -15t18 -5q14 0 26.5 10.5t27.5 33.5l49 -28q-45 -83 -103 -83q-19 0 -33 7zM467 1050l33 -73l-201 -76l-21 46z" />
    <glyph glyph-name="V" unicode="V" 
d="M556 689l-289 -689h-102l-98 689h93l68 -591l234 591h94z" />
    <glyph glyph-name="uni01B2" unicode="&#x1b2;" horiz-adv-x="579" 
d="M532 674.5q25 -25.5 25 -72.5q0 -9 -2 -27l-41 -295q-13 -90 -50.5 -156t-94.5 -101t-127 -35q-83 0 -130 49t-47 127q0 18 3 37l69 488h90l-68 -489q-3 -18 -3 -35q0 -49 23.5 -74.5t67.5 -25.5q70 0 116 58.5t62 169.5l39 293q1 5 1 14q0 27 -25 27q-13 0 -34 -7
l-14 63q31 17 69 17q46 0 71 -25.5z" />
    <glyph glyph-name="uni0245" unicode="&#x245;" horiz-adv-x="520" 
d="M377 689l98 -689h-92l-74 614l-245 -614h-94l293 689h114z" />
    <glyph glyph-name="W" unicode="W" horiz-adv-x="743" 
d="M780 689l-220 -689h-116l-28 583l-192 -583h-114l-26 689h86l11 -608l200 608h98l32 -608l185 608h84z" />
    <glyph glyph-name="Wacute" unicode="&#x1e82;" horiz-adv-x="743" 
d="M780 689l-220 -689h-116l-28 583l-192 -583h-114l-26 689h86l11 -608l200 608h98l32 -608l185 608h84zM528 904l33 -73l-201 -76l-21 46z" />
    <glyph glyph-name="Wcircumflex" unicode="&#x174;" horiz-adv-x="743" 
d="M780 689l-220 -689h-116l-28 583l-192 -583h-114l-26 689h86l11 -608l200 608h98l32 -608l185 608h84zM328 759l-36 42l138 111h56l106 -114l-38 -39l-103 81z" />
    <glyph glyph-name="Wdieresis" unicode="&#x1e84;" horiz-adv-x="743" 
d="M780 689l-220 -689h-116l-28 583l-192 -583h-114l-26 689h86l11 -608l200 608h98l32 -608l185 608h84zM319.5 795.5q-13.5 13.5 -13.5 34.5q0 26 17.5 43t42.5 17q21 0 34.5 -14t13.5 -34q0 -27 -17 -43.5t-42 -16.5q-22 0 -35.5 13.5zM507.5 795.5
q-13.5 13.5 -13.5 34.5q0 26 17.5 43t42.5 17q21 0 34.5 -14t13.5 -34q0 -26 -17 -43t-42 -17q-22 0 -35.5 13.5z" />
    <glyph glyph-name="Wgrave" unicode="&#x1e80;" horiz-adv-x="743" 
d="M780 689l-220 -689h-116l-28 583l-192 -583h-114l-26 689h86l11 -608l200 608h98l32 -608l185 608h84zM393 903l166 -102l-29 -46l-179 76z" />
    <glyph glyph-name="uni2C72" unicode="&#x2c72;" horiz-adv-x="774" 
d="M224 0l192 583l28 -583h115l172 576q9 29 22.5 41t34.5 12q26 0 51 -19l41 47q-38 43 -96 43q-49 0 -80.5 -25t-48.5 -83l-145 -512l-31 609h-98l-200 -608l-11 608h-86l26 -689h114z" />
    <glyph glyph-name="uni01F7" unicode="&#x1f7;" horiz-adv-x="516" 
d="M485 656.5q43 -43.5 43 -119.5q0 -111 -72 -179.5t-204 -121.5l-83 -33l-29 -203h-90l97 689h90l-7 -48q65 59 146 59q66 0 109 -43.5zM386 403q48 54 48 131q0 46 -21 69t-59 23q-71 0 -134 -61l-41 -287l74 34q85 37 133 91z" />
    <glyph glyph-name="X" unicode="X" horiz-adv-x="483" 
d="M520 689l-213 -318l135 -371h-96l-97 307l-183 -307h-100l236 367l-122 322h97l83 -263l161 263h99z" />
    <glyph glyph-name="Y" unicode="Y" horiz-adv-x="493" 
d="M549 689l-257 -424l-37 -265h-92l38 264l-137 425h94l98 -345l195 345h98z" />
    <glyph glyph-name="Yacute" unicode="&#xdd;" horiz-adv-x="493" 
d="M549 689l-257 -424l-37 -265h-92l38 264l-137 425h94l98 -345l195 345h98zM402 904l33 -73l-201 -76l-21 46z" />
    <glyph glyph-name="Ycircumflex" unicode="&#x176;" horiz-adv-x="493" 
d="M549 689l-257 -424l-37 -265h-92l38 264l-137 425h94l98 -345l195 345h98zM202 759l-36 42l138 111h56l106 -114l-38 -39l-103 81z" />
    <glyph glyph-name="Ydieresis" unicode="&#x178;" horiz-adv-x="493" 
d="M549 689l-257 -424l-37 -265h-92l38 264l-137 425h94l98 -345l195 345h98zM193.5 795.5q-13.5 13.5 -13.5 34.5q0 26 17.5 43t42.5 17q21 0 34.5 -14t13.5 -34q0 -27 -17 -43.5t-42 -16.5q-22 0 -35.5 13.5zM381.5 795.5q-13.5 13.5 -13.5 34.5q0 26 17.5 43t42.5 17
q21 0 34.5 -14t13.5 -34q0 -26 -17 -43t-42 -17q-22 0 -35.5 13.5z" />
    <glyph glyph-name="uni1EF4" unicode="&#x1ef4;" horiz-adv-x="493" 
d="M549 689l-257 -424l-37 -265h-92l38 264l-137 425h94l98 -345l195 345h98zM235 -91q15 -15 15 -39q0 -29 -19 -47.5t-46 -18.5q-25 0 -40 15t-15 39q0 29 19 47.5t46 18.5q25 0 40 -15z" />
    <glyph glyph-name="Ygrave" unicode="&#x1ef2;" horiz-adv-x="493" 
d="M549 689l-257 -424l-37 -265h-92l38 264l-137 425h94l98 -345l195 345h98zM267 903l166 -102l-29 -46l-179 76z" />
    <glyph glyph-name="uni01B3" unicode="&#x1b3;" horiz-adv-x="519" 
d="M201 264l-137 425h94l98 -345l137 256q29 55 59 77.5t75 22.5q59 0 98 -43l-42 -47q-13 10 -24.5 14.5t-26.5 4.5q-20 0 -34 -11.5t-31 -41.5l-175 -310l-38 -266h-91z" />
    <glyph glyph-name="uni1EF6" unicode="&#x1ef6;" horiz-adv-x="493" 
d="M549 689l-257 -424l-37 -265h-92l38 264l-137 425h94l98 -345l195 345h98zM296 847q35 5 53 16t18 36q0 14 -8.5 21.5t-23.5 7.5q-24 0 -52 -15l-17 52q20 11 39.5 16.5t43.5 5.5q42 0 66 -23.5t24 -61.5q0 -75 -84 -90l-6 -48h-63z" />
    <glyph glyph-name="uni0232" unicode="&#x232;" horiz-adv-x="493" 
d="M549 689l-257 -424l-37 -265h-92l38 264l-137 425h94l98 -345l195 345h98zM443 794h-244l9 66h245z" />
    <glyph glyph-name="uni01A6" unicode="&#x1a6;" horiz-adv-x="546" 
d="M466.5 272.5q-38.5 -58.5 -117.5 -84.5l121 -311h-96l-110 294h-100l-24 -171h-90l97 689h90l-17 -123h72q105 0 159 -43t54 -122q0 -70 -38.5 -128.5zM254 241q84 0 120.5 46t36.5 112q0 51 -29 73t-93 22h-79l-36 -253h80z" />
    <glyph glyph-name="uni024E" unicode="&#x24e;" horiz-adv-x="493" 
d="M497 603h40l-10 -66h-70l-165 -272l-37 -265h-91l37 264l-88 273h-68l10 66h37l-28 86h93l25 -86h222l49 86h96zM256 344l110 193h-165z" />
    <glyph glyph-name="uni1EF8" unicode="&#x1ef8;" horiz-adv-x="493" 
d="M549 689l-257 -424l-37 -265h-92l38 264l-137 425h94l98 -345l195 345h98zM345 790q-14 7 -32 21q-12 10 -20.5 15t-17.5 5q-15 0 -27 -11t-28 -34l-47 28q49 84 105 84q19 0 32.5 -7t30.5 -21q11 -10 19 -15t18 -5q14 0 26.5 10.5t27.5 33.5l49 -28q-45 -83 -103 -83
q-19 0 -33 7z" />
    <glyph glyph-name="Z" unicode="Z" horiz-adv-x="465" 
d="M-12 0l11 73l380 539h-273l11 77h372l-11 -74l-379 -538l304 1l-22 -78h-393z" />
    <glyph glyph-name="Zacute" unicode="&#x179;" horiz-adv-x="465" 
d="M-12 0l11 73l380 539h-273l11 77h372l-11 -74l-379 -538l304 1l-22 -78h-393zM399 904l33 -73l-201 -76l-21 46z" />
    <glyph glyph-name="Zcaron" unicode="&#x17d;" horiz-adv-x="465" 
d="M-12 0l11 73l380 539h-273l11 77h372l-11 -74l-379 -538l304 1l-22 -78h-393zM442 907l35 -42l-137 -111h-56l-106 114l38 39l103 -81z" />
    <glyph glyph-name="Zdotaccent" unicode="&#x17b;" horiz-adv-x="465" 
d="M-12 0l11 73l380 539h-273l11 77h372l-11 -74l-379 -538l304 1l-22 -78h-393zM281 798q-15 15 -15 39q0 29 19 47.5t46 18.5q25 0 40 -15t15 -39q0 -29 -19 -47.5t-46 -18.5q-25 0 -40 15z" />
    <glyph glyph-name="uni1E92" unicode="&#x1e92;" horiz-adv-x="465" 
d="M-12 0l11 73l380 539h-273l11 77h372l-11 -74l-379 -538l304 1l-22 -78h-393zM211 -91q15 -15 15 -39q0 -29 -19 -47.5t-46 -18.5q-25 0 -40 15t-15 39q0 29 19 47.5t46 18.5q25 0 40 -15z" />
    <glyph glyph-name="uni0224" unicode="&#x224;" horiz-adv-x="464" 
d="M478 615l-379 -538l298 1l-11 -78l-11 -67q-11 -72 -50.5 -108.5t-99.5 -36.5q-35 0 -59 11t-44 28l38 54q17 -11 30 -16t31 -5q28 0 45.5 18.5t22.5 54.5l10 67h-311l11 73l380 539h-273l11 77h372z" />
    <glyph glyph-name="uni01B5" unicode="&#x1b5;" horiz-adv-x="465" 
d="M489 689l-11 -74l-165 -233h84l-11 -71h-123l-165 -234l305 1l-22 -78h-393l11 73l168 238h-88l11 71h127l163 230h-274l11 77h372z" />
    <glyph glyph-name="Cacute.loclPLK" horiz-adv-x="506" 
d="M464 682.5q40 -17.5 73 -52.5l-52 -50q-28 24 -54 35t-58 11q-78 0 -128.5 -58.5t-73 -145.5t-22.5 -176q0 -93 34.5 -137t94.5 -44q40 0 70.5 14.5t69.5 42.5l38 -60q-84 -74 -187 -74q-98 0 -156 69t-58 195q0 106 34 209t105 171t177 68q53 0 93 -17.5zM442 924
l61 -45l-137 -145l-39 27z" />
    <glyph glyph-name="Nacute.loclPLK" horiz-adv-x="608" 
d="M484 0h-118l-162 610q-3 -126 -26 -289l-44 -321h-84l97 689h118l163 -611q3 123 17 233l52 378h84zM440 924l61 -45l-137 -145l-39 27z" />
    <glyph glyph-name="Oacute.loclPLK" horiz-adv-x="624" 
d="M534.5 631.5q57.5 -68.5 57.5 -194.5q0 -106 -32.5 -209t-104.5 -171.5t-183 -68.5q-102 0 -160 68t-58 193q0 103 33 206.5t105 174t183 70.5q102 0 159.5 -68.5zM240 565q-50 -61 -71 -148.5t-21 -170.5q0 -183 128 -183q81 0 131 61.5t71 149t21 171.5q0 93 -32.5 137
t-96.5 44q-80 0 -130 -61zM444 924l61 -45l-137 -145l-39 27z" />
    <glyph glyph-name="Sacute.loclPLK" horiz-adv-x="489" 
d="M408.5 679q44.5 -21 80.5 -61l-55 -51q-30 31 -61 45t-68 14q-56 0 -92.5 -33t-36.5 -86q0 -39 23.5 -62t87.5 -49q78 -31 117.5 -71t39.5 -113q0 -59 -29.5 -110t-86 -82.5t-134.5 -31.5q-124 0 -203 92l57 51q31 -34 66 -51t82 -17q70 0 112.5 39.5t42.5 105.5
q0 44 -24.5 69.5t-89.5 52.5q-82 34 -117.5 71.5t-35.5 101.5q0 49 27 94.5t78 74t117 28.5q58 0 102.5 -21zM376 924l61 -45l-137 -145l-39 27z" />
    <glyph glyph-name="Zacute.loclPLK" horiz-adv-x="465" 
d="M-12 0l11 73l380 539h-273l11 77h372l-11 -74l-379 -538l304 1l-22 -78h-393zM370 924l61 -45l-137 -145l-39 27z" />
    <glyph glyph-name="Eng.ss01" horiz-adv-x="598" 
d="M516.5 657.5q38.5 -42.5 38.5 -109.5q0 -23 -2 -34l-72 -514l-10 -67q-10 -72 -51 -108.5t-103 -36.5q-35 0 -59 11t-44 28l38 55q17 -11 29.5 -16t31.5 -5q28 0 46.5 18.5t22.5 53.5l9 67l71 509q2 12 2 33q0 84 -77 84q-46 0 -84 -22t-87 -67l-76 -537h-90l97 689h78
l-3 -75q88 86 183 86q73 0 111.5 -42.5z" />
    <glyph glyph-name="uni019D.ss01" horiz-adv-x="598" 
d="M516.5 657.5q38.5 -42.5 38.5 -109.5q0 -23 -2 -34l-71 -514h-90l70 509q3 18 3 34q0 83 -78 83q-45 0 -83 -22.5t-88 -68.5l-76 -535l-10 -67q-10 -72 -51 -108.5t-103 -36.5q-35 0 -59 11t-44 28l38 55q17 -11 29.5 -16t31.5 -5q28 0 46.5 18.5t22.5 53.5l9 67l97 689
h78l-3 -75q84 86 182 86q74 0 112.5 -42.5z" />
    <glyph glyph-name="uni2C64.ss01" horiz-adv-x="371" 
d="M431 690l-26 -87q-28 8 -50 8q-55 0 -90.5 -38t-61.5 -120l-63 -453l-10 -73q-1 -7 -1 -18q0 -48 43 -48q20 0 34 5t33 16l30 -58q-49 -36 -108 -36q-58 0 -90 31t-32 89q0 8 2 30l9 62l97 689h78l-5 -91q27 52 62.5 77t88.5 25q36 0 60 -10z" />
    <glyph glyph-name="uni0181.ss02" horiz-adv-x="518" 
d="M432.5 381q56.5 -47 56.5 -135q0 -64 -26 -120t-86.5 -91t-156.5 -35h-170l97 689h339l-22 -75h-238l-26 -186h73q103 0 159.5 -47zM357.5 122.5q36.5 49.5 36.5 123.5q0 58 -31 84.5t-91 26.5h-82l-40 -284h82q89 0 125.5 49.5z" />
    <glyph glyph-name="uniA78D.ss02" horiz-adv-x="540" 
d="M416 0h-90l38 268h-318l60 421h89l-48 -346h227l49 346h90z" />
    <glyph glyph-name="uni0299" unicode="&#x299;" horiz-adv-x="482" 
d="M419.5 329.5q-29.5 -31.5 -88.5 -44.5q108 -10 108 -102q0 -90 -62 -136.5t-164 -46.5h-167l72 521q85 17 156 17q82 0 128.5 -33t46.5 -91q0 -53 -29.5 -84.5zM332 337q29 25 29 71q0 33 -21.5 47.5t-66.5 14.5q-38 0 -74 -6l-22 -152h74q52 0 81 25zM325 233
q-24 13 -74 13h-83l-25 -177h65q141 0 141 113q0 38 -24 51z" />
    <glyph glyph-name="uni0262" unicode="&#x262;" horiz-adv-x="503" 
d="M395.5 522q36.5 -17 68.5 -49l-53 -51q-24 23 -48.5 33.5t-57.5 10.5q-54 0 -92.5 -39.5t-57.5 -103t-19 -136.5q0 -67 25 -97.5t75 -30.5q46 0 94 23l19 145h-85l1 69h178l-35 -255q-88 -52 -179 -52q-89 0 -136.5 52t-47.5 149q0 99 33.5 178.5t93 125t136.5 45.5
q51 0 87.5 -17z" />
    <glyph glyph-name="uni029B" unicode="&#x29b;" horiz-adv-x="502" 
d="M649 710l-39 -53q-16 11 -29 16t-32 5q-58 0 -68 -75l-18 -130l-44 -44q-29 19 -55.5 28t-58.5 9q-54 0 -92.5 -39.5t-57.5 -103t-19 -136.5q0 -67 25 -97.5t74 -30.5q46 0 94 23l19 145h-84v69h178l-35 -255q-86 -52 -179 -52q-88 0 -135.5 52t-47.5 149
q0 99 33.5 178.5t92.5 125t133 45.5q47 0 81 -17l12 82q11 73 49 109t100 36q58 0 103 -39z" />
    <glyph glyph-name="uni029C" unicode="&#x29c;" horiz-adv-x="529" 
d="M322 0l33 234h-189l-34 -234h-87l74 527h87l-31 -222h190l31 222h87l-74 -527h-87z" />
    <glyph glyph-name="uni026A" unicode="&#x26a;" horiz-adv-x="289" 
d="M298 459h-83l-55 -392h84l-10 -67h-254l10 67h82l55 392h-82l9 68h254z" />
    <glyph glyph-name="uni029F" unicode="&#x29f;" horiz-adv-x="386" 
d="M206 527l-62 -452h207l-22 -75h-284l74 527h87z" />
    <glyph glyph-name="uni0274" unicode="&#x274;" horiz-adv-x="531" 
d="M411 0h-109l-128 438q-2 -98 -20 -226l-30 -212h-79l74 527h109l128 -439q-2 75 11 164l39 275h79z" />
    <glyph glyph-name="uni0276" unicode="&#x276;" horiz-adv-x="669" 
d="M660 458h-219q18 -24 28 -58t10 -73q0 -16 -1 -25h135l-10 -68h-134q-26 -109 -90 -166h241l-10 -68h-319q-30 -12 -69 -12q-85 0 -131 55t-46 151q0 78 26 157t83.5 133t146.5 54q37 0 66 -11h313zM322 105q36 46 51.5 111t15.5 126q0 125 -92 125q-59 0 -95 -45.5
t-51.5 -110t-15.5 -126.5q0 -126 92 -126q59 0 95 46z" />
    <glyph glyph-name="uni0280" unicode="&#x280;" horiz-adv-x="470" 
d="M305 220l99 -220h-91l-86 204h-68l-28 -204h-86l74 527h128q87 0 133.5 -37t46.5 -105q0 -120 -122 -165zM169 271h54q57 0 86.5 29t29.5 83q0 41 -23 58.5t-74 17.5h-47z" />
    <glyph glyph-name="uni0281" unicode="&#x281;" horiz-adv-x="472" 
d="M398 184q0 -91 -59 -137.5t-159 -46.5h-135l74 527h86l-29 -205h70l142 205h92l-162 -222q80 -35 80 -121zM277 96.5q33 29.5 33 85.5q0 74 -88 74h-55l-26 -189h44q59 0 92 29.5z" />
    <glyph glyph-name="uni028F" unicode="&#x28f;" horiz-adv-x="432" 
d="M459 527l-209 -328l-28 -199h-87l28 198l-116 329h91l77 -263l149 263h95z" />
    <glyph glyph-name="a" unicode="a" horiz-adv-x="519" 
d="M474 497l-54 -378q-2 -20 -2 -27q0 -16 6 -26.5t22 -16.5l-28 -61q-37 5 -57.5 25.5t-24.5 59.5q-31 -41 -65 -63t-77 -22q-71 0 -111 51.5t-40 138.5q0 84 28 167t89 138t152 55q78 0 162 -41zM212 424.5q-40 -43.5 -59 -110.5t-19 -136q0 -120 78 -120q36 0 65 24
t62 71l42 302q-32 13 -69 13q-60 0 -100 -43.5z" />
    <glyph glyph-name="aacute" unicode="&#xe1;" horiz-adv-x="519" 
d="M474 497l-54 -378q-2 -20 -2 -27q0 -16 6 -26.5t22 -16.5l-28 -61q-37 5 -57.5 25.5t-24.5 59.5q-31 -41 -65 -63t-77 -22q-71 0 -111 51.5t-40 138.5q0 84 28 167t89 138t152 55q78 0 162 -41zM212 424.5q-40 -43.5 -59 -110.5t-19 -136q0 -120 78 -120q36 0 65 24
t62 71l42 302q-32 13 -69 13q-60 0 -100 -43.5zM421 797l33 -72l-201 -86l-23 46z" />
    <glyph glyph-name="abreve" unicode="&#x103;" horiz-adv-x="519" 
d="M474 497l-54 -378q-2 -20 -2 -27q0 -16 6 -26.5t22 -16.5l-28 -61q-37 5 -57.5 25.5t-24.5 59.5q-31 -41 -65 -63t-77 -22q-71 0 -111 51.5t-40 138.5q0 84 28 167t89 138t152 55q78 0 162 -41zM212 424.5q-40 -43.5 -59 -110.5t-19 -136q0 -120 78 -120q36 0 65 24
t62 71l42 302q-32 13 -69 13q-60 0 -100 -43.5zM243 680q-33 36 -30 97l57 8q4 -38 19.5 -55.5t45.5 -17.5q32 0 56.5 20t37.5 57l55 -17q-14 -60 -55 -94t-96 -34q-57 0 -90 36z" />
    <glyph glyph-name="uni1EAF" unicode="&#x1eaf;" horiz-adv-x="519" 
d="M433 909l48 -49l-140 -129l-34 31zM239.5 632q-32.5 34 -30.5 89l54 8q6 -31 22 -47.5t46 -16.5q32 0 55.5 18t37.5 50l55 -18q-13 -54 -54 -85.5t-96 -31.5q-57 0 -89.5 34zM474 497l-54 -378q-2 -20 -2 -27q0 -16 6 -26.5t22 -16.5l-28 -61q-37 5 -57.5 25.5
t-24.5 59.5q-31 -41 -65 -63t-77 -22q-71 0 -111 51.5t-40 138.5q0 84 28 167t89 138t152 55q78 0 162 -41zM212 424.5q-40 -43.5 -59 -110.5t-19 -136q0 -120 78 -120q36 0 65 24t62 71l42 302q-32 13 -69 13q-60 0 -100 -43.5z" />
    <glyph glyph-name="uni1EB7" unicode="&#x1eb7;" horiz-adv-x="519" 
d="M474 497l-54 -378q-2 -20 -2 -27q0 -16 6 -26.5t22 -16.5l-28 -61q-37 5 -57.5 25.5t-24.5 59.5q-31 -41 -65 -63t-77 -22q-71 0 -111 51.5t-40 138.5q0 84 28 167t89 138t152 55q78 0 162 -41zM212 424.5q-40 -43.5 -59 -110.5t-19 -136q0 -120 78 -120q36 0 65 24
t62 71l42 302q-32 13 -69 13q-60 0 -100 -43.5zM243 680q-33 36 -30 97l57 8q4 -38 19.5 -55.5t45.5 -17.5q32 0 56.5 20t37.5 57l55 -17q-14 -60 -55 -94t-96 -34q-57 0 -90 36zM271 -91q15 -15 15 -39q0 -29 -19 -47.5t-46 -18.5q-25 0 -40 15t-15 39q0 29 19 47.5
t46 18.5q25 0 40 -15z" />
    <glyph glyph-name="uni1EB1" unicode="&#x1eb1;" horiz-adv-x="519" 
d="M286 907l86 -148l-38 -28l-106 131zM239.5 632q-32.5 34 -30.5 89l54 8q6 -31 22 -47.5t46 -16.5q32 0 55.5 18t37.5 50l55 -18q-13 -54 -54 -85.5t-96 -31.5q-57 0 -89.5 34zM474 497l-54 -378q-2 -20 -2 -27q0 -16 6 -26.5t22 -16.5l-28 -61q-37 5 -57.5 25.5
t-24.5 59.5q-31 -41 -65 -63t-77 -22q-71 0 -111 51.5t-40 138.5q0 84 28 167t89 138t152 55q78 0 162 -41zM212 424.5q-40 -43.5 -59 -110.5t-19 -136q0 -120 78 -120q36 0 65 24t62 71l42 302q-32 13 -69 13q-60 0 -100 -43.5z" />
    <glyph glyph-name="uni1EB3" unicode="&#x1eb3;" horiz-adv-x="519" 
d="M474 497l-54 -378q-2 -20 -2 -27q0 -16 6 -26.5t22 -16.5l-28 -61q-37 5 -57.5 25.5t-24.5 59.5q-31 -41 -65 -63t-77 -22q-71 0 -111 51.5t-40 138.5q0 84 28 167t89 138t152 55q78 0 162 -41zM212 424.5q-40 -43.5 -59 -110.5t-19 -136q0 -120 78 -120q36 0 65 24
t62 71l42 302q-32 13 -69 13q-60 0 -100 -43.5zM242.5 632q-32.5 34 -30.5 89l54 8q6 -31 22 -47.5t46 -16.5q32 0 55.5 18t37.5 50l55 -18q-13 -54 -54 -85.5t-96 -31.5q-57 0 -89.5 34zM324 811q35 5 53 16t18 36q0 29 -32 29q-15 0 -26 -3.5t-26 -11.5l-17 52
q38 22 83 22q42 0 66 -23.5t24 -61.5q0 -75 -84 -90l-8 -57h-63z" />
    <glyph glyph-name="uni1EB5" unicode="&#x1eb5;" horiz-adv-x="519" 
d="M367 771q-14 7 -32 21q-12 10 -20.5 15t-17.5 5q-14 0 -26.5 -11t-28.5 -34l-47 28q49 84 105 84q19 0 32.5 -7t30.5 -21q11 -10 19 -15t18 -5q14 0 26.5 10.5t27.5 33.5l49 -28q-45 -83 -103 -83q-19 0 -33 7zM234.5 632q-32.5 34 -30.5 89l54 8q6 -31 22 -47.5
t46 -16.5q32 0 55.5 18t37.5 50l55 -18q-13 -54 -54 -85.5t-96 -31.5q-57 0 -89.5 34zM474 497l-54 -378q-2 -20 -2 -27q0 -16 6 -26.5t22 -16.5l-28 -61q-37 5 -57.5 25.5t-24.5 59.5q-31 -41 -65 -63t-77 -22q-71 0 -111 51.5t-40 138.5q0 84 28 167t89 138t152 55
q78 0 162 -41zM212 424.5q-40 -43.5 -59 -110.5t-19 -136q0 -120 78 -120q36 0 65 24t62 71l42 302q-32 13 -69 13q-60 0 -100 -43.5z" />
    <glyph glyph-name="uni01CE" unicode="&#x1ce;" horiz-adv-x="519" 
d="M474 497l-54 -378q-2 -20 -2 -27q0 -16 6 -26.5t22 -16.5l-28 -61q-37 5 -57.5 25.5t-24.5 59.5q-31 -41 -65 -63t-77 -22q-71 0 -111 51.5t-40 138.5q0 84 28 167t89 138t152 55q78 0 162 -41zM212 424.5q-40 -43.5 -59 -110.5t-19 -136q0 -120 78 -120q36 0 65 24
t62 71l42 302q-32 13 -69 13q-60 0 -100 -43.5zM461 781l32 -41l-137 -112h-55l-107 112l39 41l100 -82z" />
    <glyph glyph-name="acircumflex" unicode="&#xe2;" horiz-adv-x="519" 
d="M474 497l-54 -378q-2 -20 -2 -27q0 -16 6 -26.5t22 -16.5l-28 -61q-37 5 -57.5 25.5t-24.5 59.5q-31 -41 -65 -63t-77 -22q-71 0 -111 51.5t-40 138.5q0 84 28 167t89 138t152 55q78 0 162 -41zM212 424.5q-40 -43.5 -59 -110.5t-19 -136q0 -120 78 -120q36 0 65 24
t62 71l42 302q-32 13 -69 13q-60 0 -100 -43.5zM221 637l-35 41l138 113h56l105 -115l-40 -39l-101 82z" />
    <glyph glyph-name="uni1EA5" unicode="&#x1ea5;" horiz-adv-x="519" 
d="M547 886l48 -49l-140 -129l-34 31zM211 588l-36 42l138 111h56l106 -114l-38 -39l-103 81zM474 497l-54 -378q-2 -20 -2 -27q0 -16 6 -26.5t22 -16.5l-28 -61q-37 5 -57.5 25.5t-24.5 59.5q-31 -41 -65 -63t-77 -22q-71 0 -111 51.5t-40 138.5q0 84 28 167t89 138t152 55
q78 0 162 -41zM212 424.5q-40 -43.5 -59 -110.5t-19 -136q0 -120 78 -120q36 0 65 24t62 71l42 302q-32 13 -69 13q-60 0 -100 -43.5z" />
    <glyph glyph-name="uni1EAD" unicode="&#x1ead;" horiz-adv-x="519" 
d="M474 497l-54 -378q-2 -20 -2 -27q0 -16 6 -26.5t22 -16.5l-28 -61q-37 5 -57.5 25.5t-24.5 59.5q-31 -41 -65 -63t-77 -22q-71 0 -111 51.5t-40 138.5q0 84 28 167t89 138t152 55q78 0 162 -41zM212 424.5q-40 -43.5 -59 -110.5t-19 -136q0 -120 78 -120q36 0 65 24
t62 71l42 302q-32 13 -69 13q-60 0 -100 -43.5zM221 637l-35 41l138 113h56l105 -115l-40 -39l-101 82zM271 -91q15 -15 15 -39q0 -29 -19 -47.5t-46 -18.5q-25 0 -40 15t-15 39q0 29 19 47.5t46 18.5q25 0 40 -15z" />
    <glyph glyph-name="uni1EA7" unicode="&#x1ea7;" horiz-adv-x="519" 
d="M170 884l86 -148l-38 -28l-106 131zM209 588l-36 42l138 111h56l106 -114l-38 -39l-103 81zM474 497l-54 -378q-2 -20 -2 -27q0 -16 6 -26.5t22 -16.5l-28 -61q-37 5 -57.5 25.5t-24.5 59.5q-31 -41 -65 -63t-77 -22q-71 0 -111 51.5t-40 138.5q0 84 28 167t89 138
t152 55q78 0 162 -41zM212 424.5q-40 -43.5 -59 -110.5t-19 -136q0 -120 78 -120q36 0 65 24t62 71l42 302q-32 13 -69 13q-60 0 -100 -43.5z" />
    <glyph glyph-name="uni1EA9" unicode="&#x1ea9;" horiz-adv-x="519" 
d="M474 497l-54 -378q-2 -20 -2 -27q0 -16 6 -26.5t22 -16.5l-28 -61q-37 5 -57.5 25.5t-24.5 59.5q-31 -41 -65 -63t-77 -22q-71 0 -111 51.5t-40 138.5q0 84 28 167t89 138t152 55q78 0 162 -41zM212 424.5q-40 -43.5 -59 -110.5t-19 -136q0 -120 78 -120q36 0 65 24
t62 71l42 302q-32 13 -69 13q-60 0 -100 -43.5zM207 588l-36 42l138 111h56l106 -114l-38 -39l-103 81zM442 804q35 5 53 16t18 36q0 29 -32 29q-15 0 -26 -3.5t-26 -11.5l-17 52q38 22 83 22q42 0 66 -23.5t24 -61.5q0 -75 -84 -90l-8 -57h-63z" />
    <glyph glyph-name="uni1EAB" unicode="&#x1eab;" horiz-adv-x="519" 
d="M376 769q-14 7 -32 21q-12 10 -20.5 15t-17.5 5q-14 0 -26.5 -11t-28.5 -34l-47 28q49 84 105 84q19 0 32.5 -7t30.5 -21q11 -10 19 -15t18 -5q14 0 26.5 10.5t27.5 33.5l49 -28q-45 -83 -103 -83q-19 0 -33 7zM212 578l-36 42l138 111h56l106 -114l-38 -39l-103 81z
M474 497l-54 -378q-2 -20 -2 -27q0 -16 6 -26.5t22 -16.5l-28 -61q-37 5 -57.5 25.5t-24.5 59.5q-31 -41 -65 -63t-77 -22q-71 0 -111 51.5t-40 138.5q0 84 28 167t89 138t152 55q78 0 162 -41zM212 424.5q-40 -43.5 -59 -110.5t-19 -136q0 -120 78 -120q36 0 65 24t62 71
l42 302q-32 13 -69 13q-60 0 -100 -43.5z" />
    <glyph glyph-name="uni0201" unicode="&#x201;" horiz-adv-x="519" 
d="M474 497l-54 -378q-2 -20 -2 -27q0 -16 6 -26.5t22 -16.5l-28 -61q-37 5 -57.5 25.5t-24.5 59.5q-31 -41 -65 -63t-77 -22q-71 0 -111 51.5t-40 138.5q0 84 28 167t89 138t152 55q78 0 162 -41zM212 424.5q-40 -43.5 -59 -110.5t-19 -136q0 -120 78 -120q36 0 65 24
t62 71l42 302q-32 13 -69 13q-60 0 -100 -43.5zM248 830l55 -173l-57 -22l-76 159zM384 829l47 -167l-57 -22l-69 154z" />
    <glyph glyph-name="adieresis" unicode="&#xe4;" horiz-adv-x="519" 
d="M474 497l-54 -378q-2 -20 -2 -27q0 -16 6 -26.5t22 -16.5l-28 -61q-37 5 -57.5 25.5t-24.5 59.5q-31 -41 -65 -63t-77 -22q-71 0 -111 51.5t-40 138.5q0 84 28 167t89 138t152 55q78 0 162 -41zM212 424.5q-40 -43.5 -59 -110.5t-19 -136q0 -120 78 -120q36 0 65 24
t62 71l42 302q-32 13 -69 13q-60 0 -100 -43.5zM207.5 669.5q-13.5 13.5 -13.5 34.5q0 26 17.5 43t42.5 17q21 0 34.5 -14t13.5 -34q0 -27 -17 -43.5t-42 -16.5q-22 0 -35.5 13.5zM395.5 669.5q-13.5 13.5 -13.5 34.5q0 26 17.5 43t42.5 17q21 0 34.5 -14t13.5 -34
q0 -26 -17 -43t-42 -17q-22 0 -35.5 13.5z" />
    <glyph glyph-name="uni01DF" unicode="&#x1df;" horiz-adv-x="519" 
d="M474 497l-54 -378q-2 -20 -2 -27q0 -16 6 -26.5t22 -16.5l-28 -61q-37 5 -57.5 25.5t-24.5 59.5q-31 -41 -65 -63t-77 -22q-71 0 -111 51.5t-40 138.5q0 84 28 167t89 138t152 55q78 0 162 -41zM212 424.5q-40 -43.5 -59 -110.5t-19 -136q0 -120 78 -120q36 0 65 24
t62 71l42 302q-32 13 -69 13q-60 0 -100 -43.5zM199.5 639.5q-13.5 13.5 -13.5 34.5q0 26 17.5 43t42.5 17q21 0 34.5 -14t13.5 -34q0 -27 -17 -43.5t-42 -16.5q-22 0 -35.5 13.5zM387.5 639.5q-13.5 13.5 -13.5 34.5q0 26 17.5 43t42.5 17q21 0 34.5 -14t13.5 -34
q0 -26 -17 -43t-42 -17q-22 0 -35.5 13.5zM466 791h-244l9 66h245z" />
    <glyph glyph-name="uni0227" unicode="&#x227;" horiz-adv-x="519" 
d="M474 497l-54 -378q-2 -20 -2 -27q0 -16 6 -26.5t22 -16.5l-28 -61q-37 5 -57.5 25.5t-24.5 59.5q-31 -41 -65 -63t-77 -22q-71 0 -111 51.5t-40 138.5q0 84 28 167t89 138t152 55q78 0 162 -41zM212 424.5q-40 -43.5 -59 -110.5t-19 -136q0 -120 78 -120q36 0 65 24
t62 71l42 302q-32 13 -69 13q-60 0 -100 -43.5zM296 672q-15 15 -15 39q0 29 19 47.5t46 18.5q25 0 40 -15t15 -39q0 -29 -19 -47.5t-46 -18.5q-25 0 -40 15z" />
    <glyph glyph-name="uni1EA1" unicode="&#x1ea1;" horiz-adv-x="519" 
d="M474 497l-54 -378q-2 -20 -2 -27q0 -16 6 -26.5t22 -16.5l-28 -61q-37 5 -57.5 25.5t-24.5 59.5q-31 -41 -65 -63t-77 -22q-71 0 -111 51.5t-40 138.5q0 84 28 167t89 138t152 55q78 0 162 -41zM212 424.5q-40 -43.5 -59 -110.5t-19 -136q0 -120 78 -120q36 0 65 24
t62 71l42 302q-32 13 -69 13q-60 0 -100 -43.5zM271 -91q15 -15 15 -39q0 -29 -19 -47.5t-46 -18.5q-25 0 -40 15t-15 39q0 29 19 47.5t46 18.5q25 0 40 -15z" />
    <glyph glyph-name="uni01E1" unicode="&#x1e1;" horiz-adv-x="519" 
d="M474 497l-54 -378q-2 -20 -2 -27q0 -16 6 -26.5t22 -16.5l-28 -61q-37 5 -57.5 25.5t-24.5 59.5q-31 -41 -65 -63t-77 -22q-71 0 -111 51.5t-40 138.5q0 84 28 167t89 138t152 55q78 0 162 -41zM212 424.5q-40 -43.5 -59 -110.5t-19 -136q0 -120 78 -120q36 0 65 24
t62 71l42 302q-32 13 -69 13q-60 0 -100 -43.5zM290 622q-15 15 -15 39q0 29 19 47.5t46 18.5q25 0 40 -15t15 -39q0 -29 -19 -47.5t-46 -18.5q-25 0 -40 15zM472 768h-244l9 66h245z" />
    <glyph glyph-name="agrave" unicode="&#xe0;" horiz-adv-x="519" 
d="M474 497l-54 -378q-2 -20 -2 -27q0 -16 6 -26.5t22 -16.5l-28 -61q-37 5 -57.5 25.5t-24.5 59.5q-31 -41 -65 -63t-77 -22q-71 0 -111 51.5t-40 138.5q0 84 28 167t89 138t152 55q78 0 162 -41zM212 424.5q-40 -43.5 -59 -110.5t-19 -136q0 -120 78 -120q36 0 65 24
t62 71l42 302q-32 13 -69 13q-60 0 -100 -43.5zM292 796l164 -112l-29 -45l-179 86z" />
    <glyph glyph-name="uni1EA3" unicode="&#x1ea3;" horiz-adv-x="519" 
d="M474 497l-54 -378q-2 -20 -2 -27q0 -16 6 -26.5t22 -16.5l-28 -61q-37 5 -57.5 25.5t-24.5 59.5q-31 -41 -65 -63t-77 -22q-71 0 -111 51.5t-40 138.5q0 84 28 167t89 138t152 55q78 0 162 -41zM212 424.5q-40 -43.5 -59 -110.5t-19 -136q0 -120 78 -120q36 0 65 24
t62 71l42 302q-32 13 -69 13q-60 0 -100 -43.5zM308 704q35 5 53 16t18 36q0 29 -32 29q-15 0 -26 -3.5t-26 -11.5l-17 52q38 22 83 22q42 0 66 -23.5t24 -61.5q0 -75 -84 -90l-8 -57h-63z" />
    <glyph glyph-name="uni0203" unicode="&#x203;" horiz-adv-x="519" 
d="M474 497l-54 -378q-2 -20 -2 -27q0 -16 6 -26.5t22 -16.5l-28 -61q-37 5 -57.5 25.5t-24.5 59.5q-31 -41 -65 -63t-77 -22q-71 0 -111 51.5t-40 138.5q0 84 28 167t89 138t152 55q78 0 162 -41zM212 424.5q-40 -43.5 -59 -110.5t-19 -136q0 -120 78 -120q36 0 65 24
t62 71l42 302q-32 13 -69 13q-60 0 -100 -43.5zM193 630q16 61 57 94.5t96 33.5q56 0 88.5 -36t31.5 -97l-56 -8q-5 38 -21.5 56t-47.5 18q-63 0 -93 -78z" />
    <glyph glyph-name="uni0251" unicode="&#x251;" horiz-adv-x="519" 
d="M418 92q0 -16 6 -26.5t22 -16.5l-28 -61q-37 5 -57.5 25.5t-24.5 59.5q-31 -41 -65 -63t-77 -22q-71 0 -111 51.5t-40 139.5q0 84 28 167.5t82 137.5t127 54q39 0 66.5 -16.5t45.5 -53.5l20 59h68l-60 -408q-2 -20 -2 -27zM372 384q-13 47 -35.5 65.5t-55.5 18.5
q-44 0 -77.5 -43t-51.5 -110t-18 -137q0 -120 80 -120q34 0 63 24t62 71z" />
    <glyph glyph-name="uni0252" unicode="&#x252;" horiz-adv-x="519" 
d="M436 487.5q40 -51.5 40 -139.5q0 -84 -28 -167.5t-82 -137.5t-127 -54q-39 0 -66.5 16.5t-45.5 53.5l-20 -59h-68l60 408q2 20 2 27q0 16 -6 26.5t-22 16.5l28 61q37 -5 57.5 -25.5t24.5 -59.5q31 41 65 63t77 22q71 0 111 -51.5zM315.5 102q33.5 43 51.5 110t18 137
q0 120 -80 120q-34 0 -63 -24t-62 -71l-33 -231q13 -47 35.5 -65.5t55.5 -18.5q44 0 77.5 43z" />
    <glyph glyph-name="amacron" unicode="&#x101;" horiz-adv-x="519" 
d="M474 497l-54 -378q-2 -20 -2 -27q0 -16 6 -26.5t22 -16.5l-28 -61q-37 5 -57.5 25.5t-24.5 59.5q-31 -41 -65 -63t-77 -22q-71 0 -111 51.5t-40 138.5q0 84 28 167t89 138t152 55q78 0 162 -41zM212 424.5q-40 -43.5 -59 -110.5t-19 -136q0 -120 78 -120q36 0 65 24
t62 71l42 302q-32 13 -69 13q-60 0 -100 -43.5zM459 668h-244l9 66h245z" />
    <glyph glyph-name="aogonek" unicode="&#x105;" horiz-adv-x="519" 
d="M418 92q0 -16 6 -26.5t22 -16.5l-28 -61q-76 -35 -102 -65t-26 -61q0 -17 11 -27t32 -10q20 0 55 7l-14 -67q-27 -6 -56 -6q-47 0 -74.5 25.5t-27.5 67.5q0 46 34 86t116 71q-26 20 -30 64q-31 -41 -65 -63t-77 -22q-71 0 -111 51.5t-40 138.5q0 84 28 167t89 138t152 55
q78 0 162 -41l-54 -378q-2 -20 -2 -27zM381 455q-32 13 -69 13q-60 0 -100 -43.5t-59 -110.5t-19 -136q0 -120 78 -120q36 0 65 24t62 71z" />
    <glyph glyph-name="aring" unicode="&#xe5;" horiz-adv-x="519" 
d="M474 497l-54 -378q-2 -20 -2 -27q0 -16 6 -26.5t22 -16.5l-28 -61q-37 5 -57.5 25.5t-24.5 59.5q-31 -41 -65 -63t-77 -22q-71 0 -111 51.5t-40 138.5q0 84 28 167t89 138t152 55q78 0 162 -41zM212 424.5q-40 -43.5 -59 -110.5t-19 -136q0 -120 78 -120q36 0 65 24
t62 71l42 302q-32 13 -69 13q-60 0 -100 -43.5zM421 807.5q26 -26.5 26 -67.5q0 -49 -33 -81.5t-82 -32.5q-41 0 -67 26.5t-26 66.5q0 49 33 82t81 33q42 0 68 -26.5zM310.5 767q-14.5 -19 -14.5 -47q0 -22 10 -34.5t29 -12.5q26 0 40.5 19t14.5 47q0 23 -10 35t-29 12
q-26 0 -40.5 -19z" />
    <glyph glyph-name="aringacute" unicode="&#x1fb;" horiz-adv-x="519" 
d="M474 497l-54 -378q-2 -20 -2 -27q0 -16 6 -26.5t22 -16.5l-28 -61q-37 5 -57.5 25.5t-24.5 59.5q-31 -41 -65 -63t-77 -22q-71 0 -111 51.5t-40 138.5q0 84 28 167t89 138t152 55q78 0 162 -41zM212 424.5q-40 -43.5 -59 -110.5t-19 -136q0 -120 78 -120q36 0 65 24
t62 71l42 302q-32 13 -69 13q-60 0 -100 -43.5zM417 766.5q26 -26.5 26 -67.5q0 -49 -33 -81.5t-82 -32.5q-41 0 -67 26.5t-26 66.5q0 49 33 82t81 33q42 0 68 -26.5zM306.5 726q-14.5 -19 -14.5 -47q0 -22 10 -34.5t29 -12.5q26 0 40.5 19t14.5 47q0 23 -10 35t-29 12
q-26 0 -40.5 -19zM429 950l33 -73l-201 -76l-21 46z" />
    <glyph glyph-name="uni2C65" unicode="&#x2c65;" horiz-adv-x="519" 
d="M418 92q0 -16 6 -26.5t22 -16.5l-28 -61q-37 5 -57.5 25.5t-24.5 59.5q-31 -41 -65 -63t-77 -22q-9 0 -29 2l-23 -60l-37 11l24 61q-41 20 -63.5 66t-22.5 110q0 84 28 167t89 138t152 55q16 0 24 -1l22 58l38 -11l-20 -52q48 -10 98 -35l-54 -378q-2 -20 -2 -27zM159 81
l150 387q-59 -1 -98.5 -45t-58 -110t-18.5 -135q0 -67 25 -97zM381 455q-23 8 -31 10l-157 -405q12 -2 19 -2q36 0 65 24t62 71z" />
    <glyph glyph-name="atilde" unicode="&#xe3;" horiz-adv-x="519" 
d="M474 497l-54 -378q-2 -20 -2 -27q0 -16 6 -26.5t22 -16.5l-28 -61q-37 5 -57.5 25.5t-24.5 59.5q-31 -41 -65 -63t-77 -22q-71 0 -111 51.5t-40 138.5q0 84 28 167t89 138t152 55q78 0 162 -41zM212 424.5q-40 -43.5 -59 -110.5t-19 -136q0 -120 78 -120q36 0 65 24
t62 71l42 302q-32 13 -69 13q-60 0 -100 -43.5zM361 664q-14 7 -32 21q-12 10 -20.5 15t-17.5 5q-14 0 -26.5 -11t-28.5 -34l-47 28q49 84 105 84q19 0 32.5 -7t30.5 -21q11 -10 19 -15t18 -5q14 0 26.5 10.5t27.5 33.5l49 -28q-45 -83 -103 -83q-19 0 -33 7z" />
    <glyph glyph-name="uni0250" unicode="&#x250;" horiz-adv-x="486" 
d="M152 152q-1 -8 -1 -23q0 -37 18.5 -53t62.5 -16q52 0 125 27l21 -64q-83 -35 -163 -35q-75 0 -114 35.5t-39 98.5q0 20 2 31l35 255q2 20 2 27q0 16 -6 26.5t-21 16.5l27 61q35 -5 55 -23t26 -52q54 74 145 74q63 0 99.5 -37t36.5 -100q0 -95 -64 -145t-168 -50h-72z
M183 386l-16 -121h58q70 0 108 34.5t38 101.5q0 71 -64 71q-72 0 -124 -86z" />
    <glyph glyph-name="ae" unicode="&#xe6;" horiz-adv-x="745" 
d="M349.5 517.5q33.5 -20.5 53.5 -59.5q30 37 72.5 58.5t96.5 21.5q72 0 112 -37.5t40 -93.5q0 -101 -84.5 -146t-234.5 -62q0 -72 24.5 -104.5t73.5 -32.5q33 0 63.5 11.5t63.5 35.5l37 -58q-82 -63 -173 -63q-56 0 -95 23.5t-60 66.5q-39 -49 -81.5 -69.5t-92.5 -20.5
q-67 0 -105 37t-38 99q0 79 55.5 131t178.5 52h74q8 37 22 76q-6 39 -34 61.5t-71 22.5q-31 0 -57.5 -6.5t-67.5 -20.5l-16 66q80 32 155 32q55 0 88.5 -20.5zM461.5 409.5q-38.5 -58.5 -50.5 -143.5q116 14 169.5 43.5t53.5 94.5q0 28 -16 46t-50 18q-68 0 -106.5 -58.5z
M261 247q-72 0 -108 -29.5t-36 -93.5q0 -70 65 -70q37 0 69.5 22.5t67.5 71.5q-2 22 -2 42q0 38 3 57h-59z" />
    <glyph glyph-name="aeacute" unicode="&#x1fd;" horiz-adv-x="745" 
d="M349.5 517.5q33.5 -20.5 53.5 -59.5q30 37 72.5 58.5t96.5 21.5q72 0 112 -37.5t40 -93.5q0 -101 -84.5 -146t-234.5 -62q0 -72 24.5 -104.5t73.5 -32.5q33 0 63.5 11.5t63.5 35.5l37 -58q-82 -63 -173 -63q-56 0 -95 23.5t-60 66.5q-39 -49 -81.5 -69.5t-92.5 -20.5
q-67 0 -105 37t-38 99q0 79 55.5 131t178.5 52h74q8 37 22 76q-6 39 -34 61.5t-71 22.5q-31 0 -57.5 -6.5t-67.5 -20.5l-16 66q80 32 155 32q55 0 88.5 -20.5zM461.5 409.5q-38.5 -58.5 -50.5 -143.5q116 14 169.5 43.5t53.5 94.5q0 28 -16 46t-50 18q-68 0 -106.5 -58.5z
M261 247q-72 0 -108 -29.5t-36 -93.5q0 -70 65 -70q37 0 69.5 22.5t67.5 71.5q-2 22 -2 42q0 38 3 57h-59zM518 797l33 -72l-201 -86l-23 46z" />
    <glyph glyph-name="uni01E3" unicode="&#x1e3;" horiz-adv-x="745" 
d="M349.5 517.5q33.5 -20.5 53.5 -59.5q30 37 72.5 58.5t96.5 21.5q72 0 112 -37.5t40 -93.5q0 -101 -84.5 -146t-234.5 -62q0 -72 24.5 -104.5t73.5 -32.5q33 0 63.5 11.5t63.5 35.5l37 -58q-82 -63 -173 -63q-56 0 -95 23.5t-60 66.5q-39 -49 -81.5 -69.5t-92.5 -20.5
q-67 0 -105 37t-38 99q0 79 55.5 131t178.5 52h74q8 37 22 76q-6 39 -34 61.5t-71 22.5q-31 0 -57.5 -6.5t-67.5 -20.5l-16 66q80 32 155 32q55 0 88.5 -20.5zM461.5 409.5q-38.5 -58.5 -50.5 -143.5q116 14 169.5 43.5t53.5 94.5q0 28 -16 46t-50 18q-68 0 -106.5 -58.5z
M261 247q-72 0 -108 -29.5t-36 -93.5q0 -70 65 -70q37 0 69.5 22.5t67.5 71.5q-2 22 -2 42q0 38 3 57h-59zM556 668h-244l9 66h245z" />
    <glyph glyph-name="b" unicode="b" horiz-adv-x="527" 
d="M444 488q39 -50 39 -142q0 -87 -27 -169t-87 -135.5t-153 -53.5q-41 0 -80 8.5t-88 26.5l101 716l88 10l-38 -277q64 66 139 66q67 0 106 -50zM187 391l-44 -318q41 -15 81 -15q58 0 96 44.5t56 111.5t18 136q0 118 -80 118q-61 0 -127 -77z" />
    <glyph glyph-name="uni1E03" unicode="&#x1e03;" horiz-adv-x="527" 
d="M444 488q39 -50 39 -142q0 -87 -27 -169t-87 -135.5t-153 -53.5q-41 0 -80 8.5t-88 26.5l101 716l88 10l-38 -277q64 66 139 66q67 0 106 -50zM187 391l-44 -318q41 -15 81 -15q58 0 96 44.5t56 111.5t18 136q0 118 -80 118q-61 0 -127 -77zM327 848q-15 15 -15 39
q0 29 19 47.5t46 18.5q25 0 40 -15t15 -39q0 -29 -19 -47.5t-46 -18.5q-25 0 -40 15z" />
    <glyph glyph-name="uni1E05" unicode="&#x1e05;" horiz-adv-x="527" 
d="M444 488q39 -50 39 -142q0 -87 -27 -169t-87 -135.5t-153 -53.5q-41 0 -80 8.5t-88 26.5l101 716l88 10l-38 -277q64 66 139 66q67 0 106 -50zM187 391l-44 -318q41 -15 81 -15q58 0 96 44.5t56 111.5t18 136q0 118 -80 118q-61 0 -127 -77zM249 -91q15 -15 15 -39
q0 -29 -19 -47.5t-46 -18.5q-25 0 -40 15t-15 39q0 29 19 47.5t46 18.5q25 0 40 -15z" />
    <glyph glyph-name="uniA7B5" unicode="&#xa7b5;" horiz-adv-x="535" 
d="M121 544q13 97 70.5 151t141.5 54q73 0 118 -42.5t45 -116.5q0 -68 -40 -123t-121 -68q63 -6 107.5 -46t44.5 -122q0 -58 -25.5 -114t-77 -92.5t-125.5 -36.5q-71 0 -123 46l-33 -237l-88 -12zM364 111.5q35 52.5 35 119.5q0 65 -34 99t-100 34h-37l18 68h37
q43 0 72.5 24t43.5 60t14 72q0 47 -22 69.5t-60 22.5q-50 0 -82 -36t-42 -106l-60 -434q39 -45 107 -45q75 0 110 52.5z" />
    <glyph glyph-name="uni0253" unicode="&#x253;" horiz-adv-x="527" 
d="M444.5 488q38.5 -50 38.5 -142q0 -87 -27 -169t-87 -135.5t-153 -53.5q-41 0 -80 8.5t-88 26.5l71 503h1l12 83q9 65 52.5 102.5t113.5 37.5q33 0 59 -7t54 -21l-33 -61q-37 18 -77 18q-39 0 -58.5 -20t-24.5 -60l-10 -72h-1l-7 -53q63 65 138 65q68 0 106.5 -50z
M320 102.5q38 44.5 56 111.5t18 136q0 118 -80 118q-61 0 -127 -77l-44 -318q41 -15 81 -15q58 0 96 44.5z" />
    <glyph glyph-name="uni02AD" unicode="&#x2ad;" horiz-adv-x="313" 
d="M301 400h-59l12 91h-131l-13 -91h-60l21 147h251zM244 -1h-59l12 91h-131l-13 -91h-60l21 147h251z" />
    <glyph glyph-name="uni0298" unicode="&#x298;" horiz-adv-x="715" 
d="M610.5 627q70.5 -73 70.5 -205q0 -123 -46 -222t-129 -155.5t-190 -56.5q-119 0 -189.5 73t-70.5 205q0 123 46.5 222t129.5 155.5t189 56.5q119 0 189.5 -73zM267.5 581q-62.5 -48 -95 -130.5t-32.5 -184.5q0 -105 48 -156t132 -51q88 0 150.5 47.5t95 129.5t32.5 185
q-1 106 -48 157t-133 51q-87 0 -149.5 -48zM324 300q-15 15 -15 39q0 29 19 47.5t46 18.5q25 0 40 -15t15 -39q0 -29 -19 -47.5t-46 -18.5q-25 0 -40 15z" />
    <glyph glyph-name="uni02AC" unicode="&#x2ac;" horiz-adv-x="422" 
d="M447 665l-96 -265h-77l-14 197l-70 -197h-79l-24 265h66l7 -203l74 203h71l15 -204l65 204h62zM391 265l-96 -265h-77l-14 197l-70 -197h-79l-24 265h66l7 -203l74 203h71l15 -204l65 204h62z" />
    <glyph glyph-name="uni0180" unicode="&#x180;" horiz-adv-x="535" 
d="M452 488q39 -50 39 -142q0 -87 -27 -169t-87 -135.5t-153 -53.5q-41 0 -80 8.5t-88 26.5l83 585h-68l10 67h67l9 64l88 10l-10 -74h137l-18 -67h-128l-19 -136q64 66 139 66q67 0 106 -50zM328 102.5q38 44.5 56 111.5t18 136q0 118 -80 118q-61 0 -127 -77l-44 -318
q41 -15 81 -15q58 0 96 44.5z" />
    <glyph glyph-name="uni0183" unicode="&#x183;" horiz-adv-x="527" 
d="M444.5 488q38.5 -50 38.5 -142q0 -87 -27 -169t-87 -135.5t-153 -53.5q-41 0 -80 8.5t-88 26.5l101 716h288l-21 -68h-189l-28 -199q64 66 139 66q68 0 106.5 -50zM320 102.5q38 44.5 56 111.5t18 136q0 118 -80 118q-61 0 -127 -77l-44 -318q41 -15 81 -15q58 0 96 44.5
z" />
    <glyph glyph-name="c" unicode="c" horiz-adv-x="428" 
d="M373.5 524.5q33.5 -13.5 62.5 -43.5l-47 -53q-21 20 -42.5 29t-48.5 9q-58 0 -94 -43.5t-52 -107.5t-16 -129q0 -123 92 -123q29 0 53 9.5t54 29.5l35 -59q-71 -55 -150 -55q-83 0 -129 53.5t-46 149.5q0 82 27 161.5t84 132.5t142 53q42 0 75.5 -13.5z" />
    <glyph glyph-name="cacute" unicode="&#x107;" horiz-adv-x="428" 
d="M373.5 524.5q33.5 -13.5 62.5 -43.5l-47 -53q-21 20 -42.5 29t-48.5 9q-58 0 -94 -43.5t-52 -107.5t-16 -129q0 -123 92 -123q29 0 53 9.5t54 29.5l35 -59q-71 -55 -150 -55q-83 0 -129 53.5t-46 149.5q0 82 27 161.5t84 132.5t142 53q42 0 75.5 -13.5zM401 797l33 -72
l-201 -86l-23 46z" />
    <glyph glyph-name="ccaron" unicode="&#x10d;" horiz-adv-x="428" 
d="M373.5 524.5q33.5 -13.5 62.5 -43.5l-47 -53q-21 20 -42.5 29t-48.5 9q-58 0 -94 -43.5t-52 -107.5t-16 -129q0 -123 92 -123q29 0 53 9.5t54 29.5l35 -59q-71 -55 -150 -55q-83 0 -129 53.5t-46 149.5q0 82 27 161.5t84 132.5t142 53q42 0 75.5 -13.5zM441 781l32 -41
l-137 -112h-55l-107 112l39 41l100 -82z" />
    <glyph glyph-name="ccedilla" unicode="&#xe7;" horiz-adv-x="428" 
d="M204 422.5q-36 -43.5 -52 -107.5t-16 -129q0 -123 92 -123q29 0 53 9.5t54 29.5l35 -59q-65 -50 -136 -55l-8 -47q37 -4 55.5 -24t18.5 -52q0 -43 -32 -73.5t-89 -30.5q-52 0 -83 26l29 46q14 -7 26 -11t28 -4q22 0 36.5 12t14.5 32q0 22 -15.5 30.5t-58.5 8.5l21 91
q-63 14 -97.5 65.5t-34.5 133.5t27 161.5t84 132.5t142 53q42 0 75.5 -13.5t62.5 -43.5l-47 -53q-21 20 -42.5 29t-48.5 9q-58 0 -94 -43.5z" />
    <glyph glyph-name="ccircumflex" unicode="&#x109;" horiz-adv-x="428" 
d="M373.5 524.5q33.5 -13.5 62.5 -43.5l-47 -53q-21 20 -42.5 29t-48.5 9q-58 0 -94 -43.5t-52 -107.5t-16 -129q0 -123 92 -123q29 0 53 9.5t54 29.5l35 -59q-71 -55 -150 -55q-83 0 -129 53.5t-46 149.5q0 82 27 161.5t84 132.5t142 53q42 0 75.5 -13.5zM201 637l-35 41
l138 113h56l105 -115l-40 -39l-101 82z" />
    <glyph glyph-name="uni0255" unicode="&#x255;" horiz-adv-x="438" 
d="M371.5 204q27.5 -26 27.5 -71q0 -67 -49.5 -106t-121.5 -39q-43 0 -70 11l-40 -73l-50 25l41 75v1q-31 26 -47.5 68t-16.5 96q0 82 27 161.5t84 132.5t142 53q42 0 75.5 -13.5t62.5 -43.5l-47 -53q-21 20 -42.5 29t-48.5 9q-58 0 -94 -43t-52 -107t-16 -129q0 -53 16 -84
v1q33 66 67.5 96t80.5 30q44 0 71.5 -26zM301.5 81.5q24.5 18.5 24.5 51.5q0 35 -32 35q-24 0 -46 -22t-52 -78q16 -5 42 -5q39 0 63.5 18.5z" />
    <glyph glyph-name="cdotaccent" unicode="&#x10b;" horiz-adv-x="428" 
d="M373.5 524.5q33.5 -13.5 62.5 -43.5l-47 -53q-21 20 -42.5 29t-48.5 9q-58 0 -94 -43.5t-52 -107.5t-16 -129q0 -123 92 -123q29 0 53 9.5t54 29.5l35 -59q-71 -55 -150 -55q-83 0 -129 53.5t-46 149.5q0 82 27 161.5t84 132.5t142 53q42 0 75.5 -13.5zM276 672
q-15 15 -15 39q0 29 19 47.5t46 18.5q25 0 40 -15t15 -39q0 -29 -19 -47.5t-46 -18.5q-25 0 -40 15z" />
    <glyph glyph-name="uni0188" unicode="&#x188;" horiz-adv-x="428" 
d="M621 710l-39 -53q-15 11 -28.5 16t-32.5 5q-58 0 -68 -75l-17 -122l-40 -46q-49 31 -98 31q-58 0 -94 -43.5t-52 -107.5t-16 -129q0 -123 92 -123q28 0 52 9.5t55 29.5l35 -59q-71 -55 -150 -55q-83 0 -129 53.5t-46 149.5q0 81 26.5 161t82 133t138.5 53q39 0 66 -13
l11 79q10 72 49 108.5t100 36.5q58 0 103 -39z" />
    <glyph glyph-name="uni0297" unicode="&#x297;" horiz-adv-x="446" 
d="M393.5 524.5q32.5 -13.5 62.5 -43.5l-47 -52q-22 19 -42.5 28t-47.5 9q-60 0 -101.5 -63t-62 -160.5t-20.5 -199.5q0 -99 22.5 -139.5t67.5 -40.5q27 0 50 9.5t55 30.5l35 -59q-71 -55 -148 -55q-84 0 -128.5 63.5t-44.5 192.5q0 131 31.5 243.5t94 181t150.5 68.5
q41 0 73.5 -13.5z" />
    <glyph glyph-name="uni023C" unicode="&#x23c;" horiz-adv-x="428" 
d="M349 456l-151 -389q12 -4 30 -4q29 0 53 9.5t54 29.5l35 -59q-71 -55 -150 -55q-27 0 -50 6l-25 -64l-38 11l26 67q-42 23 -65 70t-23 113q0 82 27 161.5t84 132.5t142 53q21 0 40 -3l23 60l38 -11l-24 -61q32 -13 61 -42l-47 -53q-19 17 -40 28zM311 465q-4 1 -13 1
q-58 0 -94 -43.5t-52 -107.5t-16 -129q0 -68 28 -98z" />
    <glyph glyph-name="d" unicode="d" horiz-adv-x="532" 
d="M516 738l-104 -738h-76l2 85q-55 -97 -145 -97q-72 0 -110.5 52.5t-38.5 143.5q0 79 25 161.5t77 138t130 55.5q75 0 116 -64l38 272zM200 422.5q-35 -46.5 -50.5 -113.5t-15.5 -130q0 -60 20.5 -90.5t57.5 -30.5q39 0 71.5 31.5t68.5 93.5l30 220q-17 33 -39.5 49.5
t-54.5 16.5q-53 0 -88 -46.5z" />
    <glyph glyph-name="eth" unicode="&#xf0;" horiz-adv-x="525" 
d="M446 550q25 -62 25 -154q0 -110 -28 -203t-85.5 -149t-141.5 -56q-80 0 -127 51t-47 143q0 70 25.5 137.5t75 111t118.5 43.5q80 0 125 -61q-2 68 -18 112t-56 84l-73 -68l-55 30l79 76q-40 24 -94 36l26 65q37 -8 65.5 -19.5t55.5 -30.5l79 76l43 -45l-72 -69
q55 -48 80 -110zM329 133q38 75 51 193q-33 79 -108 79t-108 -67t-33 -156q0 -62 22.5 -93t64.5 -31q73 0 111 75z" />
    <glyph glyph-name="uni0238" unicode="&#x238;" horiz-adv-x="769" 
d="M688 486.5q36 -51.5 36 -146.5q0 -92 -26.5 -173t-76.5 -130t-116 -49q-35 0 -61 20.5t-43 56.5l-17 -65h-66l2 72q-57 -84 -133 -84q-65 0 -103.5 55t-38.5 147q0 91 27 171t77 128.5t115 48.5q36 0 64.5 -20t43.5 -55l38 276l89 10l-40 -283q53 72 129 72
q64 0 100 -51.5zM268 80.5q29 22.5 61 71.5l33 241q-17 38 -38 56.5t-48 18.5q-45 0 -77 -42t-47.5 -106t-15.5 -129q0 -133 70 -133q33 0 62 22.5zM572 101.5q31 43.5 46.5 109t15.5 130.5q0 127 -71 127q-60 0 -114 -80l-36 -252q16 -41 35.5 -59.5t48.5 -18.5
q44 0 75 43.5z" />
    <glyph glyph-name="dcaron" unicode="&#x10f;" horiz-adv-x="561" 
d="M516 738l-104 -738h-76l2 85q-55 -97 -145 -97q-72 0 -110.5 52.5t-38.5 143.5q0 79 25 161.5t77 138t130 55.5q75 0 116 -64l38 272zM200 422.5q-35 -46.5 -50.5 -113.5t-15.5 -130q0 -60 20.5 -90.5t57.5 -30.5q39 0 71.5 31.5t68.5 93.5l30 220q-17 33 -39.5 49.5
t-54.5 16.5q-53 0 -88 -46.5zM581 748l75 -10l-67 -181l-48 8z" />
    <glyph glyph-name="uni1E13" unicode="&#x1e13;" horiz-adv-x="532" 
d="M516 738l-104 -738h-76l2 85q-55 -97 -145 -97q-72 0 -110.5 52.5t-38.5 143.5q0 79 25 161.5t77 138t130 55.5q75 0 116 -64l38 272zM200 422.5q-35 -46.5 -50.5 -113.5t-15.5 -130q0 -60 20.5 -90.5t57.5 -30.5q39 0 71.5 31.5t68.5 93.5l30 220q-17 33 -39.5 49.5
t-54.5 16.5q-53 0 -88 -46.5zM85 -222l-36 41l138 113h56l106 -115l-41 -39l-100 82z" />
    <glyph glyph-name="dcroat" unicode="&#x111;" horiz-adv-x="540" 
d="M575 674l-10 -67h-67l-86 -607h-76l2 85q-55 -97 -145 -97q-72 0 -110.5 52.5t-38.5 143.5q0 79 25 161.5t77 138t130 55.5q75 0 116 -64l18 132h-133l1 67h142l10 73l86 -9l-9 -64h68zM382 403q-17 33 -39.5 49.5t-54.5 16.5q-53 0 -88 -46.5t-50.5 -113.5t-15.5 -130
q0 -60 20.5 -90.5t57.5 -30.5q39 0 71.5 31.5t68.5 93.5z" />
    <glyph glyph-name="uni0221" unicode="&#x221;" horiz-adv-x="662" 
d="M633.5 195.5q25.5 -24.5 25.5 -66.5q0 -66 -49 -103.5t-123 -37.5q-35 0 -57 7l-39 -69l-50 25l41 69q-29 25 -37 71q-33 -51 -69.5 -77t-82.5 -26q-72 0 -110.5 52.5t-38.5 143.5q0 79 25 161.5t77 138t130 55.5q75 0 116 -64l38 272l86 -9l-86 -609q-2 -22 -2 -27
q30 60 62.5 89t77.5 29q40 0 65.5 -24.5zM382 403q-17 33 -39.5 49.5t-54.5 16.5q-53 0 -88 -46.5t-50.5 -113.5t-15.5 -130q0 -60 20.5 -90.5t57.5 -30.5q39 0 71.5 31.5t67.5 92.5zM563 80q24 17 24 47t-28 30q-21 0 -40 -19t-49 -74q9 -1 31 -1q38 0 62 17z" />
    <glyph glyph-name="uni1E0B" unicode="&#x1e0b;" horiz-adv-x="532" 
d="M516 738l-104 -738h-76l2 85q-55 -97 -145 -97q-72 0 -110.5 52.5t-38.5 143.5q0 79 25 161.5t77 138t130 55.5q75 0 116 -64l38 272zM200 422.5q-35 -46.5 -50.5 -113.5t-15.5 -130q0 -60 20.5 -90.5t57.5 -30.5q39 0 71.5 31.5t68.5 93.5l30 220q-17 33 -39.5 49.5
t-54.5 16.5q-53 0 -88 -46.5zM306 848q-15 15 -15 39q0 29 19 47.5t46 18.5q25 0 40 -15t15 -39q0 -29 -19 -47.5t-46 -18.5q-25 0 -40 15z" />
    <glyph glyph-name="uni1E0D" unicode="&#x1e0d;" horiz-adv-x="532" 
d="M516 738l-104 -738h-76l2 85q-55 -97 -145 -97q-72 0 -110.5 52.5t-38.5 143.5q0 79 25 161.5t77 138t130 55.5q75 0 116 -64l38 272zM200 422.5q-35 -46.5 -50.5 -113.5t-15.5 -130q0 -60 20.5 -90.5t57.5 -30.5q39 0 71.5 31.5t68.5 93.5l30 220q-17 33 -39.5 49.5
t-54.5 16.5q-53 0 -88 -46.5zM250 -91q15 -15 15 -39q0 -29 -19 -47.5t-46 -18.5q-25 0 -40 15t-15 39q0 29 19 47.5t46 18.5q25 0 40 -15z" />
    <glyph glyph-name="uni018D" unicode="&#x18d;" horiz-adv-x="521" 
d="M97 -200q-36 15 -66 46l48 49q26 -23 49.5 -32t55.5 -9q46 0 69.5 21.5t23.5 57.5q0 29 -18.5 48.5t-69.5 44.5q-72 37 -106.5 84t-34.5 119q0 64 26.5 136t83 122.5t141.5 50.5q82 0 130 -55.5t48 -147.5q0 -100 -41.5 -169t-141.5 -117q37 -26 53.5 -52.5t16.5 -59.5
q0 -39 -20.5 -74t-61 -56.5t-98.5 -21.5q-51 0 -87 15zM330.5 151.5q31.5 39.5 43 85t11.5 106.5q0 57 -23 90.5t-68 33.5q-56 0 -90.5 -40t-49 -95.5t-14.5 -104.5q0 -53 22.5 -86.5t79.5 -63.5q57 35 88.5 74.5z" />
    <glyph glyph-name="uni02A4" unicode="&#x2a4;" horiz-adv-x="853" 
d="M832 459l-226 -255q94 -1 140.5 -44.5t46.5 -121.5q0 -73 -31.5 -130t-87.5 -88.5t-126 -31.5q-62 0 -105 22.5t-74 68.5l54 44q29 -35 57.5 -49t68.5 -14q71 0 112 50.5t41 127.5q0 57 -28.5 79.5t-93.5 22.5h-73l1 1l9 63l217 250h-258l1 6l-65 -460h-76l2 85
q-55 -97 -145 -97q-72 0 -110.5 52.5t-38.5 143.5q0 79 25 161.5t77 138t130 55.5q75 0 116 -64l38 272l86 -9l-30 -211h355zM382 403q-17 33 -39.5 49.5t-54.5 16.5q-53 0 -88 -46.5t-50.5 -113.5t-15.5 -130q0 -60 20.5 -90.5t57.5 -30.5q39 0 71.5 31.5t68.5 93.5z" />
    <glyph glyph-name="uni0257" unicode="&#x257;" horiz-adv-x="531" 
d="M665 710l-39 -52q-16 10 -28.5 15t-31.5 5q-28 0 -46 -18.5t-22 -53.5l-12 -79l-74 -527h-76l2 85q-55 -97 -145 -97q-72 0 -110.5 52.5t-38.5 143.5q0 79 25 161.5t77 138t130 55.5q75 0 116 -64l7 52l12 77q10 71 49.5 108t102.5 37q57 0 102 -39zM382 403
q-17 33 -39.5 49.5t-54.5 16.5q-53 0 -88 -46.5t-50.5 -113.5t-15.5 -130q0 -60 20.5 -90.5t57.5 -30.5q39 0 71.5 31.5t67.5 93.5z" />
    <glyph glyph-name="uni1E0F" unicode="&#x1e0f;" horiz-adv-x="532" 
d="M516 738l-104 -738h-76l2 85q-55 -97 -145 -97q-72 0 -110.5 52.5t-38.5 143.5q0 79 25 161.5t77 138t130 55.5q75 0 116 -64l38 272zM200 422.5q-35 -46.5 -50.5 -113.5t-15.5 -130q0 -60 20.5 -90.5t57.5 -30.5q39 0 71.5 31.5t68.5 93.5l30 220q-17 33 -39.5 49.5
t-54.5 16.5q-53 0 -88 -46.5zM93 -105h244l-9 -66h-245z" />
    <glyph glyph-name="uni0256" unicode="&#x256;" horiz-adv-x="532" 
d="M545 -176q-47 -36 -109 -36q-57 0 -89.5 31t-32.5 89q0 20 2 31l9 61l12 82q-58 -94 -144 -94q-72 0 -110.5 52.5t-38.5 143.5q0 79 25 161.5t77 138t130 55.5q75 0 116 -64l38 272l86 -9l-104 -738l-10 -75q-1 -6 -1 -18q0 -48 47 -48q19 0 33.5 5t32.5 15zM283.5 89.5
q32.5 31.5 67.5 93.5l31 220q-17 33 -39.5 49.5t-54.5 16.5q-53 0 -88 -46.5t-50.5 -113.5t-15.5 -130q0 -60 20.5 -90.5t57.5 -30.5q39 0 71.5 31.5z" />
    <glyph glyph-name="uni018C" unicode="&#x18c;" horiz-adv-x="532" 
d="M412 0h-76l2 85q-55 -97 -145 -97q-72 0 -110.5 52.5t-38.5 143.5q0 79 25 161.5t77 138t130 55.5q75 0 116 -64l27 196h-196l10 68h283zM382 403q-17 33 -39.5 49.5t-54.5 16.5q-53 0 -88 -46.5t-50.5 -113.5t-15.5 -130q0 -60 20.5 -90.5t57.5 -30.5q39 0 71.5 31.5
t67.5 93.5z" />
    <glyph glyph-name="uni01F3" unicode="&#x1f3;" horiz-adv-x="923" 
d="M516 738l-104 -738h-76l2 85q-55 -97 -145 -97q-72 0 -110.5 52.5t-38.5 143.5q0 79 25 161.5t77 138t130 55.5q75 0 116 -64l38 272zM200 422.5q-35 -46.5 -50.5 -113.5t-15.5 -130q0 -60 20.5 -90.5t57.5 -30.5q39 0 71.5 31.5t68.5 93.5l30 220q-17 33 -39.5 49.5
t-54.5 16.5q-53 0 -88 -46.5zM931 527l-9 -68l-293 -385h242l-20 -74h-335l9 66l293 386h-219l12 75h320z" />
    <glyph glyph-name="uni02A3" unicode="&#x2a3;" horiz-adv-x="818" 
d="M817 459l-297 -385h246l-20 -74h-410l2 85q-55 -97 -145 -97q-72 0 -110.5 52.5t-38.5 143.5q0 79 25 161.5t77 138t130 55.5q75 0 116 -64l38 272l86 -9l-30 -211h340zM382 403q-17 33 -39.5 49.5t-54.5 16.5q-53 0 -88 -46.5t-50.5 -113.5t-15.5 -130q0 -60 20.5 -90.5
t57.5 -30.5q39 0 71.5 31.5t68.5 93.5zM422 68l291 384h-237z" />
    <glyph glyph-name="uni01C6" unicode="&#x1c6;" horiz-adv-x="923" 
d="M516 738l-104 -738h-76l2 85q-55 -97 -145 -97q-72 0 -110.5 52.5t-38.5 143.5q0 79 25 161.5t77 138t130 55.5q75 0 116 -64l38 272zM200 422.5q-35 -46.5 -50.5 -113.5t-15.5 -130q0 -60 20.5 -90.5t57.5 -30.5q39 0 71.5 31.5t68.5 93.5l30 220q-17 33 -39.5 49.5
t-54.5 16.5q-53 0 -88 -46.5zM931 527l-9 -68l-293 -385h242l-20 -74h-335l9 66l293 386h-219l12 75h320zM914 781l32 -41l-137 -112h-55l-107 112l39 41l100 -82z" />
    <glyph glyph-name="uni02A5" unicode="&#x2a5;" horiz-adv-x="835" 
d="M797.5 30.5q-49.5 -29.5 -132.5 -30.5q-12 -50 -22 -124l-62 6q7 45 21 118h-266l2 85q-55 -97 -145 -97q-72 0 -110.5 52.5t-38.5 143.5q0 79 25 161.5t77 138t130 55.5q75 0 116 -64l38 272l86 -9l-30 -211h340l-10 -67l-296 -386h101q42 138 137 138q40 0 64.5 -22
t24.5 -62q0 -68 -49.5 -97.5zM382 403q-17 33 -39.5 49.5t-54.5 16.5q-53 0 -88 -46.5t-50.5 -113.5t-15.5 -130q0 -60 20.5 -90.5t57.5 -30.5q39 0 71.5 31.5t68.5 93.5zM476 452l-54 -384l293 384h-239zM755.5 87.5q22.5 11.5 22.5 41.5q0 25 -27 25q-20 0 -36 -18.5
t-30 -61.5q48 2 70.5 13.5z" />
    <glyph glyph-name="e" unicode="e" horiz-adv-x="474" 
d="M368.5 260q-83.5 -45 -233.5 -63v-6q0 -129 97 -129q33 0 63 11.5t64 35.5l37 -58q-83 -63 -173 -63q-85 0 -131.5 53.5t-46.5 148.5q0 83 26.5 163t84.5 132.5t145 52.5q72 0 111.5 -37.5t39.5 -93.5q0 -102 -83.5 -147zM190.5 409q-38.5 -59 -50.5 -145
q115 14 169 44.5t54 95.5q0 28 -16 46t-50 18q-68 0 -106.5 -59z" />
    <glyph glyph-name="eacute" unicode="&#xe9;" horiz-adv-x="474" 
d="M368.5 260q-83.5 -45 -233.5 -63v-6q0 -129 97 -129q33 0 63 11.5t64 35.5l37 -58q-83 -63 -173 -63q-85 0 -131.5 53.5t-46.5 148.5q0 83 26.5 163t84.5 132.5t145 52.5q72 0 111.5 -37.5t39.5 -93.5q0 -102 -83.5 -147zM190.5 409q-38.5 -59 -50.5 -145
q115 14 169 44.5t54 95.5q0 28 -16 46t-50 18q-68 0 -106.5 -59zM398 797l33 -72l-201 -86l-23 46z" />
    <glyph glyph-name="ebreve" unicode="&#x115;" horiz-adv-x="474" 
d="M368.5 260q-83.5 -45 -233.5 -63v-6q0 -129 97 -129q33 0 63 11.5t64 35.5l37 -58q-83 -63 -173 -63q-85 0 -131.5 53.5t-46.5 148.5q0 83 26.5 163t84.5 132.5t145 52.5q72 0 111.5 -37.5t39.5 -93.5q0 -102 -83.5 -147zM190.5 409q-38.5 -59 -50.5 -145
q115 14 169 44.5t54 95.5q0 28 -16 46t-50 18q-68 0 -106.5 -59zM220 680q-33 36 -30 97l57 8q4 -38 19.5 -55.5t45.5 -17.5q32 0 56.5 20t37.5 57l55 -17q-14 -60 -55 -94t-96 -34q-57 0 -90 36z" />
    <glyph glyph-name="ecaron" unicode="&#x11b;" horiz-adv-x="474" 
d="M368.5 260q-83.5 -45 -233.5 -63v-6q0 -129 97 -129q33 0 63 11.5t64 35.5l37 -58q-83 -63 -173 -63q-85 0 -131.5 53.5t-46.5 148.5q0 83 26.5 163t84.5 132.5t145 52.5q72 0 111.5 -37.5t39.5 -93.5q0 -102 -83.5 -147zM190.5 409q-38.5 -59 -50.5 -145
q115 14 169 44.5t54 95.5q0 28 -16 46t-50 18q-68 0 -106.5 -59zM438 781l32 -41l-137 -112h-55l-107 112l39 41l100 -82z" />
    <glyph glyph-name="uni0229" unicode="&#x229;" horiz-adv-x="474" 
d="M368.5 260q-83.5 -45 -233.5 -63v-6q0 -129 97 -129q33 0 63 11.5t64 35.5l37 -58q-75 -56 -153 -62l-8 -48q37 -4 55.5 -24t18.5 -52q0 -43 -32 -73.5t-89 -30.5q-52 0 -83 26l29 46q14 -7 26 -11t28 -4q22 0 36.5 12t14.5 32q0 22 -15.5 30.5t-58.5 8.5l21 90
q-68 11 -104.5 63t-36.5 136q0 83 26.5 163t84.5 132.5t145 52.5q72 0 111.5 -37.5t39.5 -93.5q0 -102 -83.5 -147zM190.5 409q-38.5 -59 -50.5 -145q115 14 169 44.5t54 95.5q0 28 -16 46t-50 18q-68 0 -106.5 -59z" />
    <glyph glyph-name="ecircumflex" unicode="&#xea;" horiz-adv-x="474" 
d="M368.5 260q-83.5 -45 -233.5 -63v-6q0 -129 97 -129q33 0 63 11.5t64 35.5l37 -58q-83 -63 -173 -63q-85 0 -131.5 53.5t-46.5 148.5q0 83 26.5 163t84.5 132.5t145 52.5q72 0 111.5 -37.5t39.5 -93.5q0 -102 -83.5 -147zM190.5 409q-38.5 -59 -50.5 -145
q115 14 169 44.5t54 95.5q0 28 -16 46t-50 18q-68 0 -106.5 -59zM198 637l-35 41l138 113h56l105 -115l-40 -39l-101 82z" />
    <glyph glyph-name="uni1EBF" unicode="&#x1ebf;" horiz-adv-x="474" 
d="M572 837l-140 -129l-34 31l126 147zM290 741h56l106 -114l-38 -39l-103 81l-123 -81l-36 42zM412.5 500.5q39.5 -37.5 39.5 -93.5q0 -102 -83.5 -147t-233.5 -63v-6q0 -129 97 -129q33 0 63 11.5t64 35.5l37 -58q-83 -63 -173 -63q-85 0 -131.5 53.5t-46.5 148.5
q0 83 26.5 163t84.5 132.5t145 52.5q72 0 111.5 -37.5zM309 308.5q54 30.5 54 95.5q0 28 -16 46t-50 18q-68 0 -106.5 -59t-50.5 -145q115 14 169 44.5z" />
    <glyph glyph-name="uni1EC7" unicode="&#x1ec7;" horiz-adv-x="474" 
d="M368.5 260q-83.5 -45 -233.5 -63v-6q0 -129 97 -129q33 0 63 11.5t64 35.5l37 -58q-83 -63 -173 -63q-85 0 -131.5 53.5t-46.5 148.5q0 83 26.5 163t84.5 132.5t145 52.5q72 0 111.5 -37.5t39.5 -93.5q0 -102 -83.5 -147zM190.5 409q-38.5 -59 -50.5 -145
q115 14 169 44.5t54 95.5q0 28 -16 46t-50 18q-68 0 -106.5 -59zM198 637l-35 41l138 113h56l105 -115l-40 -39l-101 82zM248 -91q15 -15 15 -39q0 -29 -19 -47.5t-46 -18.5q-25 0 -40 15t-15 39q0 29 19 47.5t46 18.5q25 0 40 -15z" />
    <glyph glyph-name="uni1EC1" unicode="&#x1ec1;" horiz-adv-x="474" 
d="M233 736l-38 -28l-106 131l58 45zM186 588l-36 42l138 111h56l106 -114l-38 -39l-103 81zM368.5 260q-83.5 -45 -233.5 -63v-6q0 -129 97 -129q33 0 63 11.5t64 35.5l37 -58q-83 -63 -173 -63q-85 0 -131.5 53.5t-46.5 148.5q0 83 26.5 163t84.5 132.5t145 52.5
q72 0 111.5 -37.5t39.5 -93.5q0 -102 -83.5 -147zM190.5 409q-38.5 -59 -50.5 -145q115 14 169 44.5t54 95.5q0 28 -16 46t-50 18q-68 0 -106.5 -59z" />
    <glyph glyph-name="uni1EC3" unicode="&#x1ec3;" horiz-adv-x="474" 
d="M368.5 260q-83.5 -45 -233.5 -63v-6q0 -129 97 -129q33 0 63 11.5t64 35.5l37 -58q-83 -63 -173 -63q-85 0 -131.5 53.5t-46.5 148.5q0 83 26.5 163t84.5 132.5t145 52.5q72 0 111.5 -37.5t39.5 -93.5q0 -102 -83.5 -147zM190.5 409q-38.5 -59 -50.5 -145
q115 14 169 44.5t54 95.5q0 28 -16 46t-50 18q-68 0 -106.5 -59zM184 588l-36 42l138 111h56l106 -114l-38 -39l-103 81zM419 804q35 5 53 16t18 36q0 29 -32 29q-15 0 -26 -3.5t-26 -11.5l-17 52q38 22 83 22q42 0 66 -23.5t24 -61.5q0 -75 -84 -90l-8 -57h-63z" />
    <glyph glyph-name="uni1EC5" unicode="&#x1ec5;" horiz-adv-x="474" 
d="M256 799q-12 -11 -28 -34l-47 28q49 84 105 84q19 0 32.5 -7t30.5 -21q11 -10 19 -15t18 -5q14 0 26.5 10.5t27.5 33.5l49 -28q-45 -83 -103 -83q-19 0 -33 7t-32 21q-12 10 -20.5 15t-17.5 5q-15 0 -27 -11zM291 731h56l106 -114l-38 -39l-103 81l-123 -81l-36 42z
M412.5 500.5q39.5 -37.5 39.5 -93.5q0 -102 -83.5 -147t-233.5 -63v-6q0 -129 97 -129q33 0 63 11.5t64 35.5l37 -58q-83 -63 -173 -63q-85 0 -131.5 53.5t-46.5 148.5q0 83 26.5 163t84.5 132.5t145 52.5q72 0 111.5 -37.5zM309 308.5q54 30.5 54 95.5q0 28 -16 46t-50 18
q-68 0 -106.5 -59t-50.5 -145q115 14 169 44.5z" />
    <glyph glyph-name="uni0205" unicode="&#x205;" horiz-adv-x="474" 
d="M368.5 260q-83.5 -45 -233.5 -63v-6q0 -129 97 -129q33 0 63 11.5t64 35.5l37 -58q-83 -63 -173 -63q-85 0 -131.5 53.5t-46.5 148.5q0 83 26.5 163t84.5 132.5t145 52.5q72 0 111.5 -37.5t39.5 -93.5q0 -102 -83.5 -147zM190.5 409q-38.5 -59 -50.5 -145
q115 14 169 44.5t54 95.5q0 28 -16 46t-50 18q-68 0 -106.5 -59zM225 830l55 -173l-57 -22l-76 159zM361 829l47 -167l-57 -22l-69 154z" />
    <glyph glyph-name="edieresis" unicode="&#xeb;" horiz-adv-x="474" 
d="M368.5 260q-83.5 -45 -233.5 -63v-6q0 -129 97 -129q33 0 63 11.5t64 35.5l37 -58q-83 -63 -173 -63q-85 0 -131.5 53.5t-46.5 148.5q0 83 26.5 163t84.5 132.5t145 52.5q72 0 111.5 -37.5t39.5 -93.5q0 -102 -83.5 -147zM190.5 409q-38.5 -59 -50.5 -145
q115 14 169 44.5t54 95.5q0 28 -16 46t-50 18q-68 0 -106.5 -59zM184.5 669.5q-13.5 13.5 -13.5 34.5q0 26 17.5 43t42.5 17q21 0 34.5 -14t13.5 -34q0 -27 -17 -43.5t-42 -16.5q-22 0 -35.5 13.5zM372.5 669.5q-13.5 13.5 -13.5 34.5q0 26 17.5 43t42.5 17q21 0 34.5 -14
t13.5 -34q0 -26 -17 -43t-42 -17q-22 0 -35.5 13.5z" />
    <glyph glyph-name="edotaccent" unicode="&#x117;" horiz-adv-x="474" 
d="M368.5 260q-83.5 -45 -233.5 -63v-6q0 -129 97 -129q33 0 63 11.5t64 35.5l37 -58q-83 -63 -173 -63q-85 0 -131.5 53.5t-46.5 148.5q0 83 26.5 163t84.5 132.5t145 52.5q72 0 111.5 -37.5t39.5 -93.5q0 -102 -83.5 -147zM190.5 409q-38.5 -59 -50.5 -145
q115 14 169 44.5t54 95.5q0 28 -16 46t-50 18q-68 0 -106.5 -59zM273 672q-15 15 -15 39q0 29 19 47.5t46 18.5q25 0 40 -15t15 -39q0 -29 -19 -47.5t-46 -18.5q-25 0 -40 15z" />
    <glyph glyph-name="uni1EB9" unicode="&#x1eb9;" horiz-adv-x="474" 
d="M368.5 260q-83.5 -45 -233.5 -63v-6q0 -129 97 -129q33 0 63 11.5t64 35.5l37 -58q-83 -63 -173 -63q-85 0 -131.5 53.5t-46.5 148.5q0 83 26.5 163t84.5 132.5t145 52.5q72 0 111.5 -37.5t39.5 -93.5q0 -102 -83.5 -147zM190.5 409q-38.5 -59 -50.5 -145
q115 14 169 44.5t54 95.5q0 28 -16 46t-50 18q-68 0 -106.5 -59zM248 -91q15 -15 15 -39q0 -29 -19 -47.5t-46 -18.5q-25 0 -40 15t-15 39q0 29 19 47.5t46 18.5q25 0 40 -15z" />
    <glyph glyph-name="egrave" unicode="&#xe8;" horiz-adv-x="474" 
d="M368.5 260q-83.5 -45 -233.5 -63v-6q0 -129 97 -129q33 0 63 11.5t64 35.5l37 -58q-83 -63 -173 -63q-85 0 -131.5 53.5t-46.5 148.5q0 83 26.5 163t84.5 132.5t145 52.5q72 0 111.5 -37.5t39.5 -93.5q0 -102 -83.5 -147zM190.5 409q-38.5 -59 -50.5 -145
q115 14 169 44.5t54 95.5q0 28 -16 46t-50 18q-68 0 -106.5 -59zM269 796l164 -112l-29 -45l-179 86z" />
    <glyph glyph-name="uni1EBB" unicode="&#x1ebb;" horiz-adv-x="474" 
d="M368.5 260q-83.5 -45 -233.5 -63v-6q0 -129 97 -129q33 0 63 11.5t64 35.5l37 -58q-83 -63 -173 -63q-85 0 -131.5 53.5t-46.5 148.5q0 83 26.5 163t84.5 132.5t145 52.5q72 0 111.5 -37.5t39.5 -93.5q0 -102 -83.5 -147zM190.5 409q-38.5 -59 -50.5 -145
q115 14 169 44.5t54 95.5q0 28 -16 46t-50 18q-68 0 -106.5 -59zM285 704q35 5 53 16t18 36q0 29 -32 29q-15 0 -26 -3.5t-26 -11.5l-17 52q38 22 83 22q42 0 66 -23.5t24 -61.5q0 -75 -84 -90l-8 -57h-63z" />
    <glyph glyph-name="uni0207" unicode="&#x207;" horiz-adv-x="474" 
d="M368.5 260q-83.5 -45 -233.5 -63v-6q0 -129 97 -129q33 0 63 11.5t64 35.5l37 -58q-83 -63 -173 -63q-85 0 -131.5 53.5t-46.5 148.5q0 83 26.5 163t84.5 132.5t145 52.5q72 0 111.5 -37.5t39.5 -93.5q0 -102 -83.5 -147zM190.5 409q-38.5 -59 -50.5 -145
q115 14 169 44.5t54 95.5q0 28 -16 46t-50 18q-68 0 -106.5 -59zM170 630q16 61 57 94.5t96 33.5q56 0 88.5 -36t31.5 -97l-56 -8q-5 38 -21.5 56t-47.5 18q-63 0 -93 -78z" />
    <glyph glyph-name="emacron" unicode="&#x113;" horiz-adv-x="474" 
d="M368.5 260q-83.5 -45 -233.5 -63v-6q0 -129 97 -129q33 0 63 11.5t64 35.5l37 -58q-83 -63 -173 -63q-85 0 -131.5 53.5t-46.5 148.5q0 83 26.5 163t84.5 132.5t145 52.5q72 0 111.5 -37.5t39.5 -93.5q0 -102 -83.5 -147zM190.5 409q-38.5 -59 -50.5 -145
q115 14 169 44.5t54 95.5q0 28 -16 46t-50 18q-68 0 -106.5 -59zM436 668h-244l9 66h245z" />
    <glyph glyph-name="eogonek" unicode="&#x119;" horiz-adv-x="474" 
d="M368.5 260q-83.5 -45 -233.5 -63v-6q0 -129 97 -129q33 0 63 11.5t64 35.5l37 -58q-45 -34 -95 -51q-58 -29 -79.5 -54.5t-21.5 -55.5q0 -47 50 -47q24 0 55 7l-10 -67q-33 -7 -58 -7q-51 0 -81 27t-30 69q0 73 81 117q-78 5 -120 58t-42 143q0 83 26.5 163t84.5 132.5
t145 52.5q72 0 111.5 -37.5t39.5 -93.5q0 -102 -83.5 -147zM190.5 409q-38.5 -59 -50.5 -145q115 14 169 44.5t54 95.5q0 28 -16 46t-50 18q-68 0 -106.5 -59z" />
    <glyph glyph-name="uni025B" unicode="&#x25b;" horiz-adv-x="439" 
d="M81 29q-48 41 -48 106q0 55 35 95.5t110 51.5q-89 25 -89 103q0 38 20 73t61 57.5t102 22.5q89 0 150 -54l-45 -50q-25 18 -48 26.5t-56 8.5q-48 0 -73 -24t-25 -61t22.5 -56t63.5 -19h51l-21 -69h-42q-65 0 -94.5 -28.5t-29.5 -75.5q0 -37 22.5 -57t66.5 -20q35 0 64 11
t67 36l38 -55q-78 -63 -176 -63q-78 0 -126 41z" />
    <glyph glyph-name="uni029A" unicode="&#x29a;" horiz-adv-x="514" 
d="M115 7q-39 19 -60.5 51.5t-21.5 73.5q0 57 36 98t114 52q-84 24 -84 100q0 39 21 74.5t62.5 58.5t99.5 23q89 0 137.5 -56.5t48.5 -153.5q0 -100 -30.5 -177t-90 -120t-142.5 -43q-51 0 -90 19zM337.5 134q41.5 75 41.5 195q0 72 -25 106t-75 34q-47 0 -71.5 -24.5
t-24.5 -63.5q0 -72 80 -72h35l-21 -69h-31q-65 0 -93 -30t-28 -76q0 -36 21.5 -55.5t64.5 -19.5q85 0 126.5 75z" />
    <glyph glyph-name="uni025C" unicode="&#x25c;" horiz-adv-x="446" 
d="M356.5 503.5q43.5 -34.5 43.5 -93.5q0 -49 -31 -83t-92 -47q109 -19 109 -113q0 -45 -23.5 -86t-72.5 -67t-120 -26q-106 0 -174 65l48 53q58 -47 127 -47q63 0 93 31t30 76q0 41 -28.5 57.5t-79.5 16.5h-62l17 69h44q61 0 93 27.5t32 68.5q0 33 -19.5 48.5t-54.5 15.5
q-38 0 -66.5 -10.5t-64.5 -31.5l-35 53q81 58 177 58q66 0 109.5 -34.5z" />
    <glyph glyph-name="uni025E" unicode="&#x25e;" horiz-adv-x="503" 
d="M91.5 41.5q-46.5 53.5 -46.5 148.5q0 99 31.5 178t91 124.5t138.5 45.5q64 0 107.5 -35t43.5 -93q0 -49 -31 -82.5t-92 -46.5q109 -19 109 -114q0 -45 -23.5 -86t-72 -67t-119.5 -26q-90 0 -136.5 53.5zM323.5 90.5q29.5 31.5 29.5 76.5q0 40 -28 56.5t-79 16.5h-28
l18 69h15q58 0 88 26.5t30 68.5q0 32 -18 48.5t-53 16.5q-55 0 -92 -41t-55 -106t-18 -136q0 -67 23.5 -97t76.5 -30q61 0 90.5 31.5z" />
    <glyph glyph-name="uni025D" unicode="&#x25d;" horiz-adv-x="651" 
d="M684 349q-51 -35 -106 -35q-54 0 -85 29.5t-31 77.5q0 11 1 17l2 15l-65 -36v-7q0 -49 -31 -83t-92 -47q109 -19 109 -113q0 -45 -23.5 -86t-72.5 -67t-120 -26q-106 0 -174 65l48 53q58 -47 127 -47q63 0 93 31t30 76q0 41 -28.5 57.5t-79.5 16.5h-62l17 69h44
q61 0 93 27.5t32 68.5q0 33 -19.5 48.5t-54.5 15.5q-38 0 -66.5 -10.5t-64.5 -31.5l-35 53q81 58 177 58q44 0 80 -16t55 -46l92 51h81l-12 -86q-1 -5 -1 -13q0 -44 45 -44q20 0 35.5 5t33.5 16z" />
    <glyph glyph-name="uni0258" unicode="&#x258;" horiz-adv-x="474" 
d="M381.5 479q45.5 -59 45.5 -157q0 -95 -31 -171t-88.5 -119.5t-134.5 -43.5q-53 0 -92 17t-69 49l48 51q28 -23 53.5 -33t62.5 -10q54 0 90.5 36t54.5 98q-128 8 -194.5 48t-66.5 120q0 51 24.5 90.5t66.5 61.5t92 22q93 0 138.5 -59zM194 292q44 -24 140 -29q4 28 4 65
q0 65 -23.5 102.5t-73.5 37.5q-41 0 -66 -27.5t-25 -72.5q0 -52 44 -76z" />
    <glyph glyph-name="uni0283" unicode="&#x283;" horiz-adv-x="252" 
d="M385 710l-39 -52q-16 10 -28.5 15t-31.5 5q-28 0 -46 -18.5t-22 -53.5l-12 -79l-74 -527l-9 -68q-10 -71 -51.5 -107.5t-103.5 -36.5q-56 0 -102 39l41 53q17 -11 29 -16t31 -5q27 0 45.5 17.5t23.5 53.5l9 70l74 527l12 77q10 71 49.5 108t102.5 37q57 0 102 -39z" />
    <glyph glyph-name="uni0286" unicode="&#x286;" horiz-adv-x="280" 
d="M413 710l-39 -52q-16 10 -28.5 15t-31.5 5q-28 0 -46 -18.5t-22 -53.5l-12 -79l-75 -540q52 -15 91 -37l-25 -45q-32 16 -76 28q-17 -69 -59.5 -106.5t-107.5 -37.5q-50 0 -79 27t-29 73q0 56 40 88.5t100 32.5q34 0 61 -5l72 522l12 77q10 71 49.5 108t102.5 37
q57 0 102 -39zM38 -125.5q20 25.5 29 76.5q-20 4 -54 4q-35 0 -54 -17.5t-19 -45.5q0 -20 11.5 -31.5t32.5 -11.5q34 0 54 25.5z" />
    <glyph glyph-name="uni01AA" unicode="&#x1aa;" horiz-adv-x="292" 
d="M303 -176q-47 -36 -109 -36q-57 0 -89.5 31t-32.5 89q0 20 2 31l9 61l68 491q-24 -12 -52 -12q-43 0 -72 31t-29 82q0 71 41 114t103 43q53 0 83 -30t30 -87q0 -21 -2 -32l-83 -600l-10 -75q-1 -6 -1 -18q0 -48 47 -48q19 0 33.5 5t32.5 15zM160 556l9 65q2 16 2 21
q0 38 -33 38q-27 0 -41.5 -25.5t-14.5 -64.5q0 -42 37 -42q19 0 41 8z" />
    <glyph glyph-name="uni0285" unicode="&#x285;" horiz-adv-x="398" 
d="M367 25q-47 -36 -109 -36q-57 0 -89.5 31t-32.5 89q0 20 2 31l9 61l18 125l10 75q1 6 1 18q0 48 -47 48q-19 0 -33.5 -5t-32.5 -15l-31 55q47 36 109 36q57 0 89.5 -31t32.5 -89q0 -20 -2 -31l-9 -61l-18 -126l-10 -74q-1 -6 -1 -18q0 -48 47 -48q19 0 33.5 5t32.5 15z
" />
    <glyph glyph-name="uni0247" unicode="&#x247;" horiz-adv-x="474" 
d="M397 281q-55 -45 -154 -66l-55 -144q20 -9 44 -9q33 0 63 11.5t64 35.5l37 -58q-83 -63 -173 -63q-35 0 -64 9l-26 -67l-38 11l28 73q-38 24 -58 69t-20 107q0 83 26.5 163t84.5 132.5t145 52.5q17 0 25 -1l23 58l37 -11l-22 -56q43 -15 65.5 -47.5t22.5 -73.5
q0 -81 -55 -126zM190.5 409q-38.5 -59 -50.5 -145q55 7 86 14l74 190h-3q-68 0 -106.5 -59zM337 458l-64 -167q46 17 68 44t22 69q0 37 -26 54zM198 206l-63 -9v-6q0 -59 21 -93z" />
    <glyph glyph-name="uni1EBD" unicode="&#x1ebd;" horiz-adv-x="474" 
d="M368.5 260q-83.5 -45 -233.5 -63v-6q0 -129 97 -129q33 0 63 11.5t64 35.5l37 -58q-83 -63 -173 -63q-85 0 -131.5 53.5t-46.5 148.5q0 83 26.5 163t84.5 132.5t145 52.5q72 0 111.5 -37.5t39.5 -93.5q0 -102 -83.5 -147zM190.5 409q-38.5 -59 -50.5 -145
q115 14 169 44.5t54 95.5q0 28 -16 46t-50 18q-68 0 -106.5 -59zM338 664q-14 7 -32 21q-12 10 -20.5 15t-17.5 5q-14 0 -26.5 -11t-28.5 -34l-47 28q49 84 105 84q19 0 32.5 -7t30.5 -21q11 -10 19 -15t18 -5q14 0 26.5 10.5t27.5 33.5l49 -28q-45 -83 -103 -83
q-19 0 -33 7z" />
    <glyph glyph-name="uni01DD" unicode="&#x1dd;" horiz-adv-x="474" 
d="M382.5 485.5q46.5 -53.5 46.5 -148.5q0 -83 -26.5 -163t-84.5 -132.5t-145 -52.5q-72 0 -111.5 37.5t-39.5 93.5q0 102 83.5 147t233.5 63v6q0 129 -97 129q-33 0 -63 -11.5t-64 -35.5l-37 58q83 63 173 63q85 0 131.5 -53.5zM283.5 118q38.5 59 50.5 145
q-115 -14 -169 -44.5t-54 -95.5q0 -28 16 -46t50 -18q68 0 106.5 59z" />
    <glyph glyph-name="uni0259" unicode="&#x259;" horiz-adv-x="474" 
d="M382.5 485.5q46.5 -53.5 46.5 -148.5q0 -83 -26.5 -163t-84.5 -132.5t-145 -52.5q-72 0 -111.5 37.5t-39.5 93.5q0 102 83.5 147t233.5 63v6q0 129 -97 129q-33 0 -63 -11.5t-64 -35.5l-37 58q83 63 173 63q85 0 131.5 -53.5zM283.5 118q38.5 59 50.5 145
q-115 -14 -169 -44.5t-54 -95.5q0 -28 16 -46t50 -18q68 0 106.5 59z" />
    <glyph glyph-name="uni025A" unicode="&#x25a;" horiz-adv-x="680" 
d="M713 349q-51 -35 -106 -35q-54 0 -85 29.5t-31 77.5q0 11 1 17l2 15l-74 -41q9 -34 9 -75q0 -83 -26.5 -163t-84.5 -132.5t-145 -52.5q-72 0 -111.5 37.5t-39.5 93.5q0 102 83.5 147t233.5 63v6q0 129 -97 129q-33 0 -63 -11.5t-64 -35.5l-37 58q83 63 173 63
q99 0 145 -71l107 59h81l-12 -86q-1 -5 -1 -13q0 -44 45 -44q20 0 35.5 5t33.5 16zM283.5 118q38.5 59 50.5 145q-115 -14 -169 -44.5t-54 -95.5q0 -28 16 -46t50 -18q68 0 106.5 59z" />
    <glyph glyph-name="uni0292" unicode="&#x292;" horiz-adv-x="431" 
d="M410 459l-226 -255q94 -1 140.5 -44.5t46.5 -121.5q0 -73 -31.5 -130t-87.5 -88.5t-126 -31.5q-62 0 -105 22.5t-74 68.5l54 44q29 -35 57.5 -49t68.5 -14q71 0 112 50.5t41 127.5q0 57 -28.5 79.5t-93.5 22.5h-73l1 1l9 63l217 250h-258l10 73h355z" />
    <glyph glyph-name="uni01EF" unicode="&#x1ef;" horiz-adv-x="431" 
d="M410 459l-226 -255q94 -1 140.5 -44.5t46.5 -121.5q0 -73 -31.5 -130t-87.5 -88.5t-126 -31.5q-62 0 -105 22.5t-74 68.5l54 44q29 -35 57.5 -49t68.5 -14q71 0 112 50.5t41 127.5q0 57 -28.5 79.5t-93.5 22.5h-73l1 1l9 63l217 250h-258l10 73h355zM386 781l32 -41
l-137 -112h-55l-107 112l39 41l100 -82z" />
    <glyph glyph-name="uni0293" unicode="&#x293;" horiz-adv-x="430" 
d="M410 459l-226 -255q94 -1 140.5 -44.5t46.5 -121.5q0 -86 -48 -148.5t-132 -87.5l17 -58l-60 -21l-18 67q-26 -2 -42 -2q-80 0 -122 32t-42 88q0 51 33 84.5t82 33.5q53 0 83.5 -34.5t49.5 -119.5q54 19 81 62.5t27 103.5q0 56 -28.5 79t-92.5 23h-73l1 1l8 63l217 250
h-258l10 73h355zM18 -126.5q23 -13.5 73 -13.5q13 0 20 1q-15 61 -30.5 82.5t-41.5 21.5q-20 0 -32 -14t-12 -35q0 -29 23 -42.5z" />
    <glyph glyph-name="uni01B9" unicode="&#x1b9;" horiz-adv-x="434" 
d="M430 454h-263l152 -250l-9 -64l-2 1l1 -1h-67q-79 0 -120.5 -44t-41.5 -122q0 -56 26.5 -85t76.5 -29q44 0 78.5 15.5t71.5 49.5l46 -49q-43 -45 -91 -66.5t-109 -21.5q-89 0 -140.5 50.5t-51.5 135.5q0 69 30.5 121t86.5 81t128 29h4l-158 254l8 68h355z" />
    <glyph glyph-name="uni01BA" unicode="&#x1ba;" horiz-adv-x="419" 
d="M2 -156.5q-27 31.5 -27 66.5q0 56 40 84t131 47q53 11 82.5 22.5t45 31.5t15.5 54q0 31 -16.5 44t-49.5 13h-134l9 65l192 183h-243l10 73h351l-8 -68l-203 -187h38q69 0 107.5 -31.5t38.5 -90.5q0 -74 -51.5 -116t-147.5 -61q-50 -10 -76 -19.5t-35.5 -20t-9.5 -25.5
q0 -17 13 -32t39 -32l-35 -57q-49 25 -76 56.5z" />
    <glyph glyph-name="f" unicode="f" horiz-adv-x="295" 
d="M253 659q-20 -20 -25 -61l-10 -71h115l-20 -69h-105l-61 -436q-10 -72 -32.5 -114t-56.5 -67.5t-94 -52.5l-24 66q38 18 60.5 35.5t37.5 50t23 88.5l61 430h-82l9 69h82l11 76q9 68 51.5 107.5t112.5 39.5q34 0 60.5 -9.5t54.5 -28.5l-33 -57q-38 24 -78 24
q-37 0 -57 -20z" />
    <glyph glyph-name="uni1E1F" unicode="&#x1e1f;" horiz-adv-x="295" 
d="M253 659q-20 -20 -25 -61l-10 -71h115l-20 -69h-105l-61 -436q-10 -72 -32.5 -114t-56.5 -67.5t-94 -52.5l-24 66q38 18 60.5 35.5t37.5 50t23 88.5l61 430h-82l9 69h82l11 76q9 68 51.5 107.5t112.5 39.5q34 0 60.5 -9.5t54.5 -28.5l-33 -57q-38 24 -78 24
q-37 0 -57 -20zM270 848q-15 15 -15 39q0 29 19 47.5t46 18.5q25 0 40 -15t15 -39q0 -29 -19 -47.5t-46 -18.5q-25 0 -40 15z" />
    <glyph glyph-name="uni02A9" unicode="&#x2a9;" horiz-adv-x="787" 
d="M697 505q31 -34 31 -93q0 -18 -3 -36l-53 -376l-9 -68q-10 -71 -51.5 -107.5t-103.5 -36.5q-56 0 -102 39l41 53q17 -11 29 -16t31 -5q27 0 45.5 17.5t23.5 53.5l9 70l53 375q2 20 2 28q0 62 -50 62q-70 0 -148 -144l-45 -321h-87l64 458h-166l-61 -436
q-10 -72 -32.5 -114t-56.5 -67.5t-94 -52.5l-24 66q38 18 60.5 35.5t37.5 50t23 88.5l61 430h-82l9 69h82l11 76q9 68 51.5 107.5t112.5 39.5q34 0 60.5 -9.5t54.5 -28.5l-33 -57q-38 24 -78 24q-37 0 -57 -20t-25 -61l-10 -71h241l-8 -100q36 54 75 83t88 29q52 0 83 -34z
" />
    <glyph glyph-name="g" unicode="g" horiz-adv-x="523" 
d="M397 527.5q39 -10.5 80 -30.5l-71 -492q-17 -116 -74 -168t-149 -52q-42 0 -85.5 13.5t-78.5 36.5l35 65q27 -16 60.5 -27.5t66.5 -11.5q55 0 91.5 30.5t48.5 114.5l9 70q-29 -36 -61.5 -56t-73.5 -20q-70 0 -110.5 50.5t-40.5 135.5q0 84 28.5 164.5t89.5 134t153 53.5
q43 0 82 -10.5zM213.5 426q-40.5 -42 -59.5 -107t-19 -133q0 -116 79 -116q35 0 65.5 25t62.5 71l42 289q-32 13 -70 13q-60 0 -100.5 -42z" />
    <glyph glyph-name="uni01F5" unicode="&#x1f5;" horiz-adv-x="523" 
d="M397 527.5q39 -10.5 80 -30.5l-71 -492q-17 -116 -74 -168t-149 -52q-42 0 -85.5 13.5t-78.5 36.5l35 65q27 -16 60.5 -27.5t66.5 -11.5q55 0 91.5 30.5t48.5 114.5l9 70q-29 -36 -61.5 -56t-73.5 -20q-70 0 -110.5 50.5t-40.5 135.5q0 84 28.5 164.5t89.5 134t153 53.5
q43 0 82 -10.5zM213.5 426q-40.5 -42 -59.5 -107t-19 -133q0 -116 79 -116q35 0 65.5 25t62.5 71l42 289q-32 13 -70 13q-60 0 -100.5 -42zM414 797l33 -72l-201 -86l-23 46z" />
    <glyph glyph-name="uni0263" unicode="&#x263;" horiz-adv-x="444" 
d="M239 61q18 -47 26.5 -81.5t8.5 -67.5q0 -61 -30.5 -92.5t-84.5 -31.5q-44 0 -68.5 24t-24.5 63q0 37 21 83t62 106l-102 463h94l61 -404l175 404h94zM187 3q-20 -32 -34 -66t-14 -56q0 -27 25 -27q20 0 28.5 16t8.5 42q0 35 -14 91z" />
    <glyph glyph-name="gbreve" unicode="&#x11f;" horiz-adv-x="523" 
d="M397 527.5q39 -10.5 80 -30.5l-71 -492q-17 -116 -74 -168t-149 -52q-42 0 -85.5 13.5t-78.5 36.5l35 65q27 -16 60.5 -27.5t66.5 -11.5q55 0 91.5 30.5t48.5 114.5l9 70q-29 -36 -61.5 -56t-73.5 -20q-70 0 -110.5 50.5t-40.5 135.5q0 84 28.5 164.5t89.5 134t153 53.5
q43 0 82 -10.5zM213.5 426q-40.5 -42 -59.5 -107t-19 -133q0 -116 79 -116q35 0 65.5 25t62.5 71l42 289q-32 13 -70 13q-60 0 -100.5 -42zM236 680q-33 36 -30 97l57 8q4 -38 19.5 -55.5t45.5 -17.5q32 0 56.5 20t37.5 57l55 -17q-14 -60 -55 -94t-96 -34q-57 0 -90 36z
" />
    <glyph glyph-name="gcaron" unicode="&#x1e7;" horiz-adv-x="523" 
d="M397 527.5q39 -10.5 80 -30.5l-71 -492q-17 -116 -74 -168t-149 -52q-42 0 -85.5 13.5t-78.5 36.5l35 65q27 -16 60.5 -27.5t66.5 -11.5q55 0 91.5 30.5t48.5 114.5l9 70q-29 -36 -61.5 -56t-73.5 -20q-70 0 -110.5 50.5t-40.5 135.5q0 84 28.5 164.5t89.5 134t153 53.5
q43 0 82 -10.5zM213.5 426q-40.5 -42 -59.5 -107t-19 -133q0 -116 79 -116q35 0 65.5 25t62.5 71l42 289q-32 13 -70 13q-60 0 -100.5 -42zM454 781l32 -41l-137 -112h-55l-107 112l39 41l100 -82z" />
    <glyph glyph-name="gcircumflex" unicode="&#x11d;" horiz-adv-x="523" 
d="M397 527.5q39 -10.5 80 -30.5l-71 -492q-17 -116 -74 -168t-149 -52q-42 0 -85.5 13.5t-78.5 36.5l35 65q27 -16 60.5 -27.5t66.5 -11.5q55 0 91.5 30.5t48.5 114.5l9 70q-29 -36 -61.5 -56t-73.5 -20q-70 0 -110.5 50.5t-40.5 135.5q0 84 28.5 164.5t89.5 134t153 53.5
q43 0 82 -10.5zM213.5 426q-40.5 -42 -59.5 -107t-19 -133q0 -116 79 -116q35 0 65.5 25t62.5 71l42 289q-32 13 -70 13q-60 0 -100.5 -42zM214 637l-35 41l138 113h56l105 -115l-40 -39l-101 82z" />
    <glyph glyph-name="gcommaaccent" unicode="&#x123;" horiz-adv-x="523" 
d="M397 527.5q39 -10.5 80 -30.5l-71 -492q-17 -116 -74 -168t-149 -52q-42 0 -85.5 13.5t-78.5 36.5l35 65q27 -16 60.5 -27.5t66.5 -11.5q55 0 91.5 30.5t48.5 114.5l9 70q-29 -36 -61.5 -56t-73.5 -20q-70 0 -110.5 50.5t-40.5 135.5q0 84 28.5 164.5t89.5 134t153 53.5
q43 0 82 -10.5zM213.5 426q-40.5 -42 -59.5 -107t-19 -133q0 -116 79 -116q35 0 65.5 25t62.5 71l42 289q-32 13 -70 13q-60 0 -100.5 -42zM287 599q-13 15 -13 34q0 17 7 34t27 51l49 82h49l-44 -118q8 -7 13 -17.5t5 -22.5q0 -25 -16.5 -41.5t-40.5 -16.5q-23 0 -36 15z
" />
    <glyph glyph-name="gdotaccent" unicode="&#x121;" horiz-adv-x="523" 
d="M397 527.5q39 -10.5 80 -30.5l-71 -492q-17 -116 -74 -168t-149 -52q-42 0 -85.5 13.5t-78.5 36.5l35 65q27 -16 60.5 -27.5t66.5 -11.5q55 0 91.5 30.5t48.5 114.5l9 70q-29 -36 -61.5 -56t-73.5 -20q-70 0 -110.5 50.5t-40.5 135.5q0 84 28.5 164.5t89.5 134t153 53.5
q43 0 82 -10.5zM213.5 426q-40.5 -42 -59.5 -107t-19 -133q0 -116 79 -116q35 0 65.5 25t62.5 71l42 289q-32 13 -70 13q-60 0 -100.5 -42zM289 672q-15 15 -15 39q0 29 19 47.5t46 18.5q25 0 40 -15t15 -39q0 -29 -19 -47.5t-46 -18.5q-25 0 -40 15z" />
    <glyph glyph-name="uni0260" unicode="&#x260;" horiz-adv-x="526" 
d="M660 710l-39 -52q-16 10 -28.5 15t-31.5 5q-28 0 -46 -18.5t-22 -53.5l-12 -79l-75 -522q-17 -116 -74 -168t-149 -52q-42 0 -85.5 13.5t-78.5 36.5l35 65q27 -16 60.5 -27.5t66.5 -11.5q55 0 92 30.5t48 114.5l9 70q-29 -36 -61 -56t-73 -20q-71 0 -111.5 50.5
t-40.5 135.5q0 84 28.5 164.5t89 134t151.5 53.5q42 0 80 -15l1 4l12 77q10 71 49.5 108t102.5 37q57 0 102 -39zM279.5 95q30.5 25 62.5 71l42 290q-29 12 -70 12q-60 0 -100.5 -42t-59.5 -107t-19 -133q0 -116 79 -116q35 0 65.5 25z" />
    <glyph glyph-name="uni01BE" unicode="&#x1be;" horiz-adv-x="455" 
d="M363 369.5q36 -42.5 36 -120.5q0 -74 -30 -133.5t-83.5 -93t-120.5 -33.5q-54 0 -95 22t-75 65l52 44q27 -31 55 -45.5t63 -14.5q67 0 105.5 52.5t38.5 135.5q0 56 -22.5 85.5t-69.5 42.5l-61 16l22 154h-63l9 68h63l18 124l87 9l-19 -133h104l-10 -68h-103l-16 -112
l24 -6q55 -16 91 -58.5z" />
    <glyph glyph-name="uni0294" unicode="&#x294;" horiz-adv-x="400" 
d="M130 348l54 18q74 25 107 72.5t33 126.5q0 55 -24 84t-73 29q-36 0 -68 -15t-70 -46l-41 50q46 42 90.5 62t97.5 20q85 0 132.5 -50t47.5 -133q0 -104 -46 -163t-140 -92l-19 -7l-42 -304h-87z" />
    <glyph glyph-name="uni0296" unicode="&#x296;" horiz-adv-x="455" 
d="M292 747l-44 -313l24 -6q55 -16 91 -58.5t36 -120.5q0 -74 -30 -133.5t-83.5 -93t-120.5 -33.5q-54 0 -95 22t-75 65l52 44q27 -31 55 -45.5t63 -14.5q67 0 105.5 52.5t38.5 135.5q0 56 -22.5 85.5t-69.5 42.5l-61 16l49 346z" />
    <glyph glyph-name="uni0295" unicode="&#x295;" horiz-adv-x="396" 
d="M155 0l43 302l-15 6q-57 22 -91.5 61.5t-34.5 115.5q0 75 29.5 135t83.5 94.5t123 34.5q54 0 94 -21.5t74 -64.5l-51 -44q-28 31 -55 45t-62 14q-68 0 -107 -55.5t-39 -137.5q0 -53 23.5 -81t69.5 -43l49 -15l-47 -346h-87z" />
    <glyph glyph-name="uni0242" unicode="&#x242;" horiz-adv-x="396" 
d="M98 196l62 19q63 19 92.5 56.5t29.5 96.5q0 45 -21.5 70.5t-62.5 25.5q-35 0 -62 -13t-63 -41l-43 56q41 36 83 54t94 18q77 0 121.5 -47t44.5 -121q0 -81 -43.5 -134t-121.5 -76l-30 -8l-21 -152h-87z" />
    <glyph glyph-name="uni02A1" unicode="&#x2a1;" horiz-adv-x="400" 
d="M211 304l-12 -90h98l-10 -67h-98l-20 -147h-87l20 147h-61l10 67h61l18 134l54 18q74 25 107 72.5t33 126.5q0 55 -24 84t-73 29q-36 0 -68 -15t-70 -46l-41 50q46 42 90.5 62t97.5 20q85 0 132.5 -50t47.5 -133q0 -104 -46 -163t-140 -92z" />
    <glyph glyph-name="uni02A2" unicode="&#x2a2;" horiz-adv-x="396" 
d="M387 727.5q40 -21.5 74 -64.5l-51 -44q-28 31 -55 45t-62 14q-68 0 -107 -55.5t-39 -137.5q0 -53 23.5 -81t69.5 -43l49 -15l-18 -132h62l-10 -67h-61l-20 -147h-87l21 147h-98l9 67h98l13 88l-15 6q-57 22 -91.5 61.5t-34.5 115.5q0 75 29.5 135t83.5 94.5t123 34.5
q54 0 94 -21.5z" />
    <glyph glyph-name="uni0261" unicode="&#x261;" horiz-adv-x="523" 
d="M397 527.5q39 -10.5 80 -30.5l-71 -492q-17 -116 -74 -168t-149 -52q-42 0 -85.5 13.5t-78.5 36.5l35 65q27 -16 60.5 -27.5t66.5 -11.5q55 0 91.5 30.5t48.5 114.5l9 70q-29 -36 -61.5 -56t-73.5 -20q-70 0 -110.5 50.5t-40.5 135.5q0 84 28.5 164.5t89.5 134t153 53.5
q43 0 82 -10.5zM213.5 426q-40.5 -42 -59.5 -107t-19 -133q0 -116 79 -116q35 0 65.5 25t62.5 71l42 289q-32 13 -70 13q-60 0 -100.5 -42z" />
    <glyph glyph-name="uni01E5" unicode="&#x1e5;" horiz-adv-x="497" 
d="M401 -25h61l-8 -61h-72q-51 -129 -199 -129q-42 0 -85.5 13.5t-78.5 36.5l35 64q65 -39 130 -39q38 0 65 11.5t44 42.5h-112l8 61h127q4 17 5 29l11 82q-29 -36 -61.5 -56t-73.5 -20q-71 0 -111.5 51t-40.5 137q0 79 28 157t89 130.5t152 52.5q42 0 81.5 -10t81.5 -31
l-71 -492zM280.5 105q30.5 25 63.5 70l40 280q-32 13 -70 13q-60 0 -100 -41t-59 -103t-19 -126q0 -118 79 -118q35 0 65.5 25z" />
    <glyph glyph-name="uni021D" unicode="&#x21d;" horiz-adv-x="437" 
d="M343 502q44 -36 44 -100q0 -53 -30.5 -83.5t-89.5 -47.5q54 -1 82.5 -25.5t28.5 -69.5q0 -104 -101 -173.5t-253 -104.5l-5 66q136 43 201.5 91.5t65.5 117.5q0 32 -20 44.5t-61 12.5h-83l16 69h42q52 0 84.5 26.5t32.5 75.5q0 68 -76 68q-36 0 -65.5 -10.5t-64.5 -31.5
l-34 54q40 29 82 43t90 14q70 0 114 -36z" />
    <glyph glyph-name="h" unicode="h" horiz-adv-x="522" 
d="M431 504.5q31 -34.5 31 -93.5q0 -22 -2 -34l-53 -377h-87l52 375q2 22 2 29q0 61 -49 61q-71 0 -149 -144l-44 -321h-87l104 738l88 9l-45 -315q67 107 155 107q53 0 84 -34.5z" />
    <glyph glyph-name="hbar" unicode="&#x127;" horiz-adv-x="529" 
d="M438 504.5q31 -34.5 31 -93.5q0 -22 -2 -34l-53 -377h-87l52 375q2 22 2 29q0 61 -49 61q-71 0 -149 -144l-44 -321h-87l86 607h-67l9 67h67l9 64l88 9l-10 -73h137l-18 -67h-129l-25 -175q67 107 155 107q53 0 84 -34.5z" />
    <glyph glyph-name="uni021F" unicode="&#x21f;" horiz-adv-x="522" 
d="M431 504.5q31 -34.5 31 -93.5q0 -22 -2 -34l-53 -377h-87l52 375q2 22 2 29q0 61 -49 61q-71 0 -149 -144l-44 -321h-87l104 738l88 9l-45 -315q67 107 155 107q53 0 84 -34.5zM467 957l35 -42l-137 -111h-56l-106 114l38 39l103 -81z" />
    <glyph glyph-name="hcircumflex" unicode="&#x125;" horiz-adv-x="522" 
d="M431 504.5q31 -34.5 31 -93.5q0 -22 -2 -34l-53 -377h-87l52 375q2 22 2 29q0 61 -49 61q-71 0 -149 -144l-44 -321h-87l104 738l88 9l-45 -315q67 107 155 107q53 0 84 -34.5zM224 809l-36 42l138 111h56l106 -114l-38 -39l-103 81z" />
    <glyph glyph-name="uni1E25" unicode="&#x1e25;" horiz-adv-x="522" 
d="M431 504.5q31 -34.5 31 -93.5q0 -22 -2 -34l-53 -377h-87l52 375q2 22 2 29q0 61 -49 61q-71 0 -149 -144l-44 -321h-87l104 738l88 9l-45 -315q67 107 155 107q53 0 84 -34.5zM253 -91q15 -15 15 -39q0 -29 -19 -47.5t-46 -18.5q-25 0 -40 15t-15 39q0 29 19 47.5
t46 18.5q25 0 40 -15z" />
    <glyph glyph-name="uni0267" unicode="&#x267;" horiz-adv-x="523" 
d="M432 504.5q31 -34.5 31 -93.5q0 -22 -2 -34l-53 -377l-9 -68q-10 -71 -51.5 -107.5t-103.5 -36.5q-56 0 -102 39l41 53q17 -11 29 -16t31 -5q27 0 45.5 17.5t23.5 53.5l9 70l52 375q2 22 2 29q0 61 -48 61q-72 0 -150 -144l-43 -321h-87l72 526h1l12 83q9 65 52.5 102.5
t113.5 37.5q33 0 59 -7t54 -21l-33 -61q-37 18 -77 18q-39 0 -58.5 -20t-24.5 -60l-10 -72h-1l-13 -94q66 107 154 107q53 0 84 -34.5z" />
    <glyph glyph-name="uni0266" unicode="&#x266;" horiz-adv-x="523" 
d="M432 504.5q31 -34.5 31 -93.5q0 -22 -2 -34l-53 -377h-87l52 375q2 22 2 29q0 61 -48 61q-72 0 -150 -144l-43 -321h-87l72 526h1l12 83q9 65 52.5 102.5t113.5 37.5q33 0 59 -7t54 -21l-33 -61q-37 18 -77 18q-39 0 -58.5 -20t-24.5 -60l-10 -72h-1l-13 -94
q66 107 154 107q53 0 84 -34.5z" />
    <glyph glyph-name="uni0265" unicode="&#x265;" horiz-adv-x="518" 
d="M330 91q-33 -49 -69.5 -76t-84.5 -27q-54 0 -85.5 33.5t-31.5 91.5q0 8 2 30l54 384h87l-54 -385q-2 -18 -2 -25q0 -58 47 -58q41 0 78 38t73 98l46 332h87l-103 -731l-87 -11z" />
    <glyph glyph-name="uni02AE" unicode="&#x2ae;" horiz-adv-x="611" 
d="M570 527l-103 -731l-87 -11l43 306q-33 -49 -69.5 -76t-84.5 -27q-54 0 -85.5 34t-31.5 92q0 9 2 29l25 183l10 75q1 6 1 18q0 48 -47 48q-19 0 -33.5 -5t-32.5 -15l-31 55q47 36 109 36q57 0 89.5 -31t32.5 -89q0 -20 -2 -31l-9 -61l-25 -184q-2 -18 -2 -25
q0 -58 48 -58q40 0 76.5 37.5t74.5 98.5l45 332h87z" />
    <glyph glyph-name="uni02AF" unicode="&#x2af;" horiz-adv-x="611" 
d="M630 -176q-47 -36 -109 -36q-57 0 -89.5 31t-32.5 89q0 20 2 31l9 61l14 91q-34 -49 -70.5 -76t-84.5 -27q-54 0 -85.5 34t-31.5 92q0 9 2 29l25 183l10 75q1 6 1 18q0 48 -47 48q-19 0 -33.5 -5t-32.5 -15l-31 55q47 36 109 36q57 0 89.5 -31t32.5 -89q0 -20 -2 -31
l-9 -61l-25 -184q-2 -18 -2 -25q0 -58 48 -58q40 0 76.5 37.5t74.5 98.5l45 332h87l-73 -527l-10 -75q-1 -6 -1 -18q0 -48 47 -48q19 0 33.5 5t32.5 15z" />
    <glyph glyph-name="uni0195" unicode="&#x195;" horiz-adv-x="788" 
d="M377.5 28.5q-37.5 40.5 -37.5 101.5q0 9 2 27l30 218q2 22 2 29q0 61 -49 61q-71 0 -149 -144l-44 -321h-87l104 738l88 9l-45 -315q67 107 155 107q53 0 84 -34.5t31 -93.5q0 -22 -2 -34l-31 -221q-2 -18 -2 -24q0 -35 16.5 -54t48.5 -19q93 0 126 109t33 251
q0 65 -4 108h83q7 -53 7 -114q0 -188 -58 -306.5t-191 -118.5q-73 0 -110.5 40.5z" />
    <glyph glyph-name="i" unicode="i" horiz-adv-x="252" 
d="M206 527l-74 -527h-87l74 527h87zM141 672q-15 15 -15 39q0 29 19 47.5t46 18.5q25 0 40 -15t15 -39q0 -29 -19 -47.5t-46 -18.5q-25 0 -40 15z" />
    <glyph glyph-name="dotlessi" unicode="&#x131;" horiz-adv-x="252" 
d="M206 527l-74 -527h-87l74 527h87z" />
    <glyph glyph-name="iacute" unicode="&#xed;" horiz-adv-x="252" 
d="M206 527l-74 -527h-87l74 527h87zM266 797l33 -72l-201 -86l-23 46z" />
    <glyph glyph-name="ibreve" unicode="&#x12d;" horiz-adv-x="252" 
d="M206 527l-74 -527h-87l74 527h87zM88 680q-33 36 -30 97l57 8q4 -38 19.5 -55.5t45.5 -17.5q32 0 56.5 20t37.5 57l55 -17q-14 -60 -55 -94t-96 -34q-57 0 -90 36z" />
    <glyph glyph-name="uni01D0" unicode="&#x1d0;" horiz-adv-x="252" 
d="M206 527l-74 -527h-87l74 527h87zM306 781l32 -41l-137 -112h-55l-107 112l39 41l100 -82z" />
    <glyph glyph-name="icircumflex" unicode="&#xee;" horiz-adv-x="252" 
d="M206 527l-74 -527h-87l74 527h87zM66 637l-35 41l138 113h56l105 -115l-40 -39l-101 82z" />
    <glyph glyph-name="uni0209" unicode="&#x209;" horiz-adv-x="252" 
d="M206 527l-74 -527h-87l74 527h87zM93 830l55 -173l-57 -22l-76 159zM229 829l47 -167l-57 -22l-69 154z" />
    <glyph glyph-name="idieresis" unicode="&#xef;" horiz-adv-x="252" 
d="M206 527l-74 -527h-87l74 527h87zM52.5 669.5q-13.5 13.5 -13.5 34.5q0 26 17.5 43t42.5 17q21 0 34.5 -14t13.5 -34q0 -27 -17 -43.5t-42 -16.5q-22 0 -35.5 13.5zM240.5 669.5q-13.5 13.5 -13.5 34.5q0 26 17.5 43t42.5 17q21 0 34.5 -14t13.5 -34q0 -26 -17 -43
t-42 -17q-22 0 -35.5 13.5z" />
    <glyph glyph-name="uni1E2F" unicode="&#x1e2f;" horiz-adv-x="252" 
d="M206 527l-74 -527h-87l74 527h87zM272 889l48 -49l-140 -129l-34 31zM44 640q-14 14 -14 34q0 26 17.5 43t42.5 17q21 0 34.5 -13.5t13.5 -34.5q0 -26 -17 -43t-42 -17q-21 0 -35 14zM232 640q-14 14 -14 34q0 26 17.5 43t42.5 17q21 0 34.5 -13.5t13.5 -34.5
q0 -26 -17 -43t-42 -17q-21 0 -35 14z" />
    <glyph glyph-name="i.loclTRK" horiz-adv-x="252" 
d="M206 527l-74 -527h-87l74 527h87zM141 672q-15 15 -15 39q0 29 19 47.5t46 18.5q25 0 40 -15t15 -39q0 -29 -19 -47.5t-46 -18.5q-25 0 -40 15z" />
    <glyph glyph-name="uni1ECB" unicode="&#x1ecb;" horiz-adv-x="252" 
d="M206 527l-74 -527h-87l74 527h87zM141 672q-15 15 -15 39q0 29 19 47.5t46 18.5q25 0 40 -15t15 -39q0 -29 -19 -47.5t-46 -18.5q-25 0 -40 15zM114 -91q15 -15 15 -39q0 -29 -19 -47.5t-46 -18.5q-25 0 -40 15t-15 39q0 29 19 47.5t46 18.5q25 0 40 -15z" />
    <glyph glyph-name="igrave" unicode="&#xec;" horiz-adv-x="252" 
d="M206 527l-74 -527h-87l74 527h87zM137 796l164 -112l-29 -45l-179 86z" />
    <glyph glyph-name="uni1EC9" unicode="&#x1ec9;" horiz-adv-x="252" 
d="M206 527l-74 -527h-87l74 527h87zM153 704q35 5 53 16t18 36q0 29 -32 29q-15 0 -26 -3.5t-26 -11.5l-17 52q38 22 83 22q42 0 66 -23.5t24 -61.5q0 -75 -84 -90l-8 -57h-63z" />
    <glyph glyph-name="uni020B" unicode="&#x20b;" horiz-adv-x="252" 
d="M206 527l-74 -527h-87l74 527h87zM38 630q16 61 57 94.5t96 33.5q56 0 88.5 -36t31.5 -97l-56 -8q-5 38 -21.5 56t-47.5 18q-63 0 -93 -78z" />
    <glyph glyph-name="ij" unicode="&#x133;" horiz-adv-x="505" 
d="M206 527l-74 -527h-87l74 527h87zM141 672q-15 15 -15 39q0 29 19 47.5t46 18.5q25 0 40 -15t15 -39q0 -29 -19 -47.5t-46 -18.5q-25 0 -40 15zM182 -146q38 18 60 35.5t37.5 50t23.5 88.5l70 499h87l-71 -505q-10 -72 -32.5 -114t-56.5 -67.5t-94 -52.5zM396 672
q-15 15 -15 39q0 29 19 47.5t46 18.5q25 0 40 -15t15 -39q0 -29 -19 -47.5t-46 -18.5q-25 0 -40 15z" />
    <glyph glyph-name="imacron" unicode="&#x12b;" horiz-adv-x="252" 
d="M206 527l-74 -527h-87l74 527h87zM304 668h-244l9 66h245z" />
    <glyph glyph-name="iogonek" unicode="&#x12f;" horiz-adv-x="252" 
d="M231 762q15 -15 15 -39q0 -29 -19 -47.5t-46 -18.5q-25 0 -40 15t-15 39q0 29 19 47.5t46 18.5q25 0 40 -15zM119 527h87l-74 -527h-26q-76 -35 -102 -65t-26 -61q0 -17 11 -27t32 -10q20 0 55 7l-14 -67q-27 -6 -56 -6q-47 0 -74.5 25.5t-27.5 67.5q0 98 144 154z" />
    <glyph glyph-name="uni0269" unicode="&#x269;" horiz-adv-x="262" 
d="M114 527h87l-60 -428q-1 -5 -1 -13q0 -13 5.5 -19t17.5 -6q16 0 31 6l16 -62q-33 -17 -68 -17q-41 0 -64.5 24.5t-23.5 68.5q0 8 2 26z" />
    <glyph glyph-name="uni0268" unicode="&#x268;" horiz-adv-x="282" 
d="M155 672q-15 15 -15 39q0 29 19 47.5t46 18.5q25 0 40 -15t15 -39q0 -29 -19 -47.5t-46 -18.5q-25 0 -40 15zM277 315l-11 -67h-85l-35 -248h-87l35 248h-83l10 67h82l30 212h87l-30 -212h87z" />
    <glyph glyph-name="itilde" unicode="&#x129;" horiz-adv-x="252" 
d="M206 527l-74 -527h-87l74 527h87zM206 664q-14 7 -32 21q-12 10 -20.5 15t-17.5 5q-14 0 -26.5 -11t-28.5 -34l-47 28q49 84 105 84q19 0 32.5 -7t30.5 -21q11 -10 19 -15t18 -5q14 0 26.5 10.5t27.5 33.5l49 -28q-45 -83 -103 -83q-19 0 -33 7z" />
    <glyph glyph-name="j" unicode="j" horiz-adv-x="253" 
d="M-70 -146q38 18 60 35.5t37.5 50t23.5 88.5l70 499h87l-71 -505q-10 -72 -32.5 -114t-56.5 -67.5t-94 -52.5zM144 672q-15 15 -15 39q0 29 19 47.5t46 18.5q25 0 40 -15t15 -39q0 -29 -19 -47.5t-46 -18.5q-25 0 -40 15z" />
    <glyph glyph-name="uni0237" unicode="&#x237;" horiz-adv-x="253" 
d="M-70 -146q38 18 60 35.5t37.5 50t23.5 88.5l70 499h87l-71 -505q-10 -72 -32.5 -114t-56.5 -67.5t-94 -52.5z" />
    <glyph glyph-name="uni01F0" unicode="&#x1f0;" horiz-adv-x="253" 
d="M-70 -146q38 18 60 35.5t37.5 50t23.5 88.5l70 499h87l-71 -505q-10 -72 -32.5 -114t-56.5 -67.5t-94 -52.5zM309 781l32 -41l-137 -112h-55l-107 112l39 41l100 -82z" />
    <glyph glyph-name="jcircumflex" unicode="&#x135;" horiz-adv-x="253" 
d="M-70 -146q38 18 60 35.5t37.5 50t23.5 88.5l70 499h87l-71 -505q-10 -72 -32.5 -114t-56.5 -67.5t-94 -52.5zM69 637l-35 41l138 113h56l105 -115l-40 -39l-101 82z" />
    <glyph glyph-name="uni029D" unicode="&#x29d;" horiz-adv-x="306" 
d="M260 762q15 -15 15 -39q0 -29 -19 -47.5t-46 -18.5q-25 0 -40 15t-15 39q0 29 19 47.5t46 18.5q25 0 40 -15zM159 -13q52 -15 91 -37l-25 -45q-32 16 -76 28q-17 -69 -59.5 -106.5t-107.5 -37.5q-50 0 -79 27t-29 73q0 56 40 88.5t100 32.5q34 0 61 -5l72 522h87z
M38 -125.5q20 25.5 29 76.5q-20 4 -54 4q-35 0 -54 -17.5t-19 -45.5q0 -20 11.5 -31.5t32.5 -11.5q34 0 54 25.5z" />
    <glyph glyph-name="uni025F" unicode="&#x25f;" horiz-adv-x="284" 
d="M265 218h-83l-28 -196q-10 -72 -32.5 -114t-56.5 -67.5t-94 -52.5l-24 66q38 18 60 35.5t37.5 50t23.5 88.5l27 190h-86l10 67h85l34 242h87l-34 -242h83z" />
    <glyph glyph-name="uni0284" unicode="&#x284;" horiz-adv-x="313" 
d="M407 710l-39 -52q-16 10 -28.5 15t-31.5 5q-28 0 -46 -18.5t-22 -53.5l-12 -79h1l-66 -460h83l-9 -67h-84q-11 -63 -33 -101t-55.5 -61.5t-90.5 -49.5l-23 66q35 17 56 32.5t36 42.5t24 71h-86l10 67h86l65 460h-1l12 77q10 71 49.5 108t102.5 37q57 0 102 -39z" />
    <glyph glyph-name="uni0249" unicode="&#x249;" horiz-adv-x="284" 
d="M265 218h-83l-28 -196q-10 -72 -32.5 -114t-56.5 -67.5t-94 -52.5l-24 66q38 18 60 35.5t37.5 50t23.5 88.5l27 190h-86l10 67h85l34 242h87l-34 -242h83zM161 672q-15 15 -15 39q0 29 19 47.5t46 18.5q25 0 40 -15t15 -39q0 -29 -19 -47.5t-46 -18.5q-25 0 -40 15z" />
    <glyph glyph-name="k" unicode="k" horiz-adv-x="495" 
d="M193 434q67 104 162 104q53 0 86 -32t33 -84q0 -62 -38.5 -109t-114.5 -78l104 -235h-95l-108 257q86 25 123.5 62t37.5 94q0 27 -13.5 41.5t-38.5 14.5q-39 0 -80.5 -39.5t-74.5 -114.5l-44 -315h-87l104 739l88 10z" />
    <glyph glyph-name="uni01E9" unicode="&#x1e9;" horiz-adv-x="495" 
d="M193 434q67 104 162 104q53 0 86 -32t33 -84q0 -62 -38.5 -109t-114.5 -78l104 -235h-95l-108 257q86 25 123.5 62t37.5 94q0 27 -13.5 41.5t-38.5 14.5q-39 0 -80.5 -39.5t-74.5 -114.5l-44 -315h-87l104 739l88 10zM473 957l35 -42l-137 -111h-56l-106 114l38 39
l103 -81z" />
    <glyph glyph-name="kcommaaccent" unicode="&#x137;" horiz-adv-x="495" 
d="M193 434q67 104 162 104q53 0 86 -32t33 -84q0 -62 -38.5 -109t-114.5 -78l104 -235h-95l-108 257q86 25 123.5 62t37.5 94q0 27 -13.5 41.5t-38.5 14.5q-39 0 -80.5 -39.5t-74.5 -114.5l-44 -315h-87l104 739l88 10zM250 -93q13 -15 13 -34q0 -17 -7 -34t-27 -51
l-49 -82h-49l44 118q-8 7 -13 17.5t-5 22.5q0 25 16.5 41.5t40.5 16.5q23 0 36 -15z" />
    <glyph glyph-name="kgreenlandic" unicode="&#x138;" horiz-adv-x="462" 
d="M206 527l-74 -527h-87l74 527h87zM477 527l-208 -249l151 -278h-97l-149 278l203 249h100z" />
    <glyph glyph-name="uni0199" unicode="&#x199;" horiz-adv-x="495" 
d="M322 235l104 -235h-95l-108 257q85 25 122.5 62t37.5 94q0 27 -13.5 41.5t-37.5 14.5q-39 0 -81 -39.5t-75 -114.5l-43 -315h-87l73 526h1l12 83q9 65 52.5 102.5t113.5 37.5q33 0 59 -7t54 -21l-33 -61q-37 18 -77 18q-39 0 -58.5 -20t-24.5 -60l-10 -72h-1l-13 -93
q67 105 161 105q53 0 86 -32t33 -84q0 -126 -152 -187z" />
    <glyph glyph-name="uni029E" unicode="&#x29e;" horiz-adv-x="460" 
d="M-15 0l211 246l-154 281h97l148 -288l-198 -239h-104zM229 -215l103 742h87l-103 -731z" />
    <glyph glyph-name="l" unicode="l" horiz-adv-x="262" 
d="M141 99l-1 -12q0 -26 23 -26q16 0 32 6l15 -62q-33 -17 -68 -17q-41 0 -64.5 24.5t-23.5 68.5q0 8 2 26l89 632l87 10z" />
    <glyph glyph-name="lacute" unicode="&#x13a;" horiz-adv-x="262" 
d="M141 99l-1 -12q0 -26 23 -26q16 0 32 6l15 -62q-33 -17 -68 -17q-41 0 -64.5 24.5t-23.5 68.5q0 8 2 26l89 632l87 10zM283 954l33 -73l-201 -76l-21 46z" />
    <glyph glyph-name="uni019B" unicode="&#x19b;" horiz-adv-x="439" 
d="M344.5 245q11.5 -80 28.5 -130t45 -96l-82 -30q-27 52 -44 104t-27 131t-13 200l-188 -436l-82 21l229 497l35 -6q-3 69 -15 103l-67 -65l-52 31l85 87q-25 21 -74 33l18 62q72 -19 107 -50l72 73l42 -45l-75 -77q32 -63 39 -198q7 -129 18.5 -209z" />
    <glyph glyph-name="uni019A" unicode="&#x19a;" horiz-adv-x="281" 
d="M160 99l-1 -12q0 -26 23 -26q16 0 32 6l15 -62q-33 -17 -68 -17q-41 0 -64.5 24.5t-23.5 68.5q0 8 2 26l33 231h-85l10 67h84l47 334l87 10l-48 -344h86l-11 -67h-85z" />
    <glyph glyph-name="uni026C" unicode="&#x26c;" horiz-adv-x="333" 
d="M249 67l15 -62q-33 -17 -68 -17q-41 0 -64.5 24.5t-23.5 68.5q0 8 2 26l21 148h-1q-55 3 -84 29t-29 70q0 48 31.5 78t79.5 30q18 0 32 -3l39 280l87 10l-61 -434q21 1 68 9l5 -54q-34 -9 -81 -13l-22 -158l-1 -12q0 -26 23 -26q16 0 32 6zM152 405q-12 3 -23 3
q-20 0 -32.5 -13.5t-12.5 -37.5q0 -42 55 -42z" />
    <glyph glyph-name="lcaron" unicode="&#x13e;" horiz-adv-x="262" 
d="M141 99l-1 -12q0 -26 23 -26q16 0 32 6l15 -62q-33 -17 -68 -17q-41 0 -64.5 24.5t-23.5 68.5q0 8 2 26l89 632l87 10zM284 748l75 -10l-67 -181l-48 8z" />
    <glyph glyph-name="uni1E3D" unicode="&#x1e3d;" horiz-adv-x="262" 
d="M141 99l-1 -12q0 -26 23 -26q16 0 32 6l15 -62q-33 -17 -68 -17q-41 0 -64.5 24.5t-23.5 68.5q0 8 2 26l89 632l87 10zM-2 -222l-36 41l138 113h56l106 -115l-41 -39l-100 82z" />
    <glyph glyph-name="lcommaaccent" unicode="&#x13c;" horiz-adv-x="262" 
d="M141 99l-1 -12q0 -26 23 -26q16 0 32 6l15 -62q-33 -17 -68 -17q-41 0 -64.5 24.5t-23.5 68.5q0 8 2 26l89 632l87 10zM159 -93q13 -15 13 -34q0 -17 -7 -34t-27 -51l-49 -82h-49l44 118q-8 7 -13 17.5t-5 22.5q0 25 16.5 41.5t40.5 16.5q23 0 36 -15z" />
    <glyph glyph-name="uni0234" unicode="&#x234;" horiz-adv-x="376" 
d="M347.5 195.5q25.5 -24.5 25.5 -66.5q0 -66 -49 -103.5t-123 -37.5q-35 0 -57 7l-39 -69l-50 25l41 69q-38 32 -38 92q0 10 2 28l85 599l87 10l-87 -625q-2 -14 -2 -19q31 60 63 87.5t76 27.5q40 0 65.5 -24.5zM277 80q24 17 24 47t-28 30q-21 0 -40 -19t-49 -74
q9 -1 31 -1q38 0 62 17z" />
    <glyph glyph-name="ldot" unicode="&#x140;" horiz-adv-x="299" 
d="M141 99l-1 -12q0 -26 23 -26q16 0 32 6l15 -62q-33 -17 -68 -17q-41 0 -64.5 24.5t-23.5 68.5q0 8 2 26l89 632l87 10zM240 333q-15 15 -15 39q0 29 19 47.5t46 18.5q25 0 40 -15t15 -39q0 -29 -19 -47.5t-46 -18.5q-25 0 -40 15z" />
    <glyph glyph-name="uni1E37" unicode="&#x1e37;" horiz-adv-x="262" 
d="M141 99l-1 -12q0 -26 23 -26q16 0 32 6l15 -62q-33 -17 -68 -17q-41 0 -64.5 24.5t-23.5 68.5q0 8 2 26l89 632l87 10zM163 -91q15 -15 15 -39q0 -29 -19 -47.5t-46 -18.5q-25 0 -40 15t-15 39q0 29 19 47.5t46 18.5q25 0 40 -15z" />
    <glyph glyph-name="uni026E" unicode="&#x26e;" horiz-adv-x="598" 
d="M577 459l-227 -255q94 -1 140.5 -44.5t46.5 -121.5q0 -73 -31.5 -130t-87.5 -88.5t-126 -31.5q-61 0 -103.5 22t-73.5 67l54 44q29 -33 57 -47t68 -14q70 0 111 50.5t41 127.5q0 57 -28.5 79.5t-92.5 22.5h-73l1 1l9 63l216 250h-287l-50 -355l-1 -12q0 -26 23 -26
q16 0 32 6l15 -62q-33 -17 -68 -17q-41 0 -64.5 24.5t-23.5 68.5q0 8 2 26l89 632l87 10l-31 -222h384z" />
    <glyph glyph-name="uni026D" unicode="&#x26d;" horiz-adv-x="252" 
d="M266 -176q-47 -36 -109 -36q-57 0 -89.5 31t-32.5 89q0 20 2 31l9 61h-1l105 739l88 10l-106 -749h1l-10 -75q-1 -6 -1 -18q0 -48 47 -48q19 0 33.5 5t32.5 15z" />
    <glyph glyph-name="uni01C9" unicode="&#x1c9;" horiz-adv-x="515" 
d="M141 99l-1 -12q0 -26 23 -26q16 0 32 6l15 -62q-33 -17 -68 -17q-41 0 -64.5 24.5t-23.5 68.5q0 8 2 26l89 632l87 10zM192 -146q38 18 60 35.5t37.5 50t23.5 88.5l70 499h87l-71 -505q-10 -72 -32.5 -114t-56.5 -67.5t-94 -52.5zM406 672q-15 15 -15 39q0 29 19 47.5
t46 18.5q25 0 40 -15t15 -39q0 -29 -19 -47.5t-46 -18.5q-25 0 -40 15z" />
    <glyph glyph-name="uni026B" unicode="&#x26b;" horiz-adv-x="347" 
d="M183 99l-1 -12q0 -26 23 -26q16 0 32 6l15 -62q-33 -17 -68 -17q-41 0 -64.5 24.5t-23.5 68.5q0 8 2 26l35 247q-14 7 -26 7q-23 0 -40 -14t-35 -39l-49 30q58 92 132 92q13 0 28 -5l44 314l87 10l-52 -373q11 -6 23 -6q40 0 73 47l49 -30q-55 -87 -129 -87q-15 0 -26 4z
" />
    <glyph glyph-name="uni02AA" unicode="&#x2aa;" horiz-adv-x="598" 
d="M120.5 29q-56.5 41 -56.5 123q0 19 3 38l78 549l88 10l-79 -561q-2 -20 -2 -28q0 -54 33.5 -76.5t102.5 -22.5q85 0 127 27t42 75q0 29 -18.5 47.5t-69.5 37.5q-62 22 -90 53.5t-28 81.5q0 43 24 78.5t65.5 56t91.5 20.5q89 0 154 -63l-42 -51q-28 23 -54.5 33.5
t-57.5 10.5q-41 0 -66.5 -21.5t-25.5 -56.5q0 -29 19 -46t67 -36q63 -22 92.5 -55.5t29.5 -85.5q0 -87 -72.5 -133t-195.5 -46q-103 0 -159.5 41z" />
    <glyph glyph-name="lslash" unicode="&#x142;" horiz-adv-x="272" 
d="M198 67l15 -62q-33 -17 -68 -17q-41 0 -64.5 24.5t-23.5 68.5q0 8 2 26l28 195l-42 -25l-24 59l77 47l50 356l87 10l-43 -309l74 45l23 -59l-108 -66l-37 -261l-1 -12q0 -26 23 -26q16 0 32 6z" />
    <glyph glyph-name="uni02AB" unicode="&#x2ab;" horiz-adv-x="592" 
d="M591 459l-295 -385h244l-20 -74h-321q-30 -12 -57 -12q-41 0 -64.5 24.5t-23.5 68.5q0 8 2 26l88 632l88 10l-91 -650l-1 -12q0 -26 23 -26q13 0 31 5l293 386h-218l11 75h321z" />
    <glyph glyph-name="m" unicode="m" horiz-adv-x="764" 
d="M675 505q29 -34 29 -93q0 -21 -2 -33l-54 -379h-87l53 375q2 22 2 29q0 61 -46 61q-33 0 -66.5 -39.5t-67.5 -103.5l-47 -322h-87l53 375q2 22 2 30q0 32 -12 46t-34 14q-33 0 -66.5 -39.5t-67.5 -104.5l-45 -321h-87l74 527h75l-8 -98q34 53 71 81.5t82 28.5
q42 0 70.5 -28t34.5 -79q35 53 72.5 80t81.5 27q48 0 77 -34z" />
    <glyph glyph-name="uni1E3F" unicode="&#x1e3f;" horiz-adv-x="764" 
d="M675 505q29 -34 29 -93q0 -21 -2 -33l-54 -379h-87l53 375q2 22 2 29q0 61 -46 61q-33 0 -66.5 -39.5t-67.5 -103.5l-47 -322h-87l53 375q2 22 2 30q0 32 -12 46t-34 14q-33 0 -66.5 -39.5t-67.5 -104.5l-45 -321h-87l74 527h75l-8 -98q34 53 71 81.5t82 28.5
q42 0 70.5 -28t34.5 -79q35 53 72.5 80t81.5 27q48 0 77 -34zM531 797l33 -72l-201 -86l-23 46z" />
    <glyph glyph-name="uni1E41" unicode="&#x1e41;" horiz-adv-x="764" 
d="M675 505q29 -34 29 -93q0 -21 -2 -33l-54 -379h-87l53 375q2 22 2 29q0 61 -46 61q-33 0 -66.5 -39.5t-67.5 -103.5l-47 -322h-87l53 375q2 22 2 30q0 32 -12 46t-34 14q-33 0 -66.5 -39.5t-67.5 -104.5l-45 -321h-87l74 527h75l-8 -98q34 53 71 81.5t82 28.5
q42 0 70.5 -28t34.5 -79q35 53 72.5 80t81.5 27q48 0 77 -34zM406 672q-15 15 -15 39q0 29 19 47.5t46 18.5q25 0 40 -15t15 -39q0 -29 -19 -47.5t-46 -18.5q-25 0 -40 15z" />
    <glyph glyph-name="uni0271" unicode="&#x271;" horiz-adv-x="764" 
d="M675 505q29 -34 29 -93q0 -21 -2 -33l-54 -379l-9 -68q-10 -71 -51.5 -107.5t-103.5 -36.5q-56 0 -102 39l41 53q17 -11 29 -16t31 -5q27 0 45.5 17.5t23.5 53.5l9 70l53 375q2 22 2 29q0 61 -46 61q-33 0 -66.5 -39.5t-67.5 -103.5l-47 -322h-87l53 375q2 22 2 30
q0 32 -12 46t-34 14q-33 0 -66.5 -39.5t-67.5 -104.5l-45 -321h-87l74 527h75l-8 -98q34 53 71 81.5t82 28.5q42 0 70.5 -28t34.5 -79q35 53 72.5 80t81.5 27q48 0 77 -34z" />
    <glyph glyph-name="uni0270" unicode="&#x270;" horiz-adv-x="759" 
d="M718 527l-103 -731l-90 -11l45 305q-62 -102 -144 -102q-41 0 -71 28t-36 79q-34 -53 -71.5 -80t-80.5 -27q-49 0 -78.5 34t-29.5 93q0 21 2 33l55 379h87l-53 -375q-2 -22 -2 -30q0 -60 45 -60q61 0 135 138l46 327h87l-52 -375q-3 -18 -3 -31q0 -59 46 -59
q34 0 67 37.5t67 99.5l45 328h87z" />
    <glyph glyph-name="uni026F" unicode="&#x26f;" horiz-adv-x="764" 
d="M719 527l-74 -527h-75l8 98q-34 -53 -71 -81.5t-82 -28.5q-42 0 -70.5 28t-34.5 79q-35 -53 -72.5 -80t-81.5 -27q-48 0 -77 34t-29 93q0 21 2 33l54 379h87l-53 -375q-2 -22 -2 -29q0 -61 46 -61q33 0 66.5 39.5t67.5 103.5l47 322h87l-53 -375q-2 -22 -2 -30
q0 -32 12 -46t34 -14q33 0 66.5 39.5t67.5 104.5l45 321h87z" />
    <glyph glyph-name="n" unicode="n" horiz-adv-x="522" 
d="M432 505q31 -34 31 -93q0 -18 -3 -36l-53 -376h-87l53 375q2 20 2 28q0 62 -50 62q-70 0 -148 -144l-45 -321h-87l74 527h75l-8 -100q36 54 75 83t88 29q52 0 83 -34z" />
    <glyph glyph-name="nacute" unicode="&#x144;" horiz-adv-x="522" 
d="M432 505q31 -34 31 -93q0 -18 -3 -36l-53 -376h-87l53 375q2 20 2 28q0 62 -50 62q-70 0 -148 -144l-45 -321h-87l74 527h75l-8 -100q36 54 75 83t88 29q52 0 83 -34zM403 797l33 -72l-201 -86l-23 46z" />
    <glyph glyph-name="napostrophe" unicode="&#x149;" horiz-adv-x="621" 
d="M195.5 737.5q13.5 -14.5 13.5 -34.5q0 -17 -6.5 -33t-27.5 -51l-48 -83h-50l44 118q-9 8 -14 19.5t-4 24.5q1 23 17.5 38.5t39.5 15.5q22 0 35.5 -14.5zM531 505q31 -34 31 -93q0 -18 -3 -36l-53 -376h-87l53 375q2 20 2 28q0 62 -50 62q-70 0 -148 -144l-45 -321h-87
l74 527h75l-8 -100q36 54 75 83t88 29q52 0 83 -34z" />
    <glyph glyph-name="ncaron" unicode="&#x148;" horiz-adv-x="522" 
d="M432 505q31 -34 31 -93q0 -18 -3 -36l-53 -376h-87l53 375q2 20 2 28q0 62 -50 62q-70 0 -148 -144l-45 -321h-87l74 527h75l-8 -100q36 54 75 83t88 29q52 0 83 -34zM443 781l32 -41l-137 -112h-55l-107 112l39 41l100 -82z" />
    <glyph glyph-name="uni1E4B" unicode="&#x1e4b;" horiz-adv-x="522" 
d="M432 505q31 -34 31 -93q0 -18 -3 -36l-53 -376h-87l53 375q2 20 2 28q0 62 -50 62q-70 0 -148 -144l-45 -321h-87l74 527h75l-8 -100q36 54 75 83t88 29q52 0 83 -34zM88 -222l-36 41l138 113h56l106 -115l-41 -39l-100 82z" />
    <glyph glyph-name="ncommaaccent" unicode="&#x146;" horiz-adv-x="522" 
d="M432 505q31 -34 31 -93q0 -18 -3 -36l-53 -376h-87l53 375q2 20 2 28q0 62 -50 62q-70 0 -148 -144l-45 -321h-87l74 527h75l-8 -100q36 54 75 83t88 29q52 0 83 -34zM249 -93q13 -15 13 -34q0 -17 -7 -34t-27 -51l-49 -82h-49l44 118q-8 7 -13 17.5t-5 22.5
q0 25 16.5 41.5t40.5 16.5q23 0 36 -15z" />
    <glyph glyph-name="uni0235" unicode="&#x235;" horiz-adv-x="657" 
d="M630 196.5q25 -24.5 25 -65.5q0 -66 -49.5 -104.5t-123.5 -38.5q-31 0 -58 8l-39 -70l-50 25l42 70q-38 33 -38 93q0 15 3 31l30 223q2 13 2 34q0 34 -12.5 48.5t-36.5 14.5q-73 0 -150 -149l-43 -316h-87l74 527h75l-9 -107q75 118 168 118q52 0 81 -33.5t29 -94.5
q0 -19 -3 -40l-34 -241q-2 -11 -2 -27q31 60 64 89.5t77 29.5q40 0 65 -24.5zM559 80.5q24 17.5 24 46.5q0 30 -28 30q-21 0 -39.5 -19.5t-49.5 -73.5q9 -1 31 -1q38 0 62 17.5z" />
    <glyph glyph-name="uni1E45" unicode="&#x1e45;" horiz-adv-x="522" 
d="M432 505q31 -34 31 -93q0 -18 -3 -36l-53 -376h-87l53 375q2 20 2 28q0 62 -50 62q-70 0 -148 -144l-45 -321h-87l74 527h75l-8 -100q36 54 75 83t88 29q52 0 83 -34zM278 672q-15 15 -15 39q0 29 19 47.5t46 18.5q25 0 40 -15t15 -39q0 -29 -19 -47.5t-46 -18.5
q-25 0 -40 15z" />
    <glyph glyph-name="uni1E47" unicode="&#x1e47;" horiz-adv-x="522" 
d="M432 505q31 -34 31 -93q0 -18 -3 -36l-53 -376h-87l53 375q2 20 2 28q0 62 -50 62q-70 0 -148 -144l-45 -321h-87l74 527h75l-8 -100q36 54 75 83t88 29q52 0 83 -34zM253 -91q15 -15 15 -39q0 -29 -19 -47.5t-46 -18.5q-25 0 -40 15t-15 39q0 29 19 47.5t46 18.5
q25 0 40 -15z" />
    <glyph glyph-name="uni01F9" unicode="&#x1f9;" horiz-adv-x="522" 
d="M432 505q31 -34 31 -93q0 -18 -3 -36l-53 -376h-87l53 375q2 20 2 28q0 62 -50 62q-70 0 -148 -144l-45 -321h-87l74 527h75l-8 -100q36 54 75 83t88 29q52 0 83 -34zM274 796l164 -112l-29 -45l-179 86z" />
    <glyph glyph-name="eng" unicode="&#x14b;" horiz-adv-x="522" 
d="M432 505q31 -34 31 -93q0 -18 -3 -36l-53 -376l-9 -68q-10 -71 -51.5 -107.5t-103.5 -36.5q-57 0 -102 39l41 53q17 -11 29 -16t31 -5q27 0 45.5 17.5t23.5 53.5l9 70l53 375q2 20 2 28q0 62 -50 62q-70 0 -148 -144l-45 -321h-87l74 527h75l-8 -100q36 54 75 83t88 29
q52 0 83 -34z" />
    <glyph glyph-name="uni0272" unicode="&#x272;" horiz-adv-x="522" 
d="M432 505q31 -34 31 -93q0 -18 -3 -36l-53 -376h-87l53 375q2 20 2 28q0 62 -50 62q-70 0 -148 -144l-45 -321l-9 -68q-10 -71 -51.5 -107.5t-103.5 -36.5q-56 0 -102 39l41 53q17 -11 29 -16t31 -5q27 0 45.5 17.5t23.5 53.5l9 70l74 527h75l-8 -100q36 54 75 83t88 29
q52 0 83 -34z" />
    <glyph glyph-name="uni0273" unicode="&#x273;" horiz-adv-x="522" 
d="M541 -176q-47 -36 -109 -36q-57 0 -89.5 31t-32.5 89q0 20 2 31l9 61h-1l53 375q2 20 2 28q0 62 -50 62q-70 0 -148 -144l-45 -321h-87l74 527h75l-8 -100q36 54 75 83t88 29q52 0 83 -34t31 -93q0 -18 -3 -36l-53 -376h1l-10 -75q-1 -6 -1 -18q0 -48 47 -48q19 0 33.5 5
t32.5 15z" />
    <glyph glyph-name="uni01CC" unicode="&#x1cc;" horiz-adv-x="775" 
d="M432 505q31 -34 31 -93q0 -18 -3 -36l-53 -376h-87l53 375q2 20 2 28q0 62 -50 62q-70 0 -148 -144l-45 -321h-87l74 527h75l-8 -100q36 54 75 83t88 29q52 0 83 -34zM452 -146q38 18 60 35.5t37.5 50t23.5 88.5l70 499h87l-71 -505q-10 -72 -32.5 -114t-56.5 -67.5
t-94 -52.5zM666 672q-15 15 -15 39q0 29 19 47.5t46 18.5q25 0 40 -15t15 -39q0 -29 -19 -47.5t-46 -18.5q-25 0 -40 15z" />
    <glyph glyph-name="uni019E" unicode="&#x19e;" horiz-adv-x="522" 
d="M432 505q31 -34 31 -93q0 -18 -3 -36l-82 -580l-89 -11l84 590q2 11 2 29q0 61 -50 61q-39 0 -77 -40.5t-71 -103.5l-45 -321h-87l74 527h75l-8 -100q36 54 75 83t88 29q52 0 83 -34z" />
    <glyph glyph-name="ntilde" unicode="&#xf1;" horiz-adv-x="522" 
d="M432 505q31 -34 31 -93q0 -18 -3 -36l-53 -376h-87l53 375q2 20 2 28q0 62 -50 62q-70 0 -148 -144l-45 -321h-87l74 527h75l-8 -100q36 54 75 83t88 29q52 0 83 -34zM343 664q-14 7 -32 21q-12 10 -20.5 15t-17.5 5q-14 0 -26.5 -11t-28.5 -34l-47 28q49 84 105 84
q19 0 32.5 -7t30.5 -21q11 -10 19 -15t18 -5q14 0 26.5 10.5t27.5 33.5l49 -28q-45 -83 -103 -83q-19 0 -33 7z" />
    <glyph glyph-name="o" unicode="o" horiz-adv-x="524" 
d="M91.5 43q-46.5 55 -46.5 151q0 78 26 157t83.5 133t146.5 54q85 0 131.5 -54.5t46.5 -150.5q0 -77 -25.5 -156.5t-83 -134t-146.5 -54.5q-86 0 -132.5 55zM322 105q36 46 51.5 111t15.5 126q0 125 -92 125q-59 0 -95 -45.5t-51.5 -110t-15.5 -126.5q0 -126 92 -126
q59 0 95 46z" />
    <glyph glyph-name="oacute" unicode="&#xf3;" horiz-adv-x="524" 
d="M91.5 43q-46.5 55 -46.5 151q0 78 26 157t83.5 133t146.5 54q85 0 131.5 -54.5t46.5 -150.5q0 -77 -25.5 -156.5t-83 -134t-146.5 -54.5q-86 0 -132.5 55zM322 105q36 46 51.5 111t15.5 126q0 125 -92 125q-59 0 -95 -45.5t-51.5 -110t-15.5 -126.5q0 -126 92 -126
q59 0 95 46zM405 797l33 -72l-201 -86l-23 46z" />
    <glyph glyph-name="uni0275" unicode="&#x275;" horiz-adv-x="524" 
d="M432.5 483.5q46.5 -54.5 46.5 -150.5q0 -77 -25.5 -156.5t-83 -134t-146.5 -54.5q-86 0 -132.5 55t-46.5 151q0 78 26 157t83.5 133t146.5 54q85 0 131.5 -54.5zM199 420.5q-37 -46.5 -54 -119.5h245q2 28 2 41q0 125 -95 125q-61 0 -98 -46.5zM327.5 108.5
q37.5 49.5 53.5 125.5h-247q-2 -34 -2 -49q0 -126 95 -126q63 0 100.5 49.5z" />
    <glyph glyph-name="obreve" unicode="&#x14f;" horiz-adv-x="524" 
d="M91.5 43q-46.5 55 -46.5 151q0 78 26 157t83.5 133t146.5 54q85 0 131.5 -54.5t46.5 -150.5q0 -77 -25.5 -156.5t-83 -134t-146.5 -54.5q-86 0 -132.5 55zM322 105q36 46 51.5 111t15.5 126q0 125 -92 125q-59 0 -95 -45.5t-51.5 -110t-15.5 -126.5q0 -126 92 -126
q59 0 95 46zM227 680q-33 36 -30 97l57 8q4 -38 19.5 -55.5t45.5 -17.5q32 0 56.5 20t37.5 57l55 -17q-14 -60 -55 -94t-96 -34q-57 0 -90 36z" />
    <glyph glyph-name="uni01D2" unicode="&#x1d2;" horiz-adv-x="524" 
d="M91.5 43q-46.5 55 -46.5 151q0 78 26 157t83.5 133t146.5 54q85 0 131.5 -54.5t46.5 -150.5q0 -77 -25.5 -156.5t-83 -134t-146.5 -54.5q-86 0 -132.5 55zM322 105q36 46 51.5 111t15.5 126q0 125 -92 125q-59 0 -95 -45.5t-51.5 -110t-15.5 -126.5q0 -126 92 -126
q59 0 95 46zM445 781l32 -41l-137 -112h-55l-107 112l39 41l100 -82z" />
    <glyph glyph-name="ocircumflex" unicode="&#xf4;" horiz-adv-x="524" 
d="M91.5 43q-46.5 55 -46.5 151q0 78 26 157t83.5 133t146.5 54q85 0 131.5 -54.5t46.5 -150.5q0 -77 -25.5 -156.5t-83 -134t-146.5 -54.5q-86 0 -132.5 55zM322 105q36 46 51.5 111t15.5 126q0 125 -92 125q-59 0 -95 -45.5t-51.5 -110t-15.5 -126.5q0 -126 92 -126
q59 0 95 46zM205 637l-35 41l138 113h56l105 -115l-40 -39l-101 82z" />
    <glyph glyph-name="uni1ED1" unicode="&#x1ed1;" horiz-adv-x="524" 
d="M531 886l48 -49l-140 -129l-34 31zM195 588l-36 42l138 111h56l106 -114l-38 -39l-103 81zM91.5 43q-46.5 55 -46.5 151q0 78 26 157t83.5 133t146.5 54q85 0 131.5 -54.5t46.5 -150.5q0 -77 -25.5 -156.5t-83 -134t-146.5 -54.5q-86 0 -132.5 55zM322 105
q36 46 51.5 111t15.5 126q0 125 -92 125q-59 0 -95 -45.5t-51.5 -110t-15.5 -126.5q0 -126 92 -126q59 0 95 46z" />
    <glyph glyph-name="uni1ED9" unicode="&#x1ed9;" horiz-adv-x="524" 
d="M91.5 43q-46.5 55 -46.5 151q0 78 26 157t83.5 133t146.5 54q85 0 131.5 -54.5t46.5 -150.5q0 -77 -25.5 -156.5t-83 -134t-146.5 -54.5q-86 0 -132.5 55zM322 105q36 46 51.5 111t15.5 126q0 125 -92 125q-59 0 -95 -45.5t-51.5 -110t-15.5 -126.5q0 -126 92 -126
q59 0 95 46zM205 637l-35 41l138 113h56l105 -115l-40 -39l-101 82zM249 -91q15 -15 15 -39q0 -29 -19 -47.5t-46 -18.5q-25 0 -40 15t-15 39q0 29 19 47.5t46 18.5q25 0 40 -15z" />
    <glyph glyph-name="uni1ED3" unicode="&#x1ed3;" horiz-adv-x="524" 
d="M154 884l86 -148l-38 -28l-106 131zM193 588l-36 42l138 111h56l106 -114l-38 -39l-103 81zM91.5 43q-46.5 55 -46.5 151q0 78 26 157t83.5 133t146.5 54q85 0 131.5 -54.5t46.5 -150.5q0 -77 -25.5 -156.5t-83 -134t-146.5 -54.5q-86 0 -132.5 55zM322 105
q36 46 51.5 111t15.5 126q0 125 -92 125q-59 0 -95 -45.5t-51.5 -110t-15.5 -126.5q0 -126 92 -126q59 0 95 46z" />
    <glyph glyph-name="uni1ED5" unicode="&#x1ed5;" horiz-adv-x="524" 
d="M91.5 43q-46.5 55 -46.5 151q0 78 26 157t83.5 133t146.5 54q85 0 131.5 -54.5t46.5 -150.5q0 -77 -25.5 -156.5t-83 -134t-146.5 -54.5q-86 0 -132.5 55zM322 105q36 46 51.5 111t15.5 126q0 125 -92 125q-59 0 -95 -45.5t-51.5 -110t-15.5 -126.5q0 -126 92 -126
q59 0 95 46zM191 588l-36 42l138 111h56l106 -114l-38 -39l-103 81zM426 804q35 5 53 16t18 36q0 29 -32 29q-15 0 -26 -3.5t-26 -11.5l-17 52q38 22 83 22q42 0 66 -23.5t24 -61.5q0 -75 -84 -90l-8 -57h-63z" />
    <glyph glyph-name="uni1ED7" unicode="&#x1ed7;" horiz-adv-x="524" 
d="M360 769q-14 7 -32 21q-12 10 -20.5 15t-17.5 5q-14 0 -26.5 -11t-28.5 -34l-47 28q49 84 105 84q19 0 32.5 -7t30.5 -21q11 -10 19 -15t18 -5q14 0 26.5 10.5t27.5 33.5l49 -28q-45 -83 -103 -83q-19 0 -33 7zM196 578l-36 42l138 111h56l106 -114l-38 -39l-103 81z
M91.5 43q-46.5 55 -46.5 151q0 78 26 157t83.5 133t146.5 54q85 0 131.5 -54.5t46.5 -150.5q0 -77 -25.5 -156.5t-83 -134t-146.5 -54.5q-86 0 -132.5 55zM322 105q36 46 51.5 111t15.5 126q0 125 -92 125q-59 0 -95 -45.5t-51.5 -110t-15.5 -126.5q0 -126 92 -126
q59 0 95 46z" />
    <glyph glyph-name="uni020D" unicode="&#x20d;" horiz-adv-x="524" 
d="M91.5 43q-46.5 55 -46.5 151q0 78 26 157t83.5 133t146.5 54q85 0 131.5 -54.5t46.5 -150.5q0 -77 -25.5 -156.5t-83 -134t-146.5 -54.5q-86 0 -132.5 55zM322 105q36 46 51.5 111t15.5 126q0 125 -92 125q-59 0 -95 -45.5t-51.5 -110t-15.5 -126.5q0 -126 92 -126
q59 0 95 46zM232 830l55 -173l-57 -22l-76 159zM368 829l47 -167l-57 -22l-69 154z" />
    </font>
</defs>
</svg>
