<?xml version="1.0" standalone="no"?>
<!DOCTYPE svg PUBLIC "-//W3C//DTD SVG 1.1//EN" "http://www.w3.org/Graphics/SVG/1.1/DTD/svg11.dtd" >
<svg>
<metadata>
Created by FontForge 20120731 at Fri May  5 09:34:39 2017
 By www-data
Digitized data copyright 2012-2016, The Mozilla Foundation and Telefonica S.A.
</metadata>
<defs>
<font id="FiraSansCondensed-ExtraBoldItalic" horiz-adv-x="504" >
  <font-face 
    font-family="Fira Sans Condensed ExtraBold"
    font-weight="800"
    font-style="italic"
    font-stretch="condensed"
    units-per-em="1000"
    panose-1="2 11 9 3 5 0 0 2 0 4"
    ascent="800"
    descent="-200"
    x-height="532"
    cap-height="694"
    bbox="-714 -355 1416 1207"
    underline-thickness="50"
    underline-position="-50"
    slope="-8"
    unicode-range="U+000D-FEFF"
  />
<missing-glyph horiz-adv-x="655" 
d="M644 1050l-197 -1400h-413l197 1400h413zM585 998h-306l-183 -1296h306zM416.5 426q23.5 -25 23.5 -66q0 -9 -2 -27q-7 -52 -32.5 -80t-75.5 -35l-8 -46q-1 -11 -8.5 -17t-16.5 -6q-11 0 -18 7t-6 18l11 83q53 3 74.5 20.5t26.5 59.5q2 14 2 21q0 45 -50 45
q-28 0 -53 -12q-6 -2 -12 -2q-12 0 -18.5 7.5t-4.5 18.5q2 17 31.5 26.5t61.5 9.5q51 0 74.5 -25zM313 109.5q9 -10.5 7 -27.5q-2 -14 -13 -24t-25 -10q-15 0 -24 11.5t-6 28.5q1 13 11.5 22.5t24.5 9.5q16 0 25 -10.5z" />
    <glyph glyph-name="fi" unicode="fi" horiz-adv-x="536" 
d="M456 0h-167l58 415h-94l-48 -352q-12 -88 -46.5 -143.5t-83 -86.5t-118.5 -56l-39 122q56 22 83 55t37 102l49 359h-65l16 117h65l6 43q11 82 71.5 133.5t156.5 51.5q49 0 88.5 -10.5t80.5 -32.5l-58 -106q-53 25 -96 25q-36 0 -54.5 -16.5t-23.5 -54.5l-5 -33h261z" />
    <glyph glyph-name="fl" unicode="fl" horiz-adv-x="568" 
d="M527 120l15 -118q-45 -20 -99 -20q-60 0 -92 31.5t-32 89.5q0 16 3 34l69 499q-27 5 -46 5q-34 0 -49.5 -18t-21.5 -58l-5 -33h76l-33 -117h-59l-48 -352q-12 -88 -46.5 -143.5t-83 -86.5t-118.5 -56l-39 122q56 22 83 55t37 102l49 359h-65l16 117h65l6 43
q11 82 67 133.5t149 51.5q64 0 113 -17l137 14l-85 -608l-1 -10q0 -12 4.5 -17t14.5 -5q9 0 19 3z" />
    <glyph glyph-name=".notdef" horiz-adv-x="655" 
d="M644 1050l-197 -1400h-413l197 1400h413zM585 998h-306l-183 -1296h306zM416.5 426q23.5 -25 23.5 -66q0 -9 -2 -27q-7 -52 -32.5 -80t-75.5 -35l-8 -46q-1 -11 -8.5 -17t-16.5 -6q-11 0 -18 7t-6 18l11 83q53 3 74.5 20.5t26.5 59.5q2 14 2 21q0 45 -50 45
q-28 0 -53 -12q-6 -2 -12 -2q-12 0 -18.5 7.5t-4.5 18.5q2 17 31.5 26.5t61.5 9.5q51 0 74.5 -25zM313 109.5q9 -10.5 7 -27.5q-2 -14 -13 -24t-25 -10q-15 0 -24 11.5t-6 28.5q1 13 11.5 22.5t24.5 9.5q16 0 25 -10.5z" />
    <glyph glyph-name="nonmarkingreturn" unicode="&#xd;" horiz-adv-x="191" 
 />
    <glyph glyph-name="space" unicode=" " horiz-adv-x="191" 
 />
    <glyph glyph-name="A" unicode="A" horiz-adv-x="538" 
d="M335 0l-7 145h-156l-45 -145h-181l278 694h209l83 -694h-181zM212 271h110l-14 307z" />
    <glyph glyph-name="Aacute" unicode="&#xc1;" horiz-adv-x="538" 
d="M335 0l-7 145h-156l-45 -145h-181l278 694h209l83 -694h-181zM212 271h110l-14 307zM440 954l54 -123l-233 -86l-37 81z" />
    <glyph glyph-name="Abreve" unicode="&#x102;" horiz-adv-x="538" 
d="M335 0l-7 145h-156l-45 -145h-181l278 694h209l83 -694h-181zM212 271h110l-14 307zM229.5 799q-35.5 50 -30.5 121l87 13q2 -30 18 -48.5t44 -18.5q55 0 83 70l89 -19q-15 -72 -61.5 -120t-119.5 -48q-74 0 -109.5 50z" />
    <glyph glyph-name="uni1EAE" unicode="&#x1eae;" horiz-adv-x="538" 
d="M531 1048l-172 -146l-57 54l149 178zM431 923l89 -19q-15 -72 -61.5 -120t-119.5 -48q-74 0 -109.5 50t-30.5 121l87 13q2 -30 18 -48.5t44 -18.5q55 0 83 70zM224 694h209l83 -694h-181l-7 145h-156l-45 -145h-181zM212 271h110l-14 307z" />
    <glyph glyph-name="uni1EB6" unicode="&#x1eb6;" horiz-adv-x="538" 
d="M335 0l-7 145h-156l-45 -145h-181l278 694h209l83 -694h-181zM212 271h110l-14 307zM229.5 799q-35.5 50 -30.5 121l87 13q2 -30 18 -48.5t44 -18.5q55 0 83 70l89 -19q-15 -72 -61.5 -120t-119.5 -48q-74 0 -109.5 50zM281 -80.5q23 -22.5 23 -59.5q0 -46 -31 -76.5
t-76 -30.5q-40 0 -63 22.5t-23 59.5q0 46 31 76.5t76 30.5q40 0 63 -22.5z" />
    <glyph glyph-name="uni1EB0" unicode="&#x1eb0;" horiz-adv-x="538" 
d="M416 951l-69 -49l-130 152l100 78zM230.5 786q-35.5 50 -30.5 121l87 13q2 -30 18 -48.5t44 -18.5q55 0 83 70l89 -19q-15 -72 -61.5 -120t-119.5 -48q-74 0 -109.5 50zM224 694h209l83 -694h-181l-7 145h-156l-45 -145h-181zM212 271h110l-14 307z" />
    <glyph glyph-name="uni1EB2" unicode="&#x1eb2;" horiz-adv-x="538" 
d="M335 0l-7 145h-156l-45 -145h-181l278 694h209l83 -694h-181zM212 271h110l-14 307zM231.5 786q-35.5 50 -30.5 121l87 13q2 -30 18 -48.5t44 -18.5q55 0 83 70l89 -19q-15 -72 -61.5 -120t-119.5 -48q-74 0 -109.5 50zM321 1002q36 2 52.5 12t16.5 31q0 25 -30 25
q-14 0 -25.5 -3.5t-28.5 -10.5l-17 70q45 25 100 25q53 0 82 -26.5t29 -68.5t-24 -68t-67 -35l-5 -41h-93z" />
    <glyph glyph-name="uni1EB4" unicode="&#x1eb4;" horiz-adv-x="538" 
d="M292.5 980q-11.5 -10 -26.5 -31l-72 39q25 49 60 80.5t74 31.5q20 0 34 -6.5t31 -17.5q21 -16 35 -16q13 0 24 9t26 30l73 -37q-25 -50 -60.5 -81.5t-73.5 -31.5q-16 0 -29.5 6t-31.5 18q-12 9 -20.5 13t-16.5 4q-15 0 -26.5 -10zM429 923l89 -19q-15 -72 -61.5 -120
t-119.5 -48q-74 0 -109.5 50t-30.5 121l87 13q2 -30 18 -48.5t44 -18.5q55 0 83 70zM224 694h209l83 -694h-181l-7 145h-156l-45 -145h-181zM212 271h110l-14 307z" />
    <glyph glyph-name="uni01CD" unicode="&#x1cd;" horiz-adv-x="538" 
d="M335 0l-7 145h-156l-45 -145h-181l278 694h209l83 -694h-181zM212 271h110l-14 307zM478 949l56 -67l-147 -133h-101l-113 138l65 62l110 -85z" />
    <glyph glyph-name="Acircumflex" unicode="&#xc2;" horiz-adv-x="538" 
d="M335 0l-7 145h-156l-45 -145h-181l278 694h209l83 -694h-181zM212 271h110l-14 307zM216 755l-57 67l148 133h100l113 -137l-65 -63l-109 86z" />
    <glyph glyph-name="uni1EA4" unicode="&#x1ea4;" horiz-adv-x="538" 
d="M668 1021l-172 -146l-57 54l149 178zM304 923h100l113 -137l-65 -63l-109 86l-130 -86l-57 67zM224 694h209l83 -694h-181l-7 145h-156l-45 -145h-181zM212 271h110l-14 307z" />
    <glyph glyph-name="uni1EAC" unicode="&#x1eac;" horiz-adv-x="538" 
d="M335 0l-7 145h-156l-45 -145h-181l278 694h209l83 -694h-181zM212 271h110l-14 307zM216 755l-57 67l148 133h100l113 -137l-65 -63l-109 86zM281 -80.5q23 -22.5 23 -59.5q0 -46 -31 -76.5t-76 -30.5q-40 0 -63 22.5t-23 59.5q0 46 31 76.5t76 30.5q40 0 63 -22.5z" />
    <glyph glyph-name="uni1EA6" unicode="&#x1ea6;" horiz-adv-x="538" 
d="M265 924l-69 -49l-130 152l100 78zM214 723l-57 67l148 133h100l113 -137l-65 -63l-109 86zM224 694h209l83 -694h-181l-7 145h-156l-45 -145h-181zM212 271h110l-14 307z" />
    <glyph glyph-name="uni1EA8" unicode="&#x1ea8;" horiz-adv-x="538" 
d="M335 0l-7 145h-156l-45 -145h-181l278 694h209l83 -694h-181zM212 271h110l-14 307zM211 723l-57 67l148 133h100l113 -137l-65 -63l-109 86zM468 953q36 2 52.5 12t16.5 31q0 25 -30 25q-14 0 -25.5 -3.5t-28.5 -10.5l-17 70q45 25 100 25q53 0 82 -26.5t29 -68.5
t-24 -68t-67 -35l-5 -41h-93z" />
    <glyph glyph-name="uni1EAA" unicode="&#x1eaa;" horiz-adv-x="538" 
d="M291.5 981q-11.5 -10 -26.5 -31l-72 39q25 49 60 80.5t74 31.5q20 0 34 -6.5t31 -17.5q21 -16 35 -16q13 0 24 9t26 30l73 -37q-25 -50 -60.5 -81.5t-73.5 -31.5q-16 0 -29.5 6t-31.5 18q-12 9 -20.5 13t-16.5 4q-15 0 -26.5 -10zM304 923h100l113 -137l-65 -63l-109 86
l-130 -86l-57 67zM224 694h209l83 -694h-181l-7 145h-156l-45 -145h-181zM212 271h110l-14 307z" />
    <glyph glyph-name="uni0200" unicode="&#x200;" horiz-adv-x="538" 
d="M335 0l-7 145h-156l-45 -145h-181l278 694h209l83 -694h-181zM212 271h110l-14 307zM249 991l64 -203l-90 -38l-91 190zM414 991l56 -204l-90 -33l-84 190z" />
    <glyph glyph-name="Adieresis" unicode="&#xc4;" horiz-adv-x="538" 
d="M335 0l-7 145h-156l-45 -145h-181l278 694h209l83 -694h-181zM212 271h110l-14 307zM176 785q-20 20 -20 52q0 40 27 66.5t66 26.5q34 0 54 -19.5t20 -52.5q0 -40 -27 -66.5t-66 -26.5q-34 0 -54 20zM392 785q-20 20 -20 52q0 40 27 66.5t66 26.5q34 0 54 -19.5t20 -52.5
q0 -40 -27 -66.5t-66 -26.5q-34 0 -54 20z" />
    <glyph glyph-name="uni01DE" unicode="&#x1de;" horiz-adv-x="538" 
d="M335 0l-7 145h-156l-45 -145h-181l278 694h209l83 -694h-181zM212 271h110l-14 307zM174 766q-20 20 -20 52q0 40 27 66.5t66 26.5q34 0 54 -19.5t20 -52.5q0 -40 -27 -66.5t-66 -26.5q-34 0 -54 20zM390 766q-20 20 -20 52q0 40 27 66.5t66 26.5q34 0 54 -19.5t20 -52.5
q0 -40 -27 -66.5t-66 -26.5q-34 0 -54 20zM499 950h-283l17 117h283z" />
    <glyph glyph-name="uni0226" unicode="&#x226;" horiz-adv-x="538" 
d="M335 0l-7 145h-156l-45 -145h-181l278 694h209l83 -694h-181zM212 271h110l-14 307zM280 775.5q-23 22.5 -23 59.5q0 46 31 76.5t76 30.5q40 0 63 -22.5t23 -59.5q0 -46 -31 -76.5t-76 -30.5q-40 0 -63 22.5z" />
    <glyph glyph-name="uni1EA0" unicode="&#x1ea0;" horiz-adv-x="538" 
d="M335 0l-7 145h-156l-45 -145h-181l278 694h209l83 -694h-181zM212 271h110l-14 307zM281 -80.5q23 -22.5 23 -59.5q0 -46 -31 -76.5t-76 -30.5q-40 0 -63 22.5t-23 59.5q0 46 31 76.5t76 30.5q40 0 63 -22.5z" />
    <glyph glyph-name="uni01E0" unicode="&#x1e0;" horiz-adv-x="538" 
d="M335 0l-7 145h-156l-45 -145h-181l278 694h209l83 -694h-181zM212 271h110l-14 307zM272 757.5q-23 22.5 -23 59.5q0 46 31 76.5t76 30.5q40 0 63 -22.5t23 -59.5q0 -46 -31 -76.5t-76 -30.5q-40 0 -63 22.5zM506 951h-283l17 117h283z" />
    <glyph glyph-name="Agrave" unicode="&#xc0;" horiz-adv-x="538" 
d="M335 0l-7 145h-156l-45 -145h-181l278 694h209l83 -694h-181zM212 271h110l-14 307zM299 951l188 -127l-47 -78l-211 84z" />
    <glyph glyph-name="uni1EA2" unicode="&#x1ea2;" horiz-adv-x="538" 
d="M335 0l-7 145h-156l-45 -145h-181l278 694h209l83 -694h-181zM212 271h110l-14 307zM303 854q36 2 52.5 12t16.5 31q0 25 -30 25q-14 0 -25.5 -3.5t-28.5 -10.5l-17 70q45 25 100 25q53 0 82 -26.5t29 -68.5t-24 -68t-67 -35l-5 -41h-93z" />
    <glyph glyph-name="uni0202" unicode="&#x202;" horiz-adv-x="538" 
d="M335 0l-7 145h-156l-45 -145h-181l278 694h209l83 -694h-181zM212 271h110l-14 307zM177 778q18 79 65.5 129t121.5 50q75 0 110.5 -51.5t30.5 -129.5l-91 -13q-5 76 -62 76q-59 0 -87 -79z" />
    <glyph glyph-name="uni2C6D" unicode="&#x2c6d;" horiz-adv-x="618" 
d="M549 133q0 -14 5 -23t18 -15l-50 -110q-90 7 -127 74q-31 -38 -68.5 -57.5t-86.5 -19.5q-101 0 -155.5 69.5t-54.5 193.5t38 231.5t107 172t158 64.5q45 0 75.5 -18.5t53.5 -53.5l18 53h147l-76 -540q-2 -16 -2 -21zM377 151l55 389q-15 22 -32.5 33t-40.5 11
q-48 0 -82 -50t-51 -129t-17 -164q0 -72 20 -103t59 -31q49 0 89 44z" />
    <glyph glyph-name="Amacron" unicode="&#x100;" horiz-adv-x="538" 
d="M335 0l-7 145h-156l-45 -145h-181l278 694h209l83 -694h-181zM212 271h110l-14 307zM480 779h-283l17 117h283z" />
    <glyph glyph-name="Aogonek" unicode="&#x104;" horiz-adv-x="538" 
d="M340 -56q-25 -29 -25 -56q0 -33 40 -33q25 0 53 6l-23 -101q-30 -8 -65 -8q-55 0 -90 29.5t-35 80.5q0 104 139 164l-6 119h-156l-45 -145h-181l278 694h209l83 -694h-83q-68 -27 -93 -56zM212 271h110l-14 307z" />
    <glyph glyph-name="Aring" unicode="&#xc5;" horiz-adv-x="538" 
d="M335 0l-7 145h-156l-45 -145h-181l278 694h209l83 -694h-181zM212 271h110l-14 307zM456.5 964.5q31.5 -33.5 31.5 -87.5q0 -40 -19 -74t-53.5 -54.5t-79.5 -20.5q-56 0 -87 33.5t-31 86.5q0 40 19 74.5t53.5 55t78.5 20.5q56 0 87.5 -33.5zM325 895.5
q-13 -18.5 -13 -42.5q0 -40 32 -40q23 0 36 18t13 42q0 41 -32 41q-23 0 -36 -18.5z" />
    <glyph glyph-name="Aringacute" unicode="&#x1fa;" horiz-adv-x="538" 
d="M335 0l-7 145h-156l-45 -145h-181l278 694h209l83 -694h-181zM212 271h110l-14 307zM451.5 962.5q31.5 -33.5 31.5 -87.5q0 -40 -19 -74t-53.5 -54.5t-79.5 -20.5q-56 0 -87 33.5t-31 86.5q0 40 19 74.5t53.5 55t78.5 20.5q56 0 87.5 -33.5zM320 893.5
q-13 -18.5 -13 -42.5q0 -40 32 -40q23 0 36 18t13 42q0 41 -32 41q-23 0 -36 -18.5zM446 1207l54 -123l-233 -86l-37 81z" />
    <glyph glyph-name="uni023A" unicode="&#x23a;" horiz-adv-x="538" 
d="M356 0l-11 145h-93l-83 -220l-55 14l78 206h-32l-49 -145h-165l278 694h176l23 62l54 -13l-38 -100l77 -643h-160zM199 263h38l83 219l-9 113zM296 263h40l-7 88z" />
    <glyph glyph-name="Atilde" unicode="&#xc3;" horiz-adv-x="538" 
d="M335 0l-7 145h-156l-45 -145h-181l278 694h209l83 -694h-181zM212 271h110l-14 307zM364.5 764q-13.5 7 -31.5 19q-3 2 -11 7.5t-14.5 8t-12.5 2.5q-15 0 -26.5 -10.5t-26.5 -33.5l-74 42q26 54 61.5 88t74.5 34q20 0 35 -7t32 -20q11 -9 19 -13t16 -4q14 0 25.5 10.5
t25.5 32.5l74 -41q-26 -54 -62 -88t-74 -34q-17 0 -30.5 7z" />
    <glyph glyph-name="AE" unicode="&#xc6;" horiz-adv-x="764" 
d="M736 569h-223l3 -157h209l-17 -122h-190l3 -164h205l-19 -126h-344v145h-172l-59 -145h-188l328 694h501zM243 271h120v295z" />
    <glyph glyph-name="AEacute" unicode="&#x1fc;" horiz-adv-x="764" 
d="M736 569h-223l3 -157h209l-17 -122h-190l3 -164h205l-19 -126h-344v145h-172l-59 -145h-188l328 694h501zM243 271h120v295zM607 954l54 -123l-233 -86l-37 81z" />
    <glyph glyph-name="uni01E2" unicode="&#x1e2;" horiz-adv-x="764" 
d="M736 569h-223l3 -157h209l-17 -122h-190l3 -164h205l-19 -126h-344v145h-172l-59 -145h-188l328 694h501zM243 271h120v295zM647 779h-283l17 117h283z" />
    <glyph glyph-name="B" unicode="B" horiz-adv-x="554" 
d="M496.5 321.5q34.5 -32.5 34.5 -95.5q0 -106 -78 -166t-231 -60h-213l97 694h194q118 0 184 -39t66 -118q0 -69 -41.5 -111t-105.5 -59q59 -13 93.5 -45.5zM349.5 445.5q22.5 26.5 22.5 71.5q0 28 -17.5 41t-53.5 13h-39l-21 -152h36q50 0 72.5 26.5zM354 237
q0 35 -20.5 51t-60.5 16h-48l-25 -177h39q115 0 115 110z" />
    <glyph glyph-name="uni1E02" unicode="&#x1e02;" horiz-adv-x="554" 
d="M496.5 321.5q34.5 -32.5 34.5 -95.5q0 -106 -78 -166t-231 -60h-213l97 694h194q118 0 184 -39t66 -118q0 -69 -41.5 -111t-105.5 -59q59 -13 93.5 -45.5zM349.5 445.5q22.5 26.5 22.5 71.5q0 28 -17.5 41t-53.5 13h-39l-21 -152h36q50 0 72.5 26.5zM354 237
q0 35 -20.5 51t-60.5 16h-48l-25 -177h39q115 0 115 110zM267 775.5q-23 22.5 -23 59.5q0 46 31 76.5t76 30.5q40 0 63 -22.5t23 -59.5q0 -46 -31 -76.5t-76 -30.5q-40 0 -63 22.5z" />
    <glyph glyph-name="uni1E04" unicode="&#x1e04;" horiz-adv-x="554" 
d="M496.5 321.5q34.5 -32.5 34.5 -95.5q0 -106 -78 -166t-231 -60h-213l97 694h194q118 0 184 -39t66 -118q0 -69 -41.5 -111t-105.5 -59q59 -13 93.5 -45.5zM349.5 445.5q22.5 26.5 22.5 71.5q0 28 -17.5 41t-53.5 13h-39l-21 -152h36q50 0 72.5 26.5zM354 237
q0 35 -20.5 51t-60.5 16h-48l-25 -177h39q115 0 115 110zM288 -80.5q23 -22.5 23 -59.5q0 -46 -31 -76.5t-76 -30.5q-40 0 -63 22.5t-23 59.5q0 46 31 76.5t76 30.5q40 0 63 -22.5z" />
    <glyph glyph-name="uniA7B4" unicode="&#xa7b4;" horiz-adv-x="553" 
d="M496 324q35 -33 35 -94q0 -73 -35.5 -125t-95.5 -78.5t-132 -26.5q-43 0 -84 9l-31 -221h-174l128 906h188q119 0 185 -39.5t66 -120.5q0 -68 -41 -110.5t-101 -56.5q57 -10 92 -43zM259 304l26 115h7q34 0 54.5 25.5t20.5 69.5q0 30 -16.5 43.5t-51.5 13.5h-36l-62 -440
q23 -4 50 -4q48 0 75.5 30t27.5 81q0 66 -71 66h-24z" />
    <glyph glyph-name="uni0181" unicode="&#x181;" horiz-adv-x="706" 
d="M647.5 321.5q34.5 -32.5 34.5 -95.5q0 -106 -78 -166t-231 -60h-213l80 569h-25q-21 0 -32.5 -14t-11.5 -41q0 -21 7 -53l-115 -42q-22 51 -22 100q0 80 51.5 127.5t135.5 47.5h223q118 0 184 -39t66 -118q0 -69 -41.5 -111t-105.5 -59q59 -13 93.5 -45.5zM500.5 445.5
q22.5 26.5 22.5 71.5q0 28 -17.5 41t-53.5 13h-39l-21 -152h36q50 0 72.5 26.5zM505 237q0 35 -20.5 51t-60.5 16h-48l-25 -177h39q115 0 115 110z" />
    <glyph glyph-name="uni0243" unicode="&#x243;" horiz-adv-x="562" 
d="M504.5 321.5q34.5 -32.5 34.5 -95.5q0 -106 -78 -166t-231 -60h-213l25 177h-47l12 82h46l61 435h194q118 0 184 -39t66 -118q0 -69 -41.5 -111t-105.5 -59q59 -13 93.5 -45.5zM357.5 445.5q22.5 26.5 22.5 71.5q0 28 -17.5 41t-53.5 13h-39l-21 -152h36q50 0 72.5 26.5z
M362 237q0 35 -20.5 51t-60.5 16h-48l-7 -45h86l-12 -82h-85l-7 -50h39q115 0 115 110z" />
    <glyph glyph-name="uni0182" unicode="&#x182;" horiz-adv-x="540" 
d="M466.5 402q60.5 -48 60.5 -140q0 -65 -28.5 -125t-92 -98.5t-161.5 -38.5h-236l97 694h407l-37 -133h-214l-16 -111h51q109 0 169.5 -48zM319 163q25 36 25 91q0 37 -17.5 55.5t-55.5 18.5h-42l-28 -201h40q53 0 78 36z" />
    <glyph glyph-name="C" unicode="C" horiz-adv-x="521" 
d="M563 630l-91 -90q-23 21 -46.5 32t-52.5 11q-57 0 -93.5 -52t-52.5 -127.5t-16 -150.5q0 -136 93 -136q31 0 58 13.5t65 41.5l64 -100q-43 -40 -98 -65t-121 -25q-111 0 -176 70.5t-65 205.5q0 117 37 221t114 169t191 65q118 0 190 -83z" />
    <glyph glyph-name="Cacute" unicode="&#x106;" horiz-adv-x="521" 
d="M563 630l-91 -90q-23 21 -46.5 32t-52.5 11q-57 0 -93.5 -52t-52.5 -127.5t-16 -150.5q0 -136 93 -136q31 0 58 13.5t65 41.5l64 -100q-43 -40 -98 -65t-121 -25q-111 0 -176 70.5t-65 205.5q0 117 37 221t114 169t191 65q118 0 190 -83zM488 954l54 -123l-233 -86
l-37 81z" />
    <glyph glyph-name="Ccaron" unicode="&#x10c;" horiz-adv-x="521" 
d="M563 630l-91 -90q-23 21 -46.5 32t-52.5 11q-57 0 -93.5 -52t-52.5 -127.5t-16 -150.5q0 -136 93 -136q31 0 58 13.5t65 41.5l64 -100q-43 -40 -98 -65t-121 -25q-111 0 -176 70.5t-65 205.5q0 117 37 221t114 169t191 65q118 0 190 -83zM526 949l56 -67l-147 -133h-101
l-113 138l65 62l110 -85z" />
    <glyph glyph-name="Ccedilla" unicode="&#xc7;" horiz-adv-x="521" 
d="M310 -16l-6 -33q42 -5 63.5 -27.5t21.5 -60.5q0 -30 -15.5 -59.5t-51 -49.5t-91.5 -20q-33 0 -60 9t-45 24l47 72q26 -14 54 -14q20 0 32 7.5t13 23.5q0 16 -18 23t-61 7l25 101q-88 16 -137.5 85t-49.5 186t37 221t114 169t191 65q118 0 190 -83l-91 -90
q-23 21 -46.5 32t-52.5 11q-57 0 -93.5 -52t-52.5 -127.5t-16 -150.5q0 -136 93 -136q31 0 58 13.5t65 41.5l64 -100q-80 -75 -181 -88z" />
    <glyph glyph-name="Ccircumflex" unicode="&#x108;" horiz-adv-x="521" 
d="M563 630l-91 -90q-23 21 -46.5 32t-52.5 11q-57 0 -93.5 -52t-52.5 -127.5t-16 -150.5q0 -136 93 -136q31 0 58 13.5t65 41.5l64 -100q-43 -40 -98 -65t-121 -25q-111 0 -176 70.5t-65 205.5q0 117 37 221t114 169t191 65q118 0 190 -83zM264 755l-57 67l148 133h100
l113 -137l-65 -63l-109 86z" />
    <glyph glyph-name="Cdotaccent" unicode="&#x10a;" horiz-adv-x="521" 
d="M563 630l-91 -90q-23 21 -46.5 32t-52.5 11q-57 0 -93.5 -52t-52.5 -127.5t-16 -150.5q0 -136 93 -136q31 0 58 13.5t65 41.5l64 -100q-43 -40 -98 -65t-121 -25q-111 0 -176 70.5t-65 205.5q0 117 37 221t114 169t191 65q118 0 190 -83zM328 775.5q-23 22.5 -23 59.5
q0 46 31 76.5t76 30.5q40 0 63 -22.5t23 -59.5q0 -46 -31 -76.5t-76 -30.5q-40 0 -63 22.5z" />
    <glyph glyph-name="uniA7B3" unicode="&#xa7b3;" horiz-adv-x="521" 
d="M577 694l-215 -406l106 -455h-181l-45 337l-122 -337h-189l225 453l-91 408h182l30 -298l115 298h185z" />
    <glyph glyph-name="uni0187" unicode="&#x187;" horiz-adv-x="525" 
d="M731 817l-59 -103q-29 17 -54 17q-41 0 -50 -60l-5 -41l-81 -84q-56 37 -108 37q-58 0 -94.5 -52t-53 -127.5t-16.5 -150.5q0 -136 93 -136q31 0 58.5 13.5t65.5 41.5l64 -100q-43 -40 -98.5 -65t-118.5 -25q-114 0 -179 70.5t-65 205.5q0 114 38 219t111 170.5t171 65.5
q42 0 79 -16l1 4q10 71 54.5 112.5t122.5 41.5q70 0 124 -38z" />
    <glyph glyph-name="uni023B" unicode="&#x23b;" horiz-adv-x="521" 
d="M362 130.5q27 13.5 65 41.5l64 -100q-43 -40 -98 -65t-121 -25q-31 0 -58 6l-24 -63l-56 15l25 66q-61 29 -94.5 93t-33.5 159q0 117 37 221t114 169t191 65q26 0 54 -5l18 48l56 -14l-19 -51q44 -19 81 -61l-91 -90q-21 20 -37 28l-169 -444q15 -7 38 -7q31 0 58 13.5z
M223 173l156 410h-6q-57 0 -93.5 -52t-52.5 -127.5t-16 -150.5q0 -50 12 -80z" />
    <glyph glyph-name="D" unicode="D" horiz-adv-x="591" 
d="M504.5 638.5q77.5 -55.5 77.5 -198.5q0 -199 -88 -319.5t-281 -120.5h-204l97 694h191q130 0 207.5 -55.5zM262 568l-61 -441h38q90 0 128 96t38 220q0 69 -25.5 97t-75.5 28h-42z" />
    <glyph glyph-name="uni01F1" unicode="&#x1f1;" horiz-adv-x="1055" 
d="M504.5 638.5q77.5 -55.5 77.5 -198.5q0 -199 -88 -319.5t-281 -120.5h-204l97 694h191q130 0 207.5 -55.5zM262 568l-61 -441h38q90 0 128 96t38 220q0 69 -25.5 97t-75.5 28h-42zM539 0l18 131l320 427h-236l20 136h430l-19 -133l-318 -421h269l-38 -140h-446z" />
    <glyph glyph-name="uni01C4" unicode="&#x1c4;" horiz-adv-x="1055" 
d="M504.5 638.5q77.5 -55.5 77.5 -198.5q0 -199 -88 -319.5t-281 -120.5h-204l97 694h191q130 0 207.5 -55.5zM262 568l-61 -441h38q90 0 128 96t38 220q0 69 -25.5 97t-75.5 28h-42zM539 0l18 131l320 427h-236l20 136h430l-19 -133l-318 -421h269l-38 -140h-446zM1021 949
l56 -67l-147 -133h-101l-113 138l65 62l110 -85z" />
    <glyph glyph-name="uni0189" unicode="&#x189;" horiz-adv-x="599" 
d="M512.5 638.5q77.5 -55.5 77.5 -198.5q0 -199 -88 -319.5t-281 -120.5h-204l42 301h-47l16 104h46l40 289h191q130 0 207.5 -55.5zM375 223q38 96 38 220q0 69 -25.5 97t-75.5 28h-42l-23 -163h110l-16 -104h-108l-24 -174h38q90 0 128 96z" />
    <glyph glyph-name="Eth" unicode="&#xd0;" horiz-adv-x="599" 
d="M512.5 638.5q77.5 -55.5 77.5 -198.5q0 -199 -88 -319.5t-281 -120.5h-204l42 301h-47l16 104h46l40 289h191q130 0 207.5 -55.5zM375 223q38 96 38 220q0 69 -25.5 97t-75.5 28h-42l-23 -163h110l-16 -104h-108l-24 -174h38q90 0 128 96z" />
    <glyph glyph-name="Dcaron" unicode="&#x10e;" horiz-adv-x="591" 
d="M504.5 638.5q77.5 -55.5 77.5 -198.5q0 -199 -88 -319.5t-281 -120.5h-204l97 694h191q130 0 207.5 -55.5zM262 568l-61 -441h38q90 0 128 96t38 220q0 69 -25.5 97t-75.5 28h-42zM474 949l56 -67l-147 -133h-101l-113 138l65 62l110 -85z" />
    <glyph glyph-name="uni1E12" unicode="&#x1e12;" horiz-adv-x="591" 
d="M504.5 638.5q77.5 -55.5 77.5 -198.5q0 -199 -88 -319.5t-281 -120.5h-204l97 694h191q130 0 207.5 -55.5zM262 568l-61 -441h38q90 0 128 96t38 220q0 69 -25.5 97t-75.5 28h-42zM72 -270l-54 67l148 141h101l112 -146l-68 -62l-106 93z" />
    <glyph glyph-name="Dcroat" unicode="&#x110;" horiz-adv-x="599" 
d="M512.5 638.5q77.5 -55.5 77.5 -198.5q0 -199 -88 -319.5t-281 -120.5h-204l42 301h-47l16 104h46l40 289h191q130 0 207.5 -55.5zM375 223q38 96 38 220q0 69 -25.5 97t-75.5 28h-42l-23 -163h110l-16 -104h-108l-24 -174h38q90 0 128 96z" />
    <glyph glyph-name="uni1E0A" unicode="&#x1e0a;" horiz-adv-x="591" 
d="M504.5 638.5q77.5 -55.5 77.5 -198.5q0 -199 -88 -319.5t-281 -120.5h-204l97 694h191q130 0 207.5 -55.5zM262 568l-61 -441h38q90 0 128 96t38 220q0 69 -25.5 97t-75.5 28h-42zM276 775.5q-23 22.5 -23 59.5q0 46 31 76.5t76 30.5q40 0 63 -22.5t23 -59.5
q0 -46 -31 -76.5t-76 -30.5q-40 0 -63 22.5z" />
    <glyph glyph-name="uni1E0C" unicode="&#x1e0c;" horiz-adv-x="591" 
d="M504.5 638.5q77.5 -55.5 77.5 -198.5q0 -199 -88 -319.5t-281 -120.5h-204l97 694h191q130 0 207.5 -55.5zM262 568l-61 -441h38q90 0 128 96t38 220q0 69 -25.5 97t-75.5 28h-42zM280 -80.5q23 -22.5 23 -59.5q0 -46 -31 -76.5t-76 -30.5q-40 0 -63 22.5t-23 59.5
q0 46 31 76.5t76 30.5q40 0 63 -22.5z" />
    <glyph glyph-name="uni018A" unicode="&#x18a;" horiz-adv-x="742" 
d="M655.5 638.5q77.5 -55.5 77.5 -198.5q0 -199 -88 -319.5t-281 -120.5h-204l80 569h-25q-21 0 -32.5 -14t-11.5 -41q0 -21 7 -53l-115 -42q-22 51 -22 100q0 80 51.5 127.5t135.5 47.5h220q130 0 207.5 -55.5zM518 223q38 96 38 220q0 69 -25.5 97t-75.5 28h-42l-61 -441
h38q90 0 128 96z" />
    <glyph glyph-name="uni1E0E" unicode="&#x1e0e;" horiz-adv-x="591" 
d="M504.5 638.5q77.5 -55.5 77.5 -198.5q0 -199 -88 -319.5t-281 -120.5h-204l97 694h191q130 0 207.5 -55.5zM262 568l-61 -441h38q90 0 128 96t38 220q0 69 -25.5 97t-75.5 28h-42zM85 -77h283l-17 -117h-283z" />
    <glyph glyph-name="uni018B" unicode="&#x18b;" horiz-adv-x="541" 
d="M457 0h-225q-108 0 -168 51.5t-60 149.5q0 119 77 183.5t206 64.5h59l15 112h-227l18 133h402zM301 127l28 201h-41q-50 0 -75.5 -32.5t-25.5 -87.5q0 -42 19 -61.5t59 -19.5h36z" />
    <glyph glyph-name="uni01F2" unicode="&#x1f2;" horiz-adv-x="997" 
d="M504.5 638.5q77.5 -55.5 77.5 -198.5q0 -199 -88 -319.5t-281 -120.5h-204l97 694h191q130 0 207.5 -55.5zM262 568l-61 -441h38q90 0 128 96t38 220q0 69 -25.5 97t-75.5 28h-42zM1017 532l-16 -119l-231 -285h198l-33 -128h-384l16 120l231 286h-174l19 126h374z" />
    <glyph glyph-name="uni01C5" unicode="&#x1c5;" horiz-adv-x="997" 
d="M504.5 638.5q77.5 -55.5 77.5 -198.5q0 -199 -88 -319.5t-281 -120.5h-204l97 694h191q130 0 207.5 -55.5zM262 568l-61 -441h38q90 0 128 96t38 220q0 69 -25.5 97t-75.5 28h-42zM1017 532l-16 -119l-231 -285h198l-33 -128h-384l16 120l231 286h-174l19 126h374z
M985 817l54 -67l-148 -141h-101l-108 141l62 67l107 -94z" />
    <glyph glyph-name="E" unicode="E" horiz-adv-x="464" 
d="M504 694l-37 -125h-204l-22 -155h180l-17 -123h-180l-23 -165h221l-18 -126h-395l97 694h398z" />
    <glyph glyph-name="Eacute" unicode="&#xc9;" horiz-adv-x="464" 
d="M504 694l-37 -125h-204l-22 -155h180l-17 -123h-180l-23 -165h221l-18 -126h-395l97 694h398zM417 954l54 -123l-233 -86l-37 81z" />
    <glyph glyph-name="Ebreve" unicode="&#x114;" horiz-adv-x="464" 
d="M504 694l-37 -125h-204l-22 -155h180l-17 -123h-180l-23 -165h221l-18 -126h-395l97 694h398zM206.5 799q-35.5 50 -30.5 121l87 13q2 -30 18 -48.5t44 -18.5q55 0 83 70l89 -19q-15 -72 -61.5 -120t-119.5 -48q-74 0 -109.5 50z" />
    <glyph glyph-name="Ecaron" unicode="&#x11a;" horiz-adv-x="464" 
d="M504 694l-37 -125h-204l-22 -155h180l-17 -123h-180l-23 -165h221l-18 -126h-395l97 694h398zM455 949l56 -67l-147 -133h-101l-113 138l65 62l110 -85z" />
    <glyph glyph-name="uni0228" unicode="&#x228;" horiz-adv-x="464" 
d="M263 569l-22 -155h180l-17 -123h-180l-23 -165h221l-18 -126h-153l-8 -49q42 -5 63.5 -27.5t21.5 -60.5q0 -30 -15.5 -59.5t-51 -49.5t-91.5 -20q-33 0 -60 9t-45 24l47 72q26 -14 55 -14q20 0 32 7.5t12 23.5t-18 23t-61 7l28 114h-151l97 694h398l-37 -125h-204z" />
    <glyph glyph-name="Ecircumflex" unicode="&#xca;" horiz-adv-x="464" 
d="M504 694l-37 -125h-204l-22 -155h180l-17 -123h-180l-23 -165h221l-18 -126h-395l97 694h398zM193 755l-57 67l148 133h100l113 -137l-65 -63l-109 86z" />
    <glyph glyph-name="uni1EBE" unicode="&#x1ebe;" horiz-adv-x="464" 
d="M565 1107l80 -86l-172 -146l-57 54zM190 723l-57 67l148 133h100l113 -137l-65 -63l-109 86zM504 694l-37 -125h-204l-22 -155h180l-17 -123h-180l-23 -165h221l-18 -126h-395l97 694h398z" />
    <glyph glyph-name="uni1EC6" unicode="&#x1ec6;" horiz-adv-x="464" 
d="M504 694l-37 -125h-204l-22 -155h180l-17 -123h-180l-23 -165h221l-18 -126h-395l97 694h398zM193 755l-57 67l148 133h100l113 -137l-65 -63l-109 86zM257 -80.5q23 -22.5 23 -59.5q0 -46 -31 -76.5t-76 -30.5q-40 0 -63 22.5t-23 59.5q0 46 31 76.5t76 30.5
q40 0 63 -22.5z" />
    <glyph glyph-name="uni1EC0" unicode="&#x1ec0;" horiz-adv-x="464" 
d="M143 1105l99 -181l-69 -49l-130 152zM191 723l-57 67l148 133h100l113 -137l-65 -63l-109 86zM504 694l-37 -125h-204l-22 -155h180l-17 -123h-180l-23 -165h221l-18 -126h-395l97 694h398z" />
    <glyph glyph-name="uni1EC2" unicode="&#x1ec2;" horiz-adv-x="464" 
d="M504 694l-37 -125h-204l-22 -155h180l-17 -123h-180l-23 -165h221l-18 -126h-395l97 694h398zM188 723l-57 67l148 133h100l113 -137l-65 -63l-109 86zM445 953q36 2 52.5 12t16.5 31q0 25 -30 25q-14 0 -25.5 -3.5t-28.5 -10.5l-17 70q45 25 100 25q53 0 82 -26.5
t29 -68.5t-24 -68t-67 -35l-5 -41h-93z" />
    <glyph glyph-name="uni1EC4" unicode="&#x1ec4;" horiz-adv-x="464" 
d="M363.5 956q-13.5 6 -31.5 18q-12 9 -20.5 13t-16.5 4q-15 0 -26.5 -10t-26.5 -31l-72 39q25 49 60 80.5t74 31.5q20 0 34 -6.5t31 -17.5q21 -16 35 -16q13 0 24 9t26 30l73 -37q-25 -50 -60.5 -81.5t-73.5 -31.5q-16 0 -29.5 6zM190 723l-57 67l148 133h100l113 -137
l-65 -63l-109 86zM504 694l-37 -125h-204l-22 -155h180l-17 -123h-180l-23 -165h221l-18 -126h-395l97 694h398z" />
    <glyph glyph-name="uni0204" unicode="&#x204;" horiz-adv-x="464" 
d="M504 694l-37 -125h-204l-22 -155h180l-17 -123h-180l-23 -165h221l-18 -126h-395l97 694h398zM226 991l64 -203l-90 -38l-91 190zM391 991l56 -204l-90 -33l-84 190z" />
    <glyph glyph-name="Edieresis" unicode="&#xcb;" horiz-adv-x="464" 
d="M504 694l-37 -125h-204l-22 -155h180l-17 -123h-180l-23 -165h221l-18 -126h-395l97 694h398zM153 785q-20 20 -20 52q0 40 27 66.5t66 26.5q34 0 54 -19.5t20 -52.5q0 -40 -27 -66.5t-66 -26.5q-34 0 -54 20zM369 785q-20 20 -20 52q0 40 27 66.5t66 26.5q34 0 54 -19.5
t20 -52.5q0 -40 -27 -66.5t-66 -26.5q-34 0 -54 20z" />
    <glyph glyph-name="Edotaccent" unicode="&#x116;" horiz-adv-x="464" 
d="M504 694l-37 -125h-204l-22 -155h180l-17 -123h-180l-23 -165h221l-18 -126h-395l97 694h398zM257 775.5q-23 22.5 -23 59.5q0 46 31 76.5t76 30.5q40 0 63 -22.5t23 -59.5q0 -46 -31 -76.5t-76 -30.5q-40 0 -63 22.5z" />
    <glyph glyph-name="uni1EB8" unicode="&#x1eb8;" horiz-adv-x="464" 
d="M504 694l-37 -125h-204l-22 -155h180l-17 -123h-180l-23 -165h221l-18 -126h-395l97 694h398zM257 -80.5q23 -22.5 23 -59.5q0 -46 -31 -76.5t-76 -30.5q-40 0 -63 22.5t-23 59.5q0 46 31 76.5t76 30.5q40 0 63 -22.5z" />
    <glyph glyph-name="Egrave" unicode="&#xc8;" horiz-adv-x="464" 
d="M504 694l-37 -125h-204l-22 -155h180l-17 -123h-180l-23 -165h221l-18 -126h-395l97 694h398zM276 951l188 -127l-47 -78l-211 84z" />
    <glyph glyph-name="uni1EBA" unicode="&#x1eba;" horiz-adv-x="464" 
d="M504 694l-37 -125h-204l-22 -155h180l-17 -123h-180l-23 -165h221l-18 -126h-395l97 694h398zM280 854q36 2 52.5 12t16.5 31q0 25 -30 25q-14 0 -25.5 -3.5t-28.5 -10.5l-17 70q45 25 100 25q53 0 82 -26.5t29 -68.5t-24 -68t-67 -35l-5 -41h-93z" />
    <glyph glyph-name="uni0206" unicode="&#x206;" horiz-adv-x="464" 
d="M504 694l-37 -125h-204l-22 -155h180l-17 -123h-180l-23 -165h221l-18 -126h-395l97 694h398zM154 778q18 79 65.5 129t121.5 50q75 0 110.5 -51.5t30.5 -129.5l-91 -13q-5 76 -62 76q-59 0 -87 -79z" />
    <glyph glyph-name="Emacron" unicode="&#x112;" horiz-adv-x="464" 
d="M504 694l-37 -125h-204l-22 -155h180l-17 -123h-180l-23 -165h221l-18 -126h-395l97 694h398zM457 779h-283l17 117h283z" />
    <glyph glyph-name="Eogonek" unicode="&#x118;" horiz-adv-x="464" 
d="M263 569l-22 -155h180l-17 -123h-180l-23 -165h221l-18 -126h-35q-68 -27 -93 -56t-25 -56q0 -33 40 -33q25 0 53 6l-23 -101q-30 -8 -65 -8q-55 0 -90 29.5t-35 80.5q0 83 89 138h-211l97 694h398l-37 -125h-204z" />
    <glyph glyph-name="uni0190" unicode="&#x190;" horiz-adv-x="488" 
d="M440 689q49 -23 88 -71l-92 -85q-47 53 -103 53q-40 0 -63 -25.5t-23 -67.5q0 -65 75 -65h64l-38 -125h-42q-58 0 -90.5 -29.5t-32.5 -83.5q0 -79 78 -79q34 0 64 14.5t64 44.5l78 -91q-95 -97 -236 -97q-104 0 -165.5 51t-61.5 136q0 90 51 139.5t145 59.5
q-127 28 -127 138q0 61 34.5 108t91.5 72.5t122 25.5q70 0 119 -23z" />
    <glyph glyph-name="uni018E" unicode="&#x18e;" horiz-adv-x="460" 
d="M81 694h392l-97 -694h-395l18 126h220l24 165h-181l17 123h181l22 155h-218z" />
    <glyph glyph-name="uni01A9" unicode="&#x1a9;" horiz-adv-x="451" 
d="M496 694l-18 -127h-241l115 -197l-9 -66l-159 -174h235l-19 -130h-422l18 127l193 219l-133 222l18 126h422z" />
    <glyph glyph-name="uni0246" unicode="&#x246;" horiz-adv-x="464" 
d="M467 569h-39l-58 -155h51l-17 -123h-81l-63 -165h162l-18 -126h-192l-28 -75l-56 15l23 60h-142l97 694h308l24 62l56 -14l-18 -48h28zM308 414l59 155h-104l-22 -155h67zM202 136l59 155h-37z" />
    <glyph glyph-name="uni1EBC" unicode="&#x1ebc;" horiz-adv-x="464" 
d="M504 694l-37 -125h-204l-22 -155h180l-17 -123h-180l-23 -165h221l-18 -126h-395l97 694h398zM341.5 764q-13.5 7 -31.5 19q-3 2 -11 7.5t-14.5 8t-12.5 2.5q-15 0 -26.5 -10.5t-26.5 -33.5l-74 42q26 54 61.5 88t74.5 34q20 0 35 -7t32 -20q11 -9 19 -13t16 -4
q14 0 25.5 10.5t25.5 32.5l74 -41q-26 -54 -62 -88t-74 -34q-17 0 -30.5 7z" />
    <glyph glyph-name="uni01B7" unicode="&#x1b7;" horiz-adv-x="499" 
d="M490 572l-171 -169q77 -5 118.5 -47.5t41.5 -116.5q0 -79 -38 -137.5t-103 -89t-143 -30.5t-129 27.5t-86 78.5l99 82q28 -31 53.5 -44.5t61.5 -13.5q46 0 76 32.5t30 85.5q0 39 -22.5 56.5t-63.5 17.5h-93l14 97l165 167h-216l19 126h405z" />
    <glyph glyph-name="uni01EE" unicode="&#x1ee;" horiz-adv-x="499" 
d="M490 572l-171 -169q77 -5 118.5 -47.5t41.5 -116.5q0 -79 -38 -137.5t-103 -89t-143 -30.5t-129 27.5t-86 78.5l99 82q28 -31 53.5 -44.5t61.5 -13.5q46 0 76 32.5t30 85.5q0 39 -22.5 56.5t-63.5 17.5h-93l14 97l165 167h-216l19 126h405zM454 949l56 -67l-147 -133
h-101l-113 138l65 62l110 -85z" />
    <glyph glyph-name="uni01B8" unicode="&#x1b8;" horiz-adv-x="501" 
d="M496 568h-225l131 -169l-15 -94l1 -1h-88q-55 0 -85 -31t-30 -86q0 -36 18.5 -55.5t52.5 -19.5q36 0 68 15t69 47l78 -88q-47 -51 -104.5 -77.5t-134.5 -26.5q-108 0 -167.5 54t-59.5 145q0 64 29 113t79.5 78t114.5 32l-135 168l18 122h404z" />
    <glyph glyph-name="F" unicode="F" horiz-adv-x="433" 
d="M491 694l-37 -125h-191l-25 -174h170l-18 -125h-169l-38 -270h-174l97 694h385z" />
    <glyph glyph-name="uni1E1E" unicode="&#x1e1e;" horiz-adv-x="433" 
d="M491 694l-37 -125h-191l-25 -174h170l-18 -125h-169l-38 -270h-174l97 694h385zM249 775.5q-23 22.5 -23 59.5q0 46 31 76.5t76 30.5q40 0 63 -22.5t23 -59.5q0 -46 -31 -76.5t-76 -30.5q-40 0 -63 22.5z" />
    <glyph glyph-name="uni0191" unicode="&#x191;" horiz-adv-x="433" 
d="M263 569l-25 -174h170l-18 -125h-169l-38 -270l-5 -34q-15 -93 -73.5 -141.5t-147.5 -48.5q-84 0 -133 45l69 101q16 -10 27.5 -14t28.5 -4q46 0 55 54l5 42l97 694h385l-37 -125h-191z" />
    <glyph glyph-name="G" unicode="G" horiz-adv-x="584" 
d="M511.5 688.5q51.5 -24.5 86.5 -65.5l-94 -85q-29 26 -54.5 37t-58.5 11q-67 0 -108 -54.5t-58.5 -135.5t-17.5 -168q0 -63 20 -90.5t61 -27.5q38 0 76 22l21 147h-68l1 123h249l-47 -345q-54 -36 -118 -55.5t-124 -19.5q-125 0 -187 67.5t-62 199.5q0 121 40.5 226.5
t122.5 171.5t202 66q66 0 117.5 -24.5z" />
    <glyph glyph-name="uni01F4" unicode="&#x1f4;" horiz-adv-x="584" 
d="M511.5 688.5q51.5 -24.5 86.5 -65.5l-94 -85q-29 26 -54.5 37t-58.5 11q-67 0 -108 -54.5t-58.5 -135.5t-17.5 -168q0 -63 20 -90.5t61 -27.5q38 0 76 22l21 147h-68l1 123h249l-47 -345q-54 -36 -118 -55.5t-124 -19.5q-125 0 -187 67.5t-62 199.5q0 121 40.5 226.5
t122.5 171.5t202 66q66 0 117.5 -24.5zM493 954l54 -123l-233 -86l-37 81z" />
    <glyph glyph-name="uni0194" unicode="&#x194;" horiz-adv-x="520" 
d="M320 90q21 -50 31 -85t10 -71q0 -76 -43 -116.5t-122 -40.5q-66 0 -98.5 31.5t-32.5 86.5q0 47 21.5 94.5t65.5 106.5l-108 598h179l32 -484l162 484h178zM226 8q-38 -63 -38 -99q0 -24 20 -24q15 0 23 11.5t8 33.5q0 29 -13 78z" />
    <glyph glyph-name="Gbreve" unicode="&#x11e;" horiz-adv-x="584" 
d="M511.5 688.5q51.5 -24.5 86.5 -65.5l-94 -85q-29 26 -54.5 37t-58.5 11q-67 0 -108 -54.5t-58.5 -135.5t-17.5 -168q0 -63 20 -90.5t61 -27.5q38 0 76 22l21 147h-68l1 123h249l-47 -345q-54 -36 -118 -55.5t-124 -19.5q-125 0 -187 67.5t-62 199.5q0 121 40.5 226.5
t122.5 171.5t202 66q66 0 117.5 -24.5zM282.5 799q-35.5 50 -30.5 121l87 13q2 -30 18 -48.5t44 -18.5q55 0 83 70l89 -19q-15 -72 -61.5 -120t-119.5 -48q-74 0 -109.5 50z" />
    <glyph glyph-name="Gcaron" unicode="&#x1e6;" horiz-adv-x="584" 
d="M511.5 688.5q51.5 -24.5 86.5 -65.5l-94 -85q-29 26 -54.5 37t-58.5 11q-67 0 -108 -54.5t-58.5 -135.5t-17.5 -168q0 -63 20 -90.5t61 -27.5q38 0 76 22l21 147h-68l1 123h249l-47 -345q-54 -36 -118 -55.5t-124 -19.5q-125 0 -187 67.5t-62 199.5q0 121 40.5 226.5
t122.5 171.5t202 66q66 0 117.5 -24.5zM531 949l56 -67l-147 -133h-101l-113 138l65 62l110 -85z" />
    <glyph glyph-name="Gcircumflex" unicode="&#x11c;" horiz-adv-x="584" 
d="M511.5 688.5q51.5 -24.5 86.5 -65.5l-94 -85q-29 26 -54.5 37t-58.5 11q-67 0 -108 -54.5t-58.5 -135.5t-17.5 -168q0 -63 20 -90.5t61 -27.5q38 0 76 22l21 147h-68l1 123h249l-47 -345q-54 -36 -118 -55.5t-124 -19.5q-125 0 -187 67.5t-62 199.5q0 121 40.5 226.5
t122.5 171.5t202 66q66 0 117.5 -24.5zM269 755l-57 67l148 133h100l113 -137l-65 -63l-109 86z" />
    <glyph glyph-name="Gcommaaccent" unicode="&#x122;" horiz-adv-x="584" 
d="M511.5 688.5q51.5 -24.5 86.5 -65.5l-94 -85q-29 26 -54.5 37t-58.5 11q-67 0 -108 -54.5t-58.5 -135.5t-17.5 -168q0 -63 20 -90.5t61 -27.5q38 0 76 22l21 147h-68l1 123h249l-47 -345q-54 -36 -118 -55.5t-124 -19.5q-125 0 -187 67.5t-62 199.5q0 121 40.5 226.5
t122.5 171.5t202 66q66 0 117.5 -24.5zM322.5 -86q20.5 -20 20.5 -51q0 -24 -8 -44t-29 -55l-57 -94h-80l42 117q-29 19 -29 54q0 41 25 67t62 26q33 0 53.5 -20z" />
    <glyph glyph-name="Gdotaccent" unicode="&#x120;" horiz-adv-x="584" 
d="M511.5 688.5q51.5 -24.5 86.5 -65.5l-94 -85q-29 26 -54.5 37t-58.5 11q-67 0 -108 -54.5t-58.5 -135.5t-17.5 -168q0 -63 20 -90.5t61 -27.5q38 0 76 22l21 147h-68l1 123h249l-47 -345q-54 -36 -118 -55.5t-124 -19.5q-125 0 -187 67.5t-62 199.5q0 121 40.5 226.5
t122.5 171.5t202 66q66 0 117.5 -24.5zM333 775.5q-23 22.5 -23 59.5q0 46 31 76.5t76 30.5q40 0 63 -22.5t23 -59.5q0 -46 -31 -76.5t-76 -30.5q-40 0 -63 22.5z" />
    <glyph glyph-name="uni0193" unicode="&#x193;" horiz-adv-x="561" 
d="M767 817l-59 -103q-28 17 -54 17q-42 0 -50 -60l-6 -48l-85 -79q-57 42 -122 42q-67 0 -108.5 -54.5t-59 -135.5t-17.5 -168q0 -63 20 -90.5t61 -27.5q39 0 77 22l21 147h-68l1 123h249l-48 -345q-54 -36 -118 -55.5t-123 -19.5q-125 0 -187 67.5t-62 199.5
q0 119 40.5 225.5t119 172.5t186.5 66q53 0 90 -18l1 6q10 71 54.5 112.5t122.5 41.5q70 0 124 -38z" />
    <glyph glyph-name="uni0241" unicode="&#x241;" horiz-adv-x="477" 
d="M145 332l44 15q61 20 92.5 58t31.5 101q0 38 -17 59t-50 21q-30 0 -57.5 -13.5t-61.5 -41.5l-71 89q52 47 105 69.5t120 22.5q98 0 154.5 -52t56.5 -143q0 -86 -38.5 -141t-114.5 -84l-27 -10l-39 -282h-174z" />
    <glyph glyph-name="uni01E4" unicode="&#x1e4;" horiz-adv-x="612" 
d="M596 175h-60l-16 -118q-54 -36 -118 -55.5t-124 -19.5q-125 0 -187 67.5t-62 199.5q0 121 40.5 226.5t122.5 171.5t202 66q66 0 117.5 -24.5t86.5 -65.5l-95 -86q-28 26 -53 37.5t-59 11.5q-67 0 -108 -54.5t-58.5 -135.5t-17.5 -168q0 -63 20 -90.5t61 -27.5q43 0 84 22
l6 43h-77l13 96h76l6 46h-76l-1 103h249l-20 -149h60z" />
    <glyph glyph-name="uni021C" unicode="&#x21c;" horiz-adv-x="466" 
d="M418.5 666q53.5 -47 53.5 -124q0 -145 -176 -185q72 -2 109.5 -36t37.5 -98q0 -132 -124.5 -216.5t-315.5 -121.5l7 126q83 25 136.5 51.5t84 65.5t30.5 95q0 37 -21 53.5t-68 16.5h-64l37 125h48q48 0 73.5 28.5t25.5 76.5q0 63 -57 63q-54 0 -123 -54l-68 89
q103 92 230 92q91 0 144.5 -47z" />
    <glyph glyph-name="H" unicode="H" horiz-adv-x="589" 
d="M182 0h-174l98 694h174l-37 -265h148l38 265h173l-97 -694h-173l40 292h-148z" />
    <glyph glyph-name="Hbar" unicode="&#x126;" horiz-adv-x="605" 
d="M643 595l-14 -97h-46l-70 -498h-173l40 292h-148l-42 -292h-174l70 498h-45l13 97h46l14 99h174l-14 -99h149l14 99h173l-14 -99h47zM399 429l10 69h-148l-10 -69h148z" />
    <glyph glyph-name="uni021E" unicode="&#x21e;" horiz-adv-x="589" 
d="M182 0h-174l98 694h174l-37 -265h148l38 265h173l-97 -694h-173l40 292h-148zM504 949l56 -67l-147 -133h-101l-113 138l65 62l110 -85z" />
    <glyph glyph-name="Hcircumflex" unicode="&#x124;" horiz-adv-x="589" 
d="M182 0h-174l98 694h174l-37 -265h148l38 265h173l-97 -694h-173l40 292h-148zM242 755l-57 67l148 133h100l113 -137l-65 -63l-109 86z" />
    <glyph glyph-name="uni1E24" unicode="&#x1e24;" horiz-adv-x="589" 
d="M182 0h-174l98 694h174l-37 -265h148l38 265h173l-97 -694h-173l40 292h-148zM308 -80.5q23 -22.5 23 -59.5q0 -46 -31 -76.5t-76 -30.5q-40 0 -63 22.5t-23 59.5q0 46 31 76.5t76 30.5q40 0 63 -22.5z" />
    <glyph glyph-name="uniA7AA" unicode="&#xa7aa;" horiz-adv-x="740" 
d="M753 694l-97 -694h-173l40 292h-148l-42 -292h-174l80 569h-24q-21 0 -32.5 -14t-11.5 -41q0 -21 7 -53l-115 -42q-22 51 -22 100q0 80 51.5 127.5t135.5 47.5h203l-37 -265h148l38 265h173z" />
    <glyph glyph-name="uniA78D" unicode="&#xa78d;" horiz-adv-x="557" 
d="M570 694l-97 -694h-173l35 249q-32 -25 -64.5 -36.5t-71.5 -11.5q-79 0 -122 48.5t-43 130.5q0 16 4 50l37 264h170l-37 -268q-2 -20 -2 -29q0 -34 14 -50.5t46 -16.5q51 0 85 36l46 328h173z" />
    <glyph glyph-name="uni01F6" unicode="&#x1f6;" horiz-adv-x="841" 
d="M437 4.5q-42 22.5 -62.5 59.5t-20.5 81q0 9 2 25l16 122h-148l-41 -292h-174l97 694h174l-37 -265h149l37 265h174l-74 -525q-1 -8 -1 -22q0 -20 7 -30.5t25 -10.5q56 0 78.5 106.5t22.5 231.5q0 46 -3 88h158q6 -48 6 -101q0 -139 -22.5 -236t-84.5 -155t-174 -58
q-62 0 -104 22.5z" />
    <glyph glyph-name="I" unicode="I" horiz-adv-x="267" 
d="M280 694l-97 -694h-174l97 694h174z" />
    <glyph glyph-name="IJ" unicode="&#x132;" horiz-adv-x="558" 
d="M280 694l-97 -694h-174l97 694h174zM491 103q-12 -86 -49 -141t-87 -85t-119 -53l-31 124q58 25 80.5 61t32.5 105l82 580h173z" />
    <glyph glyph-name="Iacute" unicode="&#xcd;" horiz-adv-x="267" 
d="M280 694l-97 -694h-174l97 694h174zM304 954l54 -123l-233 -86l-37 81z" />
    <glyph glyph-name="Ibreve" unicode="&#x12c;" horiz-adv-x="267" 
d="M280 694l-97 -694h-174l97 694h174zM93.5 799q-35.5 50 -30.5 121l87 13q2 -30 18 -48.5t44 -18.5q55 0 83 70l89 -19q-15 -72 -61.5 -120t-119.5 -48q-74 0 -109.5 50z" />
    <glyph glyph-name="uni01CF" unicode="&#x1cf;" horiz-adv-x="267" 
d="M280 694l-97 -694h-174l97 694h174zM342 949l56 -67l-147 -133h-101l-113 138l65 62l110 -85z" />
    <glyph glyph-name="Icircumflex" unicode="&#xce;" horiz-adv-x="267" 
d="M280 694l-97 -694h-174l97 694h174zM80 755l-57 67l148 133h100l113 -137l-65 -63l-109 86z" />
    <glyph glyph-name="uni0208" unicode="&#x208;" horiz-adv-x="267" 
d="M280 694l-97 -694h-174l97 694h174zM113 991l64 -203l-90 -38l-91 190zM278 991l56 -204l-90 -33l-84 190z" />
    <glyph glyph-name="Idieresis" unicode="&#xcf;" horiz-adv-x="267" 
d="M280 694l-97 -694h-174l97 694h174zM40 785q-20 20 -20 52q0 40 27 66.5t66 26.5q34 0 54 -19.5t20 -52.5q0 -40 -27 -66.5t-66 -26.5q-34 0 -54 20zM256 785q-20 20 -20 52q0 40 27 66.5t66 26.5q34 0 54 -19.5t20 -52.5q0 -40 -27 -66.5t-66 -26.5q-34 0 -54 20z" />
    <glyph glyph-name="uni1E2E" unicode="&#x1e2e;" horiz-adv-x="267" 
d="M280 694l-97 -694h-174l97 694h174zM310 1111l80 -86l-172 -146l-57 54zM33 769q-20 20 -20 52q0 39 27.5 66t66.5 27q34 0 54 -19.5t20 -52.5q0 -39 -27.5 -66t-66.5 -27q-34 0 -54 20zM264 769q-20 20 -20 52q0 39 27 66t66 27q34 0 54 -19.5t20 -52.5q0 -40 -27 -66.5
t-66 -26.5q-34 0 -54 20z" />
    <glyph glyph-name="Idotaccent" unicode="&#x130;" horiz-adv-x="267" 
d="M280 694l-97 -694h-174l97 694h174zM144 775.5q-23 22.5 -23 59.5q0 46 31 76.5t76 30.5q40 0 63 -22.5t23 -59.5q0 -46 -31 -76.5t-76 -30.5q-40 0 -63 22.5z" />
    <glyph glyph-name="uni1ECA" unicode="&#x1eca;" horiz-adv-x="267" 
d="M280 694l-97 -694h-174l97 694h174zM147 -80.5q23 -22.5 23 -59.5q0 -46 -31 -76.5t-76 -30.5q-40 0 -63 22.5t-23 59.5q0 46 31 76.5t76 30.5q40 0 63 -22.5z" />
    <glyph glyph-name="Igrave" unicode="&#xcc;" horiz-adv-x="267" 
d="M280 694l-97 -694h-174l97 694h174zM163 951l188 -127l-47 -78l-211 84z" />
    <glyph glyph-name="uni1EC8" unicode="&#x1ec8;" horiz-adv-x="267" 
d="M280 694l-97 -694h-174l97 694h174zM167 854q36 2 52.5 12t16.5 31q0 25 -30 25q-14 0 -25.5 -3.5t-28.5 -10.5l-17 70q45 25 100 25q53 0 82 -26.5t29 -68.5t-24 -68t-67 -35l-5 -41h-93z" />
    <glyph glyph-name="uni020A" unicode="&#x20a;" horiz-adv-x="267" 
d="M280 694l-97 -694h-174l97 694h174zM41 778q18 79 65.5 129t121.5 50q75 0 110.5 -51.5t30.5 -129.5l-91 -13q-5 76 -62 76q-59 0 -87 -79z" />
    <glyph glyph-name="Imacron" unicode="&#x12a;" horiz-adv-x="267" 
d="M280 694l-97 -694h-174l97 694h174zM344 779h-283l17 117h283z" />
    <glyph glyph-name="Iogonek" unicode="&#x12e;" horiz-adv-x="267" 
d="M280 694l-97 -694h-41q-68 -27 -93 -56t-25 -56q0 -33 40 -33q24 0 53 6l-23 -101q-30 -8 -65 -8q-55 0 -90 29.5t-35 80.5q0 90 106 148l96 684h174z" />
    <glyph glyph-name="uni0196" unicode="&#x196;" horiz-adv-x="358" 
d="M336 24q-60 -41 -141 -41q-82 0 -127.5 40t-45.5 117q0 23 2 35l4 31l69 488h174l-69 -488h-1l-5 -45q-1 -5 -1 -13q0 -38 36 -38q17 0 29.5 3.5t34.5 13.5z" />
    <glyph glyph-name="uni0197" unicode="&#x197;" horiz-adv-x="305" 
d="M323 424l-18 -129h-60l-41 -295h-174l41 295h-63l18 129h63l38 270h174l-38 -270h60z" />
    <glyph glyph-name="Itilde" unicode="&#x128;" horiz-adv-x="267" 
d="M280 694l-97 -694h-174l97 694h174zM228.5 764q-13.5 7 -31.5 19q-3 2 -11 7.5t-14.5 8t-12.5 2.5q-15 0 -26.5 -10.5t-26.5 -33.5l-74 42q26 54 61.5 88t74.5 34q20 0 35 -7t32 -20q11 -9 19 -13t16 -4q14 0 25.5 10.5t25.5 32.5l74 -41q-26 -54 -62 -88t-74 -34
q-17 0 -30.5 7z" />
    <glyph glyph-name="J" unicode="J" horiz-adv-x="291" 
d="M224 103q-12 -86 -49 -141t-87 -85t-119 -53l-31 124q58 25 80.5 61t32.5 105l82 580h173z" />
    <glyph glyph-name="Jcircumflex" unicode="&#x134;" horiz-adv-x="291" 
d="M224 103q-12 -86 -49 -141t-87 -85t-119 -53l-31 124q58 25 80.5 61t32.5 105l82 580h173zM106 755l-57 67l148 133h100l113 -137l-65 -63l-109 86z" />
    <glyph glyph-name="uniA7B2" unicode="&#xa7b2;" horiz-adv-x="342" 
d="M258 -9q44 -15 78 -38l-38 -66q-14 9 -60 26q-26 -69 -78 -102.5t-138 -33.5q-68 0 -105.5 30t-37.5 85q0 62 44.5 97t111.5 35q35 0 53 -3l94 673h174l-95 -686zM55 -118.5q14 18.5 22 60.5q-18 3 -44 3t-39.5 -13t-13.5 -35q0 -34 34 -34q27 0 41 18.5z" />
    <glyph glyph-name="uni0248" unicode="&#x248;" horiz-adv-x="307" 
d="M307 278h-60l-24 -175q-12 -86 -49 -141t-87 -85t-119 -53l-31 124q58 25 80.5 61t32.5 105l23 164h-63l18 130h64l40 286h173l-40 -286h60z" />
    <glyph glyph-name="K" unicode="K" horiz-adv-x="587" 
d="M9 0l97 694h174l-97 -694h-174zM368 0l-128 370l222 324h179l-224 -320l143 -374h-192z" />
    <glyph glyph-name="uni01E8" unicode="&#x1e8;" horiz-adv-x="587" 
d="M9 0l97 694h174l-97 -694h-174zM368 0l-128 370l222 324h179l-224 -320l143 -374h-192zM504 949l56 -67l-147 -133h-101l-113 138l65 62l110 -85z" />
    <glyph glyph-name="Kcommaaccent" unicode="&#x136;" horiz-adv-x="587" 
d="M9 0l97 694h174l-97 -694h-174zM368 0l-128 370l222 324h179l-224 -320l143 -374h-192zM303.5 -86q20.5 -20 20.5 -51q0 -24 -8 -44t-29 -55l-57 -94h-80l42 117q-29 19 -29 54q0 41 25 67t62 26q33 0 53.5 -20z" />
    <glyph glyph-name="uni0198" unicode="&#x198;" horiz-adv-x="601" 
d="M240 370l149 230q39 62 77.5 87t96.5 25q36 0 61 -10t46 -28l-57 -96q-18 9 -33 9q-16 0 -27.5 -8.5t-27.5 -31.5l-107 -172l142 -375h-193zM9 0l97 694h174l-97 -694h-174z" />
    <glyph glyph-name="L" unicode="L" horiz-adv-x="461" 
d="M280 694l-78 -556h235l-38 -138h-390l97 694h174z" />
    <glyph glyph-name="uni01C7" unicode="&#x1c7;" horiz-adv-x="728" 
d="M280 694l-78 -556h235l-38 -138h-390l97 694h174zM661 103q-12 -86 -49 -141t-87 -85t-119 -53l-31 124q58 25 80.5 61t32.5 105l82 580h173z" />
    <glyph glyph-name="Lacute" unicode="&#x139;" horiz-adv-x="461" 
d="M280 694l-78 -556h235l-38 -138h-390l97 694h174zM304 954l54 -123l-233 -86l-37 81z" />
    <glyph glyph-name="uni023D" unicode="&#x23d;" horiz-adv-x="478" 
d="M219 138h235l-38 -138h-390l42 298h-59l18 130h59l37 266h174l-37 -266h64l-18 -130h-65z" />
    <glyph glyph-name="uniA7AD" unicode="&#xa7ad;" horiz-adv-x="572" 
d="M548 138l-38 -138h-390l35 251q-69 2 -105 34.5t-36 86.5q0 60 38.5 95.5t100.5 35.5q24 0 37 -4l27 195h174l-48 -345q47 3 93 10l2 -91q-50 -10 -109 -13l-16 -117h235zM168 346l10 68q-8 3 -21 3q-15 0 -24 -10t-9 -27q0 -34 44 -34z" />
    <glyph glyph-name="Lcaron" unicode="&#x13d;" horiz-adv-x="461" 
d="M280 694l-78 -556h235l-38 -138h-390l97 694h174zM327 709l119 -15l-74 -222l-84 8z" />
    <glyph glyph-name="uni1E3C" unicode="&#x1e3c;" horiz-adv-x="461" 
d="M280 694l-78 -556h235l-38 -138h-390l97 694h174zM47 -270l-54 67l148 141h101l112 -146l-68 -62l-106 93z" />
    <glyph glyph-name="Lcommaaccent" unicode="&#x13b;" horiz-adv-x="461" 
d="M280 694l-78 -556h235l-38 -138h-390l97 694h174zM250.5 -86q20.5 -20 20.5 -51q0 -24 -8 -44t-29 -55l-57 -94h-80l42 117q-29 19 -29 54q0 41 25 67t62 26q33 0 53.5 -20z" />
    <glyph glyph-name="Ldot" unicode="&#x13f;" horiz-adv-x="461" 
d="M280 694l-78 -556h235l-38 -138h-390l97 694h174zM305 327.5q-23 22.5 -23 59.5q0 46 31 76.5t76 30.5q40 0 63 -22.5t23 -59.5q0 -46 -31 -76.5t-76 -30.5q-40 0 -63 22.5z" />
    <glyph glyph-name="uni1E36" unicode="&#x1e36;" horiz-adv-x="461" 
d="M280 694l-78 -556h235l-38 -138h-390l97 694h174zM255 -80.5q23 -22.5 23 -59.5q0 -46 -31 -76.5t-76 -30.5q-40 0 -63 22.5t-23 59.5q0 46 31 76.5t76 30.5q40 0 63 -22.5z" />
    <glyph glyph-name="uni01C8" unicode="&#x1c8;" horiz-adv-x="699" 
d="M280 694l-78 -556h235l-38 -138h-390l97 694h174zM341 -102q56 23 83 56.5t36 101.5l66 476h168l-66 -469q-13 -88 -47.5 -143.5t-83 -86.5t-117.5 -56zM563 649.5q-23 22.5 -23 59.5q0 46 31 76.5t76 30.5q40 0 63 -22.5t23 -59.5q0 -46 -31 -76.5t-76 -30.5
q-40 0 -63 22.5z" />
    <glyph glyph-name="Lslash" unicode="&#x141;" horiz-adv-x="501" 
d="M242 138h235l-38 -138h-390l30 218l-34 -22l-42 87l94 58l49 353h174l-33 -236l109 67l43 -86l-169 -104z" />
    <glyph glyph-name="M" unicode="M" horiz-adv-x="712" 
d="M651 0h-170l29 264q16 137 44 298l-143 -490h-167l-19 489q-9 -169 -29 -300l-41 -261h-169l141 694h209l11 -478l133 478h223z" />
    <glyph glyph-name="uni1E3E" unicode="&#x1e3e;" horiz-adv-x="712" 
d="M651 0h-170l29 264q16 137 44 298l-143 -490h-167l-19 489q-9 -169 -29 -300l-41 -261h-169l141 694h209l11 -478l133 478h223zM520 954l54 -123l-233 -86l-37 81z" />
    <glyph glyph-name="uni1E40" unicode="&#x1e40;" horiz-adv-x="712" 
d="M651 0h-170l29 264q16 137 44 298l-143 -490h-167l-19 489q-9 -169 -29 -300l-41 -261h-169l141 694h209l11 -478l133 478h223zM360 775.5q-23 22.5 -23 59.5q0 46 31 76.5t76 30.5q40 0 63 -22.5t23 -59.5q0 -46 -31 -76.5t-76 -30.5q-40 0 -63 22.5z" />
    <glyph glyph-name="uni019C" unicode="&#x19c;" horiz-adv-x="809" 
d="M822 694l-97 -694h-153l-4 60q-37 -42 -70.5 -60t-73.5 -18q-45 0 -75.5 22.5t-43.5 61.5q-36 -44 -74 -64t-83 -20q-61 0 -95 41t-34 106q0 17 3 35l75 530h174l-74 -525q-1 -6 -1 -16q0 -19 8 -30t22 -11q19 0 36.5 14.5t36.5 44.5l73 523h174l-73 -523q-1 -6 -1 -17
q0 -20 8 -31t22 -11q18 0 35.5 14.5t36.5 45.5l74 522h174z" />
    <glyph glyph-name="N" unicode="N" horiz-adv-x="586" 
d="M502 0h-213l-85 548l1 -33q2 -46 2 -71q0 -98 -15 -210l-31 -234h-152l97 694h212l85 -548l-1 41q-2 44 -2 64q0 82 13 190l34 253h152z" />
    <glyph glyph-name="uni01CA" unicode="&#x1ca;" horiz-adv-x="877" 
d="M502 0h-213l-85 548l1 -33q2 -46 2 -71q0 -98 -15 -210l-31 -234h-152l97 694h212l85 -548l-1 41q-2 44 -2 64q0 82 13 190l34 253h152zM810 103q-12 -86 -49 -141t-87 -85t-119 -53l-31 124q58 25 80.5 61t32.5 105l82 580h173z" />
    <glyph glyph-name="Nacute" unicode="&#x143;" horiz-adv-x="586" 
d="M502 0h-213l-85 548l1 -33q2 -46 2 -71q0 -98 -15 -210l-31 -234h-152l97 694h212l85 -548l-1 41q-2 44 -2 64q0 82 13 190l34 253h152zM465 954l54 -123l-233 -86l-37 81z" />
    <glyph glyph-name="Ncaron" unicode="&#x147;" horiz-adv-x="586" 
d="M502 0h-213l-85 548l1 -33q2 -46 2 -71q0 -98 -15 -210l-31 -234h-152l97 694h212l85 -548l-1 41q-2 44 -2 64q0 82 13 190l34 253h152zM503 949l56 -67l-147 -133h-101l-113 138l65 62l110 -85z" />
    <glyph glyph-name="uni1E4A" unicode="&#x1e4a;" horiz-adv-x="586" 
d="M502 0h-213l-85 548l1 -33q2 -46 2 -71q0 -98 -15 -210l-31 -234h-152l97 694h212l85 -548l-1 41q-2 44 -2 64q0 82 13 190l34 253h152zM99 -270l-54 67l148 141h101l112 -146l-68 -62l-106 93z" />
    <glyph glyph-name="Ncommaaccent" unicode="&#x145;" horiz-adv-x="586" 
d="M502 0h-213l-85 548l1 -33q2 -46 2 -71q0 -98 -15 -210l-31 -234h-152l97 694h212l85 -548l-1 41q-2 44 -2 64q0 82 13 190l34 253h152zM302.5 -86q20.5 -20 20.5 -51q0 -24 -8 -44t-29 -55l-57 -94h-80l42 117q-29 19 -29 54q0 41 25 67t62 26q33 0 53.5 -20z" />
    <glyph glyph-name="uni1E44" unicode="&#x1e44;" horiz-adv-x="586" 
d="M502 0h-213l-85 548l1 -33q2 -46 2 -71q0 -98 -15 -210l-31 -234h-152l97 694h212l85 -548l-1 41q-2 44 -2 64q0 82 13 190l34 253h152zM305 775.5q-23 22.5 -23 59.5q0 46 31 76.5t76 30.5q40 0 63 -22.5t23 -59.5q0 -46 -31 -76.5t-76 -30.5q-40 0 -63 22.5z" />
    <glyph glyph-name="uni1E46" unicode="&#x1e46;" horiz-adv-x="586" 
d="M502 0h-213l-85 548l1 -33q2 -46 2 -71q0 -98 -15 -210l-31 -234h-152l97 694h212l85 -548l-1 41q-2 44 -2 64q0 82 13 190l34 253h152zM307 -80.5q23 -22.5 23 -59.5q0 -46 -31 -76.5t-76 -30.5q-40 0 -63 22.5t-23 59.5q0 46 31 76.5t76 30.5q40 0 63 -22.5z" />
    <glyph glyph-name="uni01F8" unicode="&#x1f8;" horiz-adv-x="586" 
d="M502 0h-213l-85 548l1 -33q2 -46 2 -71q0 -98 -15 -210l-31 -234h-152l97 694h212l85 -548l-1 41q-2 44 -2 64q0 82 13 190l34 253h152zM324 951l188 -127l-47 -78l-211 84z" />
    <glyph glyph-name="Eng" unicode="&#x14a;" horiz-adv-x="586" 
d="M599 694l-97 -694l-5 -34q-15 -93 -73.5 -141.5t-147.5 -48.5q-84 0 -133 45l69 101q16 -10 27.5 -14t28.5 -4q46 0 55 54l5 42h-39l-85 548l1 -33q2 -46 2 -71q0 -98 -15 -210l-31 -234h-152l97 694h212l85 -548l-1 41q-2 44 -2 64q0 82 13 190l34 253h152z" />
    <glyph glyph-name="uni019D" unicode="&#x19d;" horiz-adv-x="586" 
d="M599 694l-97 -694h-213l-85 548l1 -33q2 -46 2 -71q0 -98 -15 -210l-31 -234l-6 -40q-13 -90 -64.5 -136.5t-135.5 -46.5q-80 0 -131 44l69 95q17 -10 28.5 -14t27.5 -4q23 0 37 15t18 45l5 42l97 694h212l85 -548l-1 41q-2 44 -2 64q0 82 13 190l34 253h152z" />
    <glyph glyph-name="uni01CB" unicode="&#x1cb;" horiz-adv-x="839" 
d="M502 0h-213l-85 548l1 -33q2 -46 2 -71q0 -98 -15 -210l-31 -234h-152l97 694h212l85 -548l-1 41q-2 44 -2 64q0 82 13 190l34 253h152zM481 -102q56 23 83 56.5t36 101.5l66 476h168l-66 -469q-13 -88 -47.5 -143.5t-83 -86.5t-117.5 -56zM703 649.5q-23 22.5 -23 59.5
q0 46 31 76.5t76 30.5q40 0 63 -22.5t23 -59.5q0 -46 -31 -76.5t-76 -30.5q-40 0 -63 22.5z" />
    <glyph glyph-name="uni0220" unicode="&#x220;" horiz-adv-x="578" 
d="M537.5 672q36.5 -41 36.5 -107q0 -22 -2 -34l-102 -743h-174l100 727q1 7 1 20q0 47 -40 47q-24 0 -48 -13t-52 -40l-75 -529h-173l97 694h152l4 -55q40 37 81.5 55.5t88.5 18.5q69 0 105.5 -41z" />
    <glyph glyph-name="Ntilde" unicode="&#xd1;" horiz-adv-x="586" 
d="M502 0h-213l-85 548l1 -33q2 -46 2 -71q0 -98 -15 -210l-31 -234h-152l97 694h212l85 -548l-1 41q-2 44 -2 64q0 82 13 190l34 253h152zM389.5 764q-13.5 7 -31.5 19q-3 2 -11 7.5t-14.5 8t-12.5 2.5q-15 0 -26.5 -10.5t-26.5 -33.5l-74 42q26 54 61.5 88t74.5 34
q20 0 35 -7t32 -20q11 -9 19 -13t16 -4q14 0 25.5 10.5t25.5 32.5l74 -41q-26 -54 -62 -88t-74 -34q-17 0 -30.5 7z" />
    <glyph glyph-name="O" unicode="O" horiz-adv-x="624" 
d="M553.5 643q62.5 -70 62.5 -203q0 -117 -35 -221t-112 -170.5t-195 -66.5t-180.5 70t-62.5 202q0 117 35 221.5t111.5 171t194.5 66.5q119 0 181.5 -70zM271.5 525q-34.5 -59 -49 -141t-14.5 -155q0 -63 19.5 -91t58.5 -28q56 0 90 58.5t48 140t14 156.5q0 63 -19 91
t-58 28q-55 0 -89.5 -59z" />
    <glyph glyph-name="uni0222" unicode="&#x222;" horiz-adv-x="585" 
d="M456 397q99 -42 99 -148q0 -79 -38.5 -139.5t-106.5 -94t-153 -33.5q-75 0 -129 27t-82.5 74t-28.5 105q0 76 39 128.5t109 79.5q-34 17 -52 45t-18 71q0 7 2 27l21 155h174l-24 -167q-2 -18 -2 -24q0 -27 12.5 -39.5t39.5 -12.5q34 0 50.5 20.5t21.5 58.5l23 164h174
l-22 -157q-14 -98 -109 -140zM346 146.5q28 36.5 28 97.5q0 40 -18.5 62.5t-53.5 22.5q-46 0 -75 -37.5t-29 -98.5q0 -40 18.5 -61.5t54.5 -21.5q47 0 75 36.5z" />
    <glyph glyph-name="Oacute" unicode="&#xd3;" horiz-adv-x="624" 
d="M553.5 643q62.5 -70 62.5 -203q0 -117 -35 -221t-112 -170.5t-195 -66.5t-180.5 70t-62.5 202q0 117 35 221.5t111.5 171t194.5 66.5q119 0 181.5 -70zM271.5 525q-34.5 -59 -49 -141t-14.5 -155q0 -63 19.5 -91t58.5 -28q56 0 90 58.5t48 140t14 156.5q0 63 -19 91
t-58 28q-55 0 -89.5 -59zM483 954l54 -123l-233 -86l-37 81z" />
    <glyph glyph-name="Obreve" unicode="&#x14e;" horiz-adv-x="624" 
d="M553.5 643q62.5 -70 62.5 -203q0 -117 -35 -221t-112 -170.5t-195 -66.5t-180.5 70t-62.5 202q0 117 35 221.5t111.5 171t194.5 66.5q119 0 181.5 -70zM271.5 525q-34.5 -59 -49 -141t-14.5 -155q0 -63 19.5 -91t58.5 -28q56 0 90 58.5t48 140t14 156.5q0 63 -19 91
t-58 28q-55 0 -89.5 -59zM272.5 799q-35.5 50 -30.5 121l87 13q2 -30 18 -48.5t44 -18.5q55 0 83 70l89 -19q-15 -72 -61.5 -120t-119.5 -48q-74 0 -109.5 50z" />
    <glyph glyph-name="uni01D1" unicode="&#x1d1;" horiz-adv-x="624" 
d="M553.5 643q62.5 -70 62.5 -203q0 -117 -35 -221t-112 -170.5t-195 -66.5t-180.5 70t-62.5 202q0 117 35 221.5t111.5 171t194.5 66.5q119 0 181.5 -70zM271.5 525q-34.5 -59 -49 -141t-14.5 -155q0 -63 19.5 -91t58.5 -28q56 0 90 58.5t48 140t14 156.5q0 63 -19 91
t-58 28q-55 0 -89.5 -59zM521 949l56 -67l-147 -133h-101l-113 138l65 62l110 -85z" />
    <glyph glyph-name="uni019F" unicode="&#x19f;" horiz-adv-x="624" 
d="M553.5 643q62.5 -70 62.5 -203q0 -117 -35 -221t-112 -170.5t-195 -66.5t-180.5 70t-62.5 202q0 117 35 221.5t111.5 171t194.5 66.5q119 0 181.5 -70zM271.5 535q-35.5 -53 -53.5 -136h227q2 46 2 64q0 67 -20 96t-63 29q-57 0 -92.5 -53zM378.5 161q36.5 55 53.5 142
h-229q-3 -40 -3 -73q0 -66 20 -95t63 -29q59 0 95.5 55z" />
    <glyph glyph-name="Ocircumflex" unicode="&#xd4;" horiz-adv-x="624" 
d="M553.5 643q62.5 -70 62.5 -203q0 -117 -35 -221t-112 -170.5t-195 -66.5t-180.5 70t-62.5 202q0 117 35 221.5t111.5 171t194.5 66.5q119 0 181.5 -70zM271.5 525q-34.5 -59 -49 -141t-14.5 -155q0 -63 19.5 -91t58.5 -28q56 0 90 58.5t48 140t14 156.5q0 63 -19 91
t-58 28q-55 0 -89.5 -59zM259 755l-57 67l148 133h100l113 -137l-65 -63l-109 86z" />
    <glyph glyph-name="uni1ED0" unicode="&#x1ed0;" horiz-adv-x="624" 
d="M631 1107l80 -86l-172 -146l-57 54zM256 723l-57 67l148 133h100l113 -137l-65 -63l-109 86zM553.5 643q62.5 -70 62.5 -203q0 -117 -35 -221t-112 -170.5t-195 -66.5t-180.5 70t-62.5 202q0 117 35 221.5t111.5 171t194.5 66.5q119 0 181.5 -70zM271.5 525
q-34.5 -59 -49 -141t-14.5 -155q0 -63 19.5 -91t58.5 -28q56 0 90 58.5t48 140t14 156.5q0 63 -19 91t-58 28q-55 0 -89.5 -59z" />
    <glyph glyph-name="uni1ED8" unicode="&#x1ed8;" horiz-adv-x="624" 
d="M553.5 643q62.5 -70 62.5 -203q0 -117 -35 -221t-112 -170.5t-195 -66.5t-180.5 70t-62.5 202q0 117 35 221.5t111.5 171t194.5 66.5q119 0 181.5 -70zM271.5 525q-34.5 -59 -49 -141t-14.5 -155q0 -63 19.5 -91t58.5 -28q56 0 90 58.5t48 140t14 156.5q0 63 -19 91
t-58 28q-55 0 -89.5 -59zM259 755l-57 67l148 133h100l113 -137l-65 -63l-109 86zM326 -80.5q23 -22.5 23 -59.5q0 -46 -31 -76.5t-76 -30.5q-40 0 -63 22.5t-23 59.5q0 46 31 76.5t76 30.5q40 0 63 -22.5z" />
    <glyph glyph-name="uni1ED2" unicode="&#x1ed2;" horiz-adv-x="624" 
d="M209 1105l99 -181l-69 -49l-130 152zM257 723l-57 67l148 133h100l113 -137l-65 -63l-109 86zM553.5 643q62.5 -70 62.5 -203q0 -117 -35 -221t-112 -170.5t-195 -66.5t-180.5 70t-62.5 202q0 117 35 221.5t111.5 171t194.5 66.5q119 0 181.5 -70zM271.5 525
q-34.5 -59 -49 -141t-14.5 -155q0 -63 19.5 -91t58.5 -28q56 0 90 58.5t48 140t14 156.5q0 63 -19 91t-58 28q-55 0 -89.5 -59z" />
    <glyph glyph-name="uni1ED4" unicode="&#x1ed4;" horiz-adv-x="624" 
d="M553.5 643q62.5 -70 62.5 -203q0 -117 -35 -221t-112 -170.5t-195 -66.5t-180.5 70t-62.5 202q0 117 35 221.5t111.5 171t194.5 66.5q119 0 181.5 -70zM271.5 525q-34.5 -59 -49 -141t-14.5 -155q0 -63 19.5 -91t58.5 -28q56 0 90 58.5t48 140t14 156.5q0 63 -19 91
t-58 28q-55 0 -89.5 -59zM254 723l-57 67l148 133h100l113 -137l-65 -63l-109 86zM511 953q36 2 52.5 12t16.5 31q0 25 -30 25q-14 0 -25.5 -3.5t-28.5 -10.5l-17 70q45 25 100 25q53 0 82 -26.5t29 -68.5t-24 -68t-67 -35l-5 -41h-93z" />
    <glyph glyph-name="uni1ED6" unicode="&#x1ed6;" horiz-adv-x="624" 
d="M429.5 956q-13.5 6 -31.5 18q-12 9 -20.5 13t-16.5 4q-15 0 -26.5 -10t-26.5 -31l-72 39q25 49 60 80.5t74 31.5q20 0 34 -6.5t31 -17.5q21 -16 35 -16q13 0 24 9t26 30l73 -37q-25 -50 -60.5 -81.5t-73.5 -31.5q-16 0 -29.5 6zM256 723l-57 67l148 133h100l113 -137
l-65 -63l-109 86zM553.5 643q62.5 -70 62.5 -203q0 -117 -35 -221t-112 -170.5t-195 -66.5t-180.5 70t-62.5 202q0 117 35 221.5t111.5 171t194.5 66.5q119 0 181.5 -70zM271.5 525q-34.5 -59 -49 -141t-14.5 -155q0 -63 19.5 -91t58.5 -28q56 0 90 58.5t48 140t14 156.5
q0 63 -19 91t-58 28q-55 0 -89.5 -59z" />
    <glyph glyph-name="uni020C" unicode="&#x20c;" horiz-adv-x="624" 
d="M553.5 643q62.5 -70 62.5 -203q0 -117 -35 -221t-112 -170.5t-195 -66.5t-180.5 70t-62.5 202q0 117 35 221.5t111.5 171t194.5 66.5q119 0 181.5 -70zM271.5 525q-34.5 -59 -49 -141t-14.5 -155q0 -63 19.5 -91t58.5 -28q56 0 90 58.5t48 140t14 156.5q0 63 -19 91
t-58 28q-55 0 -89.5 -59zM292 991l64 -203l-90 -38l-91 190zM457 991l56 -204l-90 -33l-84 190z" />
    <glyph glyph-name="Odieresis" unicode="&#xd6;" horiz-adv-x="624" 
d="M553.5 643q62.5 -70 62.5 -203q0 -117 -35 -221t-112 -170.5t-195 -66.5t-180.5 70t-62.5 202q0 117 35 221.5t111.5 171t194.5 66.5q119 0 181.5 -70zM271.5 525q-34.5 -59 -49 -141t-14.5 -155q0 -63 19.5 -91t58.5 -28q56 0 90 58.5t48 140t14 156.5q0 63 -19 91
t-58 28q-55 0 -89.5 -59zM219 785q-20 20 -20 52q0 40 27 66.5t66 26.5q34 0 54 -19.5t20 -52.5q0 -40 -27 -66.5t-66 -26.5q-34 0 -54 20zM435 785q-20 20 -20 52q0 40 27 66.5t66 26.5q34 0 54 -19.5t20 -52.5q0 -40 -27 -66.5t-66 -26.5q-34 0 -54 20z" />
    <glyph glyph-name="uni022A" unicode="&#x22a;" horiz-adv-x="624" 
d="M553.5 643q62.5 -70 62.5 -203q0 -117 -35 -221t-112 -170.5t-195 -66.5t-180.5 70t-62.5 202q0 117 35 221.5t111.5 171t194.5 66.5q119 0 181.5 -70zM271.5 525q-34.5 -59 -49 -141t-14.5 -155q0 -63 19.5 -91t58.5 -28q56 0 90 58.5t48 140t14 156.5q0 63 -19 91
t-58 28q-55 0 -89.5 -59zM217 766q-20 20 -20 52q0 40 27 66.5t66 26.5q34 0 54 -19.5t20 -52.5q0 -40 -27 -66.5t-66 -26.5q-34 0 -54 20zM433 766q-20 20 -20 52q0 40 27 66.5t66 26.5q34 0 54 -19.5t20 -52.5q0 -40 -27 -66.5t-66 -26.5q-34 0 -54 20zM542 950h-283
l17 117h283z" />
    <glyph glyph-name="uni022E" unicode="&#x22e;" horiz-adv-x="624" 
d="M553.5 643q62.5 -70 62.5 -203q0 -117 -35 -221t-112 -170.5t-195 -66.5t-180.5 70t-62.5 202q0 117 35 221.5t111.5 171t194.5 66.5q119 0 181.5 -70zM271.5 525q-34.5 -59 -49 -141t-14.5 -155q0 -63 19.5 -91t58.5 -28q56 0 90 58.5t48 140t14 156.5q0 63 -19 91
t-58 28q-55 0 -89.5 -59zM323 775.5q-23 22.5 -23 59.5q0 46 31 76.5t76 30.5q40 0 63 -22.5t23 -59.5q0 -46 -31 -76.5t-76 -30.5q-40 0 -63 22.5z" />
    <glyph glyph-name="uni0230" unicode="&#x230;" horiz-adv-x="624" 
d="M553.5 643q62.5 -70 62.5 -203q0 -117 -35 -221t-112 -170.5t-195 -66.5t-180.5 70t-62.5 202q0 117 35 221.5t111.5 171t194.5 66.5q119 0 181.5 -70zM271.5 525q-34.5 -59 -49 -141t-14.5 -155q0 -63 19.5 -91t58.5 -28q56 0 90 58.5t48 140t14 156.5q0 63 -19 91
t-58 28q-55 0 -89.5 -59zM315 757.5q-23 22.5 -23 59.5q0 46 31 76.5t76 30.5q40 0 63 -22.5t23 -59.5q0 -46 -31 -76.5t-76 -30.5q-40 0 -63 22.5zM549 951h-283l17 117h283z" />
    <glyph glyph-name="uni1ECC" unicode="&#x1ecc;" horiz-adv-x="624" 
d="M553.5 643q62.5 -70 62.5 -203q0 -117 -35 -221t-112 -170.5t-195 -66.5t-180.5 70t-62.5 202q0 117 35 221.5t111.5 171t194.5 66.5q119 0 181.5 -70zM271.5 525q-34.5 -59 -49 -141t-14.5 -155q0 -63 19.5 -91t58.5 -28q56 0 90 58.5t48 140t14 156.5q0 63 -19 91
t-58 28q-55 0 -89.5 -59zM326 -80.5q23 -22.5 23 -59.5q0 -46 -31 -76.5t-76 -30.5q-40 0 -63 22.5t-23 59.5q0 46 31 76.5t76 30.5q40 0 63 -22.5z" />
    <glyph glyph-name="Ograve" unicode="&#xd2;" horiz-adv-x="624" 
d="M553.5 643q62.5 -70 62.5 -203q0 -117 -35 -221t-112 -170.5t-195 -66.5t-180.5 70t-62.5 202q0 117 35 221.5t111.5 171t194.5 66.5q119 0 181.5 -70zM271.5 525q-34.5 -59 -49 -141t-14.5 -155q0 -63 19.5 -91t58.5 -28q56 0 90 58.5t48 140t14 156.5q0 63 -19 91
t-58 28q-55 0 -89.5 -59zM342 951l188 -127l-47 -78l-211 84z" />
    <glyph glyph-name="uni1ECE" unicode="&#x1ece;" horiz-adv-x="624" 
d="M553.5 643q62.5 -70 62.5 -203q0 -117 -35 -221t-112 -170.5t-195 -66.5t-180.5 70t-62.5 202q0 117 35 221.5t111.5 171t194.5 66.5q119 0 181.5 -70zM271.5 525q-34.5 -59 -49 -141t-14.5 -155q0 -63 19.5 -91t58.5 -28q56 0 90 58.5t48 140t14 156.5q0 63 -19 91
t-58 28q-55 0 -89.5 -59zM346 854q36 2 52.5 12t16.5 31q0 25 -30 25q-14 0 -25.5 -3.5t-28.5 -10.5l-17 70q45 25 100 25q53 0 82 -26.5t29 -68.5t-24 -68t-67 -35l-5 -41h-93z" />
    <glyph glyph-name="Ohorn" unicode="&#x1a0;" horiz-adv-x="657" 
d="M689 607.5q-31 -39.5 -89 -50.5q16 -49 16 -117q0 -117 -35 -221t-112 -170.5t-195 -66.5t-180.5 70t-62.5 202q0 117 35 221.5t111.5 171t194.5 66.5q126 0 189 -78q27 4 38.5 23t11.5 54q0 21 -4 47l106 13q7 -26 7 -59q0 -66 -31 -105.5zM376 168.5q34 58.5 48 140
t14 156.5q0 63 -19 91t-58 28q-55 0 -89.5 -59t-49 -141t-14.5 -155q0 -63 19.5 -91t58.5 -28q56 0 90 58.5z" />
    <glyph glyph-name="uni1EDA" unicode="&#x1eda;" horiz-adv-x="657" 
d="M537 831l-233 -86l-37 81l216 128zM689 607.5q-31 -39.5 -89 -50.5q16 -49 16 -117q0 -117 -35 -221t-112 -170.5t-195 -66.5t-180.5 70t-62.5 202q0 117 35 221.5t111.5 171t194.5 66.5q126 0 189 -78q27 4 38.5 23t11.5 54q0 21 -4 47l106 13q7 -26 7 -59
q0 -66 -31 -105.5zM376 168.5q34 58.5 48 140t14 156.5q0 63 -19 91t-58 28q-55 0 -89.5 -59t-49 -141t-14.5 -155q0 -63 19.5 -91t58.5 -28q56 0 90 58.5z" />
    <glyph glyph-name="uni1EE2" unicode="&#x1ee2;" horiz-adv-x="657" 
d="M689 607.5q-31 -39.5 -89 -50.5q16 -49 16 -117q0 -117 -35 -221t-112 -170.5t-195 -66.5t-180.5 70t-62.5 202q0 117 35 221.5t111.5 171t194.5 66.5q126 0 189 -78q27 4 38.5 23t11.5 54q0 21 -4 47l106 13q7 -26 7 -59q0 -66 -31 -105.5zM376 168.5q34 58.5 48 140
t14 156.5q0 63 -19 91t-58 28q-55 0 -89.5 -59t-49 -141t-14.5 -155q0 -63 19.5 -91t58.5 -28q56 0 90 58.5zM326 -80.5q23 -22.5 23 -59.5q0 -46 -31 -76.5t-76 -30.5q-40 0 -63 22.5t-23 59.5q0 46 31 76.5t76 30.5q40 0 63 -22.5z" />
    <glyph glyph-name="uni1EDC" unicode="&#x1edc;" horiz-adv-x="657" 
d="M530 824l-47 -78l-211 84l70 121zM689 607.5q-31 -39.5 -89 -50.5q16 -49 16 -117q0 -117 -35 -221t-112 -170.5t-195 -66.5t-180.5 70t-62.5 202q0 117 35 221.5t111.5 171t194.5 66.5q126 0 189 -78q27 4 38.5 23t11.5 54q0 21 -4 47l106 13q7 -26 7 -59
q0 -66 -31 -105.5zM376 168.5q34 58.5 48 140t14 156.5q0 63 -19 91t-58 28q-55 0 -89.5 -59t-49 -141t-14.5 -155q0 -63 19.5 -91t58.5 -28q56 0 90 58.5z" />
    <glyph glyph-name="uni1EDE" unicode="&#x1ede;" horiz-adv-x="657" 
d="M359.5 918.5q-11.5 -3.5 -28.5 -10.5l-17 70q45 25 100 25q53 0 82 -26.5t29 -68.5t-24 -68t-67 -35l-5 -41h-93l10 90q36 2 52.5 12t16.5 31q0 25 -30 25q-14 0 -25.5 -3.5zM689 607.5q-31 -39.5 -89 -50.5q16 -49 16 -117q0 -117 -35 -221t-112 -170.5t-195 -66.5
t-180.5 70t-62.5 202q0 117 35 221.5t111.5 171t194.5 66.5q126 0 189 -78q27 4 38.5 23t11.5 54q0 21 -4 47l106 13q7 -26 7 -59q0 -66 -31 -105.5zM376 168.5q34 58.5 48 140t14 156.5q0 63 -19 91t-58 28q-55 0 -89.5 -59t-49 -141t-14.5 -155q0 -63 19.5 -91t58.5 -28
q56 0 90 58.5z" />
    <glyph glyph-name="uni1EE0" unicode="&#x1ee0;" horiz-adv-x="657" 
d="M311.5 790.5q-11.5 -10.5 -26.5 -33.5l-74 42q26 54 61.5 88t74.5 34q20 0 35 -7t32 -20q11 -9 19 -13t16 -4q14 0 25.5 10.5t25.5 32.5l74 -41q-26 -54 -62 -88t-74 -34q-17 0 -30.5 7t-31.5 19q-3 2 -11 7.5t-14.5 8t-12.5 2.5q-15 0 -26.5 -10.5zM689 607.5
q-31 -39.5 -89 -50.5q16 -49 16 -117q0 -117 -35 -221t-112 -170.5t-195 -66.5t-180.5 70t-62.5 202q0 117 35 221.5t111.5 171t194.5 66.5q126 0 189 -78q27 4 38.5 23t11.5 54q0 21 -4 47l106 13q7 -26 7 -59q0 -66 -31 -105.5zM376 168.5q34 58.5 48 140t14 156.5
q0 63 -19 91t-58 28q-55 0 -89.5 -59t-49 -141t-14.5 -155q0 -63 19.5 -91t58.5 -28q56 0 90 58.5z" />
    <glyph glyph-name="Ohungarumlaut" unicode="&#x150;" horiz-adv-x="624" 
d="M553.5 643q62.5 -70 62.5 -203q0 -117 -35 -221t-112 -170.5t-195 -66.5t-180.5 70t-62.5 202q0 117 35 221.5t111.5 171t194.5 66.5q119 0 181.5 -70zM271.5 525q-34.5 -59 -49 -141t-14.5 -155q0 -63 19.5 -91t58.5 -28q56 0 90 58.5t48 140t14 156.5q0 63 -19 91
t-58 28q-55 0 -89.5 -59zM361 991l99 -52l-133 -185l-79 35zM525 991l98 -56l-140 -185l-77 40z" />
    <glyph glyph-name="uni01A2" unicode="&#x1a2;" horiz-adv-x="873" 
d="M820 672.5q46 -40.5 46 -113.5q0 -17 -3 -35l-103 -736h-174l104 744q1 6 1 17q0 41 -39 41q-17 0 -30 -4.5t-29 -13.5q23 -57 23 -132q0 -117 -35 -221t-112 -170.5t-195 -66.5t-180.5 70t-62.5 202q0 117 35 221.5t111.5 171t194.5 66.5q95 0 158 -52q71 52 162 52
q82 0 128 -40.5zM376 168.5q34 58.5 48 140t14 156.5q0 63 -19 91t-58 28q-55 0 -89.5 -59t-49 -141t-14.5 -155q0 -63 19.5 -91t58.5 -28q56 0 90 58.5z" />
    <glyph glyph-name="uni020E" unicode="&#x20e;" horiz-adv-x="624" 
d="M553.5 643q62.5 -70 62.5 -203q0 -117 -35 -221t-112 -170.5t-195 -66.5t-180.5 70t-62.5 202q0 117 35 221.5t111.5 171t194.5 66.5q119 0 181.5 -70zM271.5 525q-34.5 -59 -49 -141t-14.5 -155q0 -63 19.5 -91t58.5 -28q56 0 90 58.5t48 140t14 156.5q0 63 -19 91
t-58 28q-55 0 -89.5 -59zM220 778q18 79 65.5 129t121.5 50q75 0 110.5 -51.5t30.5 -129.5l-91 -13q-5 76 -62 76q-59 0 -87 -79z" />
    <glyph glyph-name="Omacron" unicode="&#x14c;" horiz-adv-x="624" 
d="M553.5 643q62.5 -70 62.5 -203q0 -117 -35 -221t-112 -170.5t-195 -66.5t-180.5 70t-62.5 202q0 117 35 221.5t111.5 171t194.5 66.5q119 0 181.5 -70zM271.5 525q-34.5 -59 -49 -141t-14.5 -155q0 -63 19.5 -91t58.5 -28q56 0 90 58.5t48 140t14 156.5q0 63 -19 91
t-58 28q-55 0 -89.5 -59zM523 779h-283l17 117h283z" />
    <glyph glyph-name="uni1E52" unicode="&#x1e52;" horiz-adv-x="624" 
d="M553.5 643q62.5 -70 62.5 -203q0 -117 -35 -221t-112 -170.5t-195 -66.5t-180.5 70t-62.5 202q0 117 35 221.5t111.5 171t194.5 66.5q119 0 181.5 -70zM271.5 525q-34.5 -59 -49 -141t-14.5 -155q0 -63 19.5 -91t58.5 -28q56 0 90 58.5t48 140t14 156.5q0 63 -19 91
t-58 28q-55 0 -89.5 -59zM528 761h-283l17 117h283zM491 1111l54 -123l-233 -86l-37 81z" />
    <glyph glyph-name="uni1E50" unicode="&#x1e50;" horiz-adv-x="624" 
d="M553.5 643q62.5 -70 62.5 -203q0 -117 -35 -221t-112 -170.5t-195 -66.5t-180.5 70t-62.5 202q0 117 35 221.5t111.5 171t194.5 66.5q119 0 181.5 -70zM271.5 525q-34.5 -59 -49 -141t-14.5 -155q0 -63 19.5 -91t58.5 -28q56 0 90 58.5t48 140t14 156.5q0 63 -19 91
t-58 28q-55 0 -89.5 -59zM525 761h-283l17 117h283zM356 1108l188 -127l-47 -78l-211 84z" />
    <glyph glyph-name="uniA7B6" unicode="&#xa7b6;" horiz-adv-x="806" 
d="M79.5 35q-44.5 53 -44.5 164q0 121 35 249t97 246h160q-55 -140 -87 -262.5t-32 -235.5q0 -46 10 -66t32 -20q46 0 57 76l29 213h172l-30 -216q-3 -16 -3 -30q0 -43 34 -43q37 0 60.5 58.5t33.5 142t10 161.5q0 57 -5.5 104t-17.5 118h166q30 -106 30 -224
q0 -213 -61.5 -350.5t-201.5 -137.5q-62 0 -98.5 30t-43.5 93q-24 -63 -68.5 -93t-98.5 -30q-90 0 -134.5 53z" />
    <glyph glyph-name="uni01EA" unicode="&#x1ea;" horiz-adv-x="624" 
d="M265 -112q0 -33 40 -33q24 0 53 6l-23 -101q-30 -8 -65 -8q-55 0 -90 29.5t-35 80.5q0 74 70 125q-90 17 -137 84.5t-47 182.5q0 117 35 221.5t111.5 171t194.5 66.5q119 0 181.5 -70t62.5 -203q0 -97 -24.5 -187.5t-78 -158.5t-134.5 -96q-114 -45 -114 -110zM271.5 525
q-34.5 -59 -49 -141t-14.5 -155q0 -63 19.5 -91t58.5 -28q56 0 90 58.5t48 140t14 156.5q0 63 -19 91t-58 28q-55 0 -89.5 -59z" />
    <glyph glyph-name="uni01EC" unicode="&#x1ec;" horiz-adv-x="624" 
d="M540 896l-17 -117h-283l17 117h283zM265 -112q0 -33 40 -33q24 0 53 6l-23 -101q-30 -8 -65 -8q-55 0 -90 29.5t-35 80.5q0 74 70 125q-90 17 -137 84.5t-47 182.5q0 117 35 221.5t111.5 171t194.5 66.5q119 0 181.5 -70t62.5 -203q0 -97 -24.5 -187.5t-78 -158.5
t-134.5 -96q-114 -45 -114 -110zM271.5 525q-34.5 -59 -49 -141t-14.5 -155q0 -63 19.5 -91t58.5 -28q56 0 90 58.5t48 140t14 156.5q0 63 -19 91t-58 28q-55 0 -89.5 -59z" />
    <glyph glyph-name="uni0186" unicode="&#x186;" horiz-adv-x="521" 
d="M449 642q64 -71 64 -206q0 -127 -40 -230t-117.5 -163.5t-185.5 -60.5q-65 0 -114 26t-82 67l89 95q29 -26 53 -39.5t56 -13.5q55 0 91.5 49.5t53.5 124t17 151.5q0 76 -21 108.5t-63 32.5q-31 0 -59 -12t-59 -35l-72 99q48 39 99.5 58.5t113.5 19.5q112 0 176 -71z" />
    <glyph glyph-name="Oslash" unicode="&#xd8;" horiz-adv-x="624" 
d="M616 440q0 -117 -35 -221t-112 -170.5t-195 -66.5q-12 0 -36 2l-47 -120l-124 35l53 131q-89 71 -89 224q0 117 35 221.5t111.5 171t194.5 66.5q13 0 35 -2l48 118l122 -35l-51 -128q90 -70 90 -226zM267.5 526.5q-35.5 -59.5 -50.5 -142.5t-15 -158q0 -42 8 -69l164 429
h-13q-58 0 -93.5 -59.5zM379.5 167q35.5 59 50 141t14.5 159q0 42 -7 66l-163 -425h12q58 0 93.5 59z" />
    <glyph glyph-name="Oslashacute" unicode="&#x1fe;" horiz-adv-x="624" 
d="M616 440q0 -117 -35 -221t-112 -170.5t-195 -66.5q-12 0 -36 2l-47 -120l-124 35l53 131q-89 71 -89 224q0 117 35 221.5t111.5 171t194.5 66.5q13 0 35 -2l48 118l122 -35l-51 -128q90 -70 90 -226zM267.5 526.5q-35.5 -59.5 -50.5 -142.5t-15 -158q0 -42 8 -69l164 429
h-13q-58 0 -93.5 -59.5zM379.5 167q35.5 59 50 141t14.5 159q0 42 -7 66l-163 -425h12q58 0 93.5 59zM475 991l54 -123l-233 -86l-37 81z" />
    <glyph glyph-name="Otilde" unicode="&#xd5;" horiz-adv-x="624" 
d="M553.5 643q62.5 -70 62.5 -203q0 -117 -35 -221t-112 -170.5t-195 -66.5t-180.5 70t-62.5 202q0 117 35 221.5t111.5 171t194.5 66.5q119 0 181.5 -70zM271.5 525q-34.5 -59 -49 -141t-14.5 -155q0 -63 19.5 -91t58.5 -28q56 0 90 58.5t48 140t14 156.5q0 63 -19 91
t-58 28q-55 0 -89.5 -59zM407.5 764q-13.5 7 -31.5 19q-3 2 -11 7.5t-14.5 8t-12.5 2.5q-15 0 -26.5 -10.5t-26.5 -33.5l-74 42q26 54 61.5 88t74.5 34q20 0 35 -7t32 -20q11 -9 19 -13t16 -4q14 0 25.5 10.5t25.5 32.5l74 -41q-26 -54 -62 -88t-74 -34q-17 0 -30.5 7z" />
    <glyph glyph-name="uni1E4C" unicode="&#x1e4c;" horiz-adv-x="624" 
d="M553.5 643q62.5 -70 62.5 -203q0 -117 -35 -221t-112 -170.5t-195 -66.5t-180.5 70t-62.5 202q0 117 35 221.5t111.5 171t194.5 66.5q119 0 181.5 -70zM271.5 525q-34.5 -59 -49 -141t-14.5 -155q0 -63 19.5 -91t58.5 -28q56 0 90 58.5t48 140t14 156.5q0 63 -19 91
t-58 28q-55 0 -89.5 -59zM401.5 762q-13.5 7 -31.5 19q-3 2 -11 7.5t-14.5 8t-12.5 2.5q-15 0 -26.5 -10.5t-26.5 -33.5l-74 42q26 54 61.5 88t74.5 34q20 0 35 -7t32 -20q11 -9 19 -13t16 -4q14 0 25.5 10.5t25.5 32.5l74 -41q-26 -54 -62 -88t-74 -34q-17 0 -30.5 7z
M482 1142l54 -123l-233 -86l-37 81z" />
    <glyph glyph-name="uni022C" unicode="&#x22c;" horiz-adv-x="624" 
d="M540 951h-283l17 117h283zM402.5 762q-13.5 7 -31.5 19q-3 2 -11 7.5t-14.5 8t-12.5 2.5q-15 0 -26.5 -10.5t-26.5 -33.5l-74 42q26 54 61.5 88t74.5 34q20 0 35 -7t32 -20q11 -9 19 -13t16 -4q14 0 25.5 10.5t25.5 32.5l74 -41q-26 -54 -62 -88t-74 -34q-17 0 -30.5 7z
M553.5 643q62.5 -70 62.5 -203q0 -117 -35 -221t-112 -170.5t-195 -66.5t-180.5 70t-62.5 202q0 117 35 221.5t111.5 171t194.5 66.5q119 0 181.5 -70zM271.5 525q-34.5 -59 -49 -141t-14.5 -155q0 -63 19.5 -91t58.5 -28q56 0 90 58.5t48 140t14 156.5q0 63 -19 91t-58 28
q-55 0 -89.5 -59z" />
    <glyph glyph-name="OE" unicode="&#x152;" horiz-adv-x="807" 
d="M811 569h-244q27 -57 27 -137v-18h171l-17 -123h-168q-21 -98 -73 -165h260l-20 -126h-393q-43 -18 -96 -18q-108 0 -167.5 70t-59.5 202q0 115 34.5 220t108 172t184.5 67q59 0 97 -19h392zM358 166.5q32 56.5 46 139t14 163.5q0 60 -17 87.5t-51 27.5q-50 0 -82 -57
t-46 -140t-14 -162q0 -60 17.5 -87.5t50.5 -27.5q50 0 82 56.5z" />
    <glyph glyph-name="P" unicode="P" horiz-adv-x="540" 
d="M494.5 644.5q63.5 -49.5 63.5 -144.5q0 -75 -32 -137t-98 -99t-162 -37h-52l-31 -227h-174l97 694h206q119 0 182.5 -49.5zM354 394q26 41 26 100q0 39 -19.5 57.5t-61.5 18.5h-37l-30 -217h34q62 0 88 41z" />
    <glyph glyph-name="uni1E54" unicode="&#x1e54;" horiz-adv-x="540" 
d="M494.5 644.5q63.5 -49.5 63.5 -144.5q0 -75 -32 -137t-98 -99t-162 -37h-52l-31 -227h-174l97 694h206q119 0 182.5 -49.5zM354 394q26 41 26 100q0 39 -19.5 57.5t-61.5 18.5h-37l-30 -217h34q62 0 88 41zM441 954l54 -123l-233 -86l-37 81z" />
    <glyph glyph-name="uni1E56" unicode="&#x1e56;" horiz-adv-x="540" 
d="M494.5 644.5q63.5 -49.5 63.5 -144.5q0 -75 -32 -137t-98 -99t-162 -37h-52l-31 -227h-174l97 694h206q119 0 182.5 -49.5zM354 394q26 41 26 100q0 39 -19.5 57.5t-61.5 18.5h-37l-30 -217h34q62 0 88 41zM281 775.5q-23 22.5 -23 59.5q0 46 31 76.5t76 30.5
q40 0 63 -22.5t23 -59.5q0 -46 -31 -76.5t-76 -30.5q-40 0 -63 22.5z" />
    <glyph glyph-name="uni01A4" unicode="&#x1a4;" horiz-adv-x="691" 
d="M645.5 644.5q63.5 -49.5 63.5 -144.5q0 -75 -32 -137t-98 -99t-162 -37h-52l-31 -227h-174l80 569h-25q-21 0 -32.5 -14t-11.5 -41q0 -21 7 -53l-115 -42q-22 51 -22 100q0 80 51.5 127.5t135.5 47.5h235q119 0 182.5 -49.5zM505 394q26 41 26 100q0 39 -19.5 57.5
t-61.5 18.5h-37l-30 -217h34q62 0 88 41z" />
    <glyph glyph-name="Thorn" unicode="&#xde;" horiz-adv-x="541" 
d="M481 537q63 -50 63 -149q0 -74 -31 -136.5t-97 -101t-164 -38.5h-53l-16 -112h-174l97 694h174l-15 -107h34q119 0 182 -50zM339.5 280.5q26.5 42.5 26.5 103.5q0 41 -19.5 59.5t-61.5 18.5h-37l-32 -224h35q62 0 88.5 42.5z" />
    <glyph glyph-name="Q" unicode="Q" horiz-adv-x="623" 
d="M570 201q-46 -108 -144 -157q63 -2 105 -19t76 -50l-122 -131q-37 64 -86.5 102t-124.5 38q-119 0 -181 69t-62 201q0 117 35 221.5t111.5 171t194.5 66.5q119 0 181.5 -70t62.5 -203q0 -131 -46 -239zM227.5 137.5q19.5 -27.5 58.5 -27.5q56 0 90 58.5t48 140.5t14 158
q0 61 -19 89t-58 28q-55 0 -89.5 -59.5t-49 -142t-14.5 -156.5q0 -61 19.5 -88.5z" />
    <glyph glyph-name="uni024A" unicode="&#x24a;" horiz-adv-x="615" 
d="M662 -182q-60 -41 -141 -41q-82 0 -127.5 40t-45.5 117q0 23 2 35l4 31h-1l4 29q-52 -47 -122 -47q-97 0 -151.5 69.5t-53.5 191.5q-1 124 36.5 232t106.5 173t158 65q44 0 74 -17.5t53 -48.5l15 47h151l-97 -694l-5 -45q-1 -5 -1 -13q0 -38 36 -38q17 0 29.5 3.5
t34.5 13.5zM374 150l55 393q-31 41 -72 41q-48 0 -82 -51t-50.5 -130.5t-16.5 -164.5q0 -70 20 -100.5t58 -30.5q48 0 88 43z" />
    <glyph glyph-name="R" unicode="R" horiz-adv-x="556" 
d="M527.5 382.5q-32.5 -53.5 -106.5 -91.5l111 -291h-185l-84 259h-44l-36 -259h-174l97 694h208q123 0 184.5 -48t61.5 -137q0 -73 -32.5 -126.5zM236 380h42q55 0 79.5 35.5t24.5 86.5q0 36 -20 52.5t-60 16.5h-39z" />
    <glyph glyph-name="Racute" unicode="&#x154;" horiz-adv-x="556" 
d="M527.5 382.5q-32.5 -53.5 -106.5 -91.5l111 -291h-185l-84 259h-44l-36 -259h-174l97 694h208q123 0 184.5 -48t61.5 -137q0 -73 -32.5 -126.5zM236 380h42q55 0 79.5 35.5t24.5 86.5q0 36 -20 52.5t-60 16.5h-39zM442 954l54 -123l-233 -86l-37 81z" />
    <glyph glyph-name="Rcaron" unicode="&#x158;" horiz-adv-x="556" 
d="M527.5 382.5q-32.5 -53.5 -106.5 -91.5l111 -291h-185l-84 259h-44l-36 -259h-174l97 694h208q123 0 184.5 -48t61.5 -137q0 -73 -32.5 -126.5zM236 380h42q55 0 79.5 35.5t24.5 86.5q0 36 -20 52.5t-60 16.5h-39zM480 949l56 -67l-147 -133h-101l-113 138l65 62l110 -85
z" />
    <glyph glyph-name="Rcommaaccent" unicode="&#x156;" horiz-adv-x="556" 
d="M527.5 382.5q-32.5 -53.5 -106.5 -91.5l111 -291h-185l-84 259h-44l-36 -259h-174l97 694h208q123 0 184.5 -48t61.5 -137q0 -73 -32.5 -126.5zM236 380h42q55 0 79.5 35.5t24.5 86.5q0 36 -20 52.5t-60 16.5h-39zM300.5 -86q20.5 -20 20.5 -51q0 -24 -8 -44t-29 -55
l-57 -94h-80l42 117q-29 19 -29 54q0 41 25 67t62 26q33 0 53.5 -20z" />
    <glyph glyph-name="uni0210" unicode="&#x210;" horiz-adv-x="556" 
d="M527.5 382.5q-32.5 -53.5 -106.5 -91.5l111 -291h-185l-84 259h-44l-36 -259h-174l97 694h208q123 0 184.5 -48t61.5 -137q0 -73 -32.5 -126.5zM236 380h42q55 0 79.5 35.5t24.5 86.5q0 36 -20 52.5t-60 16.5h-39zM251 991l64 -203l-90 -38l-91 190zM416 991l56 -204
l-90 -33l-84 190z" />
    <glyph glyph-name="uni1E5A" unicode="&#x1e5a;" horiz-adv-x="556" 
d="M527.5 382.5q-32.5 -53.5 -106.5 -91.5l111 -291h-185l-84 259h-44l-36 -259h-174l97 694h208q123 0 184.5 -48t61.5 -137q0 -73 -32.5 -126.5zM236 380h42q55 0 79.5 35.5t24.5 86.5q0 36 -20 52.5t-60 16.5h-39zM305 -80.5q23 -22.5 23 -59.5q0 -46 -31 -76.5
t-76 -30.5q-40 0 -63 22.5t-23 59.5q0 46 31 76.5t76 30.5q40 0 63 -22.5z" />
    <glyph glyph-name="uni0212" unicode="&#x212;" horiz-adv-x="556" 
d="M527.5 382.5q-32.5 -53.5 -106.5 -91.5l111 -291h-185l-84 259h-44l-36 -259h-174l97 694h208q123 0 184.5 -48t61.5 -137q0 -73 -32.5 -126.5zM236 380h42q55 0 79.5 35.5t24.5 86.5q0 36 -20 52.5t-60 16.5h-39zM179 778q18 79 65.5 129t121.5 50q75 0 110.5 -51.5
t30.5 -129.5l-91 -13q-5 76 -62 76q-59 0 -87 -79z" />
    <glyph glyph-name="uni024C" unicode="&#x24c;" horiz-adv-x="566" 
d="M537.5 382.5q-32.5 -53.5 -106.5 -91.5l111 -291h-185l-84 259h-44l-36 -259h-174l36 259h-48l17 121h48l44 314h208q123 0 184.5 -48t61.5 -137q0 -73 -32.5 -126.5zM273 571l-27 -191h42q55 0 79.5 35.5t24.5 86.5q0 36 -20 52.5t-60 16.5h-39z" />
    <glyph glyph-name="uni2C64" unicode="&#x2c64;" horiz-adv-x="556" 
d="M527.5 382.5q-32.5 -53.5 -106.5 -91.5l111 -291h-185l-84 259h-44l-36 -259h-1l-5 -45q-1 -5 -1 -13q0 -38 36 -38q17 0 29.5 3.5t34.5 13.5l41 -103q-60 -41 -141 -41q-82 0 -127.5 40t-45.5 117q0 23 2 35l4 31l97 694h208q123 0 184.5 -48t61.5 -137
q0 -73 -32.5 -126.5zM236 380h42q55 0 79.5 35.5t24.5 86.5q0 36 -20 52.5t-60 16.5h-39z" />
    <glyph glyph-name="S" unicode="S" horiz-adv-x="519" 
d="M539 620l-88 -90q-28 28 -58 41t-66 13q-41 0 -64 -19.5t-23 -50.5q0 -28 21 -46t83 -44q77 -32 114 -76.5t37 -117.5q0 -67 -32.5 -123.5t-96.5 -90.5t-153 -34q-149 0 -238 102l96 94q32 -32 66 -48.5t78 -16.5q47 0 73.5 23.5t26.5 63.5q0 33 -22 54.5t-80 46.5
q-81 33 -116.5 76t-35.5 110q0 63 31 114.5t90 81.5t139 30q136 0 218 -93z" />
    <glyph glyph-name="Sacute" unicode="&#x15a;" horiz-adv-x="519" 
d="M539 620l-88 -90q-28 28 -58 41t-66 13q-41 0 -64 -19.5t-23 -50.5q0 -28 21 -46t83 -44q77 -32 114 -76.5t37 -117.5q0 -67 -32.5 -123.5t-96.5 -90.5t-153 -34q-149 0 -238 102l96 94q32 -32 66 -48.5t78 -16.5q47 0 73.5 23.5t26.5 63.5q0 33 -22 54.5t-80 46.5
q-81 33 -116.5 76t-35.5 110q0 63 31 114.5t90 81.5t139 30q136 0 218 -93zM437 954l54 -123l-233 -86l-37 81z" />
    <glyph glyph-name="uniA78B" unicode="&#xa78b;" horiz-adv-x="235" 
d="M68 332l32 362h155l-72 -362h-115z" />
    <glyph glyph-name="Scaron" unicode="&#x160;" horiz-adv-x="519" 
d="M539 620l-88 -90q-28 28 -58 41t-66 13q-41 0 -64 -19.5t-23 -50.5q0 -28 21 -46t83 -44q77 -32 114 -76.5t37 -117.5q0 -67 -32.5 -123.5t-96.5 -90.5t-153 -34q-149 0 -238 102l96 94q32 -32 66 -48.5t78 -16.5q47 0 73.5 23.5t26.5 63.5q0 33 -22 54.5t-80 46.5
q-81 33 -116.5 76t-35.5 110q0 63 31 114.5t90 81.5t139 30q136 0 218 -93zM475 949l56 -67l-147 -133h-101l-113 138l65 62l110 -85z" />
    <glyph glyph-name="Scedilla" unicode="&#x15e;" horiz-adv-x="519" 
d="M458 347.5q37 -44.5 37 -117.5q0 -60 -26.5 -112.5t-78.5 -87.5t-125 -45l-6 -34q42 -5 63.5 -27.5t21.5 -60.5q0 -30 -15.5 -59.5t-51 -49.5t-91.5 -20q-33 0 -60 9t-45 24l47 72q26 -14 54 -14q20 0 32 7.5t13 23.5q0 16 -18 23t-61 7l24 98q-121 13 -197 100l96 94
q32 -32 66 -48.5t78 -16.5q47 0 73.5 23.5t26.5 63.5q0 33 -22 54.5t-80 46.5q-81 33 -116.5 76t-35.5 110q0 63 31 114.5t90 81.5t139 30q136 0 218 -93l-88 -90q-28 28 -58 41t-66 13q-41 0 -64 -19.5t-23 -50.5q0 -28 21 -46t83 -44q77 -32 114 -76.5z" />
    <glyph glyph-name="Scircumflex" unicode="&#x15c;" horiz-adv-x="519" 
d="M539 620l-88 -90q-28 28 -58 41t-66 13q-41 0 -64 -19.5t-23 -50.5q0 -28 21 -46t83 -44q77 -32 114 -76.5t37 -117.5q0 -67 -32.5 -123.5t-96.5 -90.5t-153 -34q-149 0 -238 102l96 94q32 -32 66 -48.5t78 -16.5q47 0 73.5 23.5t26.5 63.5q0 33 -22 54.5t-80 46.5
q-81 33 -116.5 76t-35.5 110q0 63 31 114.5t90 81.5t139 30q136 0 218 -93zM213 755l-57 67l148 133h100l113 -137l-65 -63l-109 86z" />
    <glyph glyph-name="Scommaaccent" unicode="&#x218;" horiz-adv-x="519" 
d="M539 620l-88 -90q-28 28 -58 41t-66 13q-41 0 -64 -19.5t-23 -50.5q0 -28 21 -46t83 -44q77 -32 114 -76.5t37 -117.5q0 -67 -32.5 -123.5t-96.5 -90.5t-153 -34q-149 0 -238 102l96 94q32 -32 66 -48.5t78 -16.5q47 0 73.5 23.5t26.5 63.5q0 33 -22 54.5t-80 46.5
q-81 33 -116.5 76t-35.5 110q0 63 31 114.5t90 81.5t139 30q136 0 218 -93zM264.5 -86q20.5 -20 20.5 -51q0 -24 -8 -44t-29 -55l-57 -94h-80l42 117q-29 19 -29 54q0 41 25 67t62 26q33 0 53.5 -20z" />
    <glyph glyph-name="uni1E60" unicode="&#x1e60;" horiz-adv-x="519" 
d="M539 620l-88 -90q-28 28 -58 41t-66 13q-41 0 -64 -19.5t-23 -50.5q0 -28 21 -46t83 -44q77 -32 114 -76.5t37 -117.5q0 -67 -32.5 -123.5t-96.5 -90.5t-153 -34q-149 0 -238 102l96 94q32 -32 66 -48.5t78 -16.5q47 0 73.5 23.5t26.5 63.5q0 33 -22 54.5t-80 46.5
q-81 33 -116.5 76t-35.5 110q0 63 31 114.5t90 81.5t139 30q136 0 218 -93zM277 775.5q-23 22.5 -23 59.5q0 46 31 76.5t76 30.5q40 0 63 -22.5t23 -59.5q0 -46 -31 -76.5t-76 -30.5q-40 0 -63 22.5z" />
    <glyph glyph-name="uni1E62" unicode="&#x1e62;" horiz-adv-x="519" 
d="M539 620l-88 -90q-28 28 -58 41t-66 13q-41 0 -64 -19.5t-23 -50.5q0 -28 21 -46t83 -44q77 -32 114 -76.5t37 -117.5q0 -67 -32.5 -123.5t-96.5 -90.5t-153 -34q-149 0 -238 102l96 94q32 -32 66 -48.5t78 -16.5q47 0 73.5 23.5t26.5 63.5q0 33 -22 54.5t-80 46.5
q-81 33 -116.5 76t-35.5 110q0 63 31 114.5t90 81.5t139 30q136 0 218 -93zM269 -80.5q23 -22.5 23 -59.5q0 -46 -31 -76.5t-76 -30.5q-40 0 -63 22.5t-23 59.5q0 46 31 76.5t76 30.5q40 0 63 -22.5z" />
    <glyph glyph-name="uni1E9E" unicode="&#x1e9e;" horiz-adv-x="602" 
d="M474.5 691q64.5 -21 126.5 -57l-11 -75l-149 -172q137 -32 137 -160q0 -74 -32 -129.5t-88.5 -85.5t-128.5 -30t-119 28l65 112q21 -8 44 -8q37 0 57.5 29.5t20.5 77.5q0 43 -26.5 65t-86.5 26l13 89l142 166q-54 17 -105 17q-36 0 -55.5 -20t-25.5 -64l-69 -500h-175
l69 492q15 107 79.5 163.5t178.5 56.5q74 0 138.5 -21z" />
    <glyph glyph-name="uni018F" unicode="&#x18f;" horiz-adv-x="575" 
d="M506.5 647q61.5 -66 61.5 -192q0 -135 -36.5 -242t-110 -169t-179.5 -62q-110 0 -167.5 66.5t-57.5 184.5q0 88 26 177l350 -2q3 33 3 57q0 63 -22 91t-66 28q-40 0 -72 -14.5t-66 -40.5l-65 95q54 45 109 67t122 22q109 0 170.5 -66zM326 150q31 40 49 138l-192 -1
q-5 -40 -5 -70q0 -56 18 -81.5t53 -25.5q46 0 77 40z" />
    <glyph glyph-name="T" unicode="T" horiz-adv-x="488" 
d="M551 694l-37 -134h-142l-78 -560h-174l78 560h-153l19 134h487z" />
    <glyph glyph-name="Tbar" unicode="&#x166;" horiz-adv-x="488" 
d="M514 560h-142l-24 -169h98l-13 -97h-98l-41 -294h-174l41 294h-98l13 97h98l24 169h-153l19 134h487z" />
    <glyph glyph-name="Tcaron" unicode="&#x164;" horiz-adv-x="488" 
d="M551 694l-37 -134h-142l-78 -560h-174l78 560h-153l19 134h487zM453 949l56 -67l-147 -133h-101l-113 138l65 62l110 -85z" />
    <glyph glyph-name="uni0162" unicode="&#x162;" horiz-adv-x="488" 
d="M551 694l-37 -134h-142l-78 -560l-6 -46q40 -6 61.5 -29t21.5 -61q0 -30 -15.5 -59.5t-51.5 -50t-92 -20.5q-63 0 -105 33l47 74q27 -16 54 -16q45 0 45 32q0 16 -18 22.5t-60 6.5l28 114h-83l78 560h-153l19 134h487z" />
    <glyph glyph-name="uni1E70" unicode="&#x1e70;" horiz-adv-x="488" 
d="M551 694l-37 -134h-142l-78 -560h-174l78 560h-153l19 134h487zM50 -270l-54 67l148 141h101l112 -146l-68 -62l-106 93z" />
    <glyph glyph-name="uni021A" unicode="&#x21a;" horiz-adv-x="488" 
d="M551 694l-37 -134h-142l-78 -560h-174l78 560h-153l19 134h487zM253.5 -86q20.5 -20 20.5 -51q0 -24 -8 -44t-29 -55l-57 -94h-80l42 117q-29 19 -29 54q0 41 25 67t62 26q33 0 53.5 -20z" />
    <glyph glyph-name="uni023E" unicode="&#x23e;" horiz-adv-x="489" 
d="M516 567h-70l-113 -207l-50 -360h-146l-41 -75l-44 23l100 183l60 436h-165l18 127h394l34 62l44 -22l-22 -40h37zM352 498l38 69h-28z" />
    <glyph glyph-name="uni1E6A" unicode="&#x1e6a;" horiz-adv-x="488" 
d="M551 694l-37 -134h-142l-78 -560h-174l78 560h-153l19 134h487zM255 775.5q-23 22.5 -23 59.5q0 46 31 76.5t76 30.5q40 0 63 -22.5t23 -59.5q0 -46 -31 -76.5t-76 -30.5q-40 0 -63 22.5z" />
    <glyph glyph-name="uni1E6C" unicode="&#x1e6c;" horiz-adv-x="488" 
d="M551 694l-37 -134h-142l-78 -560h-174l78 560h-153l19 134h487zM258 -80.5q23 -22.5 23 -59.5q0 -46 -31 -76.5t-76 -30.5q-40 0 -63 22.5t-23 59.5q0 46 31 76.5t76 30.5q40 0 63 -22.5z" />
    <glyph glyph-name="uni01AC" unicode="&#x1ac;" horiz-adv-x="546" 
d="M572 560h-142l-78 -560h-174l78 560h-43q-42 0 -42 -47q0 -20 7 -52l-115 -42q-22 51 -22 100q0 80 51 127.5t132 47.5h385z" />
    <glyph glyph-name="uni1E6E" unicode="&#x1e6e;" horiz-adv-x="488" 
d="M551 694l-37 -134h-142l-78 -560h-174l78 560h-153l19 134h487zM63 -77h283l-17 -117h-283z" />
    <glyph glyph-name="uni01BC" unicode="&#x1bc;" horiz-adv-x="495" 
d="M-19 88l101 80q21 -29 46 -44t59 -15q59 0 85 48t26 113q0 39 -15 55.5t-43 16.5q-19 0 -36 -5.5t-40 -19.5l-111 1l53 376h392l-35 -120h-217l-20 -140q48 24 96 24q66 0 106.5 -46.5t40.5 -131.5q0 -80 -32 -147.5t-97 -109t-160 -41.5q-129 0 -199 106z" />
    <glyph glyph-name="uni0184" unicode="&#x184;" horiz-adv-x="556" 
d="M485 411.5q61 -49.5 61 -144.5q0 -69 -29 -129.5t-93 -99t-161 -38.5h-235l67 485l-62 53q64 59 123 156h142l-32 -233h50q108 0 169 -49.5zM338.5 165.5q24.5 38.5 24.5 93.5q0 40 -17.5 60t-55.5 20h-41l-30 -212h40q55 0 79.5 38.5z" />
    <glyph glyph-name="uni01A7" unicode="&#x1a7;" horiz-adv-x="506" 
d="M478 665.5q55 -46.5 55 -124.5q0 -95 -56.5 -149t-172.5 -94q-66 -22 -93 -50.5t-27 -71.5q0 -29 17 -45.5t51 -16.5q73 0 154 64l73 -96q-47 -46 -111.5 -73t-145.5 -27q-101 0 -159 51t-58 135q0 100 54.5 159t161.5 95q53 18 81 32.5t40 33t13 45.5q-1 51 -59 51
q-38 0 -72.5 -14t-71.5 -42l-64 94q107 90 243 90q92 0 147 -46.5z" />
    <glyph glyph-name="uni01AE" unicode="&#x1ae;" horiz-adv-x="488" 
d="M288 -45q-1 -5 -1 -13q0 -38 36 -38q17 0 29.5 3.5t34.5 13.5l41 -103q-60 -41 -141 -41q-82 0 -127.5 40t-45.5 117q0 23 2 35l4 31l78 560h-153l19 134h487l-37 -134h-142l-78 -560h-1z" />
    <glyph glyph-name="U" unicode="U" horiz-adv-x="576" 
d="M532 213q-9 -66 -44 -118.5t-95 -82.5t-141 -30q-111 0 -168.5 53.5t-57.5 142.5q0 19 3 40l67 476h174l-68 -486q-2 -20 -2 -27q0 -69 64 -69q80 0 93 99l68 483h174z" />
    <glyph glyph-name="Uacute" unicode="&#xda;" horiz-adv-x="576" 
d="M532 213q-9 -66 -44 -118.5t-95 -82.5t-141 -30q-111 0 -168.5 53.5t-57.5 142.5q0 19 3 40l67 476h174l-68 -486q-2 -20 -2 -27q0 -69 64 -69q80 0 93 99l68 483h174zM458 954l54 -123l-233 -86l-37 81z" />
    <glyph glyph-name="uni0244" unicode="&#x244;" horiz-adv-x="611" 
d="M634 498h-46l-40 -285q-9 -66 -44 -118.5t-95 -82.5t-141 -30q-111 0 -168.5 53.5t-57.5 142.5q0 19 3 40l39 280h-43l13 97h44l14 99h174l-14 -99h155l14 99h174l-14 -99h47zM413 498h-154l-41 -290q-2 -20 -2 -27q0 -69 64 -69q80 0 93 99z" />
    <glyph glyph-name="Ubreve" unicode="&#x16c;" horiz-adv-x="576" 
d="M532 213q-9 -66 -44 -118.5t-95 -82.5t-141 -30q-111 0 -168.5 53.5t-57.5 142.5q0 19 3 40l67 476h174l-68 -486q-2 -20 -2 -27q0 -69 64 -69q80 0 93 99l68 483h174zM247.5 799q-35.5 50 -30.5 121l87 13q2 -30 18 -48.5t44 -18.5q55 0 83 70l89 -19
q-15 -72 -61.5 -120t-119.5 -48q-74 0 -109.5 50z" />
    <glyph glyph-name="uni01D3" unicode="&#x1d3;" horiz-adv-x="576" 
d="M532 213q-9 -66 -44 -118.5t-95 -82.5t-141 -30q-111 0 -168.5 53.5t-57.5 142.5q0 19 3 40l67 476h174l-68 -486q-2 -20 -2 -27q0 -69 64 -69q80 0 93 99l68 483h174zM496 949l56 -67l-147 -133h-101l-113 138l65 62l110 -85z" />
    <glyph glyph-name="Ucircumflex" unicode="&#xdb;" horiz-adv-x="576" 
d="M532 213q-9 -66 -44 -118.5t-95 -82.5t-141 -30q-111 0 -168.5 53.5t-57.5 142.5q0 19 3 40l67 476h174l-68 -486q-2 -20 -2 -27q0 -69 64 -69q80 0 93 99l68 483h174zM234 755l-57 67l148 133h100l113 -137l-65 -63l-109 86z" />
    <glyph glyph-name="uni0214" unicode="&#x214;" horiz-adv-x="576" 
d="M532 213q-9 -66 -44 -118.5t-95 -82.5t-141 -30q-111 0 -168.5 53.5t-57.5 142.5q0 19 3 40l67 476h174l-68 -486q-2 -20 -2 -27q0 -69 64 -69q80 0 93 99l68 483h174zM267 991l64 -203l-90 -38l-91 190zM432 991l56 -204l-90 -33l-84 190z" />
    <glyph glyph-name="Udieresis" unicode="&#xdc;" horiz-adv-x="576" 
d="M532 213q-9 -66 -44 -118.5t-95 -82.5t-141 -30q-111 0 -168.5 53.5t-57.5 142.5q0 19 3 40l67 476h174l-68 -486q-2 -20 -2 -27q0 -69 64 -69q80 0 93 99l68 483h174zM194 785q-20 20 -20 52q0 40 27 66.5t66 26.5q34 0 54 -19.5t20 -52.5q0 -40 -27 -66.5t-66 -26.5
q-34 0 -54 20zM410 785q-20 20 -20 52q0 40 27 66.5t66 26.5q34 0 54 -19.5t20 -52.5q0 -40 -27 -66.5t-66 -26.5q-34 0 -54 20z" />
    <glyph glyph-name="uni01D7" unicode="&#x1d7;" horiz-adv-x="576" 
d="M532 213q-9 -66 -44 -118.5t-95 -82.5t-141 -30q-111 0 -168.5 53.5t-57.5 142.5q0 19 3 40l67 476h174l-68 -486q-2 -20 -2 -27q0 -69 64 -69q80 0 93 99l68 483h174zM464 1111l80 -86l-172 -146l-57 54zM187 769q-20 20 -20 52q0 39 27.5 66t66.5 27q34 0 54 -19.5
t20 -52.5q0 -39 -27.5 -66t-66.5 -27q-34 0 -54 20zM418 769q-20 20 -20 52q0 39 27 66t66 27q34 0 54 -19.5t20 -52.5q0 -40 -27 -66.5t-66 -26.5q-34 0 -54 20z" />
    <glyph glyph-name="uni01D9" unicode="&#x1d9;" horiz-adv-x="576" 
d="M532 213q-9 -66 -44 -118.5t-95 -82.5t-141 -30q-111 0 -168.5 53.5t-57.5 142.5q0 19 3 40l67 476h174l-68 -486q-2 -20 -2 -27q0 -69 64 -69q80 0 93 99l68 483h174zM515 1113l56 -67l-147 -133h-101l-113 138l65 62l110 -85zM185 769q-20 20 -20 52q0 39 27.5 66
t66.5 27q34 0 54 -19.5t20 -52.5q0 -39 -27.5 -66t-66.5 -27q-34 0 -54 20zM416 769q-20 20 -20 52q0 39 27.5 66t66.5 27q34 0 54 -19.5t20 -52.5q0 -39 -27.5 -66t-66.5 -27q-34 0 -54 20z" />
    <glyph glyph-name="uni01DB" unicode="&#x1db;" horiz-adv-x="576" 
d="M532 213q-9 -66 -44 -118.5t-95 -82.5t-141 -30q-111 0 -168.5 53.5t-57.5 142.5q0 19 3 40l67 476h174l-68 -486q-2 -20 -2 -27q0 -69 64 -69q80 0 93 99l68 483h174zM335 1109l99 -181l-69 -49l-130 152zM184 769q-20 20 -20 52q0 39 27.5 66t66.5 27q34 0 54 -19.5
t20 -52.5q0 -39 -27.5 -66t-66.5 -27q-34 0 -54 20zM415 769q-20 20 -20 52q0 39 27 66t66 27q34 0 54 -19.5t20 -52.5q0 -40 -27 -66.5t-66 -26.5q-34 0 -54 20z" />
    <glyph glyph-name="uni01D5" unicode="&#x1d5;" horiz-adv-x="576" 
d="M532 213q-9 -66 -44 -118.5t-95 -82.5t-141 -30q-111 0 -168.5 53.5t-57.5 142.5q0 19 3 40l67 476h174l-68 -486q-2 -20 -2 -27q0 -69 64 -69q80 0 93 99l68 483h174zM192 766q-20 20 -20 52q0 40 27 66.5t66 26.5q34 0 54 -19.5t20 -52.5q0 -40 -27 -66.5t-66 -26.5
q-34 0 -54 20zM408 766q-20 20 -20 52q0 40 27 66.5t66 26.5q34 0 54 -19.5t20 -52.5q0 -40 -27 -66.5t-66 -26.5q-34 0 -54 20zM517 950h-283l17 117h283z" />
    <glyph glyph-name="uni1EE4" unicode="&#x1ee4;" horiz-adv-x="576" 
d="M532 213q-9 -66 -44 -118.5t-95 -82.5t-141 -30q-111 0 -168.5 53.5t-57.5 142.5q0 19 3 40l67 476h174l-68 -486q-2 -20 -2 -27q0 -69 64 -69q80 0 93 99l68 483h174zM301 -80.5q23 -22.5 23 -59.5q0 -46 -31 -76.5t-76 -30.5q-40 0 -63 22.5t-23 59.5q0 46 31 76.5
t76 30.5q40 0 63 -22.5z" />
    <glyph glyph-name="Ugrave" unicode="&#xd9;" horiz-adv-x="576" 
d="M532 213q-9 -66 -44 -118.5t-95 -82.5t-141 -30q-111 0 -168.5 53.5t-57.5 142.5q0 19 3 40l67 476h174l-68 -486q-2 -20 -2 -27q0 -69 64 -69q80 0 93 99l68 483h174zM317 951l188 -127l-47 -78l-211 84z" />
    <glyph glyph-name="uni1EE6" unicode="&#x1ee6;" horiz-adv-x="576" 
d="M532 213q-9 -66 -44 -118.5t-95 -82.5t-141 -30q-111 0 -168.5 53.5t-57.5 142.5q0 19 3 40l67 476h174l-68 -486q-2 -20 -2 -27q0 -69 64 -69q80 0 93 99l68 483h174zM321 854q36 2 52.5 12t16.5 31q0 25 -30 25q-14 0 -25.5 -3.5t-28.5 -10.5l-17 70q45 25 100 25
q53 0 82 -26.5t29 -68.5t-24 -68t-67 -35l-5 -41h-93z" />
    <glyph glyph-name="Uhorn" unicode="&#x1af;" horiz-adv-x="665" 
d="M698 595.5q-42 -40.5 -119 -42.5l-47 -340q-9 -66 -44 -118.5t-95 -82.5t-141 -30q-111 0 -168.5 53.5t-57.5 142.5q0 19 3 40l67 476h174l-68 -486q-2 -20 -2 -27q0 -69 64 -69q80 0 93 99l68 483h174l-8 -57q21 7 30.5 25t9.5 50q0 21 -4 47l106 13q7 -26 7 -59
q0 -77 -42 -117.5z" />
    <glyph glyph-name="uni1EE8" unicode="&#x1ee8;" horiz-adv-x="665" 
d="M512 831l-233 -86l-37 81l216 128zM698 595.5q-42 -40.5 -119 -42.5l-47 -340q-9 -66 -44 -118.5t-95 -82.5t-141 -30q-111 0 -168.5 53.5t-57.5 142.5q0 19 3 40l67 476h174l-68 -486q-2 -20 -2 -27q0 -69 64 -69q80 0 93 99l68 483h174l-8 -57q21 7 30.5 25t9.5 50
q0 21 -4 47l106 13q7 -26 7 -59q0 -77 -42 -117.5z" />
    <glyph glyph-name="uni1EF0" unicode="&#x1ef0;" horiz-adv-x="665" 
d="M698 595.5q-42 -40.5 -119 -42.5l-47 -340q-9 -66 -44 -118.5t-95 -82.5t-141 -30q-111 0 -168.5 53.5t-57.5 142.5q0 19 3 40l67 476h174l-68 -486q-2 -20 -2 -27q0 -69 64 -69q80 0 93 99l68 483h174l-8 -57q21 7 30.5 25t9.5 50q0 21 -4 47l106 13q7 -26 7 -59
q0 -77 -42 -117.5zM301 -80.5q23 -22.5 23 -59.5q0 -46 -31 -76.5t-76 -30.5q-40 0 -63 22.5t-23 59.5q0 46 31 76.5t76 30.5q40 0 63 -22.5z" />
    <glyph glyph-name="uni1EEA" unicode="&#x1eea;" horiz-adv-x="665" 
d="M505 824l-47 -78l-211 84l70 121zM698 595.5q-42 -40.5 -119 -42.5l-47 -340q-9 -66 -44 -118.5t-95 -82.5t-141 -30q-111 0 -168.5 53.5t-57.5 142.5q0 19 3 40l67 476h174l-68 -486q-2 -20 -2 -27q0 -69 64 -69q80 0 93 99l68 483h174l-8 -57q21 7 30.5 25t9.5 50
q0 21 -4 47l106 13q7 -26 7 -59q0 -77 -42 -117.5z" />
    <glyph glyph-name="uni1EEC" unicode="&#x1eec;" horiz-adv-x="665" 
d="M334.5 918.5q-11.5 -3.5 -28.5 -10.5l-17 70q45 25 100 25q53 0 82 -26.5t29 -68.5t-24 -68t-67 -35l-5 -41h-93l10 90q36 2 52.5 12t16.5 31q0 25 -30 25q-14 0 -25.5 -3.5zM698 595.5q-42 -40.5 -119 -42.5l-47 -340q-9 -66 -44 -118.5t-95 -82.5t-141 -30
q-111 0 -168.5 53.5t-57.5 142.5q0 19 3 40l67 476h174l-68 -486q-2 -20 -2 -27q0 -69 64 -69q80 0 93 99l68 483h174l-8 -57q21 7 30.5 25t9.5 50q0 21 -4 47l106 13q7 -26 7 -59q0 -77 -42 -117.5z" />
    <glyph glyph-name="uni1EEE" unicode="&#x1eee;" horiz-adv-x="665" 
d="M286.5 790.5q-11.5 -10.5 -26.5 -33.5l-74 42q26 54 61.5 88t74.5 34q20 0 35 -7t32 -20q11 -9 19 -13t16 -4q14 0 25.5 10.5t25.5 32.5l74 -41q-26 -54 -62 -88t-74 -34q-17 0 -30.5 7t-31.5 19q-3 2 -11 7.5t-14.5 8t-12.5 2.5q-15 0 -26.5 -10.5zM698 595.5
q-42 -40.5 -119 -42.5l-47 -340q-9 -66 -44 -118.5t-95 -82.5t-141 -30q-111 0 -168.5 53.5t-57.5 142.5q0 19 3 40l67 476h174l-68 -486q-2 -20 -2 -27q0 -69 64 -69q80 0 93 99l68 483h174l-8 -57q21 7 30.5 25t9.5 50q0 21 -4 47l106 13q7 -26 7 -59q0 -77 -42 -117.5z
" />
    <glyph glyph-name="Uhungarumlaut" unicode="&#x170;" horiz-adv-x="576" 
d="M532 213q-9 -66 -44 -118.5t-95 -82.5t-141 -30q-111 0 -168.5 53.5t-57.5 142.5q0 19 3 40l67 476h174l-68 -486q-2 -20 -2 -27q0 -69 64 -69q80 0 93 99l68 483h174zM336 991l99 -52l-133 -185l-79 35zM500 991l98 -56l-140 -185l-77 40z" />
    <glyph glyph-name="uni0216" unicode="&#x216;" horiz-adv-x="576" 
d="M532 213q-9 -66 -44 -118.5t-95 -82.5t-141 -30q-111 0 -168.5 53.5t-57.5 142.5q0 19 3 40l67 476h174l-68 -486q-2 -20 -2 -27q0 -69 64 -69q80 0 93 99l68 483h174zM195 778q18 79 65.5 129t121.5 50q75 0 110.5 -51.5t30.5 -129.5l-91 -13q-5 76 -62 76
q-59 0 -87 -79z" />
    <glyph glyph-name="Umacron" unicode="&#x16a;" horiz-adv-x="576" 
d="M532 213q-9 -66 -44 -118.5t-95 -82.5t-141 -30q-111 0 -168.5 53.5t-57.5 142.5q0 19 3 40l67 476h174l-68 -486q-2 -20 -2 -27q0 -69 64 -69q80 0 93 99l68 483h174zM498 779h-283l17 117h283z" />
    <glyph glyph-name="Uogonek" unicode="&#x172;" horiz-adv-x="576" 
d="M599 694l-67 -481q-11 -79 -58 -137t-125 -81q-107 -44 -107 -106q0 -34 40 -34q25 0 57 8l-24 -103q-32 -8 -66 -8q-57 0 -92.5 28t-35.5 76q0 81 93 128q-93 9 -140.5 61t-47.5 133q0 19 3 40l67 476h174l-68 -486q-2 -20 -2 -27q0 -69 64 -69q80 0 93 99l68 483h174z
" />
    <glyph glyph-name="uni01B1" unicode="&#x1b1;" horiz-adv-x="623" 
d="M139 15.5q-55 33.5 -83.5 92.5t-28.5 135q0 224 168 327h-108l18 124h232l-17 -118q-58 -45 -86.5 -144t-28.5 -203q0 -61 19.5 -90t59.5 -29q53 0 87.5 49.5t49.5 123.5t15 151q0 53 -11 85t-35 59l17 116h231l-18 -125h-106q46 -34 70 -81.5t24 -115.5q0 -108 -41 -197
t-117.5 -141t-177.5 -52q-78 0 -133 33.5z" />
    <glyph glyph-name="Uring" unicode="&#x16e;" horiz-adv-x="576" 
d="M532 213q-9 -66 -44 -118.5t-95 -82.5t-141 -30q-111 0 -168.5 53.5t-57.5 142.5q0 19 3 40l67 476h174l-68 -486q-2 -20 -2 -27q0 -69 64 -69q80 0 93 99l68 483h174zM474.5 964.5q31.5 -33.5 31.5 -87.5q0 -40 -19 -74t-53.5 -54.5t-79.5 -20.5q-56 0 -87 33.5
t-31 86.5q0 40 19 74.5t53.5 55t78.5 20.5q56 0 87.5 -33.5zM343 895.5q-13 -18.5 -13 -42.5q0 -40 32 -40q23 0 36 18t13 42q0 41 -32 41q-23 0 -36 -18.5z" />
    <glyph glyph-name="Utilde" unicode="&#x168;" horiz-adv-x="576" 
d="M532 213q-9 -66 -44 -118.5t-95 -82.5t-141 -30q-111 0 -168.5 53.5t-57.5 142.5q0 19 3 40l67 476h174l-68 -486q-2 -20 -2 -27q0 -69 64 -69q80 0 93 99l68 483h174zM382.5 764q-13.5 7 -31.5 19q-3 2 -11 7.5t-14.5 8t-12.5 2.5q-15 0 -26.5 -10.5t-26.5 -33.5l-74 42
q26 54 61.5 88t74.5 34q20 0 35 -7t32 -20q11 -9 19 -13t16 -4q14 0 25.5 10.5t25.5 32.5l74 -41q-26 -54 -62 -88t-74 -34q-17 0 -30.5 7z" />
    <glyph glyph-name="uni1E78" unicode="&#x1e78;" horiz-adv-x="576" 
d="M532 213q-9 -66 -44 -118.5t-95 -82.5t-141 -30q-111 0 -168.5 53.5t-57.5 142.5q0 19 3 40l67 476h174l-68 -486q-2 -20 -2 -27q0 -69 64 -69q80 0 93 99l68 483h174zM376.5 762q-13.5 7 -31.5 19q-3 2 -11 7.5t-14.5 8t-12.5 2.5q-15 0 -26.5 -10.5t-26.5 -33.5l-74 42
q26 54 61.5 88t74.5 34q20 0 35 -7t32 -20q11 -9 19 -13t16 -4q14 0 25.5 10.5t25.5 32.5l74 -41q-26 -54 -62 -88t-74 -34q-17 0 -30.5 7zM457 1142l54 -123l-233 -86l-37 81z" />
    <glyph glyph-name="V" unicode="V" horiz-adv-x="518" 
d="M594 694l-255 -694h-224l-71 694h179l23 -562l169 562h179z" />
    <glyph glyph-name="uni01B2" unicode="&#x1b2;" horiz-adv-x="572" 
d="M580 582q0 -21 -3 -45l-36 -266q-19 -139 -99.5 -214t-205.5 -75q-99 0 -155 52.5t-56 137.5q0 18 3 36l69 486h174l-69 -495q-2 -18 -2 -25q0 -30 13.5 -46t38.5 -16q42 0 72.5 38.5t41.5 120.5l39 287q1 4 1 10q0 20 -18 20q-7 0 -21 -4l-9 112q43 17 91 17
q131 0 131 -131z" />
    <glyph glyph-name="uni0245" unicode="&#x245;" horiz-adv-x="538" 
d="M433 694l83 -694h-178l-27 569l-181 -569h-184l278 694h209z" />
    <glyph glyph-name="W" unicode="W" horiz-adv-x="765" 
d="M819 694l-189 -694h-227l13 523l-134 -523h-224l8 694h170l-32 -562l149 562h179l-16 -562l136 562h167z" />
    <glyph glyph-name="Wacute" unicode="&#x1e82;" horiz-adv-x="765" 
d="M819 694l-189 -694h-227l13 523l-134 -523h-224l8 694h170l-32 -562l149 562h179l-16 -562l136 562h167zM556 954l54 -123l-233 -86l-37 81z" />
    <glyph glyph-name="Wcircumflex" unicode="&#x174;" horiz-adv-x="765" 
d="M819 694l-189 -694h-227l13 523l-134 -523h-224l8 694h170l-32 -562l149 562h179l-16 -562l136 562h167zM332 755l-57 67l148 133h100l113 -137l-65 -63l-109 86z" />
    <glyph glyph-name="Wdieresis" unicode="&#x1e84;" horiz-adv-x="765" 
d="M819 694l-189 -694h-227l13 523l-134 -523h-224l8 694h170l-32 -562l149 562h179l-16 -562l136 562h167zM292 785q-20 20 -20 52q0 40 27 66.5t66 26.5q34 0 54 -19.5t20 -52.5q0 -40 -27 -66.5t-66 -26.5q-34 0 -54 20zM508 785q-20 20 -20 52q0 40 27 66.5t66 26.5
q34 0 54 -19.5t20 -52.5q0 -40 -27 -66.5t-66 -26.5q-34 0 -54 20z" />
    <glyph glyph-name="Wgrave" unicode="&#x1e80;" horiz-adv-x="765" 
d="M819 694l-189 -694h-227l13 523l-134 -523h-224l8 694h170l-32 -562l149 562h179l-16 -562l136 562h167zM415 951l188 -127l-47 -78l-211 84z" />
    <glyph glyph-name="uni2C72" unicode="&#x2c72;" horiz-adv-x="811" 
d="M282 0l134 523l-13 -523h225l130 544q11 44 47 44q19 0 38 -12l59 98q-51 38 -116 38q-71 0 -113.5 -36.5t-61.5 -123.5l-95 -420l16 562h-179l-149 -562l32 562h-170l-8 -694h224z" />
    <glyph glyph-name="uni01F7" unicode="&#x1f7;" horiz-adv-x="541" 
d="M524 668q41 -45 41 -123q0 -84 -36.5 -142t-97.5 -97.5t-153 -76.5l-67 -26l-28 -203h-174l97 694h174l-5 -35q60 54 140 54q68 0 109 -45zM384 527q0 61 -48 61q-39 0 -76 -34l-31 -226l24 12q131 69 131 187z" />
    <glyph glyph-name="X" unicode="X" horiz-adv-x="530" 
d="M584 694l-204 -320l120 -374h-184l-54 264l-120 -264h-188l218 369l-109 325h184l41 -226l109 226h187z" />
    <glyph glyph-name="Y" unicode="Y" horiz-adv-x="542" 
d="M614 694l-257 -435l-36 -259h-174l36 258l-135 436h184l58 -301l138 301h186z" />
    <glyph glyph-name="Yacute" unicode="&#xdd;" horiz-adv-x="542" 
d="M614 694l-257 -435l-36 -259h-174l36 258l-135 436h184l58 -301l138 301h186zM441 954l54 -123l-233 -86l-37 81z" />
    <glyph glyph-name="Ycircumflex" unicode="&#x176;" horiz-adv-x="542" 
d="M614 694l-257 -435l-36 -259h-174l36 258l-135 436h184l58 -301l138 301h186zM217 755l-57 67l148 133h100l113 -137l-65 -63l-109 86z" />
    <glyph glyph-name="Ydieresis" unicode="&#x178;" horiz-adv-x="542" 
d="M614 694l-257 -435l-36 -259h-174l36 258l-135 436h184l58 -301l138 301h186zM177 785q-20 20 -20 52q0 40 27 66.5t66 26.5q34 0 54 -19.5t20 -52.5q0 -40 -27 -66.5t-66 -26.5q-34 0 -54 20zM393 785q-20 20 -20 52q0 40 27 66.5t66 26.5q34 0 54 -19.5t20 -52.5
q0 -40 -27 -66.5t-66 -26.5q-34 0 -54 20z" />
    <glyph glyph-name="uni1EF4" unicode="&#x1ef4;" horiz-adv-x="542" 
d="M614 694l-257 -435l-36 -259h-174l36 258l-135 436h184l58 -301l138 301h186zM285 -80.5q23 -22.5 23 -59.5q0 -46 -31 -76.5t-76 -30.5q-40 0 -63 22.5t-23 59.5q0 46 31 76.5t76 30.5q40 0 63 -22.5z" />
    <glyph glyph-name="Ygrave" unicode="&#x1ef2;" horiz-adv-x="542" 
d="M614 694l-257 -435l-36 -259h-174l36 258l-135 436h184l58 -301l138 301h186zM300 951l188 -127l-47 -78l-211 84z" />
    <glyph glyph-name="uni01B3" unicode="&#x1b3;" horiz-adv-x="568" 
d="M183 258l-135 437h184l57 -302l77 183q30 73 70.5 105t107.5 32q36 0 63 -10t52 -29l-59 -98q-21 12 -38 12q-16 0 -27 -9t-24 -32l-154 -288l-36 -259h-174z" />
    <glyph glyph-name="uni1EF6" unicode="&#x1ef6;" horiz-adv-x="542" 
d="M614 694l-257 -435l-36 -259h-174l36 258l-135 436h184l58 -301l138 301h186zM304 854q36 2 52.5 12t16.5 31q0 25 -30 25q-14 0 -25.5 -3.5t-28.5 -10.5l-17 70q45 25 100 25q53 0 82 -26.5t29 -68.5t-24 -68t-67 -35l-5 -41h-93z" />
    <glyph glyph-name="uni0232" unicode="&#x232;" horiz-adv-x="542" 
d="M614 694l-257 -435l-36 -259h-174l36 258l-135 436h184l58 -301l138 301h186zM481 779h-283l17 117h283z" />
    <glyph glyph-name="uni01A6" unicode="&#x1a6;" horiz-adv-x="557" 
d="M512.5 271q-32.5 -54 -106.5 -93l111 -291h-183l-86 259h-44l-20 -146h-174l97 694h174l-16 -113h34q246 0 246 -181q0 -75 -32.5 -129zM221 267h43q55 0 79 36t24 87q0 36 -19.5 52t-60.5 16h-39z" />
    <glyph glyph-name="uni024E" unicode="&#x24e;" horiz-adv-x="543" 
d="M616 694l-45 -77h33l-14 -96h-76l-155 -262l-36 -259h-175l37 258l-82 263h-79l14 96h35l-24 77h169l17 -77h173l38 77h170zM290 377l71 144h-104z" />
    <glyph glyph-name="uni1EF8" unicode="&#x1ef8;" horiz-adv-x="542" 
d="M614 694l-257 -435l-36 -259h-174l36 258l-135 436h184l58 -301l138 301h186zM365.5 764q-13.5 7 -31.5 19q-3 2 -11 7.5t-14.5 8t-12.5 2.5q-15 0 -26.5 -10.5t-26.5 -33.5l-74 42q26 54 61.5 88t74.5 34q20 0 35 -7t32 -20q11 -9 19 -13t16 -4q14 0 25.5 10.5
t25.5 32.5l74 -41q-26 -54 -62 -88t-74 -34q-17 0 -30.5 7z" />
    <glyph glyph-name="Z" unicode="Z" horiz-adv-x="489" 
d="M-27 0l18 131l320 427h-236l20 136h430l-19 -133l-318 -421h269l-38 -140h-446z" />
    <glyph glyph-name="Zacute" unicode="&#x179;" horiz-adv-x="489" 
d="M-27 0l18 131l320 427h-236l20 136h430l-19 -133l-318 -421h269l-38 -140h-446zM417 954l54 -123l-233 -86l-37 81z" />
    <glyph glyph-name="Zcaron" unicode="&#x17d;" horiz-adv-x="489" 
d="M-27 0l18 131l320 427h-236l20 136h430l-19 -133l-318 -421h269l-38 -140h-446zM455 949l56 -67l-147 -133h-101l-113 138l65 62l110 -85z" />
    <glyph glyph-name="Zdotaccent" unicode="&#x17b;" horiz-adv-x="489" 
d="M-27 0l18 131l320 427h-236l20 136h430l-19 -133l-318 -421h269l-38 -140h-446zM257 775.5q-23 22.5 -23 59.5q0 46 31 76.5t76 30.5q40 0 63 -22.5t23 -59.5q0 -46 -31 -76.5t-76 -30.5q-40 0 -63 22.5z" />
    <glyph glyph-name="uni1E92" unicode="&#x1e92;" horiz-adv-x="489" 
d="M-27 0l18 131l320 427h-236l20 136h430l-19 -133l-318 -421h269l-38 -140h-446zM247 -80.5q23 -22.5 23 -59.5q0 -46 -31 -76.5t-76 -30.5q-40 0 -63 22.5t-23 59.5q0 46 31 76.5t76 30.5q40 0 63 -22.5z" />
    <glyph glyph-name="uni0224" unicode="&#x224;" horiz-adv-x="479" 
d="M506 561l-317 -421h257l-20 -140l-7 -41q-14 -89 -70.5 -136t-141.5 -47q-82 0 -132 45l67 97q16 -9 28.5 -13.5t29.5 -4.5q47 0 54 58l6 42h-287l18 131l320 427h-236l20 136h430z" />
    <glyph glyph-name="uni01B5" unicode="&#x1b5;" horiz-adv-x="489" 
d="M525 694l-19 -133l-127 -162h64l-15 -107h-133l-120 -152h282l-38 -140h-446l18 131l126 161h-70l16 107h138l124 159h-250l20 136h430z" />
    <glyph glyph-name="Cacute.loclPLK" horiz-adv-x="521" 
d="M563 630l-91 -90q-23 21 -46.5 32t-52.5 11q-57 0 -93.5 -52t-52.5 -127.5t-16 -150.5q0 -136 93 -136q31 0 58 13.5t65 41.5l64 -100q-43 -40 -98 -65t-121 -25q-111 0 -176 70.5t-65 205.5q0 117 37 221t114 169t191 65q118 0 190 -83zM410 972l112 -70l-153 -159
l-68 43z" />
    <glyph glyph-name="Nacute.loclPLK" horiz-adv-x="586" 
d="M502 0h-213l-85 548l1 -33q2 -46 2 -71q0 -98 -15 -210l-31 -234h-152l97 694h212l85 -548l-1 41q-2 44 -2 64q0 82 13 190l34 253h152zM387 972l112 -70l-153 -159l-68 43z" />
    <glyph glyph-name="Oacute.loclPLK" horiz-adv-x="624" 
d="M553.5 643q62.5 -70 62.5 -203q0 -117 -35 -221t-112 -170.5t-195 -66.5t-180.5 70t-62.5 202q0 117 35 221.5t111.5 171t194.5 66.5q119 0 181.5 -70zM271.5 525q-34.5 -59 -49 -141t-14.5 -155q0 -63 19.5 -91t58.5 -28q56 0 90 58.5t48 140t14 156.5q0 63 -19 91
t-58 28q-55 0 -89.5 -59zM405 972l112 -70l-153 -159l-68 43z" />
    <glyph glyph-name="Sacute.loclPLK" horiz-adv-x="519" 
d="M539 620l-88 -90q-28 28 -58 41t-66 13q-41 0 -64 -19.5t-23 -50.5q0 -28 21 -46t83 -44q77 -32 114 -76.5t37 -117.5q0 -67 -32.5 -123.5t-96.5 -90.5t-153 -34q-149 0 -238 102l96 94q32 -32 66 -48.5t78 -16.5q47 0 73.5 23.5t26.5 63.5q0 33 -22 54.5t-80 46.5
q-81 33 -116.5 76t-35.5 110q0 63 31 114.5t90 81.5t139 30q136 0 218 -93zM359 972l112 -70l-153 -159l-68 43z" />
    <glyph glyph-name="Zacute.loclPLK" horiz-adv-x="489" 
d="M-27 0l18 131l320 427h-236l20 136h430l-19 -133l-318 -421h269l-38 -140h-446zM339 972l112 -70l-153 -159l-68 43z" />
    <glyph glyph-name="Eng.ss01" horiz-adv-x="578" 
d="M539.5 673q35.5 -40 35.5 -105q0 -23 -2 -34l-74 -534l-5 -34q-15 -93 -73.5 -141.5t-147.5 -48.5q-84 0 -133 45l69 101q16 -10 27.5 -14t28.5 -4q46 0 55 54l5 42l72 515q1 7 1 20q0 47 -40 47q-24 0 -48 -13t-53 -40l-75 -529h-173l97 694h152l4 -56q41 38 83 56.5
t91 18.5q68 0 103.5 -40z" />
    <glyph glyph-name="uni019D.ss01" horiz-adv-x="578" 
d="M540 673q36 -40 36 -105q0 -17 -3 -35l-74 -533h-173l71 515q2 16 2 21q0 46 -41 46q-25 0 -48.5 -13t-51.5 -40l-75 -529l-5 -34q-15 -93 -73.5 -141.5t-147.5 -48.5q-84 0 -133 45l69 101q16 -10 27.5 -14t28.5 -4q46 0 55 54l5 42l97 694h152l4 -55q41 37 83 55.5
t90 18.5q69 0 105 -40z" />
    <glyph glyph-name="uni2C64.ss01" horiz-adv-x="398" 
d="M466 701l-50 -169q-21 8 -50 8q-49 0 -77 -31t-49 -94l-57 -415l-5 -45q-1 -5 -1 -13q0 -38 36 -38q17 0 29.5 3.5t34.5 13.5l41 -103q-60 -41 -141 -41q-82 0 -127.5 40t-45.5 117q0 23 2 35l4 31h-1l97 694h152l1 -88q24 50 62 77t89 27q35 0 56 -9z" />
    <glyph glyph-name="uni0181.ss02" horiz-adv-x="540" 
d="M466.5 402q60.5 -48 60.5 -140q0 -65 -28.5 -125t-92 -98.5t-161.5 -38.5h-236l97 694h407l-37 -133h-214l-16 -111h51q109 0 169.5 -48zM319 163q25 36 25 91q0 37 -17.5 55.5t-55.5 18.5h-42l-28 -201h40q53 0 78 36z" />
    <glyph glyph-name="uniA78D.ss02" horiz-adv-x="536" 
d="M452 0h-174l34 241l-298 -1l63 454h174l-44 -316h124l44 316h174z" />
    <glyph glyph-name="uni0299" unicode="&#x299;" horiz-adv-x="486" 
d="M459 186q0 -92 -66 -139t-178 -47h-209l73 527q106 23 200 23q91 0 143 -34.5t52 -95.5q-1 -50 -32 -82.5t-92 -45.5q109 -13 109 -106zM292 345.5q17 20.5 17 57.5q0 21 -10.5 30.5t-33.5 9.5q-12 0 -34 -2l-16 -116h31q29 0 46 20.5zM272.5 131.5q20.5 22.5 20.5 64.5
q0 23 -12 33t-39 10h-40l-18 -130h33q35 0 55.5 22.5z" />
    <glyph glyph-name="uni0262" unicode="&#x262;" horiz-adv-x="507" 
d="M420.5 530.5q44.5 -20.5 79.5 -55.5l-90 -85q-23 21 -46 31t-51 10q-64 0 -93.5 -69t-29.5 -168q0 -49 14 -70t44 -21q27 0 54 12l12 90h-50l1 109h218l-37 -266q-43 -30 -98 -47t-116 -17q-214 0 -214 210q0 106 37.5 187t104.5 125.5t153 44.5q63 0 107.5 -20.5z" />
    <glyph glyph-name="uni029B" unicode="&#x29b;" horiz-adv-x="506" 
d="M675 722l-59 -102q-29 16 -53 16q-22 0 -33 -13.5t-15 -42.5l-16 -105l-80 -76q-29 16 -53.5 24t-52.5 8q-64 0 -94 -69.5t-30 -167.5q0 -49 14.5 -70t44.5 -21q27 0 54 12l12 90h-50l1 109h218l-37 -266q-43 -30 -98 -47t-116 -17q-214 0 -214 210q0 105 37.5 186.5
t102 126t142.5 44.5q35 0 66 -11l10 64q12 75 55 115.5t119 40.5q74 0 125 -38z" />
    <glyph glyph-name="uni029C" unicode="&#x29c;" horiz-adv-x="519" 
d="M272 0l29 207h-99l-29 -207h-167l74 532h167l-27 -200h98l28 200h167l-74 -532h-167z" />
    <glyph glyph-name="uni026A" unicode="&#x26a;" horiz-adv-x="300" 
d="M311 414h-57l-42 -296h57l-16 -118h-280l16 118h56l42 296h-56l16 118h280z" />
    <glyph glyph-name="uni029F" unicode="&#x29f;" horiz-adv-x="406" 
d="M247 532l-54 -402h191l-37 -130h-341l74 532h167z" />
    <glyph glyph-name="uni0274" unicode="&#x274;" horiz-adv-x="520" 
d="M440 0h-195l-66 385l1 -66q0 -96 -12 -180l-20 -139h-142l74 532h195l67 -385l-1 82q0 72 9 140l23 163h141z" />
    <glyph glyph-name="uni0276" unicode="&#x276;" horiz-adv-x="686" 
d="M479 417q21 -44 22 -91h144l-15 -113h-143q-14 -51 -48 -96h210l-16 -117h-316q-40 -18 -94 -18q-96 0 -150 56.5t-54 162.5q0 90 29.5 170t93 130t158.5 50q52 0 92 -19h319l-33 -115h-199zM315 184.5q24 78.5 24 165.5q0 41 -12 58.5t-38 17.5q-53 0 -77 -78t-24 -165
q0 -41 12.5 -59t37.5 -18q53 0 77 78.5z" />
    <glyph glyph-name="uni0280" unicode="&#x280;" horiz-adv-x="488" 
d="M361 209l83 -209h-165l-60 180h-29l-25 -180h-159l74 532h179q100 0 150 -38t50 -118q0 -115 -98 -167zM205 290h25q33 0 50.5 21.5t17.5 58.5q0 26 -12.5 36.5t-37.5 10.5h-25z" />
    <glyph glyph-name="uni0281" unicode="&#x281;" horiz-adv-x="486" 
d="M435 201q0 -99 -64 -150t-175 -51h-190l74 532h159l-25 -180h32l106 180h166l-142 -213q59 -38 59 -118zM273 193q0 25 -12.5 36.5t-37.5 11.5h-25l-17 -125h22q70 0 70 77z" />
    <glyph glyph-name="uni028F" unicode="&#x28f;" horiz-adv-x="468" 
d="M515 532l-208 -340l-27 -192h-167l27 191l-112 341h175l35 -225l101 225h176z" />
    <glyph glyph-name="a" unicode="a" horiz-adv-x="523" 
d="M514 496l-48 -337q-2 -20 -2 -27q0 -14 5 -22.5t17 -14.5l-50 -110q-45 4 -77.5 24t-44.5 57q-29 -41 -63.5 -62.5t-80.5 -21.5q-74 0 -114 53.5t-40 146.5t30 177t96.5 138t169.5 54q105 0 202 -55zM215 354.5q-29 -76.5 -29 -174.5q0 -41 11 -57.5t31 -16.5q35 0 74 62
l37 257q-20 6 -38 6q-57 0 -86 -76.5z" />
    <glyph glyph-name="aacute" unicode="&#xe1;" horiz-adv-x="523" 
d="M514 496l-48 -337q-2 -20 -2 -27q0 -14 5 -22.5t17 -14.5l-50 -110q-45 4 -77.5 24t-44.5 57q-29 -41 -63.5 -62.5t-80.5 -21.5q-74 0 -114 53.5t-40 146.5t30 177t96.5 138t169.5 54q105 0 202 -55zM215 354.5q-29 -76.5 -29 -174.5q0 -41 11 -57.5t31 -16.5q35 0 74 62
l37 257q-20 6 -38 6q-57 0 -86 -76.5zM427 838l54 -123l-233 -95l-40 82z" />
    <glyph glyph-name="abreve" unicode="&#x103;" horiz-adv-x="523" 
d="M514 496l-48 -337q-2 -20 -2 -27q0 -14 5 -22.5t17 -14.5l-50 -110q-45 4 -77.5 24t-44.5 57q-29 -41 -63.5 -62.5t-80.5 -21.5q-74 0 -114 53.5t-40 146.5t30 177t96.5 138t169.5 54q105 0 202 -55zM215 354.5q-29 -76.5 -29 -174.5q0 -41 11 -57.5t31 -16.5q35 0 74 62
l37 257q-20 6 -38 6q-57 0 -86 -76.5zM227 675.5q-36 45.5 -36 116.5l1 20l88 13q2 -37 17.5 -57t44.5 -20q30 0 52 21t34 58l85 -19q-15 -78 -61.5 -128t-118.5 -50q-70 0 -106 45.5z" />
    <glyph glyph-name="uni1EAF" unicode="&#x1eaf;" horiz-adv-x="523" 
d="M447 999l80 -86l-172 -146l-57 54zM226.5 652q-35.5 50 -30.5 121l87 13q2 -30 18 -48.5t44 -18.5q55 0 83 70l89 -19q-15 -72 -61.5 -120t-119.5 -48q-74 0 -109.5 50zM514 496l-48 -337q-2 -20 -2 -27q0 -14 5 -22.5t17 -14.5l-50 -110q-45 4 -77.5 24t-44.5 57
q-29 -41 -63.5 -62.5t-80.5 -21.5q-74 0 -114 53.5t-40 146.5t30 177t96.5 138t169.5 54q105 0 202 -55zM215 354.5q-29 -76.5 -29 -174.5q0 -41 11 -57.5t31 -16.5q35 0 74 62l37 257q-20 6 -38 6q-57 0 -86 -76.5z" />
    <glyph glyph-name="uni1EB7" unicode="&#x1eb7;" horiz-adv-x="523" 
d="M514 496l-48 -337q-2 -20 -2 -27q0 -14 5 -22.5t17 -14.5l-50 -110q-45 4 -77.5 24t-44.5 57q-29 -41 -63.5 -62.5t-80.5 -21.5q-74 0 -114 53.5t-40 146.5t30 177t96.5 138t169.5 54q105 0 202 -55zM215 354.5q-29 -76.5 -29 -174.5q0 -41 11 -57.5t31 -16.5q35 0 74 62
l37 257q-20 6 -38 6q-57 0 -86 -76.5zM227 675.5q-36 45.5 -36 116.5l1 20l88 13q2 -37 17.5 -57t44.5 -20q30 0 52 21t34 58l85 -19q-15 -78 -61.5 -128t-118.5 -50q-70 0 -106 45.5zM297 -80.5q23 -22.5 23 -59.5q0 -46 -31 -76.5t-76 -30.5q-40 0 -63 22.5t-23 59.5
q0 46 31 76.5t76 30.5q40 0 63 -22.5z" />
    <glyph glyph-name="uni1EB1" unicode="&#x1eb1;" horiz-adv-x="523" 
d="M314 997l99 -181l-69 -49l-130 152zM226.5 652q-35.5 50 -30.5 121l87 13q2 -30 18 -48.5t44 -18.5q55 0 83 70l89 -19q-15 -72 -61.5 -120t-119.5 -48q-74 0 -109.5 50zM514 496l-48 -337q-2 -20 -2 -27q0 -14 5 -22.5t17 -14.5l-50 -110q-45 4 -77.5 24t-44.5 57
q-29 -41 -63.5 -62.5t-80.5 -21.5q-74 0 -114 53.5t-40 146.5t30 177t96.5 138t169.5 54q105 0 202 -55zM215 354.5q-29 -76.5 -29 -174.5q0 -41 11 -57.5t31 -16.5q35 0 74 62l37 257q-20 6 -38 6q-57 0 -86 -76.5z" />
    <glyph glyph-name="uni1EB3" unicode="&#x1eb3;" horiz-adv-x="523" 
d="M514 496l-48 -337q-2 -20 -2 -27q0 -14 5 -22.5t17 -14.5l-50 -110q-45 4 -77.5 24t-44.5 57q-29 -41 -63.5 -62.5t-80.5 -21.5q-74 0 -114 53.5t-40 146.5t30 177t96.5 138t169.5 54q105 0 202 -55zM215 354.5q-29 -76.5 -29 -174.5q0 -41 11 -57.5t31 -16.5q35 0 74 62
l37 257q-20 6 -38 6q-57 0 -86 -76.5zM227.5 652q-35.5 50 -30.5 121l87 13q2 -30 18 -48.5t44 -18.5q55 0 83 70l89 -19q-15 -72 -61.5 -120t-119.5 -48q-74 0 -109.5 50zM319 870q36 2 52.5 12t16.5 31q0 13 -7 18.5t-23 5.5q-23 0 -54 -13l-17 70q45 25 100 25
q53 0 82 -26.5t29 -69.5q0 -42 -24 -67.5t-67 -34.5l-7 -51h-94z" />
    <glyph glyph-name="uni1EB5" unicode="&#x1eb5;" horiz-adv-x="523" 
d="M386.5 813q-13.5 6 -31.5 18q-12 9 -20.5 13t-16.5 4q-15 0 -26.5 -10t-26.5 -31l-72 39q25 49 60 80.5t74 31.5q20 0 34 -6.5t31 -17.5q21 -16 35 -16q13 0 24 9t26 30l73 -37q-25 -50 -60.5 -81.5t-73.5 -31.5q-16 0 -29.5 6zM228.5 652q-35.5 50 -30.5 121l87 13
q2 -30 18 -48.5t44 -18.5q55 0 83 70l89 -19q-15 -72 -61.5 -120t-119.5 -48q-74 0 -109.5 50zM514 496l-48 -337q-2 -20 -2 -27q0 -14 5 -22.5t17 -14.5l-50 -110q-45 4 -77.5 24t-44.5 57q-29 -41 -63.5 -62.5t-80.5 -21.5q-74 0 -114 53.5t-40 146.5t30 177t96.5 138
t169.5 54q105 0 202 -55zM215 354.5q-29 -76.5 -29 -174.5q0 -41 11 -57.5t31 -16.5q35 0 74 62l37 257q-20 6 -38 6q-57 0 -86 -76.5z" />
    <glyph glyph-name="uni01CE" unicode="&#x1ce;" horiz-adv-x="523" 
d="M514 496l-48 -337q-2 -20 -2 -27q0 -14 5 -22.5t17 -14.5l-50 -110q-45 4 -77.5 24t-44.5 57q-29 -41 -63.5 -62.5t-80.5 -21.5q-74 0 -114 53.5t-40 146.5t30 177t96.5 138t169.5 54q105 0 202 -55zM215 354.5q-29 -76.5 -29 -174.5q0 -41 11 -57.5t31 -16.5q35 0 74 62
l37 257q-20 6 -38 6q-57 0 -86 -76.5zM476 817l54 -67l-148 -141h-101l-108 141l62 67l107 -94z" />
    <glyph glyph-name="acircumflex" unicode="&#xe2;" horiz-adv-x="523" 
d="M514 496l-48 -337q-2 -20 -2 -27q0 -14 5 -22.5t17 -14.5l-50 -110q-45 4 -77.5 24t-44.5 57q-29 -41 -63.5 -62.5t-80.5 -21.5q-74 0 -114 53.5t-40 146.5t30 177t96.5 138t169.5 54q105 0 202 -55zM215 354.5q-29 -76.5 -29 -174.5q0 -41 11 -57.5t31 -16.5q35 0 74 62
l37 257q-20 6 -38 6q-57 0 -86 -76.5zM216 619l-54 67l148 141h100l113 -145l-69 -63l-106 94z" />
    <glyph glyph-name="uni1EA5" unicode="&#x1ea5;" horiz-adv-x="523" 
d="M582 969l80 -86l-172 -146l-57 54zM207 585l-57 67l148 133h100l113 -137l-65 -63l-109 86zM514 496l-48 -337q-2 -20 -2 -27q0 -14 5 -22.5t17 -14.5l-50 -110q-45 4 -77.5 24t-44.5 57q-29 -41 -63.5 -62.5t-80.5 -21.5q-74 0 -114 53.5t-40 146.5t30 177t96.5 138
t169.5 54q105 0 202 -55zM215 354.5q-29 -76.5 -29 -174.5q0 -41 11 -57.5t31 -16.5q35 0 74 62l37 257q-20 6 -38 6q-57 0 -86 -76.5z" />
    <glyph glyph-name="uni1EAD" unicode="&#x1ead;" horiz-adv-x="523" 
d="M514 496l-48 -337q-2 -20 -2 -27q0 -14 5 -22.5t17 -14.5l-50 -110q-45 4 -77.5 24t-44.5 57q-29 -41 -63.5 -62.5t-80.5 -21.5q-74 0 -114 53.5t-40 146.5t30 177t96.5 138t169.5 54q105 0 202 -55zM215 354.5q-29 -76.5 -29 -174.5q0 -41 11 -57.5t31 -16.5q35 0 74 62
l37 257q-20 6 -38 6q-57 0 -86 -76.5zM216 619l-54 67l148 141h100l113 -145l-69 -63l-106 94zM297 -80.5q23 -22.5 23 -59.5q0 -46 -31 -76.5t-76 -30.5q-40 0 -63 22.5t-23 59.5q0 46 31 76.5t76 30.5q40 0 63 -22.5z" />
    <glyph glyph-name="uni1EA7" unicode="&#x1ea7;" horiz-adv-x="523" 
d="M160 967l99 -181l-69 -49l-130 152zM208 585l-57 67l148 133h100l113 -137l-65 -63l-109 86zM514 496l-48 -337q-2 -20 -2 -27q0 -14 5 -22.5t17 -14.5l-50 -110q-45 4 -77.5 24t-44.5 57q-29 -41 -63.5 -62.5t-80.5 -21.5q-74 0 -114 53.5t-40 146.5t30 177t96.5 138
t169.5 54q105 0 202 -55zM215 354.5q-29 -76.5 -29 -174.5q0 -41 11 -57.5t31 -16.5q35 0 74 62l37 257q-20 6 -38 6q-57 0 -86 -76.5z" />
    <glyph glyph-name="uni1EA9" unicode="&#x1ea9;" horiz-adv-x="523" 
d="M514 496l-48 -337q-2 -20 -2 -27q0 -14 5 -22.5t17 -14.5l-50 -110q-45 4 -77.5 24t-44.5 57q-29 -41 -63.5 -62.5t-80.5 -21.5q-74 0 -114 53.5t-40 146.5t30 177t96.5 138t169.5 54q105 0 202 -55zM215 354.5q-29 -76.5 -29 -174.5q0 -41 11 -57.5t31 -16.5q35 0 74 62
l37 257q-20 6 -38 6q-57 0 -86 -76.5zM206 585l-57 67l148 133h100l113 -137l-65 -63l-109 86zM461 861q36 2 52.5 12t16.5 31q0 13 -7 18.5t-23 5.5q-23 0 -54 -13l-17 70q45 25 100 25q53 0 82 -26.5t29 -69.5q0 -42 -24 -67.5t-67 -34.5l-7 -51h-94z" />
    <glyph glyph-name="uni1EAB" unicode="&#x1eab;" horiz-adv-x="523" 
d="M382.5 815q-13.5 6 -31.5 18q-12 9 -20.5 13t-16.5 4q-15 0 -26.5 -10t-26.5 -31l-72 39q25 49 60 80.5t74 31.5q20 0 34 -6.5t31 -17.5q21 -16 35 -16q13 0 24 9t26 30l73 -37q-25 -50 -60.5 -81.5t-73.5 -31.5q-16 0 -29.5 6zM206 582l-57 67l148 133h100l113 -137
l-65 -63l-109 86zM514 496l-48 -337q-2 -20 -2 -27q0 -14 5 -22.5t17 -14.5l-50 -110q-45 4 -77.5 24t-44.5 57q-29 -41 -63.5 -62.5t-80.5 -21.5q-74 0 -114 53.5t-40 146.5t30 177t96.5 138t169.5 54q105 0 202 -55zM215 354.5q-29 -76.5 -29 -174.5q0 -41 11 -57.5
t31 -16.5q35 0 74 62l37 257q-20 6 -38 6q-57 0 -86 -76.5z" />
    <glyph glyph-name="uni0201" unicode="&#x201;" horiz-adv-x="523" 
d="M514 496l-48 -337q-2 -20 -2 -27q0 -14 5 -22.5t17 -14.5l-50 -110q-45 4 -77.5 24t-44.5 57q-29 -41 -63.5 -62.5t-80.5 -21.5q-74 0 -114 53.5t-40 146.5t30 177t96.5 138t169.5 54q105 0 202 -55zM215 354.5q-29 -76.5 -29 -174.5q0 -41 11 -57.5t31 -16.5q35 0 74 62
l37 257q-20 6 -38 6q-57 0 -86 -76.5zM248 865l64 -203l-90 -38l-91 190zM413 865l56 -204l-90 -33l-84 190z" />
    <glyph glyph-name="adieresis" unicode="&#xe4;" horiz-adv-x="523" 
d="M514 496l-48 -337q-2 -20 -2 -27q0 -14 5 -22.5t17 -14.5l-50 -110q-45 4 -77.5 24t-44.5 57q-29 -41 -63.5 -62.5t-80.5 -21.5q-74 0 -114 53.5t-40 146.5t30 177t96.5 138t169.5 54q105 0 202 -55zM215 354.5q-29 -76.5 -29 -174.5q0 -41 11 -57.5t31 -16.5q35 0 74 62
l37 257q-20 6 -38 6q-57 0 -86 -76.5zM175 659q-20 20 -20 52q0 40 27 66.5t66 26.5q34 0 54 -19.5t20 -52.5q0 -40 -27 -66.5t-66 -26.5q-34 0 -54 20zM391 659q-20 20 -20 52q0 40 27 66.5t66 26.5q34 0 54 -19.5t20 -52.5q0 -40 -27 -66.5t-66 -26.5q-34 0 -54 20z" />
    <glyph glyph-name="uni01DF" unicode="&#x1df;" horiz-adv-x="523" 
d="M514 496l-48 -337q-2 -20 -2 -27q0 -14 5 -22.5t17 -14.5l-50 -110q-45 4 -77.5 24t-44.5 57q-29 -41 -63.5 -62.5t-80.5 -21.5q-74 0 -114 53.5t-40 146.5t30 177t96.5 138t169.5 54q105 0 202 -55zM215 354.5q-29 -76.5 -29 -174.5q0 -41 11 -57.5t31 -16.5q35 0 74 62
l37 257q-20 6 -38 6q-57 0 -86 -76.5zM170 618q-20 20 -20 52q0 40 27 66.5t66 26.5q34 0 54 -19.5t20 -52.5q0 -40 -27 -66.5t-66 -26.5q-34 0 -54 20zM386 618q-20 20 -20 52q0 40 27 66.5t66 26.5q34 0 54 -19.5t20 -52.5q0 -40 -27 -66.5t-66 -26.5q-34 0 -54 20z
M497 804h-283l17 117h283z" />
    <glyph glyph-name="uni0227" unicode="&#x227;" horiz-adv-x="523" 
d="M514 496l-48 -337q-2 -20 -2 -27q0 -14 5 -22.5t17 -14.5l-50 -110q-45 4 -77.5 24t-44.5 57q-29 -41 -63.5 -62.5t-80.5 -21.5q-74 0 -114 53.5t-40 146.5t30 177t96.5 138t169.5 54q105 0 202 -55zM215 354.5q-29 -76.5 -29 -174.5q0 -41 11 -57.5t31 -16.5q35 0 74 62
l37 257q-20 6 -38 6q-57 0 -86 -76.5zM274 649.5q-23 22.5 -23 59.5q0 46 31 76.5t76 30.5q40 0 63 -22.5t23 -59.5q0 -46 -31 -76.5t-76 -30.5q-40 0 -63 22.5z" />
    <glyph glyph-name="uni1EA1" unicode="&#x1ea1;" horiz-adv-x="523" 
d="M514 496l-48 -337q-2 -20 -2 -27q0 -14 5 -22.5t17 -14.5l-50 -110q-45 4 -77.5 24t-44.5 57q-29 -41 -63.5 -62.5t-80.5 -21.5q-74 0 -114 53.5t-40 146.5t30 177t96.5 138t169.5 54q105 0 202 -55zM215 354.5q-29 -76.5 -29 -174.5q0 -41 11 -57.5t31 -16.5q35 0 74 62
l37 257q-20 6 -38 6q-57 0 -86 -76.5zM297 -80.5q23 -22.5 23 -59.5q0 -46 -31 -76.5t-76 -30.5q-40 0 -63 22.5t-23 59.5q0 46 31 76.5t76 30.5q40 0 63 -22.5z" />
    <glyph glyph-name="uni01E1" unicode="&#x1e1;" horiz-adv-x="523" 
d="M514 496l-48 -337q-2 -20 -2 -27q0 -14 5 -22.5t17 -14.5l-50 -110q-45 4 -77.5 24t-44.5 57q-29 -41 -63.5 -62.5t-80.5 -21.5q-74 0 -114 53.5t-40 146.5t30 177t96.5 138t169.5 54q105 0 202 -55zM215 354.5q-29 -76.5 -29 -174.5q0 -41 11 -57.5t31 -16.5q35 0 74 62
l37 257q-20 6 -38 6q-57 0 -86 -76.5zM267 614.5q-23 22.5 -23 59.5q0 46 31 76.5t76 30.5q40 0 63 -22.5t23 -59.5q0 -46 -31 -76.5t-76 -30.5q-40 0 -63 22.5zM498 813h-283l17 117h283z" />
    <glyph glyph-name="agrave" unicode="&#xe0;" horiz-adv-x="523" 
d="M514 496l-48 -337q-2 -20 -2 -27q0 -14 5 -22.5t17 -14.5l-50 -110q-45 4 -77.5 24t-44.5 57q-29 -41 -63.5 -62.5t-80.5 -21.5q-74 0 -114 53.5t-40 146.5t30 177t96.5 138t169.5 54q105 0 202 -55zM215 354.5q-29 -76.5 -29 -174.5q0 -41 11 -57.5t31 -16.5q35 0 74 62
l37 257q-20 6 -38 6q-57 0 -86 -76.5zM299 837l186 -138l-48 -77l-211 93z" />
    <glyph glyph-name="uni1EA3" unicode="&#x1ea3;" horiz-adv-x="523" 
d="M514 496l-48 -337q-2 -20 -2 -27q0 -14 5 -22.5t17 -14.5l-50 -110q-45 4 -77.5 24t-44.5 57q-29 -41 -63.5 -62.5t-80.5 -21.5q-74 0 -114 53.5t-40 146.5t30 177t96.5 138t169.5 54q105 0 202 -55zM215 354.5q-29 -76.5 -29 -174.5q0 -41 11 -57.5t31 -16.5q35 0 74 62
l37 257q-20 6 -38 6q-57 0 -86 -76.5zM297 704q36 2 52.5 12t16.5 31q0 13 -7 18.5t-23 5.5q-23 0 -54 -13l-17 70q45 25 100 25q53 0 82 -26.5t29 -69.5q0 -42 -24 -67.5t-67 -34.5l-7 -51h-94z" />
    <glyph glyph-name="uni0203" unicode="&#x203;" horiz-adv-x="523" 
d="M514 496l-48 -337q-2 -20 -2 -27q0 -14 5 -22.5t17 -14.5l-50 -110q-45 4 -77.5 24t-44.5 57q-29 -41 -63.5 -62.5t-80.5 -21.5q-74 0 -114 53.5t-40 146.5t30 177t96.5 138t169.5 54q105 0 202 -55zM215 354.5q-29 -76.5 -29 -174.5q0 -41 11 -57.5t31 -16.5q35 0 74 62
l37 257q-20 6 -38 6q-57 0 -86 -76.5zM169 616q18 79 65.5 129t121.5 50q75 0 110.5 -51.5t30.5 -129.5l-91 -13q-5 76 -62 76q-59 0 -87 -79z" />
    <glyph glyph-name="uni0251" unicode="&#x251;" horiz-adv-x="523" 
d="M464 133q0 -15 5 -23.5t18 -14.5l-50 -110q-45 4 -78 24t-45 57q-28 -41 -62.5 -62.5t-80.5 -21.5q-75 0 -114.5 53.5t-39.5 146.5q0 95 29 179.5t84.5 136.5t130.5 52q41 0 69.5 -15.5t46.5 -50.5l24 48h118l-53 -373q-2 -20 -2 -26zM333 388q-17 43 -52 43
q-44 0 -69 -76t-25 -175q0 -41 10.5 -57.5t30.5 -16.5q35 0 74 62z" />
    <glyph glyph-name="uni0252" unicode="&#x252;" horiz-adv-x="523" 
d="M466.5 496.5q39.5 -53.5 39.5 -146.5q0 -95 -29 -179.5t-84.5 -136.5t-130.5 -52q-41 0 -69.5 15.5t-46.5 50.5l-24 -48h-118l53 373q2 20 2 26q0 15 -5 23.5t-18 14.5l50 110q45 -4 78 -24t45 -57q28 41 62.5 62.5t80.5 21.5q75 0 114.5 -53.5zM311 177q25 76 25 175
q0 41 -10.5 57.5t-30.5 16.5q-35 0 -74 -62l-31 -220q17 -43 52 -43q44 0 69 76z" />
    <glyph glyph-name="amacron" unicode="&#x101;" horiz-adv-x="523" 
d="M514 496l-48 -337q-2 -20 -2 -27q0 -14 5 -22.5t17 -14.5l-50 -110q-45 4 -77.5 24t-44.5 57q-29 -41 -63.5 -62.5t-80.5 -21.5q-74 0 -114 53.5t-40 146.5t30 177t96.5 138t169.5 54q105 0 202 -55zM215 354.5q-29 -76.5 -29 -174.5q0 -41 11 -57.5t31 -16.5q35 0 74 62
l37 257q-20 6 -38 6q-57 0 -86 -76.5zM479 653h-283l17 117h283z" />
    <glyph glyph-name="aogonek" unicode="&#x105;" horiz-adv-x="523" 
d="M464 132q0 -14 5 -22.5t17 -14.5l-50 -110q-68 -27 -93 -56t-25 -56q0 -33 40 -33q25 0 53 6l-23 -101q-30 -8 -65 -8q-55 0 -90 29.5t-35 80.5q0 53 36.5 95t114.5 74q-24 18 -35 50q-29 -41 -63.5 -62.5t-80.5 -21.5q-74 0 -114 53.5t-40 146.5t30 177t96.5 138
t169.5 54q105 0 202 -55l-48 -337q-2 -20 -2 -27zM339 425q-20 6 -38 6q-57 0 -86 -76.5t-29 -174.5q0 -41 11 -57.5t31 -16.5q35 0 74 62z" />
    <glyph glyph-name="aring" unicode="&#xe5;" horiz-adv-x="523" 
d="M514 496l-48 -337q-2 -20 -2 -27q0 -14 5 -22.5t17 -14.5l-50 -110q-45 4 -77.5 24t-44.5 57q-29 -41 -63.5 -62.5t-80.5 -21.5q-74 0 -114 53.5t-40 146.5t30 177t96.5 138t169.5 54q105 0 202 -55zM215 354.5q-29 -76.5 -29 -174.5q0 -41 11 -57.5t31 -16.5q35 0 74 62
l37 257q-20 6 -38 6q-57 0 -86 -76.5zM452.5 838.5q31.5 -33.5 31.5 -87.5q0 -40 -19 -74t-53.5 -54.5t-79.5 -20.5q-56 0 -87 33.5t-31 86.5q0 40 19 74.5t53.5 55t78.5 20.5q56 0 87.5 -33.5zM321 769.5q-13 -18.5 -13 -42.5q0 -40 32 -40q23 0 36 18t13 42q0 41 -32 41
q-23 0 -36 -18.5z" />
    <glyph glyph-name="aringacute" unicode="&#x1fb;" horiz-adv-x="523" 
d="M514 496l-48 -337q-2 -20 -2 -27q0 -14 5 -22.5t17 -14.5l-50 -110q-45 4 -77.5 24t-44.5 57q-29 -41 -63.5 -62.5t-80.5 -21.5q-74 0 -114 53.5t-40 146.5t30 177t96.5 138t169.5 54q105 0 202 -55zM215 354.5q-29 -76.5 -29 -174.5q0 -41 11 -57.5t31 -16.5q35 0 74 62
l37 257q-20 6 -38 6q-57 0 -86 -76.5zM448.5 813.5q31.5 -33.5 31.5 -87.5q0 -40 -19 -74t-53.5 -54.5t-79.5 -20.5q-56 0 -87 33.5t-31 86.5q0 40 19 74.5t53.5 55t78.5 20.5q56 0 87.5 -33.5zM317 744.5q-13 -18.5 -13 -42.5q0 -40 32 -40q23 0 36 18t13 42q0 41 -32 41
q-23 0 -36 -18.5zM447 1058l54 -123l-233 -86l-37 81z" />
    <glyph glyph-name="uni2C65" unicode="&#x2c65;" horiz-adv-x="523" 
d="M464 132q0 -14 5 -22.5t17 -14.5l-50 -110q-45 4 -77.5 24t-44.5 57q-27 -39 -59.5 -60.5t-74.5 -23.5l-22 -57l-51 14l18 49q-53 15 -81 65.5t-28 128.5q0 93 30 177t96.5 138t169.5 54q17 0 25 -1l20 52l51 -15l-17 -44q65 -14 123 -47l-48 -337q-2 -20 -2 -27z
M182 138l113 301q-59 -5 -87.5 -84t-28.5 -179q0 -23 3 -38zM348 427l-125 -329h2q22 0 44.5 17.5t39.5 48.5z" />
    <glyph glyph-name="atilde" unicode="&#xe3;" horiz-adv-x="523" 
d="M514 496l-48 -337q-2 -20 -2 -27q0 -14 5 -22.5t17 -14.5l-50 -110q-45 4 -77.5 24t-44.5 57q-29 -41 -63.5 -62.5t-80.5 -21.5q-74 0 -114 53.5t-40 146.5t30 177t96.5 138t169.5 54q105 0 202 -55zM215 354.5q-29 -76.5 -29 -174.5q0 -41 11 -57.5t31 -16.5q35 0 74 62
l37 257q-20 6 -38 6q-57 0 -86 -76.5zM361.5 638q-13.5 7 -31.5 19q-3 2 -11 7.5t-14.5 8t-12.5 2.5q-15 0 -26.5 -10.5t-26.5 -33.5l-74 42q26 54 61.5 88t74.5 34q20 0 35 -7t32 -20q11 -9 19 -13t16 -4q14 0 25.5 10.5t25.5 32.5l74 -41q-26 -54 -62 -88t-74 -34
q-17 0 -30.5 7z" />
    <glyph glyph-name="uni0250" unicode="&#x250;" horiz-adv-x="489" 
d="M194 172q-1 -8 -1 -21q0 -26 12.5 -36t45.5 -10q50 0 119 24l31 -108q-43 -19 -93.5 -29t-96.5 -10q-186 0 -186 145q0 18 3 39l28 207q2 20 2 26q0 15 -5 24t-17 14l50 110q89 -8 116 -68q59 71 148 71q64 0 101 -39t37 -104q0 -101 -70 -153t-184 -52h-36zM223 389
l-13 -95h21q43 0 66.5 23.5t23.5 67.5t-35 44q-34 0 -63 -40z" />
    <glyph glyph-name="ae" unicode="&#xe6;" horiz-adv-x="765" 
d="M352 534q33 -16 56 -47q32 30 76 47t95 17q86 0 135.5 -40.5t49.5 -103.5q0 -183 -311 -214q1 -47 19 -67t55 -20q30 0 57.5 11t63.5 36l58 -98q-93 -73 -207 -73q-61 0 -105.5 21t-70.5 61q-38 -45 -80.5 -63.5t-91.5 -18.5q-69 0 -109.5 39t-40.5 104q0 85 58.5 142
t201.5 57h43q6 23 17 50q-4 25 -26 38.5t-54 13.5q-57 0 -128 -26l-23 112q94 38 178 38q51 0 84 -16zM497.5 397.5q-24.5 -41.5 -35.5 -104.5q73 6 105.5 37t32.5 69q0 40 -39 40t-63.5 -41.5zM261 228q-40 0 -62 -19.5t-22 -59.5q0 -46 38 -46q19 0 37 13.5t39 40.5
q-2 22 -2 36l1 35h-29z" />
    <glyph glyph-name="aeacute" unicode="&#x1fd;" horiz-adv-x="765" 
d="M352 534q33 -16 56 -47q32 30 76 47t95 17q86 0 135.5 -40.5t49.5 -103.5q0 -183 -311 -214q1 -47 19 -67t55 -20q30 0 57.5 11t63.5 36l58 -98q-93 -73 -207 -73q-61 0 -105.5 21t-70.5 61q-38 -45 -80.5 -63.5t-91.5 -18.5q-69 0 -109.5 39t-40.5 104q0 85 58.5 142
t201.5 57h43q6 23 17 50q-4 25 -26 38.5t-54 13.5q-57 0 -128 -26l-23 112q94 38 178 38q51 0 84 -16zM497.5 397.5q-24.5 -41.5 -35.5 -104.5q73 6 105.5 37t32.5 69q0 40 -39 40t-63.5 -41.5zM261 228q-40 0 -62 -19.5t-22 -59.5q0 -46 38 -46q19 0 37 13.5t39 40.5
q-2 22 -2 36l1 35h-29zM526 838l54 -123l-233 -95l-40 82z" />
    <glyph glyph-name="uni01E3" unicode="&#x1e3;" horiz-adv-x="765" 
d="M352 534q33 -16 56 -47q32 30 76 47t95 17q86 0 135.5 -40.5t49.5 -103.5q0 -183 -311 -214q1 -47 19 -67t55 -20q30 0 57.5 11t63.5 36l58 -98q-93 -73 -207 -73q-61 0 -105.5 21t-70.5 61q-38 -45 -80.5 -63.5t-91.5 -18.5q-69 0 -109.5 39t-40.5 104q0 85 58.5 142
t201.5 57h43q6 23 17 50q-4 25 -26 38.5t-54 13.5q-57 0 -128 -26l-23 112q94 38 178 38q51 0 84 -16zM497.5 397.5q-24.5 -41.5 -35.5 -104.5q73 6 105.5 37t32.5 69q0 40 -39 40t-63.5 -41.5zM261 228q-40 0 -62 -19.5t-22 -59.5q0 -46 38 -46q19 0 37 13.5t39 40.5
q-2 22 -2 36l1 35h-29zM578 653h-283l17 117h283z" />
    <glyph glyph-name="b" unicode="b" horiz-adv-x="533" 
d="M478 501.5q37 -49.5 37 -142.5q0 -163 -69.5 -270t-230.5 -107q-102 0 -206 45l100 716l169 18l-37 -271q25 28 59.5 44.5t71.5 16.5q69 0 106 -49.5zM225 374l-36 -260q25 -9 48 -9q36 0 60.5 38t36 95t11.5 113q0 43 -11.5 59.5t-32.5 16.5q-37 0 -76 -53z" />
    <glyph glyph-name="uni1E03" unicode="&#x1e03;" horiz-adv-x="533" 
d="M478 501.5q37 -49.5 37 -142.5q0 -163 -69.5 -270t-230.5 -107q-102 0 -206 45l100 716l169 18l-37 -271q25 28 59.5 44.5t71.5 16.5q69 0 106 -49.5zM225 374l-36 -260q25 -9 48 -9q36 0 60.5 38t36 95t11.5 113q0 43 -11.5 59.5t-32.5 16.5q-37 0 -76 -53zM310 824.5
q-23 22.5 -23 59.5q0 46 31 76.5t76 30.5q40 0 63 -22.5t23 -59.5q0 -46 -31 -76.5t-76 -30.5q-40 0 -63 22.5z" />
    <glyph glyph-name="uni1E05" unicode="&#x1e05;" horiz-adv-x="533" 
d="M478 501.5q37 -49.5 37 -142.5q0 -163 -69.5 -270t-230.5 -107q-102 0 -206 45l100 716l169 18l-37 -271q25 28 59.5 44.5t71.5 16.5q69 0 106 -49.5zM225 374l-36 -260q25 -9 48 -9q36 0 60.5 38t36 95t11.5 113q0 43 -11.5 59.5t-32.5 16.5q-37 0 -76 -53zM275 -80.5
q23 -22.5 23 -59.5q0 -46 -31 -76.5t-76 -30.5q-40 0 -63 22.5t-23 59.5q0 46 31 76.5t76 30.5q40 0 63 -22.5z" />
    <glyph glyph-name="uniA7B5" unicode="&#xa7b5;" horiz-adv-x="544" 
d="M83 553q14 99 79.5 153t164.5 54q90 0 141.5 -48t51.5 -122q0 -64 -34.5 -115.5t-114.5 -70.5q62 -4 105.5 -42t43.5 -115q0 -59 -24.5 -120t-77 -103t-131.5 -42q-73 0 -118 42l-31 -228l-164 -20zM328 154.5q25 43.5 25 97.5q0 89 -81 89h-28l26 114h13q36 0 54 38.5
t18 87.5q0 61 -43 61q-55 0 -68 -91l-59 -419q26 -21 66 -21q52 0 77 43.5z" />
    <glyph glyph-name="uni0253" unicode="&#x253;" horiz-adv-x="533" 
d="M478 501.5q37 -49.5 37 -142.5q0 -163 -69.5 -270t-230.5 -107q-102 0 -206 45l71 504l7 54q12 79 67.5 127t148.5 48q38 0 73.5 -9.5t61.5 -25.5l-59 -106q-33 17 -67 17q-26 0 -40.5 -15t-18.5 -49l-6 -41l-5 -41q24 28 58.5 44.5t70.5 16.5q70 0 107 -49.5zM297.5 143
q24.5 38 36 95t11.5 113q0 43 -11.5 59.5t-32.5 16.5q-37 0 -76 -53l-36 -260q25 -9 48 -9q36 0 60.5 38z" />
    <glyph glyph-name="uni02AD" unicode="&#x2ad;" horiz-adv-x="343" 
d="M330 399h-97l11 86h-84l-12 -86h-98l24 167h280zM274 -1h-97l11 86h-84l-12 -86h-98l24 167h280z" />
    <glyph glyph-name="uni0298" unicode="&#x298;" horiz-adv-x="721" 
d="M576.5 677.5q65.5 -35.5 100.5 -101t35 -155.5q0 -130 -49 -229.5t-137.5 -154.5t-203.5 -55q-88 0 -153.5 35.5t-101 102t-35.5 156.5q0 130 50 229t139 153.5t202 54.5q88 0 153.5 -35.5zM251 504.5q-54 -91.5 -55 -236.5q0 -86 36 -127.5t102 -41.5q105 0 159.5 90.5
t54.5 233.5q0 88 -36.5 130.5t-100.5 42.5q-106 0 -160 -91.5zM312.5 282q-19.5 19 -19.5 50q0 39 26 64.5t64 25.5q34 0 53.5 -19t19.5 -50q0 -39 -26 -64.5t-65 -25.5q-33 0 -52.5 19z" />
    <glyph glyph-name="uni02AC" unicode="&#x2ac;" horiz-adv-x="424" 
d="M449 668l-89 -268h-99l1 194l-58 -194h-96l-20 268h69l9 -208l61 208h91l1 -209l63 209h67zM393 268l-89 -268h-99l1 194l-58 -194h-96l-20 268h69l9 -208l61 208h91l1 -209l63 209h67z" />
    <glyph glyph-name="uni0180" unicode="&#x180;" horiz-adv-x="542" 
d="M488 501.5q37 -49.5 37 -142.5q0 -163 -69.5 -270t-230.5 -107q-102 0 -206 45l79 568h-47l14 97h47l7 51l169 18l-9 -69h118l-27 -97h-105l-14 -105q25 28 59.5 44.5t71.5 16.5q69 0 106 -49.5zM307.5 143q24.5 38 36 95t11.5 113q0 43 -11.5 59.5t-32.5 16.5
q-37 0 -76 -53l-36 -260q25 -9 48 -9q36 0 60.5 38z" />
    <glyph glyph-name="uni0183" unicode="&#x183;" horiz-adv-x="534" 
d="M478.5 484q36.5 -51 36.5 -148q-1 -150 -70.5 -252t-229.5 -102q-102 0 -206 45l100 716h361l-37 -121h-174l-21 -147q26 28 61.5 44t72.5 16q70 0 106.5 -51zM297.5 142q24.5 37 36 90.5t11.5 100.5q0 45 -11.5 61.5t-32.5 16.5q-20 0 -40 -14t-38 -39l-34 -244
q25 -9 48 -9q36 0 60.5 37z" />
    <glyph glyph-name="c" unicode="c" horiz-adv-x="431" 
d="M466 482l-81 -94q-37 33 -78 33q-60 0 -87 -66.5t-27 -152.5q0 -49 16.5 -68.5t47.5 -19.5q21 0 40.5 8t46.5 25l60 -103q-78 -62 -174 -62q-99 0 -155 59.5t-56 164.5q0 88 32 167t96.5 128.5t155.5 49.5q99 0 163 -69z" />
    <glyph glyph-name="cacute" unicode="&#x107;" horiz-adv-x="431" 
d="M466 482l-81 -94q-37 33 -78 33q-60 0 -87 -66.5t-27 -152.5q0 -49 16.5 -68.5t47.5 -19.5q21 0 40.5 8t46.5 25l60 -103q-78 -62 -174 -62q-99 0 -155 59.5t-56 164.5q0 88 32 167t96.5 128.5t155.5 49.5q99 0 163 -69zM405 838l54 -123l-233 -95l-40 82z" />
    <glyph glyph-name="ccaron" unicode="&#x10d;" horiz-adv-x="431" 
d="M466 482l-81 -94q-37 33 -78 33q-60 0 -87 -66.5t-27 -152.5q0 -49 16.5 -68.5t47.5 -19.5q21 0 40.5 8t46.5 25l60 -103q-78 -62 -174 -62q-99 0 -155 59.5t-56 164.5q0 88 32 167t96.5 128.5t155.5 49.5q99 0 163 -69zM454 817l54 -67l-148 -141h-101l-108 141l62 67
l107 -94z" />
    <glyph glyph-name="ccedilla" unicode="&#xe7;" horiz-adv-x="431" 
d="M257 -17l-5 -32q42 -5 63.5 -27.5t21.5 -60.5q0 -30 -15.5 -59.5t-51 -49.5t-91.5 -20q-33 0 -60 9t-45 24l47 72q26 -14 54 -14q20 0 32 7.5t13 23.5q0 16 -18 23t-61 7l25 103q-70 18 -108.5 74.5t-38.5 142.5q0 88 32 167t96.5 128.5t155.5 49.5q99 0 163 -69l-81 -94
q-37 33 -78 33q-60 0 -87 -66.5t-27 -152.5q0 -49 16.5 -68.5t47.5 -19.5q21 0 40.5 8t46.5 25l60 -103q-65 -52 -147 -61z" />
    <glyph glyph-name="ccircumflex" unicode="&#x109;" horiz-adv-x="431" 
d="M466 482l-81 -94q-37 33 -78 33q-60 0 -87 -66.5t-27 -152.5q0 -49 16.5 -68.5t47.5 -19.5q21 0 40.5 8t46.5 25l60 -103q-78 -62 -174 -62q-99 0 -155 59.5t-56 164.5q0 88 32 167t96.5 128.5t155.5 49.5q99 0 163 -69zM194 619l-54 67l148 141h100l113 -145l-69 -63
l-106 94z" />
    <glyph glyph-name="uni0255" unicode="&#x255;" horiz-adv-x="462" 
d="M410 229q29 -28 29 -79q0 -80 -55 -124t-140 -44q-31 0 -63 6l-40 -74l-70 32l40 71q-45 27 -68.5 76t-23.5 116q0 87 32 165.5t96.5 127.5t155.5 49q99 0 163 -69l-81 -94q-37 33 -78 33q-60 0 -87 -66.5t-27 -152.5q0 -24 3 -41q27 51 60.5 73.5t76.5 22.5q48 0 77 -28
zM315.5 114q13.5 12 14.5 34q0 22 -20 22q-33 0 -64 -64q15 -4 33 -4q23 0 36.5 12z" />
    <glyph glyph-name="cdotaccent" unicode="&#x10b;" horiz-adv-x="431" 
d="M466 482l-81 -94q-37 33 -78 33q-60 0 -87 -66.5t-27 -152.5q0 -49 16.5 -68.5t47.5 -19.5q21 0 40.5 8t46.5 25l60 -103q-78 -62 -174 -62q-99 0 -155 59.5t-56 164.5q0 88 32 167t96.5 128.5t155.5 49.5q99 0 163 -69zM252 649.5q-23 22.5 -23 59.5q0 46 31 76.5
t76 30.5q40 0 63 -22.5t23 -59.5q0 -46 -31 -76.5t-76 -30.5q-40 0 -63 22.5z" />
    <glyph glyph-name="uni0188" unicode="&#x188;" horiz-adv-x="431" 
d="M640 722l-59 -102q-29 16 -53 16q-22 0 -33 -14.5t-16 -45.5l-13 -94l-73 -86q-43 25 -86 25q-60 0 -87 -66.5t-27 -152.5q0 -49 16.5 -68.5t47.5 -19.5q21 0 40.5 8t46.5 25l60 -103q-78 -62 -174 -62q-99 0 -155 59.5t-56 164.5q0 87 31.5 166.5t91 129t139.5 49.5
q25 0 51 -8l9 61q12 75 55 115.5t119 40.5q74 0 125 -38z" />
    <glyph glyph-name="uni0297" unicode="&#x297;" horiz-adv-x="444" 
d="M479 482l-80 -92q-35 31 -75 31q-48 0 -80.5 -57.5t-47.5 -145t-15 -177.5q0 -76 16 -104t47 -28q21 0 40.5 7.5t44.5 24.5l59 -102q-79 -63 -171 -63q-100 0 -154.5 67.5t-55.5 197.5q0 142 37.5 258t108.5 184t168 68t158 -69z" />
    <glyph glyph-name="uni023C" unicode="&#x23c;" horiz-adv-x="431" 
d="M297.5 122q19.5 8 46.5 25l60 -103q-78 -62 -174 -62q-13 0 -35 2l-22 -59l-51 14l22 57q-60 23 -92.5 77t-32.5 133q0 88 32 167t96.5 128.5t155.5 49.5q24 0 49 -5l21 56l50 -15l-22 -57q36 -17 65 -48l-81 -94q-14 13 -29 21l-111 -294q4 -1 12 -1q21 0 40.5 8z
M201 148l103 273q-58 -1 -84.5 -68t-26.5 -151q0 -33 8 -54z" />
    <glyph glyph-name="d" unicode="d" horiz-adv-x="534" 
d="M558 743l-104 -743h-148l2 67q-28 -41 -62 -63t-81 -22q-72 0 -110 52.5t-38 148.5q0 89 26.5 173.5t80 139.5t130.5 55q65 0 103 -48l36 257zM232 387.5q-23 -39.5 -33.5 -96t-10.5 -107.5q0 -44 10.5 -61.5t30.5 -17.5q37 0 83 77l30 215q-19 30 -52 30
q-35 0 -58 -39.5z" />
    <glyph glyph-name="eth" unicode="&#xf0;" horiz-adv-x="529" 
d="M478.5 542.5q29.5 -70.5 29.5 -160.5q0 -111 -33 -202t-98 -144.5t-155 -53.5q-93 0 -150 55t-57 153q0 68 27.5 135.5t78 111t116.5 43.5q36 0 62.5 -11t48.5 -33q-6 46 -20.5 78.5t-44.5 63.5l-54 -52l-92 48l59 58q-31 11 -75 20l45 107q63 -11 125 -37l80 80l73 -71
l-60 -62q65 -56 94.5 -126.5zM306 160.5q21 55.5 33 166.5q-23 35 -63 35q-49 0 -71 -57t-22 -125q0 -40 13.5 -57.5t39.5 -17.5q49 0 70 55.5z" />
    <glyph glyph-name="uni0238" unicode="&#x238;" horiz-adv-x="781" 
d="M730 499q34 -51 34 -145t-27.5 -180t-78.5 -139t-119 -53q-33 0 -59.5 19.5t-43.5 57.5l-17 -59h-130v62q-24 -38 -56 -59t-71 -21q-70 0 -107.5 54t-37.5 150q0 92 28.5 176t80.5 136t119 52q30 0 54.5 -15.5t39.5 -44.5l35 253l169 17l-38 -275q25 31 57.5 48t69.5 17
q64 0 98 -51zM293 165l31 222q-17 40 -46 40q-42 0 -65 -73.5t-23 -161.5q0 -49 10 -67.5t29 -18.5q32 0 64 59zM569.5 181q22.5 76 22.5 163q0 46 -9.5 64t-27.5 18q-31 0 -64 -47l-31 -222q9 -28 20 -40t26 -12q41 0 63.5 76z" />
    <glyph glyph-name="dcaron" unicode="&#x10f;" horiz-adv-x="631" 
d="M558 743l-104 -743h-148l2 67q-28 -41 -62 -63t-81 -22q-72 0 -110 52.5t-38 148.5q0 89 26.5 173.5t80 139.5t130.5 55q65 0 103 -48l36 257zM232 387.5q-23 -39.5 -33.5 -96t-10.5 -107.5q0 -44 10.5 -61.5t30.5 -17.5q37 0 83 77l30 215q-19 30 -52 30
q-35 0 -58 -39.5zM600 758l119 -15l-74 -222l-84 8z" />
    <glyph glyph-name="uni1E13" unicode="&#x1e13;" horiz-adv-x="534" 
d="M558 743l-104 -743h-148l2 67q-28 -41 -62 -63t-81 -22q-72 0 -110 52.5t-38 148.5q0 89 26.5 173.5t80 139.5t130.5 55q65 0 103 -48l36 257zM232 387.5q-23 -39.5 -33.5 -96t-10.5 -107.5q0 -44 10.5 -61.5t30.5 -17.5q37 0 83 77l30 215q-19 30 -52 30
q-35 0 -58 -39.5zM82 -270l-54 67l148 141h101l112 -146l-68 -62l-106 93z" />
    <glyph glyph-name="dcroat" unicode="&#x111;" horiz-adv-x="544" 
d="M585 594h-48l-83 -594h-148l2 67q-28 -41 -62 -63t-81 -22q-72 0 -110 52.5t-38 148.5q0 89 26.5 173.5t80 139.5t130.5 55q65 0 103 -48l13 91h-105l2 96h116l10 70l165 -17l-7 -53h49zM342 397q-19 30 -52 30q-35 0 -58 -39.5t-33.5 -96t-10.5 -107.5q0 -44 10.5 -61.5
t30.5 -17.5q37 0 83 77z" />
    <glyph glyph-name="uni0221" unicode="&#x221;" horiz-adv-x="725" 
d="M682 221q28 -27 28 -74q0 -80 -55 -122.5t-140 -42.5q-16 0 -42 2l-38 -70l-70 32l34 58q-55 26 -77 78q-32 -50 -70.5 -75t-86.5 -25q-72 0 -110 52t-38 149q0 89 26 173.5t80.5 139.5t133.5 55q62 0 100 -48l36 257l165 -17l-80 -575q-2 -18 -2 -24q27 56 58 80t75 24
q45 0 73 -27zM342 396q-10 16 -22 23.5t-30 7.5q-35 0 -58 -39.5t-33.5 -96t-10.5 -107.5q0 -44 10.5 -61.5t31.5 -17.5q38 0 83 78zM588 113q14 11 14 30t-17 19q-13 0 -24.5 -13t-27.5 -47h18q23 0 37 11z" />
    <glyph glyph-name="uni1E0B" unicode="&#x1e0b;" horiz-adv-x="534" 
d="M558 743l-104 -743h-148l2 67q-28 -41 -62 -63t-81 -22q-72 0 -110 52.5t-38 148.5q0 89 26.5 173.5t80 139.5t130.5 55q65 0 103 -48l36 257zM232 387.5q-23 -39.5 -33.5 -96t-10.5 -107.5q0 -44 10.5 -61.5t30.5 -17.5q37 0 83 77l30 215q-19 30 -52 30
q-35 0 -58 -39.5zM275 824.5q-23 22.5 -23 59.5q0 46 31 76.5t76 30.5q40 0 63 -22.5t23 -59.5q0 -46 -31 -76.5t-76 -30.5q-40 0 -63 22.5z" />
    <glyph glyph-name="uni1E0D" unicode="&#x1e0d;" horiz-adv-x="534" 
d="M558 743l-104 -743h-148l2 67q-28 -41 -62 -63t-81 -22q-72 0 -110 52.5t-38 148.5q0 89 26.5 173.5t80 139.5t130.5 55q65 0 103 -48l36 257zM232 387.5q-23 -39.5 -33.5 -96t-10.5 -107.5q0 -44 10.5 -61.5t30.5 -17.5q37 0 83 77l30 215q-19 30 -52 30
q-35 0 -58 -39.5zM290 -80.5q23 -22.5 23 -59.5q0 -46 -31 -76.5t-76 -30.5q-40 0 -63 22.5t-23 59.5q0 46 31 76.5t76 30.5q40 0 63 -22.5z" />
    <glyph glyph-name="uni018D" unicode="&#x18d;" horiz-adv-x="523" 
d="M6 -148l85 79q21 -20 43 -30t49 -10q30 0 45 14.5t15 38.5q0 18 -14 32t-55 34q-81 40 -117.5 89t-36.5 126q0 72 28.5 147t91.5 126.5t159 51.5q64 0 111 -27.5t71.5 -75t24.5 -105.5q0 -95 -39.5 -165.5t-136.5 -112.5q71 -51 71 -121q0 -42 -24 -80.5t-72.5 -62.5
t-117.5 -24q-117 0 -181 76zM318 212q17 56 17 133q0 81 -51 81q-47 0 -70 -61t-23 -146q0 -39 13 -62.5t48 -46.5q49 46 66 102z" />
    <glyph glyph-name="uni02A4" unicode="&#x2a4;" horiz-adv-x="932" 
d="M909 417l-185 -206q81 -8 122.5 -50t41.5 -117q0 -81 -37 -141.5t-101 -93.5t-144 -33q-138 0 -207 106l99 82q28 -31 53 -45t57 -14q49 0 79 36t30 100q0 42 -21.5 59t-64.5 17h-88l13 96l171 194h-216l-57 -407h-148l2 67q-28 -41 -62 -63t-81 -22q-72 0 -110 52.5
t-38 148.5q0 89 26.5 173.5t80 139.5t130.5 55q65 0 103 -48l36 257l165 -17l-30 -211h397zM342 397q-19 30 -52 30q-35 0 -58 -39.5t-33.5 -96t-10.5 -107.5q0 -44 10.5 -61.5t30.5 -17.5q37 0 83 77z" />
    <glyph glyph-name="uni0257" unicode="&#x257;" horiz-adv-x="534" 
d="M696 722l-61 -102q-26 16 -52 16q-21 0 -32 -13t-16 -42l-7 -49l-74 -532h-148l2 67q-28 -41 -62 -63t-81 -22q-72 0 -110 52t-38 149q0 89 26 173.5t80.5 139.5t133.5 55q62 0 100 -48l4 29l6 48q11 80 64 130t141 50q75 0 124 -38zM342 396q-11 16 -23 23.5t-29 7.5
q-35 0 -58 -39.5t-33.5 -96t-10.5 -107.5q0 -44 10.5 -61.5t31.5 -17.5q36 0 82 77z" />
    <glyph glyph-name="uni1E0F" unicode="&#x1e0f;" horiz-adv-x="534" 
d="M558 743l-104 -743h-148l2 67q-28 -41 -62 -63t-81 -22q-72 0 -110 52.5t-38 148.5q0 89 26.5 173.5t80 139.5t130.5 55q65 0 103 -48l36 257zM232 387.5q-23 -39.5 -33.5 -96t-10.5 -107.5q0 -44 10.5 -61.5t30.5 -17.5q37 0 83 77l30 215q-19 30 -52 30
q-35 0 -58 -39.5zM95 -77h283l-17 -117h-283z" />
    <glyph glyph-name="uni0256" unicode="&#x256;" horiz-adv-x="539" 
d="M592 -182q-61 -41 -143 -41q-79 0 -123.5 40.5t-44.5 117.5q0 10 2 34l4 31l8 54q-20 -31 -53 -51.5t-77 -20.5q-72 0 -110 52t-38 149q0 89 26 173.5t80.5 139.5t133.5 55q62 0 100 -48l36 257l165 -17l-104 -743l-6 -49q-1 -4 -1 -13q0 -19 10.5 -29t29.5 -10
q18 0 31 4t31 14zM312 182l30 214q-11 16 -23 23.5t-29 7.5q-35 0 -58 -39.5t-33.5 -96t-10.5 -107.5q0 -44 10.5 -61.5t31.5 -17.5q36 0 82 77z" />
    <glyph glyph-name="uni018C" unicode="&#x18c;" horiz-adv-x="534" 
d="M454 0h-149l2 67q-56 -85 -142 -85q-73 0 -111 52t-38 149q0 85 26 166t79.5 133.5t130.5 52.5q66 0 103 -48l18 135h-184l17 121h352zM340 380q-11 17 -23 24.5t-29 7.5q-34 0 -56.5 -37.5t-33 -90.5t-10.5 -100q0 -44 10.5 -61.5t30.5 -17.5q37 0 83 77z" />
    <glyph glyph-name="uni01F3" unicode="&#x1f3;" horiz-adv-x="950" 
d="M558 743l-104 -743h-148l2 67q-28 -41 -62 -63t-81 -22q-72 0 -110 52.5t-38 148.5q0 89 26.5 173.5t80 139.5t130.5 55q65 0 103 -48l36 257zM232 387.5q-23 -39.5 -33.5 -96t-10.5 -107.5q0 -44 10.5 -61.5t30.5 -17.5q37 0 83 77l30 215q-19 30 -52 30
q-35 0 -58 -39.5zM970 532l-16 -119l-231 -285h198l-33 -128h-384l16 120l231 286h-174l19 126h374z" />
    <glyph glyph-name="uni02A3" unicode="&#x2a3;" horiz-adv-x="899" 
d="M902 413l-233 -285h200l-33 -128h-530l2 67q-28 -41 -62 -63t-81 -22q-72 0 -110 52.5t-38 148.5q0 89 26.5 173.5t80 139.5t130.5 55q65 0 103 -48l36 257l165 -17l-30 -211h390zM342 397q-19 30 -52 30q-35 0 -58 -39.5t-33.5 -96t-10.5 -107.5q0 -44 10.5 -61.5
t30.5 -17.5q37 0 83 77zM470 117l232 289h-191z" />
    <glyph glyph-name="uni01C6" unicode="&#x1c6;" horiz-adv-x="950" 
d="M558 743l-104 -743h-148l2 67q-28 -41 -62 -63t-81 -22q-72 0 -110 52.5t-38 148.5q0 89 26.5 173.5t80 139.5t130.5 55q65 0 103 -48l36 257zM232 387.5q-23 -39.5 -33.5 -96t-10.5 -107.5q0 -44 10.5 -61.5t30.5 -17.5q37 0 83 77l30 215q-19 30 -52 30
q-35 0 -58 -39.5zM970 532l-16 -119l-231 -285h198l-33 -128h-384l16 120l231 286h-174l19 126h374zM938 817l54 -67l-148 -141h-101l-108 141l62 67l107 -94z" />
    <glyph glyph-name="uni02A5" unicode="&#x2a5;" horiz-adv-x="1002" 
d="M972.5 247q30.5 -28 30.5 -79q0 -84 -57 -126.5t-151 -41.5l4 13l-6 -13h-10q-10 -38 -23 -131l-90 3q14 93 23 128h-387l2 67q-28 -41 -62 -63t-81 -22q-72 0 -110 52.5t-38 148.5q0 89 26.5 173.5t80 139.5t130.5 55q65 0 103 -48l36 257l165 -17l-30 -211h390
l-15 -109l-244 -295h71q32 80 71 113.5t92 33.5q49 0 79.5 -28zM342 397q-19 30 -52 30q-35 0 -58 -39.5t-33.5 -96t-10.5 -107.5q0 -44 10.5 -61.5t30.5 -17.5q37 0 83 77zM511 406l-40 -283l234 283h-194zM894 167q0 22 -20 22q-32 0 -55 -61h18q57 0 57 39z" />
    <glyph glyph-name="e" unicode="e" horiz-adv-x="495" 
d="M445.5 510q49.5 -41 49.5 -105q0 -180 -311 -213v-1q0 -45 19 -65t55 -20q29 0 56.5 11t63.5 36l58 -98q-93 -73 -206 -73q-102 0 -157 56t-55 159q0 91 31 172t96.5 131.5t164.5 50.5q86 0 135.5 -41zM298 329.5q32 30.5 32 70.5q0 39 -38 39t-62.5 -41.5t-36.5 -104.5
q73 6 105 36.5z" />
    <glyph glyph-name="eacute" unicode="&#xe9;" horiz-adv-x="495" 
d="M445.5 510q49.5 -41 49.5 -105q0 -180 -311 -213v-1q0 -45 19 -65t55 -20q29 0 56.5 11t63.5 36l58 -98q-93 -73 -206 -73q-102 0 -157 56t-55 159q0 91 31 172t96.5 131.5t164.5 50.5q86 0 135.5 -41zM298 329.5q32 30.5 32 70.5q0 39 -38 39t-62.5 -41.5t-36.5 -104.5
q73 6 105 36.5zM405 838l54 -123l-233 -95l-40 82z" />
    <glyph glyph-name="ebreve" unicode="&#x115;" horiz-adv-x="495" 
d="M445.5 510q49.5 -41 49.5 -105q0 -180 -311 -213v-1q0 -45 19 -65t55 -20q29 0 56.5 11t63.5 36l58 -98q-93 -73 -206 -73q-102 0 -157 56t-55 159q0 91 31 172t96.5 131.5t164.5 50.5q86 0 135.5 -41zM298 329.5q32 30.5 32 70.5q0 39 -38 39t-62.5 -41.5t-36.5 -104.5
q73 6 105 36.5zM205 675.5q-36 45.5 -36 116.5l1 20l88 13q2 -37 17.5 -57t44.5 -20q30 0 52 21t34 58l85 -19q-15 -78 -61.5 -128t-118.5 -50q-70 0 -106 45.5z" />
    <glyph glyph-name="ecaron" unicode="&#x11b;" horiz-adv-x="495" 
d="M445.5 510q49.5 -41 49.5 -105q0 -180 -311 -213v-1q0 -45 19 -65t55 -20q29 0 56.5 11t63.5 36l58 -98q-93 -73 -206 -73q-102 0 -157 56t-55 159q0 91 31 172t96.5 131.5t164.5 50.5q86 0 135.5 -41zM298 329.5q32 30.5 32 70.5q0 39 -38 39t-62.5 -41.5t-36.5 -104.5
q73 6 105 36.5zM454 817l54 -67l-148 -141h-101l-108 141l62 67l107 -94z" />
    <glyph glyph-name="uni0229" unicode="&#x229;" horiz-adv-x="495" 
d="M445.5 510q49.5 -41 49.5 -105q0 -180 -311 -213v-1q0 -45 19 -65t55 -20q29 0 56.5 11t63.5 36l58 -98q-76 -59 -162 -70l-6 -34q42 -5 63.5 -27.5t21.5 -60.5q0 -30 -15.5 -59.5t-51 -49.5t-91.5 -20q-33 0 -60 9t-45 24l47 72q26 -14 54 -14q20 0 32 7.5t13 23.5
q0 16 -18 23t-61 7l25 100q-80 13 -122 67t-42 144q0 91 31 172t96.5 131.5t164.5 50.5q86 0 135.5 -41zM298 329.5q32 30.5 32 70.5q0 39 -38 39t-62.5 -41.5t-36.5 -104.5q73 6 105 36.5z" />
    <glyph glyph-name="ecircumflex" unicode="&#xea;" horiz-adv-x="495" 
d="M445.5 510q49.5 -41 49.5 -105q0 -180 -311 -213v-1q0 -45 19 -65t55 -20q29 0 56.5 11t63.5 36l58 -98q-93 -73 -206 -73q-102 0 -157 56t-55 159q0 91 31 172t96.5 131.5t164.5 50.5q86 0 135.5 -41zM298 329.5q32 30.5 32 70.5q0 39 -38 39t-62.5 -41.5t-36.5 -104.5
q73 6 105 36.5zM194 619l-54 67l148 141h100l113 -145l-69 -63l-106 94z" />
    <glyph glyph-name="uni1EBF" unicode="&#x1ebf;" horiz-adv-x="495" 
d="M640 883l-172 -146l-57 54l149 178zM315 671l-130 -86l-57 67l148 133h100l113 -137l-65 -63zM445.5 510q49.5 -41 49.5 -105q0 -180 -311 -213v-1q0 -45 19 -65t55 -20q29 0 56.5 11t63.5 36l58 -98q-93 -73 -206 -73q-102 0 -157 56t-55 159q0 91 31 172t96.5 131.5
t164.5 50.5q86 0 135.5 -41zM298 329.5q32 30.5 32 70.5q0 39 -38 39t-62.5 -41.5t-36.5 -104.5q73 6 105 36.5z" />
    <glyph glyph-name="uni1EC7" unicode="&#x1ec7;" horiz-adv-x="495" 
d="M445.5 510q49.5 -41 49.5 -105q0 -180 -311 -213v-1q0 -45 19 -65t55 -20q29 0 56.5 11t63.5 36l58 -98q-93 -73 -206 -73q-102 0 -157 56t-55 159q0 91 31 172t96.5 131.5t164.5 50.5q86 0 135.5 -41zM298 329.5q32 30.5 32 70.5q0 39 -38 39t-62.5 -41.5t-36.5 -104.5
q73 6 105 36.5zM194 619l-54 67l148 141h100l113 -145l-69 -63l-106 94zM281 -80.5q23 -22.5 23 -59.5q0 -46 -31 -76.5t-76 -30.5q-40 0 -63 22.5t-23 59.5q0 46 31 76.5t76 30.5q40 0 63 -22.5z" />
    <glyph glyph-name="uni1EC1" unicode="&#x1ec1;" horiz-adv-x="495" 
d="M237 786l-69 -49l-130 152l100 78zM186 585l-57 67l148 133h100l113 -137l-65 -63l-109 86zM445.5 510q49.5 -41 49.5 -105q0 -180 -311 -213v-1q0 -45 19 -65t55 -20q29 0 56.5 11t63.5 36l58 -98q-93 -73 -206 -73q-102 0 -157 56t-55 159q0 91 31 172t96.5 131.5
t164.5 50.5q86 0 135.5 -41zM298 329.5q32 30.5 32 70.5q0 39 -38 39t-62.5 -41.5t-36.5 -104.5q73 6 105 36.5z" />
    <glyph glyph-name="uni1EC3" unicode="&#x1ec3;" horiz-adv-x="495" 
d="M445.5 510q49.5 -41 49.5 -105q0 -180 -311 -213v-1q0 -45 19 -65t55 -20q29 0 56.5 11t63.5 36l58 -98q-93 -73 -206 -73q-102 0 -157 56t-55 159q0 91 31 172t96.5 131.5t164.5 50.5q86 0 135.5 -41zM298 329.5q32 30.5 32 70.5q0 39 -38 39t-62.5 -41.5t-36.5 -104.5
q73 6 105 36.5zM184 585l-57 67l148 133h100l113 -137l-65 -63l-109 86zM439 861q36 2 52.5 12t16.5 31q0 13 -7 18.5t-23 5.5q-23 0 -54 -13l-17 70q45 25 100 25q53 0 82 -26.5t29 -69.5q0 -42 -24 -67.5t-67 -34.5l-7 -51h-94z" />
    <glyph glyph-name="uni1EC5" unicode="&#x1ec5;" horiz-adv-x="495" 
d="M265.5 840q-11.5 -10 -26.5 -31l-72 39q25 49 60 80.5t74 31.5q20 0 34 -6.5t31 -17.5q21 -16 35 -16q13 0 24 9t26 30l73 -37q-25 -50 -60.5 -81.5t-73.5 -31.5q-16 0 -29.5 6t-31.5 18q-12 9 -20.5 13t-16.5 4q-15 0 -26.5 -10zM314 668l-130 -86l-57 67l148 133h100
l113 -137l-65 -63zM445.5 510q49.5 -41 49.5 -105q0 -180 -311 -213v-1q0 -45 19 -65t55 -20q29 0 56.5 11t63.5 36l58 -98q-93 -73 -206 -73q-102 0 -157 56t-55 159q0 91 31 172t96.5 131.5t164.5 50.5q86 0 135.5 -41zM298 329.5q32 30.5 32 70.5q0 39 -38 39
t-62.5 -41.5t-36.5 -104.5q73 6 105 36.5z" />
    <glyph glyph-name="uni0205" unicode="&#x205;" horiz-adv-x="495" 
d="M445.5 510q49.5 -41 49.5 -105q0 -180 -311 -213v-1q0 -45 19 -65t55 -20q29 0 56.5 11t63.5 36l58 -98q-93 -73 -206 -73q-102 0 -157 56t-55 159q0 91 31 172t96.5 131.5t164.5 50.5q86 0 135.5 -41zM298 329.5q32 30.5 32 70.5q0 39 -38 39t-62.5 -41.5t-36.5 -104.5
q73 6 105 36.5zM226 865l64 -203l-90 -38l-91 190zM391 865l56 -204l-90 -33l-84 190z" />
    <glyph glyph-name="edieresis" unicode="&#xeb;" horiz-adv-x="495" 
d="M445.5 510q49.5 -41 49.5 -105q0 -180 -311 -213v-1q0 -45 19 -65t55 -20q29 0 56.5 11t63.5 36l58 -98q-93 -73 -206 -73q-102 0 -157 56t-55 159q0 91 31 172t96.5 131.5t164.5 50.5q86 0 135.5 -41zM298 329.5q32 30.5 32 70.5q0 39 -38 39t-62.5 -41.5t-36.5 -104.5
q73 6 105 36.5zM153 659q-20 20 -20 52q0 40 27 66.5t66 26.5q34 0 54 -19.5t20 -52.5q0 -40 -27 -66.5t-66 -26.5q-34 0 -54 20zM369 659q-20 20 -20 52q0 40 27 66.5t66 26.5q34 0 54 -19.5t20 -52.5q0 -40 -27 -66.5t-66 -26.5q-34 0 -54 20z" />
    <glyph glyph-name="edotaccent" unicode="&#x117;" horiz-adv-x="495" 
d="M445.5 510q49.5 -41 49.5 -105q0 -180 -311 -213v-1q0 -45 19 -65t55 -20q29 0 56.5 11t63.5 36l58 -98q-93 -73 -206 -73q-102 0 -157 56t-55 159q0 91 31 172t96.5 131.5t164.5 50.5q86 0 135.5 -41zM298 329.5q32 30.5 32 70.5q0 39 -38 39t-62.5 -41.5t-36.5 -104.5
q73 6 105 36.5zM252 649.5q-23 22.5 -23 59.5q0 46 31 76.5t76 30.5q40 0 63 -22.5t23 -59.5q0 -46 -31 -76.5t-76 -30.5q-40 0 -63 22.5z" />
    <glyph glyph-name="uni1EB9" unicode="&#x1eb9;" horiz-adv-x="495" 
d="M445.5 510q49.5 -41 49.5 -105q0 -180 -311 -213v-1q0 -45 19 -65t55 -20q29 0 56.5 11t63.5 36l58 -98q-93 -73 -206 -73q-102 0 -157 56t-55 159q0 91 31 172t96.5 131.5t164.5 50.5q86 0 135.5 -41zM298 329.5q32 30.5 32 70.5q0 39 -38 39t-62.5 -41.5t-36.5 -104.5
q73 6 105 36.5zM281 -80.5q23 -22.5 23 -59.5q0 -46 -31 -76.5t-76 -30.5q-40 0 -63 22.5t-23 59.5q0 46 31 76.5t76 30.5q40 0 63 -22.5z" />
    <glyph glyph-name="egrave" unicode="&#xe8;" horiz-adv-x="495" 
d="M445.5 510q49.5 -41 49.5 -105q0 -180 -311 -213v-1q0 -45 19 -65t55 -20q29 0 56.5 11t63.5 36l58 -98q-93 -73 -206 -73q-102 0 -157 56t-55 159q0 91 31 172t96.5 131.5t164.5 50.5q86 0 135.5 -41zM298 329.5q32 30.5 32 70.5q0 39 -38 39t-62.5 -41.5t-36.5 -104.5
q73 6 105 36.5zM277 837l186 -138l-48 -77l-211 93z" />
    <glyph glyph-name="uni1EBB" unicode="&#x1ebb;" horiz-adv-x="495" 
d="M445.5 510q49.5 -41 49.5 -105q0 -180 -311 -213v-1q0 -45 19 -65t55 -20q29 0 56.5 11t63.5 36l58 -98q-93 -73 -206 -73q-102 0 -157 56t-55 159q0 91 31 172t96.5 131.5t164.5 50.5q86 0 135.5 -41zM298 329.5q32 30.5 32 70.5q0 39 -38 39t-62.5 -41.5t-36.5 -104.5
q73 6 105 36.5zM275 704q36 2 52.5 12t16.5 31q0 13 -7 18.5t-23 5.5q-23 0 -54 -13l-17 70q45 25 100 25q53 0 82 -26.5t29 -69.5q0 -42 -24 -67.5t-67 -34.5l-7 -51h-94z" />
    <glyph glyph-name="uni0207" unicode="&#x207;" horiz-adv-x="495" 
d="M445.5 510q49.5 -41 49.5 -105q0 -180 -311 -213v-1q0 -45 19 -65t55 -20q29 0 56.5 11t63.5 36l58 -98q-93 -73 -206 -73q-102 0 -157 56t-55 159q0 91 31 172t96.5 131.5t164.5 50.5q86 0 135.5 -41zM298 329.5q32 30.5 32 70.5q0 39 -38 39t-62.5 -41.5t-36.5 -104.5
q73 6 105 36.5zM147 616q18 79 65.5 129t121.5 50q75 0 110.5 -51.5t30.5 -129.5l-91 -13q-5 76 -62 76q-59 0 -87 -79z" />
    <glyph glyph-name="emacron" unicode="&#x113;" horiz-adv-x="495" 
d="M445.5 510q49.5 -41 49.5 -105q0 -180 -311 -213v-1q0 -45 19 -65t55 -20q29 0 56.5 11t63.5 36l58 -98q-93 -73 -206 -73q-102 0 -157 56t-55 159q0 91 31 172t96.5 131.5t164.5 50.5q86 0 135.5 -41zM298 329.5q32 30.5 32 70.5q0 39 -38 39t-62.5 -41.5t-36.5 -104.5
q73 6 105 36.5zM457 653h-283l17 117h283z" />
    <glyph glyph-name="eogonek" unicode="&#x119;" horiz-adv-x="495" 
d="M445.5 510q49.5 -41 49.5 -105q0 -180 -311 -213v-1q0 -45 19 -65t55 -20q29 0 56.5 11t63.5 36l58 -98q-48 -38 -104 -57q-91 -42 -91 -99q0 -34 40 -34q25 0 57 8l-24 -103q-32 -8 -66 -8q-57 0 -92.5 28t-35.5 76q0 73 75 118q-86 10 -131.5 64.5t-45.5 148.5
q0 91 31 172t96.5 131.5t164.5 50.5q86 0 135.5 -41zM298 329.5q32 30.5 32 70.5q0 39 -38 39t-62.5 -41.5t-36.5 -104.5q73 6 105 36.5z" />
    <glyph glyph-name="uni025B" unicode="&#x25b;" horiz-adv-x="448" 
d="M62.5 24q-55.5 42 -55.5 116q0 61 40.5 99t114.5 45q-101 23 -101 109q0 47 26 82.5t73.5 55.5t109.5 20q54 0 101.5 -17.5t81.5 -52.5l-75 -80q-46 33 -90 33q-30 0 -46.5 -15.5t-16.5 -42.5q0 -23 14 -36.5t43 -13.5h52l-32 -107h-46q-41 0 -60 -17t-19 -47
q0 -25 16.5 -39t48.5 -14q26 0 52 9.5t59 30.5l55 -93q-38 -32 -90.5 -49.5t-111.5 -17.5q-88 0 -143.5 42z" />
    <glyph glyph-name="uni029A" unicode="&#x29a;" horiz-adv-x="522" 
d="M62.5 23q-56.5 41 -56.5 116q0 61 41 99.5t114 45.5q-97 23 -97 103q0 46 27 83.5t77.5 59t117.5 21.5q104 0 160 -59.5t56 -163.5q0 -161 -75.5 -253.5t-216.5 -92.5q-91 0 -147.5 41zM315 171q26 69 26 159q0 56 -15 80t-45 24q-26 0 -40 -16t-14 -44q0 -48 48 -48h18
l-32 -107h-11q-38 0 -56 -18.5t-18 -48.5q0 -24 13.5 -37t40.5 -13q59 0 85 69z" />
    <glyph glyph-name="uni025C" unicode="&#x25c;" horiz-adv-x="447" 
d="M377.5 514.5q48.5 -36.5 48.5 -96.5q0 -52 -35 -88t-103 -48q61 -6 91.5 -36.5t30.5 -80.5q0 -47 -25.5 -89t-79 -68t-135.5 -26q-117 0 -191 66l81 94q29 -22 53 -31t51 -9q37 0 56 19t19 51q0 24 -15 35.5t-46 11.5h-72l27 107h48q36 0 55.5 18t19.5 47q0 43 -46 43
q-26 0 -48 -8t-51 -25l-62 88q90 62 201 62q79 0 127.5 -36.5z" />
    <glyph glyph-name="uni025E" unicode="&#x25e;" horiz-adv-x="518" 
d="M74.5 38q-55.5 56 -55.5 160q0 107 35.5 186.5t102 123t155.5 43.5q82 0 134 -37t52 -98q0 -52 -34 -86.5t-98 -46.5q58 -7 87 -37.5t29 -79.5q0 -48 -25 -89.5t-80.5 -68t-140.5 -26.5q-106 0 -161.5 56zM297.5 121.5q17.5 19.5 17.5 52.5q0 23 -14 34t-45 11h-26
l29 107h7q30 0 47 17.5t17 48.5q0 42 -41 42q-55 0 -82 -72.5t-27 -168.5q0 -49 15 -70t48 -21q37 0 54.5 19.5z" />
    <glyph glyph-name="uni025D" unicode="&#x25d;" horiz-adv-x="693" 
d="M715 342q-52 -36 -118 -36q-62 0 -93.5 30t-36.5 81l-1 13l-41 -24q-4 -48 -38.5 -80t-98.5 -44q61 -6 91.5 -36.5t30.5 -80.5q0 -47 -25.5 -89t-79 -68t-135.5 -26q-117 0 -191 66l81 94q29 -22 53 -31t51 -9q37 0 56 19t19 51q0 24 -15 35.5t-46 11.5h-72l27 107h48
q36 0 55.5 18t19.5 47q0 43 -46 43q-26 0 -48 -8t-51 -25l-62 88q90 62 201 62q50 0 89 -15.5t62 -43.5l71 40h135l-9 -65q-1 -4 -1 -12q0 -17 9.5 -26t25.5 -9q14 0 24.5 3t27.5 10z" />
    <glyph glyph-name="uni0258" unicode="&#x258;" horiz-adv-x="500" 
d="M428.5 488q51.5 -63 51.5 -163q0 -103 -34.5 -180.5t-100.5 -120t-156 -42.5q-113 0 -185 76l78 89q27 -21 51.5 -31t55.5 -10q78 0 108 86q-125 9 -193.5 47.5t-68.5 121.5q0 53 27.5 96t79.5 68.5t122 25.5q113 0 164.5 -63zM229 315q25 -19 86 -23q1 16 1 50
q0 48 -13.5 72.5t-43.5 24.5q-25 0 -40 -19.5t-15 -54.5q0 -31 25 -50z" />
    <glyph glyph-name="uni0283" unicode="&#x283;" horiz-adv-x="254" 
d="M415 722l-61 -102q-26 16 -52 16q-21 0 -32 -13t-16 -42l-7 -49l-74 -532l-5 -36q-14 -93 -71.5 -140t-145.5 -47q-79 0 -132 44l68 97q18 -11 30 -15t28 -4q23 0 37 13.5t17 39.5l7 48l74 532l6 48q11 80 64 130t141 50q75 0 124 -38z" />
    <glyph glyph-name="uni0286" unicode="&#x286;" horiz-adv-x="324" 
d="M485 722l-61 -102q-26 16 -52 16q-21 0 -32 -13t-16 -42l-7 -49l-74 -526l-2 -14q39 -11 77 -36l-35 -67q-41 19 -61 26q-25 -69 -75 -103.5t-130 -34.5q-62 0 -96 31t-34 84q0 61 41 97t105 36q31 0 46 -3l71 510l6 48q11 80 64 130t141 50q75 0 124 -38zM48.5 -118
q13.5 19 19.5 62v1q-15 3 -35 3q-26 0 -39.5 -14t-13.5 -37q0 -34 31 -34q24 0 37.5 19z" />
    <glyph glyph-name="uni01AA" unicode="&#x1aa;" horiz-adv-x="404" 
d="M459 -182q-61 -41 -143 -41q-79 0 -123.5 40.5t-44.5 117.5q0 10 2 34l4 31h1l58 421q-30 -14 -64 -14q-53 0 -88.5 42t-35.5 108q0 60 26 106t73 71.5t108 25.5q79 0 124.5 -44.5t45.5 -124.5q0 -20 -3 -41l-77 -550h-1l-6 -49q-1 -4 -1 -13q0 -19 10.5 -29t29.5 -10
q18 0 31 4t31 14zM228 527l9 65q2 16 2 21q0 16 -6 23.5t-20 7.5q-24 0 -35.5 -24t-11.5 -57q0 -40 34 -40q10 0 28 4z" />
    <glyph glyph-name="uni0285" unicode="&#x285;" horiz-adv-x="468" 
d="M446 24q-61 -41 -143 -41q-79 0 -123.5 40.5t-44.5 117.5q0 10 2 34l4 31h1l17 121l6 49q1 4 1 13q0 19 -10.5 29t-29.5 10q-18 0 -31 -4t-31 -14l-43 99q62 41 143 41q79 0 123.5 -40.5t44.5 -117.5q0 -10 -2 -34l-4 -31l-17 -121h-1l-6 -49q-1 -4 -1 -13
q0 -19 10.5 -29t29.5 -10q18 0 31 4t31 14z" />
    <glyph glyph-name="uni0247" unicode="&#x247;" horiz-adv-x="495" 
d="M462 494.5q33 -37.5 33 -89.5q0 -90 -70.5 -138t-185.5 -66l-32 -85q19 -10 51 -10q29 0 56.5 11t63.5 36l58 -98q-94 -73 -203 -73q-38 0 -73 8l-25 -65l-51 14l27 71q-45 25 -69 72.5t-24 113.5q0 92 31 173t96.5 131.5t164.5 50.5h5l19 51l51 -15l-16 -42
q60 -13 93 -50.5zM213 390q-23 -44 -33 -106q24 2 36 4l59 157q-39 -11 -62 -55zM346 401q0 28 -17 39l-51 -136q68 29 68 97zM180 193l-8 -1v-1q0 -11 1 -17z" />
    <glyph glyph-name="uni1EBD" unicode="&#x1ebd;" horiz-adv-x="495" 
d="M445.5 510q49.5 -41 49.5 -105q0 -180 -311 -213v-1q0 -45 19 -65t55 -20q29 0 56.5 11t63.5 36l58 -98q-93 -73 -206 -73q-102 0 -157 56t-55 159q0 91 31 172t96.5 131.5t164.5 50.5q86 0 135.5 -41zM298 329.5q32 30.5 32 70.5q0 39 -38 39t-62.5 -41.5t-36.5 -104.5
q73 6 105 36.5zM339.5 638q-13.5 7 -31.5 19q-3 2 -11 7.5t-14.5 8t-12.5 2.5q-15 0 -26.5 -10.5t-26.5 -33.5l-74 42q26 54 61.5 88t74.5 34q20 0 35 -7t32 -20q11 -9 19 -13t16 -4q14 0 25.5 10.5t25.5 32.5l74 -41q-26 -54 -62 -88t-74 -34q-17 0 -30.5 7z" />
    <glyph glyph-name="uni01DD" unicode="&#x1dd;" horiz-adv-x="495" 
d="M422 494q55 -56 55 -159q0 -91 -31 -172t-96.5 -131.5t-164.5 -50.5q-86 0 -135.5 41t-49.5 105q0 180 311 213v1q0 45 -19 65t-55 20q-29 0 -56.5 -11t-63.5 -36l-58 98q93 73 206 73q102 0 157 -56zM265.5 134.5q24.5 41.5 36.5 104.5q-73 -6 -105 -36.5t-32 -70.5
q0 -39 38 -39t62.5 41.5z" />
    <glyph glyph-name="uni0259" unicode="&#x259;" horiz-adv-x="495" 
d="M422 494q55 -56 55 -159q0 -91 -31 -172t-96.5 -131.5t-164.5 -50.5q-86 0 -135.5 41t-49.5 105q0 180 311 213v1q0 45 -19 65t-55 20q-29 0 -56.5 -11t-63.5 -36l-58 98q93 73 206 73q102 0 157 -56zM265.5 134.5q24.5 41.5 36.5 104.5q-73 -6 -105 -36.5t-32 -70.5
q0 -39 38 -39t62.5 41.5z" />
    <glyph glyph-name="uni025A" unicode="&#x25a;" horiz-adv-x="752" 
d="M774 342q-52 -36 -118 -36q-62 0 -93.5 30t-36.5 81l-1 13l-54 -33q6 -30 6 -65q-1 -91 -32.5 -171t-96.5 -130t-163 -50q-86 0 -135.5 41t-49.5 105q0 180 311 213v1q0 45 -19 65t-55 20q-29 0 -56.5 -11t-63.5 -36l-58 98q93 73 207 73q57 0 100 -18.5t70 -53.5l95 54
h135l-9 -65q-1 -4 -1 -12q0 -17 9.5 -26t25.5 -9q14 0 24.5 3t27.5 10zM265.5 134.5q24.5 41.5 36.5 104.5q-73 -6 -105 -36.5t-32 -70.5q0 -39 38 -39t62.5 41.5z" />
    <glyph glyph-name="uni0292" unicode="&#x292;" horiz-adv-x="463" 
d="M440 417l-185 -206q81 -8 122.5 -50t41.5 -117q0 -81 -37 -141.5t-101 -93.5t-144 -33q-138 0 -207 106l99 82q28 -31 53 -45t57 -14q49 0 79 36t30 100q0 42 -21.5 59t-64.5 17h-88l13 96l171 194h-217l18 125h397z" />
    <glyph glyph-name="uni01EF" unicode="&#x1ef;" horiz-adv-x="463" 
d="M440 417l-185 -206q81 -8 122.5 -50t41.5 -117q0 -81 -37 -141.5t-101 -93.5t-144 -33q-138 0 -207 106l99 82q28 -31 53 -45t57 -14q49 0 79 36t30 100q0 42 -21.5 59t-64.5 17h-88l13 96l171 194h-217l18 125h397zM413 817l54 -67l-148 -141h-101l-108 141l62 67
l107 -94z" />
    <glyph glyph-name="uni0293" unicode="&#x293;" horiz-adv-x="463" 
d="M441 417l-181 -198q77 -8 118.5 -50.5t41.5 -118.5q0 -93 -49.5 -159.5t-136.5 -94.5l18 -60l-83 -28l-18 71q-28 -2 -43 -2q-79 0 -126 36.5t-47 102.5q0 44 18.5 76.5t49 49.5t65.5 17q50 0 78 -29.5t48 -101.5v-2q55 33 55 121q0 42 -22 59.5t-69 17.5h-84l1 1l12 91
l173 191h-218l17 125h398zM59.5 -85.5q13.5 -8.5 48.5 -8.5h11q-11 39 -20 53t-25 14q-13 0 -20.5 -9t-7.5 -24q0 -17 13.5 -25.5z" />
    <glyph glyph-name="uni01B9" unicode="&#x1b9;" horiz-adv-x="465" 
d="M459 407h-226l127 -197l-13 -93l-2 1l1 -1h-87q-53 0 -83 -32.5t-30 -91.5q0 -44 20 -65.5t56 -21.5q33 0 63.5 14t66.5 46l74 -87q-91 -102 -232 -102q-104 0 -163 56t-59 148q0 100 61.5 162.5t169.5 70.5l-139 203l16 115h398z" />
    <glyph glyph-name="uni01BA" unicode="&#x1ba;" horiz-adv-x="463" 
d="M10.5 -165.5q-35.5 35.5 -35.5 82.5q0 62 44 96t129 56q62 15 86.5 32t24.5 46q0 21 -14 30t-48 9h-111l13 89l149 139h-212l18 118h397l-15 -108l-162 -144h12q67 0 105 -33.5t38 -93.5q0 -82 -52.5 -126t-146.5 -67q-45 -11 -68 -19.5t-30.5 -16.5t-7.5 -19t7 -20
t22 -18l-46 -91q-61 23 -96.5 58.5z" />
    <glyph glyph-name="f" unicode="f" horiz-adv-x="326" 
d="M296 620q-16 -17 -22 -55l-5 -33h112l-35 -117h-93l-48 -352q-12 -88 -46.5 -143.5t-83 -86.5t-118.5 -56l-39 122q56 22 83 55t37 102l49 359h-65l16 117h65l6 43q11 83 66.5 134.5t148.5 51.5q81 0 143 -45l-59 -99q-33 20 -68 20q-28 0 -44 -17z" />
    <glyph glyph-name="uni1E1F" unicode="&#x1e1f;" horiz-adv-x="326" 
d="M296 620q-16 -17 -22 -55l-5 -33h112l-35 -117h-93l-48 -352q-12 -88 -46.5 -143.5t-83 -86.5t-118.5 -56l-39 122q56 22 83 55t37 102l49 359h-65l16 117h65l6 43q11 83 66.5 134.5t148.5 51.5q81 0 143 -45l-59 -99q-33 20 -68 20q-28 0 -44 -17zM259 824.5
q-23 22.5 -23 59.5q0 46 31 76.5t76 30.5q40 0 63 -22.5t23 -59.5q0 -46 -31 -76.5t-76 -30.5q-40 0 -63 22.5z" />
    <glyph glyph-name="uni02A9" unicode="&#x2a9;" horiz-adv-x="788" 
d="M740 518q29 -33 29 -92q0 -16 -3 -36l-55 -390l-5 -36q-14 -93 -71.5 -140t-145.5 -47q-79 0 -132 44l68 97q18 -11 30 -15t28 -4q23 0 37 13.5t17 39.5l7 48l49 356q1 7 1 19q0 29 -19 29q-18 0 -38 -27t-46 -82l-42 -295h-167l58 415h-87l-48 -352
q-12 -88 -46.5 -143.5t-83 -86.5t-118.5 -56l-39 122q56 22 83 55t37 102l49 359h-65l16 117h65l6 43q11 83 66.5 134.5t148.5 51.5q81 0 143 -45l-59 -99q-33 20 -68 20q-28 0 -44 -17t-22 -55l-5 -33h233l-2 -85q31 48 72 76t88 28q51 0 80 -33z" />
    <glyph glyph-name="g" unicode="g" horiz-adv-x="525" 
d="M518 496l-65 -460q-20 -136 -83.5 -198t-184.5 -62q-50 0 -99 15.5t-89 42.5l57 108q67 -38 127 -38q43 0 70.5 22t35.5 83l8 57q-51 -66 -125 -66q-73 0 -112.5 53t-39.5 144t30 171t96.5 131.5t170.5 51.5q106 0 203 -55zM217 360q-29 -71 -29 -163q0 -40 11 -56.5
t32 -16.5q36 0 77 62l34 239q-19 6 -38 6q-58 0 -87 -71z" />
    <glyph glyph-name="uni01F5" unicode="&#x1f5;" horiz-adv-x="525" 
d="M518 496l-65 -460q-20 -136 -83.5 -198t-184.5 -62q-50 0 -99 15.5t-89 42.5l57 108q67 -38 127 -38q43 0 70.5 22t35.5 83l8 57q-51 -66 -125 -66q-73 0 -112.5 53t-39.5 144t30 171t96.5 131.5t170.5 51.5q106 0 203 -55zM217 360q-29 -71 -29 -163q0 -40 11 -56.5
t32 -16.5q36 0 77 62l34 239q-19 6 -38 6q-58 0 -87 -71zM416 838l54 -123l-233 -95l-40 82z" />
    <glyph glyph-name="uni0263" unicode="&#x263;" horiz-adv-x="466" 
d="M293 84q21 -47 31 -83.5t10 -73.5q0 -72 -41.5 -111t-119.5 -39q-62 0 -95.5 30t-33.5 79q0 45 22.5 91t68.5 110l1 1l-108 444h177l25 -338l109 338h174l-220 -447v-1zM207 -109q8 11 8 31q0 27 -14 73q-37 -61 -37 -93q0 -22 20 -22q15 0 23 11z" />
    <glyph glyph-name="gbreve" unicode="&#x11f;" horiz-adv-x="525" 
d="M518 496l-65 -460q-20 -136 -83.5 -198t-184.5 -62q-50 0 -99 15.5t-89 42.5l57 108q67 -38 127 -38q43 0 70.5 22t35.5 83l8 57q-51 -66 -125 -66q-73 0 -112.5 53t-39.5 144t30 171t96.5 131.5t170.5 51.5q106 0 203 -55zM217 360q-29 -71 -29 -163q0 -40 11 -56.5
t32 -16.5q36 0 77 62l34 239q-19 6 -38 6q-58 0 -87 -71zM216 675.5q-36 45.5 -36 116.5l1 20l88 13q2 -37 17.5 -57t44.5 -20q30 0 52 21t34 58l85 -19q-15 -78 -61.5 -128t-118.5 -50q-70 0 -106 45.5z" />
    <glyph glyph-name="gcaron" unicode="&#x1e7;" horiz-adv-x="525" 
d="M518 496l-65 -460q-20 -136 -83.5 -198t-184.5 -62q-50 0 -99 15.5t-89 42.5l57 108q67 -38 127 -38q43 0 70.5 22t35.5 83l8 57q-51 -66 -125 -66q-73 0 -112.5 53t-39.5 144t30 171t96.5 131.5t170.5 51.5q106 0 203 -55zM217 360q-29 -71 -29 -163q0 -40 11 -56.5
t32 -16.5q36 0 77 62l34 239q-19 6 -38 6q-58 0 -87 -71zM465 817l54 -67l-148 -141h-101l-108 141l62 67l107 -94z" />
    <glyph glyph-name="gcircumflex" unicode="&#x11d;" horiz-adv-x="525" 
d="M518 496l-65 -460q-20 -136 -83.5 -198t-184.5 -62q-50 0 -99 15.5t-89 42.5l57 108q67 -38 127 -38q43 0 70.5 22t35.5 83l8 57q-51 -66 -125 -66q-73 0 -112.5 53t-39.5 144t30 171t96.5 131.5t170.5 51.5q106 0 203 -55zM217 360q-29 -71 -29 -163q0 -40 11 -56.5
t32 -16.5q36 0 77 62l34 239q-19 6 -38 6q-58 0 -87 -71zM205 619l-54 67l148 141h100l113 -145l-69 -63l-106 94z" />
    <glyph glyph-name="gcommaaccent" unicode="&#x123;" horiz-adv-x="525" 
d="M518 496l-65 -460q-20 -136 -83.5 -198t-184.5 -62q-50 0 -99 15.5t-89 42.5l57 108q67 -38 127 -38q43 0 70.5 22t35.5 83l8 57q-51 -66 -125 -66q-73 0 -112.5 53t-39.5 144t30 171t96.5 131.5t170.5 51.5q106 0 203 -55zM217 360q-29 -71 -29 -163q0 -40 11 -56.5
t32 -16.5q36 0 77 62l34 239q-19 6 -38 6q-58 0 -87 -71zM266.5 607q-20.5 20 -20.5 51q0 24 8 44t29 55l57 94h80l-42 -117q29 -19 29 -54q0 -41 -25 -67t-62 -26q-33 0 -53.5 20z" />
    <glyph glyph-name="gdotaccent" unicode="&#x121;" horiz-adv-x="525" 
d="M518 496l-65 -460q-20 -136 -83.5 -198t-184.5 -62q-50 0 -99 15.5t-89 42.5l57 108q67 -38 127 -38q43 0 70.5 22t35.5 83l8 57q-51 -66 -125 -66q-73 0 -112.5 53t-39.5 144t30 171t96.5 131.5t170.5 51.5q106 0 203 -55zM217 360q-29 -71 -29 -163q0 -40 11 -56.5
t32 -16.5q36 0 77 62l34 239q-19 6 -38 6q-58 0 -87 -71zM263 649.5q-23 22.5 -23 59.5q0 46 31 76.5t76 30.5q40 0 63 -22.5t23 -59.5q0 -46 -31 -76.5t-76 -30.5q-40 0 -63 22.5z" />
    <glyph glyph-name="uni0260" unicode="&#x260;" horiz-adv-x="530" 
d="M692 722l-61 -102q-26 16 -52 16q-21 0 -32 -13t-16 -42l-7 -49l-71 -496q-20 -136 -83.5 -198t-184.5 -62q-50 0 -99 15.5t-89 42.5l57 108q67 -38 127 -38q43 0 70.5 22t35.5 83l8 57q-51 -66 -124 -66q-74 0 -113.5 53t-39.5 144q0 89 30 170t93.5 132.5t159.5 51.5
q24 0 57 -7l5 36q11 80 64 130t141 50q75 0 124 -38zM308 186l34 240q-22 5 -38 5q-58 0 -87 -71t-29 -163q0 -40 11 -56.5t32 -16.5q36 0 77 62z" />
    <glyph glyph-name="uni01BE" unicode="&#x1be;" horiz-adv-x="460" 
d="M433 264q0 -82 -34 -146t-94 -100t-137 -36q-124 0 -200 95l91 81q24 -27 47 -39t51 -12q49 0 76.5 41.5t27.5 111.5q0 49 -20 77t-65 41l-42 10l19 139h-59l14 96h58l17 120l168 17l-19 -137h89l-14 -96h-88l-13 -90l24 -10q103 -42 103 -163z" />
    <glyph glyph-name="uni0294" unicode="&#x294;" horiz-adv-x="449" 
d="M130 355l31 11q67 26 98 70t31 114q0 43 -17.5 64.5t-50.5 21.5q-28 0 -53.5 -13t-56.5 -40l-70 86q50 47 100 69t115 22q95 0 153.5 -55t58.5 -149t-38.5 -152.5t-118.5 -90.5l-22 -8l-42 -305h-167z" />
    <glyph glyph-name="uni0296" unicode="&#x296;" horiz-adv-x="460" 
d="M351 760l-45 -323l24 -10q103 -42 103 -163q0 -82 -34 -146t-94 -100t-137 -36q-124 0 -200 95l91 81q24 -27 47 -39t51 -12q49 0 76.5 41.5t27.5 111.5q0 49 -20 77t-65 41l-42 10l49 355z" />
    <glyph glyph-name="uni0295" unicode="&#x295;" horiz-adv-x="444" 
d="M123 0l42 306l-17 10q-49 28 -73.5 64t-24.5 100q0 80 35 144t96 100t137 36q63 0 110 -23.5t86 -70.5l-90 -81q-24 26 -47 38.5t-51 12.5q-47 0 -76.5 -41t-29.5 -112q0 -46 21 -73.5t67 -45.5l31 -11l-49 -353h-167z" />
    <glyph glyph-name="uni0242" unicode="&#x242;" horiz-adv-x="423" 
d="M92 204l39 13q56 18 84 50.5t28 87.5q0 33 -14.5 51.5t-40.5 18.5q-25 0 -47 -12t-48 -35l-67 87q43 42 90.5 63.5t105.5 21.5q86 0 139 -50.5t53 -132.5q0 -155 -133 -204l-29 -10l-21 -153h-167z" />
    <glyph glyph-name="uni02A1" unicode="&#x2a1;" horiz-adv-x="449" 
d="M290 305l-11 -82h85l-13 -96h-86l-17 -127h-167l18 127h-60l13 96h60l18 132l31 11q67 26 98 70t31 114q0 43 -17.5 64.5t-50.5 21.5q-28 0 -53.5 -13t-56.5 -40l-70 86q50 47 100 69t115 22q95 0 153.5 -55t58.5 -149t-38.5 -152.5t-118.5 -90.5z" />
    <glyph glyph-name="uni02A2" unicode="&#x2a2;" horiz-adv-x="444" 
d="M428 736.5q47 -23.5 86 -70.5l-90 -81q-24 26 -47 38.5t-51 12.5q-47 0 -76.5 -41t-29.5 -112q0 -46 21 -73.5t67 -45.5l31 -11l-18 -130h60l-13 -96h-60l-18 -127h-167l17 127h-85l14 96h85l11 83l-17 10q-49 28 -73.5 64t-24.5 100q0 80 35 144t96 100t137 36
q63 0 110 -23.5z" />
    <glyph glyph-name="uni0261" unicode="&#x261;" horiz-adv-x="525" 
d="M518 496l-65 -460q-20 -136 -83.5 -198t-184.5 -62q-50 0 -99 15.5t-89 42.5l57 108q67 -38 127 -38q43 0 70.5 22t35.5 83l8 57q-51 -66 -125 -66q-73 0 -112.5 53t-39.5 144t30 171t96.5 131.5t170.5 51.5q106 0 203 -55zM217 360q-29 -71 -29 -163q0 -40 11 -56.5
t32 -16.5q36 0 77 62l34 239q-19 6 -38 6q-58 0 -87 -71z" />
    <glyph glyph-name="uni01E5" unicode="&#x1e5;" horiz-adv-x="517" 
d="M447 1h48l-8 -63h-57q-29 -83 -88.5 -122.5t-154.5 -39.5q-51 0 -100 15t-90 43l54 101q66 -39 130 -39q65 0 88 42h-96l8 63h105l13 90q-52 -66 -126 -66q-73 0 -113 53.5t-40 142.5q0 81 30 156t96.5 124.5t168.5 49.5q107 0 203 -55l-65 -460zM273 166.5
q21 16.5 39 44.5l30 214q-18 6 -38 6q-38 0 -63.5 -32t-37.5 -80t-12 -97q0 -72 42 -72q19 0 40 16.5z" />
    <glyph glyph-name="uni021D" unicode="&#x21d;" horiz-adv-x="442" 
d="M369 513.5q49 -37.5 49 -103.5q0 -103 -132 -137q58 0 89 -25.5t31 -71.5q0 -104 -101.5 -176t-293.5 -110l1 113q114 38 168 77.5t54 93.5q0 35 -46 35h-80l26 107h41q34 0 53 19t19 54q0 23 -12 34t-34 11q-24 0 -46.5 -8t-51.5 -25l-62 89q46 31 93.5 46t103.5 15
q82 0 131 -37.5z" />
    <glyph glyph-name="h" unicode="h" horiz-adv-x="510" 
d="M463 518q29 -33 29 -92q0 -16 -3 -36l-55 -390h-167l49 356q1 7 1 19q0 29 -19 29q-18 0 -38.5 -27t-46.5 -82l-41 -295h-167l104 743l169 17l-42 -307q25 43 63 70.5t84 27.5q51 0 80 -33z" />
    <glyph glyph-name="hbar" unicode="&#x127;" horiz-adv-x="519" 
d="M472 518q29 -33 29 -92q0 -16 -3 -36l-55 -390h-167l49 356q1 7 1 19q0 29 -19 29q-18 0 -38.5 -27t-46.5 -82l-41 -295h-167l83 594h-47l14 96h47l7 53l169 17l-10 -70h119l-27 -96h-105l-19 -141q25 43 63 70.5t84 27.5q51 0 80 -33z" />
    <glyph glyph-name="uni021F" unicode="&#x21f;" horiz-adv-x="510" 
d="M463 518q29 -33 29 -92q0 -16 -3 -36l-55 -390h-167l49 356q1 7 1 19q0 29 -19 29q-18 0 -38.5 -27t-46.5 -82l-41 -295h-167l104 743l169 17l-42 -307q25 43 63 70.5t84 27.5q51 0 80 -33zM471 998l56 -67l-147 -133h-101l-113 138l65 62l110 -85z" />
    <glyph glyph-name="hcircumflex" unicode="&#x125;" horiz-adv-x="510" 
d="M463 518q29 -33 29 -92q0 -16 -3 -36l-55 -390h-167l49 356q1 7 1 19q0 29 -19 29q-18 0 -38.5 -27t-46.5 -82l-41 -295h-167l104 743l169 17l-42 -307q25 43 63 70.5t84 27.5q51 0 80 -33zM209 804l-57 67l148 133h100l113 -137l-65 -63l-109 86z" />
    <glyph glyph-name="uni1E25" unicode="&#x1e25;" horiz-adv-x="510" 
d="M463 518q29 -33 29 -92q0 -16 -3 -36l-55 -390h-167l49 356q1 7 1 19q0 29 -19 29q-18 0 -38.5 -27t-46.5 -82l-41 -295h-167l104 743l169 17l-42 -307q25 43 63 70.5t84 27.5q51 0 80 -33zM271 -80.5q23 -22.5 23 -59.5q0 -46 -31 -76.5t-76 -30.5q-40 0 -63 22.5
t-23 59.5q0 46 31 76.5t76 30.5q40 0 63 -22.5z" />
    <glyph glyph-name="uni0267" unicode="&#x267;" horiz-adv-x="510" 
d="M463 518q29 -33 29 -92q0 -16 -3 -36l-55 -390h-1l-5 -36q-14 -93 -71.5 -140t-145.5 -47q-79 0 -132 44l68 97q18 -11 30 -15t28 -4q23 0 37 13.5t17 39.5l7 48h1l51 356q1 7 1 18q0 30 -20 30q-18 0 -38.5 -27t-46.5 -82l-42 -295h-167l75 531l7 54q12 79 67.5 127
t148.5 48q38 0 73.5 -9.5t61.5 -25.5l-59 -106q-33 17 -67 17q-26 0 -40.5 -15t-18.5 -49l-6 -41l-10 -78q24 42 61.5 70t82.5 28q53 0 82 -33z" />
    <glyph glyph-name="uni0266" unicode="&#x266;" horiz-adv-x="510" 
d="M463 518q29 -33 29 -92q0 -16 -3 -36l-55 -390h-167l51 356q1 7 1 18q0 30 -20 30q-18 0 -38.5 -27t-46.5 -82l-42 -295h-167l75 531l7 54q12 79 67.5 127t148.5 48q38 0 73.5 -9.5t61.5 -25.5l-59 -106q-33 17 -67 17q-26 0 -40.5 -15t-18.5 -49l-6 -41l-10 -78
q24 42 61.5 70t82.5 28q53 0 82 -33z" />
    <glyph glyph-name="uni0265" unicode="&#x265;" horiz-adv-x="507" 
d="M275 69q-60 -87 -144 -87q-52 0 -82.5 33.5t-30.5 91.5q0 16 3 34l55 391h167l-51 -359q-1 -6 -1 -17q0 -16 5 -23t16 -7q18 0 39.5 22.5t41.5 59.5l45 324h167l-104 -739l-167 -17z" />
    <glyph glyph-name="uni02AE" unicode="&#x2ae;" horiz-adv-x="624" 
d="M622 532l-103 -739l-168 -17l41 293q-60 -87 -144 -87q-53 0 -82.5 33.5t-29.5 93.5q0 10 2 32l24 186l6 49q1 4 1 13q0 19 -10.5 29t-29.5 10q-18 0 -31 -4t-31 -14l-43 99q62 41 143 41q79 0 123.5 -40.5t44.5 -117.5q0 -10 -2 -34l-4 -31l-19 -154q-1 -7 -1 -18
q0 -29 20 -29q18 0 39.5 22.5t41.5 59.5l45 324h167z" />
    <glyph glyph-name="uni02AF" unicode="&#x2af;" horiz-adv-x="624" 
d="M685 -182q-61 -41 -143 -41q-79 0 -123.5 40.5t-44.5 117.5q0 10 2 34l4 31h1l9 65q-61 -83 -142 -83q-53 0 -82.5 33.5t-29.5 93.5q0 10 2 32l24 186l6 49q1 4 1 13q0 19 -10.5 29t-29.5 10q-18 0 -31 -4t-31 -14l-43 99q62 41 143 41q79 0 123.5 -40.5t44.5 -117.5
q0 -10 -2 -34l-4 -31l-19 -154q-1 -7 -1 -18q0 -29 20 -29q18 0 39.5 22.5t41.5 59.5l45 324h167l-74 -532h-1l-6 -49q-1 -4 -1 -13q0 -19 10.5 -29t29.5 -10q18 0 31 4t31 14z" />
    <glyph glyph-name="uni0195" unicode="&#x195;" horiz-adv-x="770" 
d="M334 28q-45 46 -45 114q0 9 2 29l25 185q1 7 1 19q0 29 -19 29q-18 0 -38 -27t-46 -82l-42 -295h-167l104 743l169 17l-42 -307q25 43 63 70.5t84 27.5q51 0 80 -33t29 -92q0 -16 -3 -36l-31 -221q-2 -16 -2 -22q0 -41 33 -41q56 0 78.5 106.5t22.5 231.5q0 46 -3 88h158
q6 -48 6 -101q0 -138 -22.5 -235.5t-84.5 -155.5t-174 -58q-91 0 -136 46z" />
    <glyph glyph-name="i" unicode="i" horiz-adv-x="254" 
d="M247 532l-74 -532h-167l74 532h167zM117 649.5q-23 22.5 -23 59.5q0 46 31 76.5t76 30.5q40 0 63 -22.5t23 -59.5q0 -46 -31 -76.5t-76 -30.5q-40 0 -63 22.5z" />
    <glyph glyph-name="dotlessi" unicode="&#x131;" horiz-adv-x="254" 
d="M247 532l-74 -532h-167l74 532h167z" />
    <glyph glyph-name="iacute" unicode="&#xed;" horiz-adv-x="254" 
d="M247 532l-74 -532h-167l74 532h167zM270 838l54 -123l-233 -95l-40 82z" />
    <glyph glyph-name="ibreve" unicode="&#x12d;" horiz-adv-x="254" 
d="M247 532l-74 -532h-167l74 532h167zM70 675.5q-36 45.5 -36 116.5l1 20l88 13q2 -37 17.5 -57t44.5 -20q30 0 52 21t34 58l85 -19q-15 -78 -61.5 -128t-118.5 -50q-70 0 -106 45.5z" />
    <glyph glyph-name="uni01D0" unicode="&#x1d0;" horiz-adv-x="254" 
d="M247 532l-74 -532h-167l74 532h167zM319 817l54 -67l-148 -141h-101l-108 141l62 67l107 -94z" />
    <glyph glyph-name="icircumflex" unicode="&#xee;" horiz-adv-x="254" 
d="M247 532l-74 -532h-167l74 532h167zM59 619l-54 67l148 141h100l113 -145l-69 -63l-106 94z" />
    <glyph glyph-name="uni0209" unicode="&#x209;" horiz-adv-x="254" 
d="M247 532l-74 -532h-167l74 532h167zM91 865l64 -203l-90 -38l-91 190zM256 865l56 -204l-90 -33l-84 190z" />
    <glyph glyph-name="idieresis" unicode="&#xef;" horiz-adv-x="254" 
d="M247 532l-74 -532h-167l74 532h167zM18 659q-20 20 -20 52q0 40 27 66.5t66 26.5q34 0 54 -19.5t20 -52.5q0 -40 -27 -66.5t-66 -26.5q-34 0 -54 20zM234 659q-20 20 -20 52q0 40 27 66.5t66 26.5q34 0 54 -19.5t20 -52.5q0 -40 -27 -66.5t-66 -26.5q-34 0 -54 20z" />
    <glyph glyph-name="uni1E2F" unicode="&#x1e2f;" horiz-adv-x="254" 
d="M247 532l-74 -532h-167l74 532h167zM275 960l80 -86l-172 -146l-57 54zM-4 617q-20 20 -20 52q0 40 27 67t66 27q34 0 54 -20t20 -52q0 -40 -27 -67t-66 -27q-34 0 -54 20zM227 617q-20 20 -20 52q0 40 27 67t66 27q34 0 54 -20t20 -52q0 -40 -27 -67t-66 -27
q-34 0 -54 20z" />
    <glyph glyph-name="i.loclTRK" horiz-adv-x="254" 
d="M247 532l-74 -532h-167l74 532h167zM117 649.5q-23 22.5 -23 59.5q0 46 31 76.5t76 30.5q40 0 63 -22.5t23 -59.5q0 -46 -31 -76.5t-76 -30.5q-40 0 -63 22.5z" />
    <glyph glyph-name="uni1ECB" unicode="&#x1ecb;" horiz-adv-x="254" 
d="M247 532l-74 -532h-167l74 532h167zM117 649.5q-23 22.5 -23 59.5q0 46 31 76.5t76 30.5q40 0 63 -22.5t23 -59.5q0 -46 -31 -76.5t-76 -30.5q-40 0 -63 22.5zM141 -80.5q23 -22.5 23 -59.5q0 -46 -31 -76.5t-76 -30.5q-40 0 -63 22.5t-23 59.5q0 46 31 76.5t76 30.5
q40 0 63 -22.5z" />
    <glyph glyph-name="igrave" unicode="&#xec;" horiz-adv-x="254" 
d="M247 532l-74 -532h-167l74 532h167zM142 837l186 -138l-48 -77l-211 93z" />
    <glyph glyph-name="uni1EC9" unicode="&#x1ec9;" horiz-adv-x="254" 
d="M247 532l-74 -532h-167l74 532h167zM140 704q36 2 52.5 12t16.5 31q0 13 -7 18.5t-23 5.5q-23 0 -54 -13l-17 70q45 25 100 25q53 0 82 -26.5t29 -69.5q0 -42 -24 -67.5t-67 -34.5l-7 -51h-94z" />
    <glyph glyph-name="uni020B" unicode="&#x20b;" horiz-adv-x="254" 
d="M247 532l-74 -532h-167l74 532h167zM12 616q18 79 65.5 129t121.5 50q75 0 110.5 -51.5t30.5 -129.5l-91 -13q-5 76 -62 76q-59 0 -87 -79z" />
    <glyph glyph-name="ij" unicode="&#x133;" horiz-adv-x="507" 
d="M247 532l-74 -532h-167l74 532h167zM117 649.5q-23 22.5 -23 59.5q0 46 31 76.5t76 30.5q40 0 63 -22.5t23 -59.5q0 -46 -31 -76.5t-76 -30.5q-40 0 -63 22.5zM149 -102q56 23 83 56.5t36 101.5l66 476h168l-66 -469q-13 -88 -47.5 -143.5t-83 -86.5t-117.5 -56z
M371 649.5q-23 22.5 -23 59.5q0 46 31 76.5t76 30.5q40 0 63 -22.5t23 -59.5q0 -46 -31 -76.5t-76 -30.5q-40 0 -63 22.5z" />
    <glyph glyph-name="imacron" unicode="&#x12b;" horiz-adv-x="254" 
d="M247 532l-74 -532h-167l74 532h167zM322 653h-283l17 117h283z" />
    <glyph glyph-name="iogonek" unicode="&#x12f;" horiz-adv-x="254" 
d="M264 793.5q23 -22.5 23 -59.5q0 -46 -31 -76.5t-76 -30.5q-40 0 -63 22.5t-23 59.5q0 46 31 76.5t76 30.5q40 0 63 -22.5zM80 532h167l-74 -532h-38q-68 -27 -93 -56t-25 -56q0 -33 40 -33q25 0 53 6l-23 -101q-30 -8 -65 -8q-55 0 -90 29.5t-35 80.5q0 92 111 150z" />
    <glyph glyph-name="uni0269" unicode="&#x269;" horiz-adv-x="267" 
d="M75 532h166l-52 -385l-1 -9q0 -21 19 -21q10 0 19 3l15 -118q-45 -20 -99 -20q-60 0 -92 32t-32 89q0 16 3 34z" />
    <glyph glyph-name="uni0268" unicode="&#x268;" horiz-adv-x="305" 
d="M143 649.5q-23 22.5 -23 59.5q0 46 31 76.5t76 30.5q40 0 63 -22.5t23 -59.5q0 -46 -31 -76.5t-76 -30.5q-40 0 -63 22.5zM273 532l-27 -192h66l-18 -117h-64l-31 -223h-167l31 223h-66l18 117h64l27 192h167z" />
    <glyph glyph-name="itilde" unicode="&#x129;" horiz-adv-x="254" 
d="M247 532l-74 -532h-167l74 532h167zM204.5 638q-13.5 7 -31.5 19q-3 2 -11 7.5t-14.5 8t-12.5 2.5q-15 0 -26.5 -10.5t-26.5 -33.5l-74 42q26 54 61.5 88t74.5 34q20 0 35 -7t32 -20q11 -9 19 -13t16 -4q14 0 25.5 10.5t25.5 32.5l74 -41q-26 -54 -62 -88t-74 -34
q-17 0 -30.5 7z" />
    <glyph glyph-name="j" unicode="j" horiz-adv-x="253" 
d="M-105 -102q56 23 83 56.5t36 101.5l66 476h168l-66 -469q-13 -88 -47.5 -143.5t-83 -86.5t-117.5 -56zM117 649.5q-23 22.5 -23 59.5q0 46 31 76.5t76 30.5q40 0 63 -22.5t23 -59.5q0 -46 -31 -76.5t-76 -30.5q-40 0 -63 22.5z" />
    <glyph glyph-name="uni0237" unicode="&#x237;" horiz-adv-x="253" 
d="M-105 -102q56 23 83 56.5t36 101.5l66 476h168l-66 -469q-13 -88 -47.5 -143.5t-83 -86.5t-117.5 -56z" />
    <glyph glyph-name="uni01F0" unicode="&#x1f0;" horiz-adv-x="253" 
d="M-105 -102q56 23 83 56.5t36 101.5l66 476h168l-66 -469q-13 -88 -47.5 -143.5t-83 -86.5t-117.5 -56zM319 817l54 -67l-148 -141h-101l-108 141l62 67l107 -94z" />
    <glyph glyph-name="jcircumflex" unicode="&#x135;" horiz-adv-x="253" 
d="M-105 -102q56 23 83 56.5t36 101.5l66 476h168l-66 -469q-13 -88 -47.5 -143.5t-83 -86.5t-117.5 -56zM59 619l-54 67l148 141h100l113 -145l-69 -63l-106 94z" />
    <glyph glyph-name="uni029D" unicode="&#x29d;" horiz-adv-x="341" 
d="M333 793.5q23 -22.5 23 -59.5q0 -46 -31 -76.5t-76 -30.5q-40 0 -63 22.5t-23 59.5q0 46 31 76.5t76 30.5q40 0 63 -22.5zM241 -8q39 -11 77 -36l-35 -67q-41 19 -61 26q-25 -69 -75 -103.5t-130 -34.5q-62 0 -96 31t-34 84q0 61 41 97t105 36q31 0 46 -3l71 510h167
l-74 -526zM48.5 -118q13.5 19 19.5 62v1q-15 3 -35 3q-26 0 -39.5 -14t-13.5 -37q0 -34 31 -34q24 0 37.5 19z" />
    <glyph glyph-name="uni025F" unicode="&#x25f;" horiz-adv-x="310" 
d="M296 192h-63l-18 -129q-13 -88 -47.5 -143.5t-83 -86.5t-117.5 -56l-39 121q56 23 83 56.5t36 101.5l19 136h-67l17 119h66l31 221h168l-31 -221h63z" />
    <glyph glyph-name="uni0284" unicode="&#x284;" horiz-adv-x="340" 
d="M452 722l-61 -102q-26 16 -52 16q-21 0 -32 -13t-16 -42l-7 -49h1l-58 -414h62l-16 -118h-67q-26 -93 -84 -141t-151 -82l-38 119q46 20 70.5 42t36.5 62h-64l17 118h67l57 414l6 48q11 80 64 130t141 50q75 0 124 -38z" />
    <glyph glyph-name="uni0249" unicode="&#x249;" horiz-adv-x="310" 
d="M296 192h-63l-18 -129q-13 -88 -47.5 -143.5t-83 -86.5t-117.5 -56l-39 121q56 23 83 56.5t36 101.5l19 136h-67l17 119h66l31 221h168l-31 -221h63zM150 649.5q-23 22.5 -23 59.5q0 46 31 76.5t76 30.5q40 0 63 -22.5t23 -59.5q0 -46 -31 -76.5t-76 -30.5
q-40 0 -63 22.5z" />
    <glyph glyph-name="k" unicode="k" horiz-adv-x="526" 
d="M239 469q36 42 75 61.5t85 19.5q61 0 97.5 -34t36.5 -90q0 -61 -31.5 -106t-97.5 -80l77 -240h-177l-72 256q73 27 102.5 61t29.5 76q0 20 -9.5 30t-25.5 10q-53 0 -110 -97l-46 -336h-168l104 743l170 17z" />
    <glyph glyph-name="uni01E9" unicode="&#x1e9;" horiz-adv-x="526" 
d="M239 469q36 42 75 61.5t85 19.5q61 0 97.5 -34t36.5 -90q0 -61 -31.5 -106t-97.5 -80l77 -240h-177l-72 256q73 27 102.5 61t29.5 76q0 20 -9.5 30t-25.5 10q-53 0 -110 -97l-46 -336h-168l104 743l170 17zM505 998l56 -67l-147 -133h-101l-113 138l65 62l110 -85z" />
    <glyph glyph-name="kcommaaccent" unicode="&#x137;" horiz-adv-x="526" 
d="M239 469q36 42 75 61.5t85 19.5q61 0 97.5 -34t36.5 -90q0 -61 -31.5 -106t-97.5 -80l77 -240h-177l-72 256q73 27 102.5 61t29.5 76q0 20 -9.5 30t-25.5 10q-53 0 -110 -97l-46 -336h-168l104 743l170 17zM275.5 -86q20.5 -20 20.5 -51q0 -24 -8 -44t-29 -55l-57 -94
h-80l42 117q-29 19 -29 54q0 41 25 67t62 26q33 0 53.5 -20z" />
    <glyph glyph-name="kgreenlandic" unicode="&#x138;" horiz-adv-x="505" 
d="M248 532l-74 -532h-168l74 532h168zM548 532l-162 -249l96 -283h-179l-87 281l158 251h174z" />
    <glyph glyph-name="uni0199" unicode="&#x199;" horiz-adv-x="526" 
d="M501.5 320q-31.5 -45 -97.5 -80l77 -240h-178l-71 256q73 27 102 61t29 76q0 40 -35 40q-52 0 -109 -97l-46 -336h-168l75 531l7 54q12 79 67.5 127t148.5 48q38 0 73.5 -9.5t61.5 -25.5l-59 -106q-33 17 -67 17q-26 0 -40.5 -15t-18.5 -49l-6 -41l-8 -62q36 42 75 61.5
t85 19.5q61 0 97.5 -34t36.5 -90q0 -61 -31.5 -106z" />
    <glyph glyph-name="uni029E" unicode="&#x29e;" horiz-adv-x="497" 
d="M-47 0l168 248l-97 284h179l81 -291l-156 -241h-175zM224 -224l105 756h167l-104 -739z" />
    <glyph glyph-name="l" unicode="l" horiz-adv-x="266" 
d="M188 147l-1 -9q0 -21 19 -21q10 0 19 3l15 -118q-45 -20 -99 -20q-60 0 -92 31.5t-32 89.5q0 16 3 34l85 606l168 17z" />
    <glyph glyph-name="lacute" unicode="&#x13a;" horiz-adv-x="266" 
d="M188 147l-1 -9q0 -21 19 -21q10 0 19 3l15 -118q-45 -20 -99 -20q-60 0 -92 31.5t-32 89.5q0 16 3 34l85 606l168 17zM298 1003l54 -123l-233 -86l-37 81z" />
    <glyph glyph-name="uni019B" unicode="&#x19b;" horiz-adv-x="481" 
d="M418 187.5q16 -82.5 51 -153.5l-161 -51q-31 77 -43 159t-12 218l-116 -378l-168 41l213 466l68 -13q-2 51 -10 84l-51 -44l-77 57l72 61q-29 15 -75 21l31 106q49 -9 85 -21.5t63 -32.5l78 62l50 -79l-69 -57h-1q35 -71 45 -213q11 -150 27 -232.5z" />
    <glyph glyph-name="uni019A" unicode="&#x19a;" horiz-adv-x="311" 
d="M218 147l-1 -9q0 -21 19 -21q10 0 19 3l15 -118q-45 -20 -99 -20q-60 0 -92 31.5t-32 89.5q0 16 3 34l25 176h-65l18 117h63l44 313l168 17l-46 -330h68l-18 -117h-66z" />
    <glyph glyph-name="uni026C" unicode="&#x26c;" horiz-adv-x="415" 
d="M336 120l15 -118q-45 -20 -99 -20q-60 0 -92 31.5t-32 89.5q0 16 3 34l14 102q-68 2 -103 32.5t-35 82.5q0 59 38.5 94t99.5 35q16 0 34 -4l37 264l168 17l-59 -429h2q26 2 62 9l2 -84q-33 -11 -76 -14h-3l-13 -95l-1 -9q0 -21 19 -21q10 0 19 3zM158 329l10 68
q-10 3 -20 3q-16 0 -25 -10.5t-9 -27.5q0 -33 44 -33z" />
    <glyph glyph-name="lcaron" unicode="&#x13e;" horiz-adv-x="346" 
d="M188 147l-1 -9q0 -21 19 -21q10 0 19 3l15 -118q-45 -20 -99 -20q-60 0 -92 31.5t-32 89.5q0 16 3 34l85 606l168 17zM316 758l119 -15l-74 -222l-84 8z" />
    <glyph glyph-name="uni1E3D" unicode="&#x1e3d;" horiz-adv-x="266" 
d="M188 147l-1 -9q0 -21 19 -21q10 0 19 3l15 -118q-45 -20 -99 -20q-60 0 -92 31.5t-32 89.5q0 16 3 34l85 606l168 17zM-26 -270l-54 67l148 141h101l112 -146l-68 -62l-106 93z" />
    <glyph glyph-name="lcommaaccent" unicode="&#x13c;" horiz-adv-x="266" 
d="M188 147l-1 -9q0 -21 19 -21q10 0 19 3l15 -118q-45 -20 -99 -20q-60 0 -92 31.5t-32 89.5q0 16 3 34l85 606l168 17zM168.5 -86q20.5 -20 20.5 -51q0 -24 -8 -44t-29 -55l-57 -94h-80l42 117q-29 19 -29 54q0 41 25 67t62 26q33 0 53.5 -20z" />
    <glyph glyph-name="uni0234" unicode="&#x234;" horiz-adv-x="438" 
d="M395 221q28 -27 28 -74q0 -80 -55 -122.5t-140 -42.5q-17 0 -43 2l-38 -70l-69 32l33 58q-43 20 -65.5 56.5t-22.5 86.5q0 18 3 36l79 560l168 17l-84 -601q-1 -6 -1 -17q27 58 58 82t76 24t73 -27zM301 113q14 11 14 30t-17 19q-13 0 -24 -12.5t-28 -47.5h18q23 0 37 11
z" />
    <glyph glyph-name="ldot" unicode="&#x140;" horiz-adv-x="435" 
d="M188 147l-1 -9q0 -21 19 -21q10 0 19 3l15 -118q-45 -20 -99 -20q-60 0 -92 31.5t-32 89.5q0 16 3 34l85 606l168 17zM279 302.5q-23 22.5 -23 59.5q0 46 31 76.5t76 30.5q40 0 63 -22.5t23 -59.5q0 -46 -31 -76.5t-76 -30.5q-40 0 -63 22.5z" />
    <glyph glyph-name="uni1E37" unicode="&#x1e37;" horiz-adv-x="266" 
d="M188 147l-1 -9q0 -21 19 -21q10 0 19 3l15 -118q-45 -20 -99 -20q-60 0 -92 31.5t-32 89.5q0 16 3 34l85 606l168 17zM182 -80.5q23 -22.5 23 -59.5q0 -46 -31 -76.5t-76 -30.5q-40 0 -63 22.5t-23 59.5q0 46 31 76.5t76 30.5q40 0 63 -22.5z" />
    <glyph glyph-name="uni026E" unicode="&#x26e;" horiz-adv-x="651" 
d="M628 417l-184 -207q80 -8 121.5 -50t41.5 -116q0 -81 -37 -141.5t-101 -93.5t-144 -33q-126 0 -196 93l96 88q24 -27 48 -39.5t54 -12.5q50 0 79.5 36t29.5 100q0 42 -21.5 59t-64.5 17h-88l13 96l171 194h-222l-36 -260l-1 -9q0 -21 19 -21q10 0 19 3l15 -118
q-45 -20 -99 -20q-60 0 -92 31.5t-32 89.5q0 16 3 34l85 606l168 17l-32 -228h403z" />
    <glyph glyph-name="uni026D" unicode="&#x26d;" horiz-adv-x="253" 
d="M310 -182q-62 -41 -143 -41q-79 0 -123.5 40.5t-44.5 117.5q0 10 2 34l4 31l105 743l168 17l-106 -760l-6 -49q-1 -4 -1 -13q0 -19 10.5 -29t29.5 -10q18 0 31 4t31 14z" />
    <glyph glyph-name="uni01C9" unicode="&#x1c9;" horiz-adv-x="519" 
d="M188 147l-1 -9q0 -21 19 -21q10 0 19 3l15 -118q-45 -20 -99 -20q-60 0 -92 31.5t-32 89.5q0 16 3 34l85 606l168 17zM161 -102q56 23 83 56.5t36 101.5l66 476h168l-66 -469q-13 -88 -47.5 -143.5t-83 -86.5t-117.5 -56zM383 649.5q-23 22.5 -23 59.5q0 46 31 76.5
t76 30.5q40 0 63 -22.5t23 -59.5q0 -46 -31 -76.5t-76 -30.5q-40 0 -63 22.5z" />
    <glyph glyph-name="uni026B" unicode="&#x26b;" horiz-adv-x="436" 
d="M279 147l-1 -9q0 -21 19 -21q10 0 19 3l15 -118q-45 -20 -99 -20q-60 0 -92 31.5t-32 89.5q0 16 3 34l27 195q-20 -1 -34 -14t-33 -39l-78 48q36 58 74.5 93.5t88.5 37.5l40 285l168 17l-50 -362q19 3 32.5 15t29.5 36l80 -48q-35 -57 -72.5 -91.5t-87.5 -37.5z" />
    <glyph glyph-name="uni02AA" unicode="&#x2aa;" horiz-adv-x="627" 
d="M92 26.5q-65 44.5 -65 140.5q0 26 4 50l74 526l169 17l-78 -552q-2 -20 -2 -27q0 -44 27 -61.5t87 -17.5q133 0 133 62q0 18 -15 31.5t-61 33.5q-58 25 -82.5 57t-24.5 87q0 50 26 90.5t72.5 64t104.5 23.5q98 0 167 -67l-70 -89q-25 17 -46.5 26t-44.5 9
q-25 0 -39 -11.5t-14 -31.5q0 -19 14.5 -32t58.5 -31q58 -23 86 -56.5t28 -87.5q0 -101 -83.5 -149.5t-232.5 -48.5q-128 0 -193 44.5z" />
    <glyph glyph-name="lslash" unicode="&#x142;" horiz-adv-x="321" 
d="M256 120l15 -118q-45 -20 -99 -20q-60 0 -92 31.5t-32 89.5q0 16 3 34l18 127l-41 -24l-27 97l85 52l50 354l168 17l-36 -261l55 33l26 -100l-99 -59l-31 -226l-1 -9q0 -21 19 -21q10 0 19 3z" />
    <glyph glyph-name="uni02AB" unicode="&#x2ab;" horiz-adv-x="655" 
d="M658 413l-234 -285h202l-34 -128h-361q-43 -18 -88 -18q-61 0 -93.5 31.5t-32.5 89.5q0 16 3 34l84 606l169 17l-85 -613q-1 -4 -1 -11q0 -10 4.5 -14.5t14.5 -4.5t19 3l233 286h-176l18 126h375z" />
    <glyph glyph-name="m" unicode="m" horiz-adv-x="747" 
d="M700 518q29 -33 29 -91q0 -18 -3 -36l-55 -391h-167l49 356q2 18 2 23q0 28 -18 28q-16 0 -33.5 -26.5t-38.5 -78.5l-43 -302h-167l49 356q2 18 2 22q0 29 -19 29q-32 0 -72 -110l-42 -297h-167l74 532h146l-2 -80q65 99 147 99q44 0 71.5 -24t34.5 -69q28 43 65 68
t79 25q50 0 79 -33z" />
    <glyph glyph-name="uni1E3F" unicode="&#x1e3f;" horiz-adv-x="747" 
d="M700 518q29 -33 29 -91q0 -18 -3 -36l-55 -391h-167l49 356q2 18 2 23q0 28 -18 28q-16 0 -33.5 -26.5t-38.5 -78.5l-43 -302h-167l49 356q2 18 2 22q0 29 -19 29q-32 0 -72 -110l-42 -297h-167l74 532h146l-2 -80q65 99 147 99q44 0 71.5 -24t34.5 -69q28 43 65 68
t79 25q50 0 79 -33zM524 838l54 -123l-233 -95l-40 82z" />
    <glyph glyph-name="uni1E41" unicode="&#x1e41;" horiz-adv-x="747" 
d="M700 518q29 -33 29 -91q0 -18 -3 -36l-55 -391h-167l49 356q2 18 2 23q0 28 -18 28q-16 0 -33.5 -26.5t-38.5 -78.5l-43 -302h-167l49 356q2 18 2 22q0 29 -19 29q-32 0 -72 -110l-42 -297h-167l74 532h146l-2 -80q65 99 147 99q44 0 71.5 -24t34.5 -69q28 43 65 68
t79 25q50 0 79 -33zM371 649.5q-23 22.5 -23 59.5q0 46 31 76.5t76 30.5q40 0 63 -22.5t23 -59.5q0 -46 -31 -76.5t-76 -30.5q-40 0 -63 22.5z" />
    <glyph glyph-name="uni0271" unicode="&#x271;" horiz-adv-x="747" 
d="M700 518q29 -33 29 -91q0 -18 -3 -36l-55 -391h-1l-5 -36q-14 -93 -71.5 -140t-145.5 -47q-79 0 -132 44l68 97q18 -11 30 -15t28 -4q23 0 37 13.5t17 39.5l7 48h1l49 356q2 18 2 23q0 28 -18 28q-16 0 -33.5 -26.5t-38.5 -78.5l-43 -302h-167l49 356q2 18 2 22
q0 29 -19 29q-32 0 -72 -110l-42 -297h-167l74 532h146l-2 -80q65 99 147 99q44 0 71.5 -24t34.5 -69q28 43 65 68t79 25q50 0 79 -33z" />
    <glyph glyph-name="uni0270" unicode="&#x270;" horiz-adv-x="743" 
d="M741 532l-103 -739l-169 -17l40 288q-25 -37 -59 -59.5t-73 -22.5q-41 0 -70 24t-37 68q-30 -43 -66.5 -67.5t-75.5 -24.5q-51 0 -80.5 33t-29.5 91q0 17 3 36l55 390h167l-50 -355q-2 -18 -2 -22q0 -29 19 -29q16 0 34.5 24.5t37.5 69.5l44 312h167l-51 -355
q-2 -18 -2 -22q0 -29 19 -29q16 0 35.5 26t37.5 73l42 307h167z" />
    <glyph glyph-name="uni026F" unicode="&#x26f;" horiz-adv-x="747" 
d="M741 532l-74 -532h-146l2 80q-65 -99 -147 -99q-44 0 -71.5 24t-34.5 69q-28 -43 -65 -68t-79 -25q-50 0 -79 33t-29 91q0 18 3 36l55 391h167l-49 -356q-2 -18 -2 -23q0 -28 18 -28q16 0 33.5 26.5t38.5 78.5l43 302h167l-49 -356q-2 -18 -2 -22q0 -29 19 -29
q32 0 72 110l42 297h167z" />
    <glyph glyph-name="n" unicode="n" horiz-adv-x="511" 
d="M464 518q29 -33 29 -92q0 -16 -3 -36l-55 -390h-167l49 356q1 7 1 19q0 29 -19 29q-18 0 -38 -27t-46 -82l-42 -295h-167l74 532h146l-2 -85q31 48 72 76t88 28q51 0 80 -33z" />
    <glyph glyph-name="nacute" unicode="&#x144;" horiz-adv-x="511" 
d="M464 518q29 -33 29 -92q0 -16 -3 -36l-55 -390h-167l49 356q1 7 1 19q0 29 -19 29q-18 0 -38 -27t-46 -82l-42 -295h-167l74 532h146l-2 -85q31 48 72 76t88 28q51 0 80 -33zM403 838l54 -123l-233 -95l-40 82z" />
    <glyph glyph-name="napostrophe" unicode="&#x149;" horiz-adv-x="631" 
d="M208 743.5q17 -17.5 17 -44.5q0 -19 -7 -36.5t-25 -47.5l-49 -80h-68l35 100q-23 16 -23 49q0 32 22 54.5t53 22.5q28 0 45 -17.5zM584 518q29 -33 29 -92q0 -16 -3 -36l-55 -390h-167l49 356q1 7 1 19q0 29 -19 29q-18 0 -38 -27t-46 -82l-42 -295h-167l74 532h146
l-2 -85q31 48 72 76t88 28q51 0 80 -33z" />
    <glyph glyph-name="ncaron" unicode="&#x148;" horiz-adv-x="511" 
d="M464 518q29 -33 29 -92q0 -16 -3 -36l-55 -390h-167l49 356q1 7 1 19q0 29 -19 29q-18 0 -38 -27t-46 -82l-42 -295h-167l74 532h146l-2 -85q31 48 72 76t88 28q51 0 80 -33zM452 817l54 -67l-148 -141h-101l-108 141l62 67l107 -94z" />
    <glyph glyph-name="uni1E4B" unicode="&#x1e4b;" horiz-adv-x="511" 
d="M464 518q29 -33 29 -92q0 -16 -3 -36l-55 -390h-167l49 356q1 7 1 19q0 29 -19 29q-18 0 -38 -27t-46 -82l-42 -295h-167l74 532h146l-2 -85q31 48 72 76t88 28q51 0 80 -33zM64 -270l-54 67l148 141h101l112 -146l-68 -62l-106 93z" />
    <glyph glyph-name="ncommaaccent" unicode="&#x146;" horiz-adv-x="511" 
d="M464 518q29 -33 29 -92q0 -16 -3 -36l-55 -390h-167l49 356q1 7 1 19q0 29 -19 29q-18 0 -38 -27t-46 -82l-42 -295h-167l74 532h146l-2 -85q31 48 72 76t88 28q51 0 80 -33zM258.5 -86q20.5 -20 20.5 -51q0 -24 -8 -44t-29 -55l-57 -94h-80l42 117q-29 19 -29 54
q0 41 25 67t62 26q33 0 53.5 -20z" />
    <glyph glyph-name="uni0235" unicode="&#x235;" horiz-adv-x="706" 
d="M663 221.5q28 -27.5 28 -74.5q0 -80 -54.5 -122.5t-139.5 -42.5q-23 0 -44 3l-38 -71l-69 32l34 58q-43 20 -65 57t-22 87q0 18 3 36l23 171q1 7 1 19q0 30 -20 30q-18 0 -38.5 -27.5t-47.5 -82.5l-41 -294h-167l74 532h146l-2 -87q32 48 73 77t87 29q52 0 80.5 -33
t28.5 -92q0 -17 -3 -37l-31 -220q-2 -17 -1 -23q27 55 58 79t75 24t72 -27.5zM569 113q14 11 14 30t-17 19q-13 0 -24 -13t-27 -47h17q23 0 37 11z" />
    <glyph glyph-name="uni1E45" unicode="&#x1e45;" horiz-adv-x="511" 
d="M464 518q29 -33 29 -92q0 -16 -3 -36l-55 -390h-167l49 356q1 7 1 19q0 29 -19 29q-18 0 -38 -27t-46 -82l-42 -295h-167l74 532h146l-2 -85q31 48 72 76t88 28q51 0 80 -33zM250 649.5q-23 22.5 -23 59.5q0 46 31 76.5t76 30.5q40 0 63 -22.5t23 -59.5q0 -46 -31 -76.5
t-76 -30.5q-40 0 -63 22.5z" />
    <glyph glyph-name="uni1E47" unicode="&#x1e47;" horiz-adv-x="511" 
d="M464 518q29 -33 29 -92q0 -16 -3 -36l-55 -390h-167l49 356q1 7 1 19q0 29 -19 29q-18 0 -38 -27t-46 -82l-42 -295h-167l74 532h146l-2 -85q31 48 72 76t88 28q51 0 80 -33zM272 -80.5q23 -22.5 23 -59.5q0 -46 -31 -76.5t-76 -30.5q-40 0 -63 22.5t-23 59.5
q0 46 31 76.5t76 30.5q40 0 63 -22.5z" />
    <glyph glyph-name="uni01F9" unicode="&#x1f9;" horiz-adv-x="511" 
d="M464 518q29 -33 29 -92q0 -16 -3 -36l-55 -390h-167l49 356q1 7 1 19q0 29 -19 29q-18 0 -38 -27t-46 -82l-42 -295h-167l74 532h146l-2 -85q31 48 72 76t88 28q51 0 80 -33zM275 837l186 -138l-48 -77l-211 93z" />
    <glyph glyph-name="eng" unicode="&#x14b;" horiz-adv-x="511" 
d="M464 518q29 -33 29 -92q0 -16 -3 -36l-55 -390l-5 -36q-14 -93 -71.5 -140t-145.5 -47q-79 0 -132 44l68 97q18 -11 30 -15t28 -4q23 0 37 13.5t17 39.5l7 48l49 356q1 7 1 19q0 29 -19 29q-18 0 -38 -27t-46 -82l-42 -295h-167l74 532h146l-2 -85q31 48 72 76t88 28
q51 0 80 -33z" />
    <glyph glyph-name="uni0272" unicode="&#x272;" horiz-adv-x="511" 
d="M464 518q29 -33 29 -92q0 -16 -3 -36l-55 -390h-167l49 356q1 7 1 19q0 29 -19 29q-18 0 -38 -27t-46 -82l-42 -295l-5 -36q-14 -93 -71.5 -140t-145.5 -47q-79 0 -132 44l68 97q18 -11 30 -15t28 -4q23 0 37 13.5t17 39.5l7 48l74 532h146l-2 -85q31 48 72 76t88 28
q51 0 80 -33z" />
    <glyph glyph-name="uni0273" unicode="&#x273;" horiz-adv-x="511" 
d="M572 -182q-62 -41 -143 -41q-79 0 -123.5 40.5t-44.5 117.5q0 10 2 34l4 31h1l49 356q1 7 1 19q0 29 -19 29q-18 0 -38 -27t-46 -82l-42 -295h-167l74 532h146l-2 -85q31 48 72 76t88 28q51 0 80 -33t29 -92q0 -16 -3 -36l-55 -390h-1l-6 -49q-1 -4 -1 -13
q0 -19 10.5 -29t29.5 -10q18 0 31 4t31 14z" />
    <glyph glyph-name="uni01CC" unicode="&#x1cc;" horiz-adv-x="764" 
d="M464 518q29 -33 29 -92q0 -16 -3 -36l-55 -390h-167l49 356q1 7 1 19q0 29 -19 29q-18 0 -38 -27t-46 -82l-42 -295h-167l74 532h146l-2 -85q31 48 72 76t88 28q51 0 80 -33zM406 -102q56 23 83 56.5t36 101.5l66 476h168l-66 -469q-13 -88 -47.5 -143.5t-83 -86.5
t-117.5 -56zM628 649.5q-23 22.5 -23 59.5q0 46 31 76.5t76 30.5q40 0 63 -22.5t23 -59.5q0 -46 -31 -76.5t-76 -30.5q-40 0 -63 22.5z" />
    <glyph glyph-name="uni019E" unicode="&#x19e;" horiz-adv-x="511" 
d="M464 518q29 -33 29 -92q0 -16 -3 -36l-86 -596l-170 -19l85 581q1 7 1 18q0 30 -20 30q-18 0 -38.5 -27t-46.5 -82l-42 -295h-167l74 532h146l-2 -85q31 47 72 75.5t87 28.5q52 0 81 -33z" />
    <glyph glyph-name="ntilde" unicode="&#xf1;" horiz-adv-x="511" 
d="M464 518q29 -33 29 -92q0 -16 -3 -36l-55 -390h-167l49 356q1 7 1 19q0 29 -19 29q-18 0 -38 -27t-46 -82l-42 -295h-167l74 532h146l-2 -85q31 48 72 76t88 28q51 0 80 -33zM337.5 638q-13.5 7 -31.5 19q-3 2 -11 7.5t-14.5 8t-12.5 2.5q-15 0 -26.5 -10.5t-26.5 -33.5
l-74 42q26 54 61.5 88t74.5 34q20 0 35 -7t32 -20q11 -9 19 -13t16 -4q14 0 25.5 10.5t25.5 32.5l74 -41q-26 -54 -62 -88t-74 -34q-17 0 -30.5 7z" />
    <glyph glyph-name="o" unicode="o" horiz-adv-x="528" 
d="M73.5 38.5q-54.5 56.5 -54.5 162.5q0 90 29.5 170t93 130t159.5 50q98 0 153 -57t55 -163q-1 -90 -30.5 -169.5t-93 -129.5t-159.5 -50q-98 0 -152.5 56.5zM315 184.5q24 78.5 24 165.5q0 41 -12 58.5t-38 17.5q-53 0 -77 -78t-24 -165q0 -41 12.5 -59t37.5 -18
q53 0 77 78.5z" />
    <glyph glyph-name="oacute" unicode="&#xf3;" horiz-adv-x="528" 
d="M73.5 38.5q-54.5 56.5 -54.5 162.5q0 90 29.5 170t93 130t159.5 50q98 0 153 -57t55 -163q-1 -90 -30.5 -169.5t-93 -129.5t-159.5 -50q-98 0 -152.5 56.5zM315 184.5q24 78.5 24 165.5q0 41 -12 58.5t-38 17.5q-53 0 -77 -78t-24 -165q0 -41 12.5 -59t37.5 -18
q53 0 77 78.5zM403 838l54 -123l-233 -95l-40 82z" />
    <glyph glyph-name="uni0275" unicode="&#x275;" horiz-adv-x="528" 
d="M454 494q55 -57 55 -163q-1 -90 -30.5 -169.5t-93 -129.5t-159.5 -50q-98 0 -152.5 56.5t-54.5 162.5q0 90 29.5 170t93 130t159.5 50q98 0 153 -57zM194 316h153q1 11 1 32q0 43 -14 63t-42 20q-70 0 -98 -115zM298 135.5q24 33.5 36 88.5h-153q-1 -14 -1 -39
q0 -44 13.5 -63.5t42.5 -19.5q38 0 62 33.5z" />
    <glyph glyph-name="obreve" unicode="&#x14f;" horiz-adv-x="528" 
d="M73.5 38.5q-54.5 56.5 -54.5 162.5q0 90 29.5 170t93 130t159.5 50q98 0 153 -57t55 -163q-1 -90 -30.5 -169.5t-93 -129.5t-159.5 -50q-98 0 -152.5 56.5zM315 184.5q24 78.5 24 165.5q0 41 -12 58.5t-38 17.5q-53 0 -77 -78t-24 -165q0 -41 12.5 -59t37.5 -18
q53 0 77 78.5zM203 675.5q-36 45.5 -36 116.5l1 20l88 13q2 -37 17.5 -57t44.5 -20q30 0 52 21t34 58l85 -19q-15 -78 -61.5 -128t-118.5 -50q-70 0 -106 45.5z" />
    <glyph glyph-name="uni01D2" unicode="&#x1d2;" horiz-adv-x="528" 
d="M73.5 38.5q-54.5 56.5 -54.5 162.5q0 90 29.5 170t93 130t159.5 50q98 0 153 -57t55 -163q-1 -90 -30.5 -169.5t-93 -129.5t-159.5 -50q-98 0 -152.5 56.5zM315 184.5q24 78.5 24 165.5q0 41 -12 58.5t-38 17.5q-53 0 -77 -78t-24 -165q0 -41 12.5 -59t37.5 -18
q53 0 77 78.5zM452 817l54 -67l-148 -141h-101l-108 141l62 67l107 -94z" />
    <glyph glyph-name="ocircumflex" unicode="&#xf4;" horiz-adv-x="528" 
d="M73.5 38.5q-54.5 56.5 -54.5 162.5q0 90 29.5 170t93 130t159.5 50q98 0 153 -57t55 -163q-1 -90 -30.5 -169.5t-93 -129.5t-159.5 -50q-98 0 -152.5 56.5zM315 184.5q24 78.5 24 165.5q0 41 -12 58.5t-38 17.5q-53 0 -77 -78t-24 -165q0 -41 12.5 -59t37.5 -18
q53 0 77 78.5zM192 619l-54 67l148 141h100l113 -145l-69 -63l-106 94z" />
    <glyph glyph-name="uni1ED1" unicode="&#x1ed1;" horiz-adv-x="528" 
d="M558 969l80 -86l-172 -146l-57 54zM183 585l-57 67l148 133h100l113 -137l-65 -63l-109 86zM73.5 38.5q-54.5 56.5 -54.5 162.5q0 90 29.5 170t93 130t159.5 50q98 0 153 -57t55 -163q-1 -90 -30.5 -169.5t-93 -129.5t-159.5 -50q-98 0 -152.5 56.5zM315 184.5
q24 78.5 24 165.5q0 41 -12 58.5t-38 17.5q-53 0 -77 -78t-24 -165q0 -41 12.5 -59t37.5 -18q53 0 77 78.5z" />
    <glyph glyph-name="uni1ED9" unicode="&#x1ed9;" horiz-adv-x="528" 
d="M73.5 38.5q-54.5 56.5 -54.5 162.5q0 90 29.5 170t93 130t159.5 50q98 0 153 -57t55 -163q-1 -90 -30.5 -169.5t-93 -129.5t-159.5 -50q-98 0 -152.5 56.5zM315 184.5q24 78.5 24 165.5q0 41 -12 58.5t-38 17.5q-53 0 -77 -78t-24 -165q0 -41 12.5 -59t37.5 -18
q53 0 77 78.5zM192 619l-54 67l148 141h100l113 -145l-69 -63l-106 94zM280 -80.5q23 -22.5 23 -59.5q0 -46 -31 -76.5t-76 -30.5q-40 0 -63 22.5t-23 59.5q0 46 31 76.5t76 30.5q40 0 63 -22.5z" />
    <glyph glyph-name="uni1ED3" unicode="&#x1ed3;" horiz-adv-x="528" 
d="M136 967l99 -181l-69 -49l-130 152zM184 585l-57 67l148 133h100l113 -137l-65 -63l-109 86zM73.5 38.5q-54.5 56.5 -54.5 162.5q0 90 29.5 170t93 130t159.5 50q98 0 153 -57t55 -163q-1 -90 -30.5 -169.5t-93 -129.5t-159.5 -50q-98 0 -152.5 56.5zM315 184.5
q24 78.5 24 165.5q0 41 -12 58.5t-38 17.5q-53 0 -77 -78t-24 -165q0 -41 12.5 -59t37.5 -18q53 0 77 78.5z" />
    <glyph glyph-name="uni1ED5" unicode="&#x1ed5;" horiz-adv-x="528" 
d="M73.5 38.5q-54.5 56.5 -54.5 162.5q0 90 29.5 170t93 130t159.5 50q98 0 153 -57t55 -163q-1 -90 -30.5 -169.5t-93 -129.5t-159.5 -50q-98 0 -152.5 56.5zM315 184.5q24 78.5 24 165.5q0 41 -12 58.5t-38 17.5q-53 0 -77 -78t-24 -165q0 -41 12.5 -59t37.5 -18
q53 0 77 78.5zM182 585l-57 67l148 133h100l113 -137l-65 -63l-109 86zM437 861q36 2 52.5 12t16.5 31q0 13 -7 18.5t-23 5.5q-23 0 -54 -13l-17 70q45 25 100 25q53 0 82 -26.5t29 -69.5q0 -42 -24 -67.5t-67 -34.5l-7 -51h-94z" />
    <glyph glyph-name="uni1ED7" unicode="&#x1ed7;" horiz-adv-x="528" 
d="M358.5 815q-13.5 6 -31.5 18q-12 9 -20.5 13t-16.5 4q-15 0 -26.5 -10t-26.5 -31l-72 39q25 49 60 80.5t74 31.5q20 0 34 -6.5t31 -17.5q21 -16 35 -16q13 0 24 9t26 30l73 -37q-25 -50 -60.5 -81.5t-73.5 -31.5q-16 0 -29.5 6zM182 582l-57 67l148 133h100l113 -137
l-65 -63l-109 86zM73.5 38.5q-54.5 56.5 -54.5 162.5q0 90 29.5 170t93 130t159.5 50q98 0 153 -57t55 -163q-1 -90 -30.5 -169.5t-93 -129.5t-159.5 -50q-98 0 -152.5 56.5zM315 184.5q24 78.5 24 165.5q0 41 -12 58.5t-38 17.5q-53 0 -77 -78t-24 -165q0 -41 12.5 -59
t37.5 -18q53 0 77 78.5z" />
    <glyph glyph-name="uni020D" unicode="&#x20d;" horiz-adv-x="528" 
d="M73.5 38.5q-54.5 56.5 -54.5 162.5q0 90 29.5 170t93 130t159.5 50q98 0 153 -57t55 -163q-1 -90 -30.5 -169.5t-93 -129.5t-159.5 -50q-98 0 -152.5 56.5zM315 184.5q24 78.5 24 165.5q0 41 -12 58.5t-38 17.5q-53 0 -77 -78t-24 -165q0 -41 12.5 -59t37.5 -18
q53 0 77 78.5zM224 865l64 -203l-90 -38l-91 190zM389 865l56 -204l-90 -33l-84 190z" />
    <glyph glyph-name="odieresis" unicode="&#xf6;" horiz-adv-x="528" 
d="M73.5 38.5q-54.5 56.5 -54.5 162.5q0 90 29.5 170t93 130t159.5 50q98 0 153 -57t55 -163q-1 -90 -30.5 -169.5t-93 -129.5t-159.5 -50q-98 0 -152.5 56.5zM315 184.5q24 78.5 24 165.5q0 41 -12 58.5t-38 17.5q-53 0 -77 -78t-24 -165q0 -41 12.5 -59t37.5 -18
q53 0 77 78.5zM151 659q-20 20 -20 52q0 40 27 66.5t66 26.5q34 0 54 -19.5t20 -52.5q0 -40 -27 -66.5t-66 -26.5q-34 0 -54 20zM367 659q-20 20 -20 52q0 40 27 66.5t66 26.5q34 0 54 -19.5t20 -52.5q0 -40 -27 -66.5t-66 -26.5q-34 0 -54 20z" />
    <glyph glyph-name="uni022B" unicode="&#x22b;" horiz-adv-x="528" 
d="M73.5 38.5q-54.5 56.5 -54.5 162.5q0 90 29.5 170t93 130t159.5 50q98 0 153 -57t55 -163q-1 -90 -30.5 -169.5t-93 -129.5t-159.5 -50q-98 0 -152.5 56.5zM315 184.5q24 78.5 24 165.5q0 41 -12 58.5t-38 17.5q-53 0 -77 -78t-24 -165q0 -41 12.5 -59t37.5 -18
q53 0 77 78.5zM146 618q-20 20 -20 52q0 40 27 66.5t66 26.5q34 0 54 -19.5t20 -52.5q0 -40 -27 -66.5t-66 -26.5q-34 0 -54 20zM362 618q-20 20 -20 52q0 40 27 66.5t66 26.5q34 0 54 -19.5t20 -52.5q0 -40 -27 -66.5t-66 -26.5q-34 0 -54 20zM473 804h-283l17 117h283z
" />
    <glyph glyph-name="uni022F" unicode="&#x22f;" horiz-adv-x="528" 
d="M73.5 38.5q-54.5 56.5 -54.5 162.5q0 90 29.5 170t93 130t159.5 50q98 0 153 -57t55 -163q-1 -90 -30.5 -169.5t-93 -129.5t-159.5 -50q-98 0 -152.5 56.5zM315 184.5q24 78.5 24 165.5q0 41 -12 58.5t-38 17.5q-53 0 -77 -78t-24 -165q0 -41 12.5 -59t37.5 -18
q53 0 77 78.5zM250 649.5q-23 22.5 -23 59.5q0 46 31 76.5t76 30.5q40 0 63 -22.5t23 -59.5q0 -46 -31 -76.5t-76 -30.5q-40 0 -63 22.5z" />
    </font>
</defs>
</svg>
