<?xml version="1.0" standalone="no"?>
<!DOCTYPE svg PUBLIC "-//W3C//DTD SVG 1.1//EN" "http://www.w3.org/Graphics/SVG/1.1/DTD/svg11.dtd" >
<svg>
<metadata>
Created by FontForge 20120731 at Fri May  5 09:31:44 2017
 By www-data
Digitized data copyright 2012-2016, The Mozilla Foundation and Telefonica S.A.
</metadata>
<defs>
<font id="FiraSansCondensed-Bold" horiz-adv-x="504" >
  <font-face 
    font-family="Fira Sans Condensed"
    font-weight="700"
    font-stretch="condensed"
    units-per-em="1000"
    panose-1="2 11 8 3 5 0 0 2 0 4"
    ascent="800"
    descent="-200"
    x-height="531"
    cap-height="693"
    bbox="-713 -354 1360 1185"
    underline-thickness="50"
    underline-position="-50"
    unicode-range="U+000D-FEFF"
  />
<missing-glyph horiz-adv-x="666" 
d="M543 1050v-1400h-420v1400h420zM489 998h-311v-1296h311v1296zM409.5 419q25.5 -32 25.5 -83q0 -53 -22.5 -82t-72.5 -36v-45q0 -11 -7.5 -17.5t-17.5 -6.5t-17.5 6.5t-7.5 17.5v84q53 3 72 19.5t19 57.5q0 33 -13 51t-48 18q-29 0 -52 -11q-8 -3 -13 -3q-11 0 -17.5 6.5
t-6.5 16.5q0 19 29.5 29t63.5 10q60 0 85.5 -32zM340 110q10 -10 10 -25q0 -16 -10 -26.5t-25 -10.5t-25 10.5t-10 26.5q0 15 10 25t25 10t25 -10z" />
    <glyph glyph-name="fi" unicode="fi" horiz-adv-x="548" 
d="M446 719l-42 -98q-50 23 -104 23q-39 0 -54.5 -15t-15.5 -51v-47h265v-531h-154v424h-111v-424h-154v424h-73v107h73v53q0 77 50.5 125.5t154.5 48.5q93 0 165 -39z" />
    <glyph glyph-name="fl" unicode="fl" horiz-adv-x="580" 
d="M583 2q-40 -19 -92 -19q-64 0 -100 37.5t-36 105.5v512q-36 9 -63 9q-35 0 -48.5 -15t-13.5 -50v-51h86l-17 -107h-69v-424h-154v424h-73v107h73v54q0 76 49.5 124.5t142.5 48.5q51 0 104 -17l137 14v-618q0 -32 23 -32q10 0 22 4z" />
    <glyph glyph-name=".notdef" horiz-adv-x="666" 
d="M543 1050v-1400h-420v1400h420zM489 998h-311v-1296h311v1296zM409.5 419q25.5 -32 25.5 -83q0 -53 -22.5 -82t-72.5 -36v-45q0 -11 -7.5 -17.5t-17.5 -6.5t-17.5 6.5t-7.5 17.5v84q53 3 72 19.5t19 57.5q0 33 -13 51t-48 18q-29 0 -52 -11q-8 -3 -13 -3q-11 0 -17.5 6.5
t-6.5 16.5q0 19 29.5 29t63.5 10q60 0 85.5 -32zM340 110q10 -10 10 -25q0 -16 -10 -26.5t-25 -10.5t-25 10.5t-10 26.5q0 15 10 25t25 10t25 -10z" />
    <glyph glyph-name="nonmarkingreturn" unicode="&#xd;" horiz-adv-x="208" 
 />
    <glyph glyph-name="space" unicode=" " horiz-adv-x="208" 
 />
    <glyph glyph-name="A" unicode="A" horiz-adv-x="543" 
d="M389 0l-31 151h-176l-31 -151h-162l187 693h192l186 -693h-165zM206 266h128l-64 310z" />
    <glyph glyph-name="Aacute" unicode="&#xc1;" horiz-adv-x="543" 
d="M389 0l-31 151h-176l-31 -151h-162l187 693h192l186 -693h-165zM206 266h128l-64 310zM343 950l58 -113l-219 -86l-39 77z" />
    <glyph glyph-name="Abreve" unicode="&#x102;" horiz-adv-x="543" 
d="M389 0l-31 151h-176l-31 -151h-162l187 693h192l186 -693h-165zM206 266h128l-64 310zM159.5 795.5q-40.5 44.5 -46.5 115.5l83 15q8 -32 26.5 -50t48.5 -18t49 18.5t27 49.5l83 -15q-6 -70 -47 -115t-112 -45t-111.5 44.5z" />
    <glyph glyph-name="uni1EAE" unicode="&#x1eae;" horiz-adv-x="543" 
d="M389 0l-31 151h-176l-31 -151h-162l187 693h192l186 -693h-165zM206 266h128l-64 310zM159.5 781.5q-40.5 44.5 -46.5 115.5l83 15q8 -32 26.5 -50t48.5 -18t49 18.5t27 49.5l83 -15q-6 -70 -47 -115t-112 -45t-111.5 44.5zM342 1122l87 -79l-150 -143l-59 51z" />
    <glyph glyph-name="uni1EB6" unicode="&#x1eb6;" horiz-adv-x="543" 
d="M389 0l-31 151h-176l-31 -151h-162l187 693h192l186 -693h-165zM206 266h128l-64 310zM159.5 795.5q-40.5 44.5 -46.5 115.5l83 15q8 -32 26.5 -50t48.5 -18t49 18.5t27 49.5l83 -15q-6 -70 -47 -115t-112 -45t-111.5 44.5zM208.5 -212q-25.5 25 -25.5 62q0 38 25.5 63
t64.5 25t64 -25t25 -63q0 -37 -25 -62t-64 -25t-64.5 25z" />
    <glyph glyph-name="uni1EB0" unicode="&#x1eb0;" horiz-adv-x="543" 
d="M389 0l-31 151h-176l-31 -151h-162l187 693h192l186 -693h-165zM206 266h128l-64 310zM160.5 781.5q-40.5 44.5 -46.5 115.5l83 15q8 -32 26.5 -50t48.5 -18t49 18.5t27 49.5l83 -15q-6 -70 -47 -115t-112 -45t-111.5 44.5zM207 1122l123 -171l-60 -51l-150 143z" />
    <glyph glyph-name="uni1EB2" unicode="&#x1eb2;" horiz-adv-x="543" 
d="M389 0l-31 151h-176l-31 -151h-162l187 693h192l186 -693h-165zM206 266h128l-64 310zM160.5 781.5q-40.5 44.5 -46.5 115.5l83 15q8 -32 26.5 -50t48.5 -18t49 18.5t27 49.5l83 -15q-6 -70 -47 -115t-112 -45t-111.5 44.5zM228 988q35 2 49.5 10t14.5 28q0 15 -9.5 23
t-25.5 8q-15 0 -26.5 -3t-28.5 -9l-24 64q41 26 101 26q54 0 84 -28t30 -73q0 -39 -19.5 -62t-56.5 -30v-43h-89v89z" />
    <glyph glyph-name="uni1EB4" unicode="&#x1eb4;" horiz-adv-x="543" 
d="M389 0l-31 151h-176l-31 -151h-162l187 693h192l186 -693h-165zM206 266h128l-64 310zM159.5 781.5q-40.5 44.5 -46.5 115.5l83 15q8 -32 26.5 -50t48.5 -18t49 18.5t27 49.5l83 -15q-6 -70 -47 -115t-112 -45t-111.5 44.5zM292 947q-14 6 -34 18q-12 8 -20 12t-17 4
q-15 0 -25.5 -9t-22.5 -31l-74 33q18 48 49 77.5t70 29.5q20 0 35 -6t34 -18q9 -6 18.5 -10.5t18.5 -4.5q14 0 24.5 9t22.5 29l74 -33q-18 -48 -49 -77t-70 -29q-20 0 -34 6z" />
    <glyph glyph-name="uni01CD" unicode="&#x1cd;" horiz-adv-x="543" 
d="M389 0l-31 151h-176l-31 -151h-162l187 693h192l186 -693h-165zM206 266h128l-64 310zM393 939l53 -59l-128 -130h-93l-128 130l54 59l121 -83z" />
    <glyph glyph-name="Acircumflex" unicode="&#xc2;" horiz-adv-x="543" 
d="M389 0l-31 151h-176l-31 -151h-162l187 693h192l186 -693h-165zM206 266h128l-64 310zM151 758l-54 58l129 131h92l128 -131l-53 -58l-121 83z" />
    <glyph glyph-name="uni1EA4" unicode="&#x1ea4;" horiz-adv-x="543" 
d="M389 0l-31 151h-176l-31 -151h-162l187 693h192l186 -693h-165zM206 266h128l-64 310zM151 724l-54 58l129 131h92l128 -131l-53 -58l-121 83zM487 1089l87 -79l-150 -143l-59 51z" />
    <glyph glyph-name="uni1EAC" unicode="&#x1eac;" horiz-adv-x="543" 
d="M389 0l-31 151h-176l-31 -151h-162l187 693h192l186 -693h-165zM206 266h128l-64 310zM151 758l-54 58l129 131h92l128 -131l-53 -58l-121 83zM208.5 -212q-25.5 25 -25.5 62q0 38 25.5 63t64.5 25t64 -25t25 -63q0 -37 -25 -62t-64 -25t-64.5 25z" />
    <glyph glyph-name="uni1EA6" unicode="&#x1ea6;" horiz-adv-x="543" 
d="M389 0l-31 151h-176l-31 -151h-162l187 693h192l186 -693h-165zM206 266h128l-64 310zM150 724l-54 58l129 131h92l128 -131l-53 -58l-121 83zM57 1089l123 -171l-60 -51l-150 143z" />
    <glyph glyph-name="uni1EA8" unicode="&#x1ea8;" horiz-adv-x="543" 
d="M389 0l-31 151h-176l-31 -151h-162l187 693h192l186 -693h-165zM206 266h128l-64 310zM150 724l-54 58l129 131h92l128 -131l-53 -58l-121 83zM386 943q35 2 49.5 10t14.5 28q0 15 -9.5 23t-25.5 8q-15 0 -26.5 -3t-28.5 -9l-24 64q41 26 101 26q54 0 84 -28t30 -73
q0 -39 -19.5 -62t-56.5 -30v-43h-89v89z" />
    <glyph glyph-name="uni1EAA" unicode="&#x1eaa;" horiz-adv-x="543" 
d="M389 0l-31 151h-176l-31 -151h-162l187 693h192l186 -693h-165zM206 266h128l-64 310zM149 724l-54 58l129 131h92l128 -131l-53 -58l-121 83zM290 948q-14 6 -34 18q-12 8 -20 12t-17 4q-15 0 -25.5 -9t-22.5 -31l-74 33q18 48 49 77.5t70 29.5q20 0 35 -6t34 -18
q9 -6 18.5 -10.5t18.5 -4.5q14 0 24.5 9t22.5 29l74 -33q-18 -48 -49 -77t-70 -29q-20 0 -34 6z" />
    <glyph glyph-name="uni0200" unicode="&#x200;" horiz-adv-x="543" 
d="M389 0l-31 151h-176l-31 -151h-162l187 693h192l186 -693h-165zM206 266h128l-64 310zM151 983l89 -195l-76 -36l-112 180zM313 983l81 -195l-77 -32l-104 179z" />
    <glyph glyph-name="Adieresis" unicode="&#xc4;" horiz-adv-x="543" 
d="M389 0l-31 151h-176l-31 -151h-162l187 693h192l186 -693h-165zM206 266h128l-64 310zM222 901q22 -22 22 -55t-22 -55.5t-55 -22.5q-32 0 -54.5 22.5t-22.5 55.5q0 32 22.5 54.5t54.5 22.5q33 0 55 -22zM434.5 901q22.5 -22 22.5 -55t-22 -55.5t-56 -22.5
q-32 0 -54.5 22.5t-22.5 55.5q0 32 22.5 54.5t54.5 22.5q33 0 55.5 -22z" />
    <glyph glyph-name="uni01DE" unicode="&#x1de;" horiz-adv-x="543" 
d="M389 0l-31 151h-176l-31 -151h-162l187 693h192l186 -693h-165zM206 266h128l-64 310zM220 878q22 -22 22 -55t-22 -55.5t-55 -22.5q-32 0 -54.5 22.5t-22.5 55.5q0 32 22.5 54.5t54.5 22.5q33 0 55 -22zM432.5 878q22.5 -22 22.5 -55t-22 -55.5t-56 -22.5
q-32 0 -54.5 22.5t-22.5 55.5q0 32 22.5 54.5t54.5 22.5q33 0 55.5 -22zM413 942h-280v105h280v-105z" />
    <glyph glyph-name="uni0226" unicode="&#x226;" horiz-adv-x="543" 
d="M389 0l-31 151h-176l-31 -151h-162l187 693h192l186 -693h-165zM206 266h128l-64 310zM335.5 909q25.5 -25 25.5 -62q0 -38 -25.5 -63t-64.5 -25t-64 25t-25 63q0 37 25 62t64 25t64.5 -25z" />
    <glyph glyph-name="uni1EA0" unicode="&#x1ea0;" horiz-adv-x="543" 
d="M389 0l-31 151h-176l-31 -151h-162l187 693h192l186 -693h-165zM206 266h128l-64 310zM208.5 -212q-25.5 25 -25.5 62q0 38 25.5 63t64.5 25t64 -25t25 -63q0 -37 -25 -62t-64 -25t-64.5 25z" />
    <glyph glyph-name="uni01E0" unicode="&#x1e0;" horiz-adv-x="543" 
d="M389 0l-31 151h-176l-31 -151h-162l187 693h192l186 -693h-165zM206 266h128l-64 310zM335.5 887q25.5 -25 25.5 -62q0 -38 -25.5 -63t-64.5 -25t-64 25t-25 63q0 37 25 62t64 25t64.5 -25zM412 942h-280v105h280v-105z" />
    <glyph glyph-name="Agrave" unicode="&#xc0;" horiz-adv-x="543" 
d="M389 0l-31 151h-176l-31 -151h-162l187 693h192l186 -693h-165zM206 266h128l-64 310zM199 949l200 -122l-39 -76l-219 85z" />
    <glyph glyph-name="uni1EA2" unicode="&#x1ea2;" horiz-adv-x="543" 
d="M389 0l-31 151h-176l-31 -151h-162l187 693h192l186 -693h-165zM206 266h128l-64 310zM227 853q35 2 49.5 10t14.5 28q0 15 -9.5 23t-25.5 8q-15 0 -26.5 -3t-28.5 -9l-24 64q41 26 101 26q54 0 84 -28t30 -73q0 -39 -19.5 -62t-56.5 -30v-43h-89v89z" />
    <glyph glyph-name="uni0202" unicode="&#x202;" horiz-adv-x="543" 
d="M389 0l-31 151h-176l-31 -151h-162l187 693h192l186 -693h-165zM206 266h128l-64 310zM384 903.5q41 -46.5 46 -123.5l-83 -15q-8 38 -27 58.5t-49 20.5q-57 0 -75 -79l-83 15q5 77 45.5 123.5t112.5 46.5t113 -46.5z" />
    <glyph glyph-name="uni2C6D" unicode="&#x2c6d;" horiz-adv-x="624" 
d="M574.5 122q8.5 -15 29.5 -25l-45 -114q-48 9 -78.5 26t-48.5 45q-57 -71 -154 -71q-74 0 -130 40t-87 119t-31 193q0 119 32 203.5t87.5 128t126.5 43.5q87 0 144 -65l10 48h136v-527q0 -29 8.5 -44zM406 143v404q-39 46 -95 46q-57 0 -85.5 -59t-28.5 -199
q0 -132 28 -184.5t84 -52.5q57 0 97 45z" />
    <glyph glyph-name="Amacron" unicode="&#x100;" horiz-adv-x="543" 
d="M389 0l-31 151h-176l-31 -151h-162l187 693h192l186 -693h-165zM206 266h128l-64 310zM412 783h-280v105h280v-105z" />
    <glyph glyph-name="Aogonek" unicode="&#x104;" horiz-adv-x="543" 
d="M388.5 -50.5q-22.5 -25.5 -22.5 -52.5q0 -46 47 -46q19 0 54 7l-10 -95q-30 -8 -63 -8q-61 0 -99.5 31t-38.5 84t33.5 91t94.5 65l-26 125h-176l-31 -151h-162l187 693h192l186 -693h-83q-60 -25 -82.5 -50.5zM206 266h128l-64 310z" />
    <glyph glyph-name="Aring" unicode="&#xc5;" horiz-adv-x="543" 
d="M389 0l-31 151h-176l-31 -151h-162l187 693h192l186 -693h-165zM206 266h128l-64 310zM367 954.5q35 -36.5 35 -92.5t-35 -93t-94 -37t-94.5 37t-35.5 93t35.5 92.5t94.5 36.5t94 -36.5zM233 862q0 -52 40 -52q39 0 39 52q0 51 -39 51q-40 0 -40 -51z" />
    <glyph glyph-name="Aringacute" unicode="&#x1fa;" horiz-adv-x="543" 
d="M389 0l-31 151h-176l-31 -151h-162l187 693h192l186 -693h-165zM206 266h128l-64 310zM366 943.5q35 -36.5 35 -92.5t-35 -93t-94 -37t-94.5 37t-35.5 93t35.5 92.5t94.5 36.5t94 -36.5zM232 851q0 -52 40 -52q39 0 39 52q0 51 -39 51q-40 0 -40 -51zM342 1185l58 -113
l-219 -86l-39 77z" />
    <glyph glyph-name="uni023A" unicode="&#x23a;" horiz-adv-x="543" 
d="M406 0l-34 151h-103l-53 -225l-54 12l51 213h-45l-34 -151h-145l187 693h166l15 62l53 -12l-26 -110l170 -633h-148zM193 259h46l55 232l-24 105zM295 259h52l-25 111z" />
    <glyph glyph-name="Atilde" unicode="&#xc3;" horiz-adv-x="543" 
d="M389 0l-31 151h-176l-31 -151h-162l187 693h192l186 -693h-165zM206 266h128l-64 310zM292.5 771q-13.5 6 -34.5 19q-13 9 -20.5 13t-16.5 4q-15 0 -25 -9.5t-23 -32.5l-74 35q18 51 49 82.5t70 31.5q20 0 35 -6.5t34 -19.5q2 -1 10 -6t14.5 -7.5t12.5 -2.5
q14 0 24.5 9.5t22.5 31.5l74 -35q-18 -52 -49 -82.5t-70 -30.5q-20 0 -33.5 6z" />
    <glyph glyph-name="AE" unicode="&#xc6;" horiz-adv-x="766" 
d="M533 116h209v-116h-343l-21 151h-185l-44 -151h-171l245 693h486l-17 -114h-237l29 -172h216v-113h-197zM227 267h134l-44 309z" />
    <glyph glyph-name="AEacute" unicode="&#x1fc;" horiz-adv-x="766" 
d="M533 116h209v-116h-343l-21 151h-185l-44 -151h-171l245 693h486l-17 -114h-237l29 -172h216v-113h-197zM227 267h134l-44 309zM509 950l58 -113l-219 -86l-39 77z" />
    <glyph glyph-name="uni01E2" unicode="&#x1e2;" horiz-adv-x="766" 
d="M533 116h209v-116h-343l-21 151h-185l-44 -151h-171l245 693h486l-17 -114h-237l29 -172h216v-113h-197zM227 267h134l-44 309zM578 783h-280v105h280v-105z" />
    <glyph glyph-name="B" unicode="B" horiz-adv-x="559" 
d="M498.5 315q40.5 -38 40.5 -113q0 -202 -279 -202h-205v693h181q133 0 205 -43.5t72 -133.5q0 -60 -34 -97.5t-87 -51.5q66 -14 106.5 -52zM215 580v-165h44q92 0 92 85q0 41 -24 60.5t-76 19.5h-36zM346 137q29 21 29 73q0 98 -106 98h-54v-192h46q56 0 85 21z" />
    <glyph glyph-name="uni1E02" unicode="&#x1e02;" horiz-adv-x="559" 
d="M498.5 315q40.5 -38 40.5 -113q0 -202 -279 -202h-205v693h181q133 0 205 -43.5t72 -133.5q0 -60 -34 -97.5t-87 -51.5q66 -14 106.5 -52zM215 580v-165h44q92 0 92 85q0 41 -24 60.5t-76 19.5h-36zM346 137q29 21 29 73q0 98 -106 98h-54v-192h46q56 0 85 21zM330.5 909
q25.5 -25 25.5 -62q0 -38 -25.5 -63t-64.5 -25t-64 25t-25 63q0 37 25 62t64 25t64.5 -25z" />
    <glyph glyph-name="uni1E04" unicode="&#x1e04;" horiz-adv-x="559" 
d="M498.5 315q40.5 -38 40.5 -113q0 -202 -279 -202h-205v693h181q133 0 205 -43.5t72 -133.5q0 -60 -34 -97.5t-87 -51.5q66 -14 106.5 -52zM215 580v-165h44q92 0 92 85q0 41 -24 60.5t-76 19.5h-36zM346 137q29 21 29 73q0 98 -106 98h-54v-192h46q56 0 85 21z
M218.5 -212q-25.5 25 -25.5 62q0 38 25.5 63t64.5 25t64 -25t25 -63q0 -37 -25 -62t-64 -25t-64.5 25z" />
    <glyph glyph-name="uniA7B4" unicode="&#xa7b4;" horiz-adv-x="559" 
d="M539 204q0 -105 -68.5 -154.5t-169.5 -49.5q-43 0 -86 8v-218h-160v903h183q132 0 203.5 -43.5t71.5 -134.5q0 -60 -34 -97t-87 -51q147 -31 147 -163zM375 215q0 49 -24 71t-70 22h-23l9 107h10q35 0 54.5 21t19.5 61q0 44 -23.5 63.5t-75.5 19.5h-37v-460q38 -4 60 -4
q100 0 100 99z" />
    <glyph glyph-name="uni0181" unicode="&#x181;" horiz-adv-x="695" 
d="M634.5 315q40.5 -38 40.5 -113q0 -202 -279 -202h-205v579h-24q-41 0 -41 -42q0 -27 17 -68l-98 -43q-20 31 -31 60t-11 64q0 66 45.5 104.5t126.5 38.5h197q133 0 205 -43.5t72 -133.5q0 -60 -34 -97.5t-87 -51.5q66 -14 106.5 -52zM351 580v-165h44q92 0 92 85
q0 41 -24 60.5t-76 19.5h-36zM482 137q29 21 29 73q0 98 -106 98h-54v-192h46q56 0 85 21z" />
    <glyph glyph-name="uni0181.ss02" horiz-adv-x="543" 
d="M463.5 390.5q65.5 -54.5 65.5 -161.5q0 -114 -68 -171.5t-188 -57.5h-218v693h400l-16 -121h-224v-127h61q122 0 187.5 -54.5zM338 142.5q24 26.5 24 84.5q0 54 -24.5 80.5t-77.5 26.5h-45v-218h48q51 0 75 26.5z" />
    <glyph glyph-name="uni0243" unicode="&#x243;" horiz-adv-x="572" 
d="M511.5 315q40.5 -38 40.5 -113q0 -202 -279 -202h-205v176h-54v78h54v439h181q133 0 205 -43.5t72 -133.5q0 -60 -34 -97.5t-87 -51.5q66 -14 106.5 -52zM228 580v-165h44q92 0 92 85q0 41 -24 60.5t-76 19.5h-36zM359 137q29 21 29 73q0 98 -106 98h-54v-54h93v-78h-93
v-60h46q56 0 85 21z" />
    <glyph glyph-name="uni0182" unicode="&#x182;" horiz-adv-x="543" 
d="M463.5 390.5q65.5 -54.5 65.5 -161.5q0 -114 -68 -171.5t-188 -57.5h-218v693h400l-16 -121h-224v-127h61q122 0 187.5 -54.5zM338 142.5q24 26.5 24 84.5q0 54 -24.5 80.5t-77.5 26.5h-45v-218h48q51 0 75 26.5z" />
    <glyph glyph-name="C" unicode="C" horiz-adv-x="524" 
d="M424 691q47 -19 89 -57l-76 -89q-27 23 -53.5 34.5t-56.5 11.5q-130 0 -130 -243q0 -241 131 -241q34 0 60.5 13.5t59.5 39.5l72 -88q-37 -39 -88.5 -64t-113.5 -25q-87 0 -151.5 41t-100.5 123t-36 201q0 116 37 197.5t101.5 123t148.5 41.5q60 0 107 -19z" />
    <glyph glyph-name="Cacute" unicode="&#x106;" horiz-adv-x="524" 
d="M424 691q47 -19 89 -57l-76 -89q-27 23 -53.5 34.5t-56.5 11.5q-130 0 -130 -243q0 -241 131 -241q34 0 60.5 13.5t59.5 39.5l72 -88q-37 -39 -88.5 -64t-113.5 -25q-87 0 -151.5 41t-100.5 123t-36 201q0 116 37 197.5t101.5 123t148.5 41.5q60 0 107 -19zM395 950
l58 -113l-219 -86l-39 77z" />
    <glyph glyph-name="Cacute.loclPLK" horiz-adv-x="524" 
d="M424 691q47 -19 89 -57l-76 -89q-27 23 -53.5 34.5t-56.5 11.5q-130 0 -130 -243q0 -241 131 -241q34 0 60.5 13.5t59.5 39.5l72 -88q-37 -39 -88.5 -64t-113.5 -25q-87 0 -151.5 41t-100.5 123t-36 201q0 116 37 197.5t101.5 123t148.5 41.5q60 0 107 -19zM341 962
l113 -65l-130 -156l-69 40z" />
    <glyph glyph-name="Ccaron" unicode="&#x10c;" horiz-adv-x="524" 
d="M424 691q47 -19 89 -57l-76 -89q-27 23 -53.5 34.5t-56.5 11.5q-130 0 -130 -243q0 -241 131 -241q34 0 60.5 13.5t59.5 39.5l72 -88q-37 -39 -88.5 -64t-113.5 -25q-87 0 -151.5 41t-100.5 123t-36 201q0 116 37 197.5t101.5 123t148.5 41.5q60 0 107 -19zM445 939
l53 -59l-128 -130h-93l-128 130l54 59l121 -83z" />
    <glyph glyph-name="Ccedilla" unicode="&#xc7;" horiz-adv-x="524" 
d="M446 15q-43 -24 -95 -30v-36q47 -6 71 -30.5t24 -65.5q0 -51 -37 -82.5t-101 -31.5q-61 0 -105 30l35 69q28 -15 58 -15q41 0 41 31q0 18 -20.5 26.5t-63.5 8.5l12 98q-110 19 -172.5 110.5t-62.5 250.5q0 116 37 197.5t101.5 123t148.5 41.5q60 0 107 -19t89 -57
l-76 -89q-27 23 -53.5 34.5t-56.5 11.5q-130 0 -130 -243q0 -241 131 -241q34 0 60.5 13.5t59.5 39.5l72 -88q-31 -33 -74 -57z" />
    <glyph glyph-name="Ccircumflex" unicode="&#x108;" horiz-adv-x="524" 
d="M424 691q47 -19 89 -57l-76 -89q-27 23 -53.5 34.5t-56.5 11.5q-130 0 -130 -243q0 -241 131 -241q34 0 60.5 13.5t59.5 39.5l72 -88q-37 -39 -88.5 -64t-113.5 -25q-87 0 -151.5 41t-100.5 123t-36 201q0 116 37 197.5t101.5 123t148.5 41.5q60 0 107 -19zM203 758
l-54 58l129 131h92l128 -131l-53 -58l-121 83z" />
    <glyph glyph-name="Cdotaccent" unicode="&#x10a;" horiz-adv-x="524" 
d="M424 691q47 -19 89 -57l-76 -89q-27 23 -53.5 34.5t-56.5 11.5q-130 0 -130 -243q0 -241 131 -241q34 0 60.5 13.5t59.5 39.5l72 -88q-37 -39 -88.5 -64t-113.5 -25q-87 0 -151.5 41t-100.5 123t-36 201q0 116 37 197.5t101.5 123t148.5 41.5q60 0 107 -19zM387.5 909
q25.5 -25 25.5 -62q0 -38 -25.5 -63t-64.5 -25t-64 25t-25 63q0 37 25 62t64 25t64.5 -25z" />
    <glyph glyph-name="uniA7B3" unicode="&#xa7b3;" horiz-adv-x="522" 
d="M354 296l173 -455h-172l-98 348l-95 -348h-168l168 450l-155 402h171l81 -302l86 302h167z" />
    <glyph glyph-name="uni0187" unicode="&#x187;" horiz-adv-x="524" 
d="M660 814l-44 -94q-16 9 -29.5 13t-29.5 4q-23 0 -33.5 -13t-10.5 -43v-47l-70 -82q-59 39 -116 39q-130 0 -130 -243q0 -241 132 -241q33 0 59 13.5t60 40.5l72 -89q-37 -39 -88.5 -64t-114.5 -25q-86 0 -150.5 41t-100.5 123t-36 201q0 115 36.5 197t98 123.5
t135.5 41.5q42 0 79 -15q1 74 41.5 115t113.5 41q70 0 126 -37z" />
    <glyph glyph-name="uni023B" unicode="&#x23b;" horiz-adv-x="524" 
d="M520 72q-37 -39 -88.5 -64t-113.5 -25q-38 0 -67 7l-15 -64l-54 12l16 69q-80 36 -124 122t-44 219q0 116 37 197.5t101.5 123t148.5 41.5q25 0 48 -3l11 48l55 -12l-12 -50q51 -19 94 -59l-76 -89q-27 21 -46 31l-110 -460q23 -9 47 -9q34 0 60.5 13.5t59.5 39.5z
M235 159l102 432h-10q-130 0 -130 -243q0 -127 38 -189z" />
    <glyph glyph-name="D" unicode="D" horiz-adv-x="595" 
d="M404.5 666q71.5 -27 115.5 -103t44 -213q0 -194 -86 -272t-228 -78h-195v693h182q96 0 167.5 -27zM215 577v-461h45q46 0 76 20t46.5 71.5t16.5 142.5t-17 141t-47.5 68t-75.5 18h-44z" />
    <glyph glyph-name="uni01F1" unicode="&#x1f1;" horiz-adv-x="1062" 
d="M404.5 666q71.5 -27 115.5 -103t44 -213q0 -194 -86 -272t-228 -78h-195v693h182q96 0 167.5 -27zM215 577v-461h45q46 0 76 20t46.5 71.5t16.5 142.5t-17 141t-47.5 68t-75.5 18h-44zM1037 693v-121l-273 -444h279l-16 -128h-443v120l275 449h-249v124h427z" />
    <glyph glyph-name="uni01C4" unicode="&#x1c4;" horiz-adv-x="1062" 
d="M404.5 666q71.5 -27 115.5 -103t44 -213q0 -194 -86 -272t-228 -78h-195v693h182q96 0 167.5 -27zM215 577v-461h45q46 0 76 20t46.5 71.5t16.5 142.5t-17 141t-47.5 68t-75.5 18h-44zM1037 693v-121l-273 -444h279l-16 -128h-443v120l275 449h-249v124h427zM940 939
l53 -59l-128 -130h-93l-128 130l54 59l121 -83z" />
    <glyph glyph-name="uni0189" unicode="&#x189;" horiz-adv-x="611" 
d="M420.5 666q71.5 -27 115.5 -103t44 -213q0 -194 -86 -272t-228 -78h-195v305h-57v96h57v292h182q96 0 167.5 -27zM352 136q30 20 46.5 71.5t16.5 142.5t-17 141t-47.5 68t-75.5 18h-44v-176h106v-96h-106v-189h45q46 0 76 20z" />
    <glyph glyph-name="Eth" unicode="&#xd0;" horiz-adv-x="611" 
d="M420.5 666q71.5 -27 115.5 -103t44 -213q0 -194 -86 -272t-228 -78h-195v305h-57v96h57v292h182q96 0 167.5 -27zM352 136q30 20 46.5 71.5t16.5 142.5t-17 141t-47.5 68t-75.5 18h-44v-176h106v-96h-106v-189h45q46 0 76 20z" />
    <glyph glyph-name="Dcaron" unicode="&#x10e;" horiz-adv-x="595" 
d="M404.5 666q71.5 -27 115.5 -103t44 -213q0 -194 -86 -272t-228 -78h-195v693h182q96 0 167.5 -27zM215 577v-461h45q46 0 76 20t46.5 71.5t16.5 142.5t-17 141t-47.5 68t-75.5 18h-44zM389 939l53 -59l-128 -130h-93l-128 130l54 59l121 -83z" />
    <glyph glyph-name="uni1E12" unicode="&#x1e12;" horiz-adv-x="595" 
d="M404.5 666q71.5 -27 115.5 -103t44 -213q0 -194 -86 -272t-228 -78h-195v693h182q96 0 167.5 -27zM215 577v-461h45q46 0 76 20t46.5 71.5t16.5 142.5t-17 141t-47.5 68t-75.5 18h-44zM158 -260l-54 59l128 138h93l128 -138l-54 -59l-120 91z" />
    <glyph glyph-name="Dcroat" unicode="&#x110;" horiz-adv-x="611" 
d="M420.5 666q71.5 -27 115.5 -103t44 -213q0 -194 -86 -272t-228 -78h-195v305h-57v96h57v292h182q96 0 167.5 -27zM352 136q30 20 46.5 71.5t16.5 142.5t-17 141t-47.5 68t-75.5 18h-44v-176h106v-96h-106v-189h45q46 0 76 20z" />
    <glyph glyph-name="uni1E0A" unicode="&#x1e0a;" horiz-adv-x="595" 
d="M404.5 666q71.5 -27 115.5 -103t44 -213q0 -194 -86 -272t-228 -78h-195v693h182q96 0 167.5 -27zM215 577v-461h45q46 0 76 20t46.5 71.5t16.5 142.5t-17 141t-47.5 68t-75.5 18h-44zM331.5 909q25.5 -25 25.5 -62q0 -38 -25.5 -63t-64.5 -25t-64 25t-25 63q0 37 25 62
t64 25t64.5 -25z" />
    <glyph glyph-name="uni1E0C" unicode="&#x1e0c;" horiz-adv-x="595" 
d="M404.5 666q71.5 -27 115.5 -103t44 -213q0 -194 -86 -272t-228 -78h-195v693h182q96 0 167.5 -27zM215 577v-461h45q46 0 76 20t46.5 71.5t16.5 142.5t-17 141t-47.5 68t-75.5 18h-44zM216.5 -212q-25.5 25 -25.5 62q0 38 25.5 63t64.5 25t64 -25t25 -63q0 -37 -25 -62
t-64 -25t-64.5 25z" />
    <glyph glyph-name="uni018A" unicode="&#x18a;" horiz-adv-x="730" 
d="M540.5 666q71.5 -27 115.5 -103t44 -213q0 -194 -86 -272t-228 -78h-195v579h-24q-41 0 -41 -42q0 -27 17 -68l-98 -43q-20 31 -31 60t-11 64q0 66 45.5 104.5t126.5 38.5h198q96 0 167.5 -27zM472 136q30 20 46.5 71.5t16.5 142.5t-17 141t-47.5 68t-75.5 18h-44v-461
h45q46 0 76 20z" />
    <glyph glyph-name="uni1E0E" unicode="&#x1e0e;" horiz-adv-x="595" 
d="M404.5 666q71.5 -27 115.5 -103t44 -213q0 -194 -86 -272t-228 -78h-195v693h182q96 0 167.5 -27zM215 577v-461h45q46 0 76 20t46.5 71.5t16.5 142.5t-17 141t-47.5 68t-75.5 18h-44zM420 -189h-280v105h280v-105z" />
    <glyph glyph-name="uni018B" unicode="&#x18b;" horiz-adv-x="543" 
d="M489 0h-218q-121 0 -188.5 55t-67.5 168q0 107 66.5 164.5t189.5 57.5h58v127h-234v121h394v-693zM329 116v218h-43q-55 0 -79.5 -27t-24.5 -84t24.5 -82t76.5 -25h46z" />
    <glyph glyph-name="uni01F2" unicode="&#x1f2;" horiz-adv-x="1003" 
d="M404.5 666q71.5 -27 115.5 -103t44 -213q0 -194 -86 -272t-228 -78h-195v693h182q96 0 167.5 -27zM215 577v-461h45q46 0 76 20t46.5 71.5t16.5 142.5t-17 141t-47.5 68t-75.5 18h-44zM985 531v-109l-217 -305h222l-14 -117h-380v109l217 306h-199v116h371z" />
    <glyph glyph-name="uni01C5" unicode="&#x1c5;" horiz-adv-x="1003" 
d="M404.5 666q71.5 -27 115.5 -103t44 -213q0 -194 -86 -272t-228 -78h-195v693h182q96 0 167.5 -27zM215 577v-461h45q46 0 76 20t46.5 71.5t16.5 142.5t-17 141t-47.5 68t-75.5 18h-44zM985 531v-109l-217 -305h222l-14 -117h-380v109l217 306h-199v116h371zM919 810
l53 -60l-128 -138h-93l-128 138l54 60l121 -92z" />
    <glyph glyph-name="E" unicode="E" horiz-adv-x="474" 
d="M447 693l-17 -114h-215v-171h188v-112h-188v-180h230v-116h-390v693h392z" />
    <glyph glyph-name="Eacute" unicode="&#xc9;" horiz-adv-x="474" 
d="M447 693l-17 -114h-215v-171h188v-112h-188v-180h230v-116h-390v693h392zM323 950l58 -113l-219 -86l-39 77z" />
    <glyph glyph-name="Ebreve" unicode="&#x114;" horiz-adv-x="474" 
d="M447 693l-17 -114h-215v-171h188v-112h-188v-180h230v-116h-390v693h392zM139.5 795.5q-40.5 44.5 -46.5 115.5l83 15q8 -32 26.5 -50t48.5 -18t49 18.5t27 49.5l83 -15q-6 -70 -47 -115t-112 -45t-111.5 44.5z" />
    <glyph glyph-name="Ecaron" unicode="&#x11a;" horiz-adv-x="474" 
d="M447 693l-17 -114h-215v-171h188v-112h-188v-180h230v-116h-390v693h392zM373 939l53 -59l-128 -130h-93l-128 130l54 59l121 -83z" />
    <glyph glyph-name="uni0228" unicode="&#x228;" horiz-adv-x="474" 
d="M215 116h230v-116h-156v-51q47 -6 71 -30.5t24 -65.5q0 -51 -37 -82.5t-101 -31.5q-61 0 -105 30l35 69q28 -15 58 -15q41 0 41 31q0 18 -20.5 26.5t-63.5 8.5l13 111h-149v693h392l-17 -114h-215v-171h188v-112h-188v-180z" />
    <glyph glyph-name="Ecircumflex" unicode="&#xca;" horiz-adv-x="474" 
d="M447 693l-17 -114h-215v-171h188v-112h-188v-180h230v-116h-390v693h392zM131 758l-54 58l129 131h92l128 -131l-53 -58l-121 83z" />
    <glyph glyph-name="uni1EBE" unicode="&#x1ebe;" horiz-adv-x="474" 
d="M447 693l-17 -114h-215v-171h188v-112h-188v-180h230v-116h-390v693h392zM131 724l-54 58l129 131h92l128 -131l-53 -58l-121 83zM467 1089l87 -79l-150 -143l-59 51z" />
    <glyph glyph-name="uni1EC6" unicode="&#x1ec6;" horiz-adv-x="474" 
d="M447 693l-17 -114h-215v-171h188v-112h-188v-180h230v-116h-390v693h392zM131 758l-54 58l129 131h92l128 -131l-53 -58l-121 83zM186.5 -212q-25.5 25 -25.5 62q0 38 25.5 63t64.5 25t64 -25t25 -63q0 -37 -25 -62t-64 -25t-64.5 25z" />
    <glyph glyph-name="uni1EC0" unicode="&#x1ec0;" horiz-adv-x="474" 
d="M447 693l-17 -114h-215v-171h188v-112h-188v-180h230v-116h-390v693h392zM130 724l-54 58l129 131h92l128 -131l-53 -58l-121 83zM37 1089l123 -171l-60 -51l-150 143z" />
    <glyph glyph-name="uni1EC2" unicode="&#x1ec2;" horiz-adv-x="474" 
d="M447 693l-17 -114h-215v-171h188v-112h-188v-180h230v-116h-390v693h392zM130 724l-54 58l129 131h92l128 -131l-53 -58l-121 83zM366 943q35 2 49.5 10t14.5 28q0 15 -9.5 23t-25.5 8q-15 0 -26.5 -3t-28.5 -9l-24 64q41 26 101 26q54 0 84 -28t30 -73q0 -39 -19.5 -62
t-56.5 -30v-43h-89v89z" />
    <glyph glyph-name="uni1EC4" unicode="&#x1ec4;" horiz-adv-x="474" 
d="M447 693l-17 -114h-215v-171h188v-112h-188v-180h230v-116h-390v693h392zM129 724l-54 58l129 131h92l128 -131l-53 -58l-121 83zM270 948q-14 6 -34 18q-12 8 -20 12t-17 4q-15 0 -25.5 -9t-22.5 -31l-74 33q18 48 49 77.5t70 29.5q20 0 35 -6t34 -18q9 -6 18.5 -10.5
t18.5 -4.5q14 0 24.5 9t22.5 29l74 -33q-18 -48 -49 -77t-70 -29q-20 0 -34 6z" />
    <glyph glyph-name="uni0204" unicode="&#x204;" horiz-adv-x="474" 
d="M447 693l-17 -114h-215v-171h188v-112h-188v-180h230v-116h-390v693h392zM131 983l89 -195l-76 -36l-112 180zM293 983l81 -195l-77 -32l-104 179z" />
    <glyph glyph-name="Edieresis" unicode="&#xcb;" horiz-adv-x="474" 
d="M447 693l-17 -114h-215v-171h188v-112h-188v-180h230v-116h-390v693h392zM202 901q22 -22 22 -55t-22 -55.5t-55 -22.5q-32 0 -54.5 22.5t-22.5 55.5q0 32 22.5 54.5t54.5 22.5q33 0 55 -22zM414.5 901q22.5 -22 22.5 -55t-22 -55.5t-56 -22.5q-32 0 -54.5 22.5
t-22.5 55.5q0 32 22.5 54.5t54.5 22.5q33 0 55.5 -22z" />
    <glyph glyph-name="Edotaccent" unicode="&#x116;" horiz-adv-x="474" 
d="M447 693l-17 -114h-215v-171h188v-112h-188v-180h230v-116h-390v693h392zM315.5 909q25.5 -25 25.5 -62q0 -38 -25.5 -63t-64.5 -25t-64 25t-25 63q0 37 25 62t64 25t64.5 -25z" />
    <glyph glyph-name="uni1EB8" unicode="&#x1eb8;" horiz-adv-x="474" 
d="M447 693l-17 -114h-215v-171h188v-112h-188v-180h230v-116h-390v693h392zM186.5 -212q-25.5 25 -25.5 62q0 38 25.5 63t64.5 25t64 -25t25 -63q0 -37 -25 -62t-64 -25t-64.5 25z" />
    <glyph glyph-name="Egrave" unicode="&#xc8;" horiz-adv-x="474" 
d="M447 693l-17 -114h-215v-171h188v-112h-188v-180h230v-116h-390v693h392zM179 949l200 -122l-39 -76l-219 85z" />
    <glyph glyph-name="uni1EBA" unicode="&#x1eba;" horiz-adv-x="474" 
d="M447 693l-17 -114h-215v-171h188v-112h-188v-180h230v-116h-390v693h392zM207 853q35 2 49.5 10t14.5 28q0 15 -9.5 23t-25.5 8q-15 0 -26.5 -3t-28.5 -9l-24 64q41 26 101 26q54 0 84 -28t30 -73q0 -39 -19.5 -62t-56.5 -30v-43h-89v89z" />
    <glyph glyph-name="uni0206" unicode="&#x206;" horiz-adv-x="474" 
d="M447 693l-17 -114h-215v-171h188v-112h-188v-180h230v-116h-390v693h392zM364 903.5q41 -46.5 46 -123.5l-83 -15q-8 38 -27 58.5t-49 20.5q-57 0 -75 -79l-83 15q5 77 45.5 123.5t112.5 46.5t113 -46.5z" />
    <glyph glyph-name="Emacron" unicode="&#x112;" horiz-adv-x="474" 
d="M447 693l-17 -114h-215v-171h188v-112h-188v-180h230v-116h-390v693h392zM392 783h-280v105h280v-105z" />
    <glyph glyph-name="Eogonek" unicode="&#x118;" horiz-adv-x="474" 
d="M215 116h230v-116h-35q-60 -25 -82.5 -50.5t-22.5 -52.5q0 -46 47 -46q19 0 54 7l-10 -95q-30 -8 -63 -8q-61 0 -99.5 31t-38.5 84q0 80 79 130h-219v693h392l-17 -114h-215v-171h188v-112h-188v-180z" />
    <glyph glyph-name="uni0190" unicode="&#x190;" horiz-adv-x="491" 
d="M379.5 687.5q51.5 -22.5 95.5 -68.5l-75 -80q-58 55 -116 55q-42 0 -62 -23t-20 -60q0 -42 24 -65t69 -23h65l-18 -115h-48q-53 0 -80 -27t-27 -76q0 -51 26 -77t73 -26q36 0 65 14.5t60 44.5l84 -81q-84 -97 -225 -97q-73 0 -129.5 26t-88.5 74t-32 112q0 77 42.5 120.5
t118.5 52.5q-71 15 -106.5 56.5t-35.5 103.5q0 52 28 93.5t79.5 65t117.5 23.5q64 0 115.5 -22.5z" />
    <glyph glyph-name="uni018E" unicode="&#x18e;" horiz-adv-x="474" 
d="M34 693h385v-693h-390v116h230v180h-189v112h189v171h-225v114z" />
    <glyph glyph-name="uni01A9" unicode="&#x1a9;" horiz-adv-x="453" 
d="M437 693v-116h-253l153 -203v-65l-157 -190h257v-119h-421v116l178 224l-178 237v116h421z" />
    <glyph glyph-name="uni0246" unicode="&#x246;" horiz-adv-x="474" 
d="M315 296l-42 -180h172v-116h-198l-17 -74l-54 12l14 62h-135v693h294l14 62l54 -11l-12 -51h42l-17 -114h-51l-39 -171h63v-112h-88zM215 579v-171h69l39 171h-108zM215 116h2l41 180h-43v-180z" />
    <glyph glyph-name="uni1EBC" unicode="&#x1ebc;" horiz-adv-x="474" 
d="M447 693l-17 -114h-215v-171h188v-112h-188v-180h230v-116h-390v693h392zM272.5 771q-13.5 6 -34.5 19q-13 9 -20.5 13t-16.5 4q-15 0 -25 -9.5t-23 -32.5l-74 35q18 51 49 82.5t70 31.5q20 0 35 -6.5t34 -19.5q2 -1 10 -6t14.5 -7.5t12.5 -2.5q14 0 24.5 9.5t22.5 31.5
l74 -35q-18 -52 -49 -82.5t-70 -30.5q-20 0 -33.5 6z" />
    <glyph glyph-name="uni01B7" unicode="&#x1b7;" horiz-adv-x="495" 
d="M425.5 347q50.5 -51 50.5 -142q0 -64 -30 -114t-87 -79t-136 -29q-75 0 -128.5 26t-92.5 76l83 76q31 -31 60 -45t67 -14q47 0 73 28.5t26 80.5t-27.5 75t-82.5 23h-87v90l161 178h-236v116h404v-113l-164 -178q96 -4 146.5 -55z" />
    <glyph glyph-name="uni01EE" unicode="&#x1ee;" horiz-adv-x="495" 
d="M425.5 347q50.5 -51 50.5 -142q0 -64 -30 -114t-87 -79t-136 -29q-75 0 -128.5 26t-92.5 76l83 76q31 -31 60 -45t67 -14q47 0 73 28.5t26 80.5t-27.5 75t-82.5 23h-87v90l161 178h-236v116h404v-113l-164 -178q96 -4 146.5 -55zM362 939l53 -59l-128 -130h-93l-128 130
l54 59l121 -83z" />
    <glyph glyph-name="uni01B8" unicode="&#x1b8;" horiz-adv-x="495" 
d="M493 85q-40 -50 -95 -76t-130 -26q-77 0 -133 28t-86 78t-30 113q0 89 51 141.5t146 58.5l-164 178v113h404v-116h-235l160 -178v-90h-87q-55 0 -82.5 -25.5t-27.5 -78.5q0 -49 25 -76t70 -27q39 0 69 14t62 45z" />
    <glyph glyph-name="F" unicode="F" horiz-adv-x="441" 
d="M55 0v693h380l-17 -114h-203v-188h178v-114h-178v-277h-160z" />
    <glyph glyph-name="uni1E1E" unicode="&#x1e1e;" horiz-adv-x="441" 
d="M55 0v693h380l-17 -114h-203v-188h178v-114h-178v-277h-160zM317.5 909q25.5 -25 25.5 -62q0 -38 -25.5 -63t-64.5 -25t-64 25t-25 63q0 37 25 62t64 25t64.5 -25z" />
    <glyph glyph-name="uni0191" unicode="&#x191;" horiz-adv-x="441" 
d="M215 579v-188h178v-114h-178v-277h-1v-41q0 -89 -51 -134.5t-137 -45.5q-78 0 -133 42l53 92q18 -10 31 -14t30 -4q47 0 47 55v51h1v692h380l-17 -114h-203z" />
    <glyph glyph-name="G" unicode="G" horiz-adv-x="590" 
d="M547 625l-78 -82q-34 27 -62.5 39t-64.5 12q-70 0 -108 -57.5t-38 -189.5q0 -95 13 -148.5t39 -75.5t69 -22q45 0 80 22v162h-77l-15 113h244v-343q-49 -34 -109 -53t-120 -19q-147 0 -218.5 90.5t-71.5 273.5q0 118 40 200t109 122.5t156 40.5q122 0 212 -85z" />
    <glyph glyph-name="uni01F4" unicode="&#x1f4;" horiz-adv-x="590" 
d="M547 625l-78 -82q-34 27 -62.5 39t-64.5 12q-70 0 -108 -57.5t-38 -189.5q0 -95 13 -148.5t39 -75.5t69 -22q45 0 80 22v162h-77l-15 113h244v-343q-49 -34 -109 -53t-120 -19q-147 0 -218.5 90.5t-71.5 273.5q0 118 40 200t109 122.5t156 40.5q122 0 212 -85zM391 950
l58 -113l-219 -86l-39 77z" />
    <glyph glyph-name="uni0194" unicode="&#x194;" horiz-adv-x="524" 
d="M345 91q32 -57 46.5 -100.5t14.5 -88.5q0 -58 -34 -90.5t-107 -32.5t-107.5 32t-34.5 90q0 40 14 82t48 108l-196 602h164l112 -500l111 500h159zM284 -48.5q-6 21.5 -19 55.5q-26 -63 -26 -96q0 -31 26 -31q25 0 25 31q0 19 -6 40.5z" />
    <glyph glyph-name="Gbreve" unicode="&#x11e;" horiz-adv-x="590" 
d="M547 625l-78 -82q-34 27 -62.5 39t-64.5 12q-70 0 -108 -57.5t-38 -189.5q0 -95 13 -148.5t39 -75.5t69 -22q45 0 80 22v162h-77l-15 113h244v-343q-49 -34 -109 -53t-120 -19q-147 0 -218.5 90.5t-71.5 273.5q0 118 40 200t109 122.5t156 40.5q122 0 212 -85z
M207.5 795.5q-40.5 44.5 -46.5 115.5l83 15q8 -32 26.5 -50t48.5 -18t49 18.5t27 49.5l83 -15q-6 -70 -47 -115t-112 -45t-111.5 44.5z" />
    <glyph glyph-name="Gcaron" unicode="&#x1e6;" horiz-adv-x="590" 
d="M547 625l-78 -82q-34 27 -62.5 39t-64.5 12q-70 0 -108 -57.5t-38 -189.5q0 -95 13 -148.5t39 -75.5t69 -22q45 0 80 22v162h-77l-15 113h244v-343q-49 -34 -109 -53t-120 -19q-147 0 -218.5 90.5t-71.5 273.5q0 118 40 200t109 122.5t156 40.5q122 0 212 -85zM441 939
l53 -59l-128 -130h-93l-128 130l54 59l121 -83z" />
    <glyph glyph-name="Gcircumflex" unicode="&#x11c;" horiz-adv-x="590" 
d="M547 625l-78 -82q-34 27 -62.5 39t-64.5 12q-70 0 -108 -57.5t-38 -189.5q0 -95 13 -148.5t39 -75.5t69 -22q45 0 80 22v162h-77l-15 113h244v-343q-49 -34 -109 -53t-120 -19q-147 0 -218.5 90.5t-71.5 273.5q0 118 40 200t109 122.5t156 40.5q122 0 212 -85zM199 758
l-54 58l129 131h92l128 -131l-53 -58l-121 83z" />
    <glyph glyph-name="Gcommaaccent" unicode="&#x122;" horiz-adv-x="590" 
d="M547 625l-78 -82q-34 27 -62.5 39t-64.5 12q-70 0 -108 -57.5t-38 -189.5q0 -95 13 -148.5t39 -75.5t69 -22q45 0 80 22v162h-77l-15 113h244v-343q-49 -34 -109 -53t-120 -19q-147 0 -218.5 90.5t-71.5 273.5q0 118 40 200t109 122.5t156 40.5q122 0 212 -85zM372 -89.5
q21 -21.5 21 -54.5q0 -19 -5 -36.5t-19 -47.5l-42 -95h-76l26 115q-34 24 -34 64q0 31 21.5 53.5t53.5 22.5q33 0 54 -21.5z" />
    <glyph glyph-name="Gdotaccent" unicode="&#x120;" horiz-adv-x="590" 
d="M547 625l-78 -82q-34 27 -62.5 39t-64.5 12q-70 0 -108 -57.5t-38 -189.5q0 -95 13 -148.5t39 -75.5t69 -22q45 0 80 22v162h-77l-15 113h244v-343q-49 -34 -109 -53t-120 -19q-147 0 -218.5 90.5t-71.5 273.5q0 118 40 200t109 122.5t156 40.5q122 0 212 -85zM383.5 909
q25.5 -25 25.5 -62q0 -38 -25.5 -63t-64.5 -25t-64 25t-25 63q0 37 25 62t64 25t64.5 -25z" />
    <glyph glyph-name="uni0193" unicode="&#x193;" horiz-adv-x="559" 
d="M695 814l-44 -94q-17 9 -30 13t-29 4q-23 0 -34 -13t-11 -43v-56l-72 -76q-35 23 -66 34t-67 11q-70 0 -108 -57.5t-38 -189.5q0 -95 13 -148.5t39 -75.5t69 -22q45 0 80 22v162h-77l-15 113h244v-343q-49 -34 -109.5 -53t-121.5 -19q-145 0 -216.5 90.5t-71.5 273.5
q0 117 39.5 199t105 123t144.5 41q54 0 95 -19v2q0 75 40.5 116.5t114.5 41.5q68 0 126 -37z" />
    <glyph glyph-name="uni0241" unicode="&#x241;" horiz-adv-x="462" 
d="M131 330l46 14q56 18 80 49.5t24 91.5q0 50 -22.5 79.5t-62.5 29.5q-31 0 -58.5 -13t-60.5 -41l-76 78q89 92 216 92q70 0 122 -27.5t80 -77t28 -114.5q0 -84 -33 -128.5t-100 -71.5l-23 -10v-281h-161z" />
    <glyph glyph-name="uni01E4" unicode="&#x1e4;" horiz-adv-x="607" 
d="M610 176h-61v-121q-49 -34 -109 -53t-122 -19q-145 0 -216.5 91t-71.5 273q0 116 40 198t108.5 123.5t155.5 41.5q125 0 213 -85l-79 -83q-33 27 -61.5 39t-64.5 12q-146 0 -146 -246q0 -93 13 -146.5t39.5 -76.5t69.5 -23q46 0 92 23v52h-93v89h93v49h-92l-13 99h244
v-148h61v-89z" />
    <glyph glyph-name="uni021C" unicode="&#x21c;" horiz-adv-x="471" 
d="M329.5 686q49.5 -24 76 -66.5t26.5 -96.5q0 -135 -148 -165q82 -9 124.5 -48.5t42.5 -114.5q0 -106 -94 -186.5t-294 -121.5l-13 119q92 27 143 56t71 62t20 78q0 48 -27 72t-83 24h-63l18 115h48q45 0 68.5 23.5t23.5 69.5q0 41 -19 64.5t-59 23.5q-56 0 -123 -55
l-72 80q88 91 217 91q67 0 116.5 -24z" />
    <glyph glyph-name="H" unicode="H" horiz-adv-x="602" 
d="M388 0v298h-173v-298h-160v693h160v-270h173v270h160v-693h-160z" />
    <glyph glyph-name="Hbar" unicode="&#x126;" horiz-adv-x="613" 
d="M602 591v-90h-48v-501h-160v298h-173v-298h-160v501h-50v90h50v102h160v-102h173v102h160v-102h48zM394 423v78h-173v-78h173z" />
    <glyph glyph-name="uni021E" unicode="&#x21e;" horiz-adv-x="602" 
d="M388 0v298h-173v-298h-160v693h160v-270h173v270h160v-693h-160zM423 939l53 -59l-128 -130h-93l-128 130l54 59l121 -83z" />
    <glyph glyph-name="Hcircumflex" unicode="&#x124;" horiz-adv-x="602" 
d="M388 0v298h-173v-298h-160v693h160v-270h173v270h160v-693h-160zM181 758l-54 58l129 131h92l128 -131l-53 -58l-121 83z" />
    <glyph glyph-name="uni1E24" unicode="&#x1e24;" horiz-adv-x="602" 
d="M388 0v298h-173v-298h-160v693h160v-270h173v270h160v-693h-160zM238.5 -212q-25.5 25 -25.5 62q0 38 25.5 63t64.5 25t64 -25t25 -63q0 -37 -25 -62t-64 -25t-64.5 25z" />
    <glyph glyph-name="uniA7AA" unicode="&#xa7aa;" horiz-adv-x="738" 
d="M684 693v-693h-160v298h-173v-298h-160v579h-24q-41 0 -41 -42q0 -27 17 -68l-98 -43q-20 31 -31 60t-11 64q0 66 45.5 104.5t126.5 38.5h176v-270h173v270h160z" />
    <glyph glyph-name="uniA78D" unicode="&#xa78d;" horiz-adv-x="563" 
d="M508 693v-693h-160v257q-31 -27 -63.5 -40t-74.5 -13q-88 0 -140 57.5t-52 159.5v272h157v-263q0 -58 20 -82.5t62 -24.5q55 0 91 38v332h160z" />
    <glyph glyph-name="uniA78D.ss02" horiz-adv-x="543" 
d="M328 0v246h-307v447h160v-322h147v322h160v-693h-160z" />
    <glyph glyph-name="uni01F6" unicode="&#x1f6;" horiz-adv-x="859" 
d="M816 389.5q7 -65.5 7 -137.5q0 -95 -33.5 -155.5t-87 -87t-117.5 -26.5q-87 0 -142 47.5t-55 138.5v129h-173v-298h-160v693h160v-270h173v270h160v-526q0 -37 12 -53.5t36 -16.5q73 0 73 164q0 117 -23 270h151q12 -76 19 -141.5z" />
    <glyph glyph-name="I" unicode="I" horiz-adv-x="269" 
d="M215 693v-693h-160v693h160z" />
    <glyph glyph-name="IJ" unicode="&#x132;" horiz-adv-x="559" 
d="M215 693v-693h-160v693h160zM507 105q0 -118 -56 -178t-153 -94l-42 113q39 17 58.5 38t26 50t6.5 77v582h160v-588z" />
    <glyph glyph-name="Iacute" unicode="&#xcd;" horiz-adv-x="269" 
d="M215 693v-693h-160v693h160zM205 950l58 -113l-219 -86l-39 77z" />
    <glyph glyph-name="Ibreve" unicode="&#x12c;" horiz-adv-x="269" 
d="M215 693v-693h-160v693h160zM21.5 795.5q-40.5 44.5 -46.5 115.5l83 15q8 -32 26.5 -50t48.5 -18t49 18.5t27 49.5l83 -15q-6 -70 -47 -115t-112 -45t-111.5 44.5z" />
    <glyph glyph-name="uni01CF" unicode="&#x1cf;" horiz-adv-x="269" 
d="M215 693v-693h-160v693h160zM255 939l53 -59l-128 -130h-93l-128 130l54 59l121 -83z" />
    <glyph glyph-name="Icircumflex" unicode="&#xce;" horiz-adv-x="269" 
d="M215 693v-693h-160v693h160zM13 758l-54 58l129 131h92l128 -131l-53 -58l-121 83z" />
    <glyph glyph-name="uni0208" unicode="&#x208;" horiz-adv-x="269" 
d="M215 693v-693h-160v693h160zM13 983l89 -195l-76 -36l-112 180zM175 983l81 -195l-77 -32l-104 179z" />
    <glyph glyph-name="Idieresis" unicode="&#xcf;" horiz-adv-x="269" 
d="M215 693v-693h-160v693h160zM84 901q22 -22 22 -55t-22 -55.5t-55 -22.5q-32 0 -54.5 22.5t-22.5 55.5q0 32 22.5 54.5t54.5 22.5q33 0 55 -22zM296.5 901q22.5 -22 22.5 -55t-22 -55.5t-56 -22.5q-32 0 -54.5 22.5t-22.5 55.5q0 32 22.5 54.5t54.5 22.5q33 0 55.5 -22z
" />
    <glyph glyph-name="uni1E2E" unicode="&#x1e2e;" horiz-adv-x="269" 
d="M215 693v-693h-160v693h160zM201 1091l87 -79l-150 -143l-59 51zM76 881q22 -22 22 -55t-22 -55.5t-55 -22.5t-55 22.5t-22 55.5q0 32 22 54.5t55 22.5t55 -22zM302 880.5q22 -22.5 22 -54.5q0 -33 -22 -55.5t-55 -22.5t-55.5 22.5t-22.5 55.5q0 32 22.5 54.5t55.5 22.5
t55 -22.5z" />
    <glyph glyph-name="Idotaccent" unicode="&#x130;" horiz-adv-x="269" 
d="M215 693v-693h-160v693h160zM197.5 909q25.5 -25 25.5 -62q0 -38 -25.5 -63t-64.5 -25t-64 25t-25 63q0 37 25 62t64 25t64.5 -25z" />
    <glyph glyph-name="uni1ECA" unicode="&#x1eca;" horiz-adv-x="269" 
d="M215 693v-693h-160v693h160zM71.5 -212q-25.5 25 -25.5 62q0 38 25.5 63t64.5 25t64 -25t25 -63q0 -37 -25 -62t-64 -25t-64.5 25z" />
    <glyph glyph-name="Igrave" unicode="&#xcc;" horiz-adv-x="269" 
d="M215 693v-693h-160v693h160zM61 949l200 -122l-39 -76l-219 85z" />
    <glyph glyph-name="uni1EC8" unicode="&#x1ec8;" horiz-adv-x="269" 
d="M215 693v-693h-160v693h160zM89 853q35 2 49.5 10t14.5 28q0 15 -9.5 23t-25.5 8q-15 0 -26.5 -3t-28.5 -9l-24 64q41 26 101 26q54 0 84 -28t30 -73q0 -39 -19.5 -62t-56.5 -30v-43h-89v89z" />
    <glyph glyph-name="uni020A" unicode="&#x20a;" horiz-adv-x="269" 
d="M215 693v-693h-160v693h160zM246 903.5q41 -46.5 46 -123.5l-83 -15q-8 38 -27 58.5t-49 20.5q-57 0 -75 -79l-83 15q5 77 45.5 123.5t112.5 46.5t113 -46.5z" />
    <glyph glyph-name="Imacron" unicode="&#x12a;" horiz-adv-x="269" 
d="M215 693v-693h-160v693h160zM274 783h-280v105h280v-105z" />
    <glyph glyph-name="Iogonek" unicode="&#x12e;" horiz-adv-x="269" 
d="M215 693v-693h-34q-60 -25 -82.5 -50.5t-22.5 -52.5q0 -46 47 -46q19 0 54 7l-10 -95q-30 -8 -63 -8q-61 0 -99.5 31t-38.5 84q0 84 89 136v687h160z" />
    <glyph glyph-name="uni0196" unicode="&#x196;" horiz-adv-x="359" 
d="M366 26q-55 -42 -133 -42q-86 0 -137 45.5t-51 134.5v529h160v-538q0 -55 47 -55q17 0 30 4t31 14z" />
    <glyph glyph-name="uni0197" unicode="&#x197;" horiz-adv-x="303" 
d="M298 419v-118h-66v-301h-160v301h-67v118h67v274h160v-274h66z" />
    <glyph glyph-name="Itilde" unicode="&#x128;" horiz-adv-x="269" 
d="M215 693v-693h-160v693h160zM154.5 771q-13.5 6 -34.5 19q-13 9 -20.5 13t-16.5 4q-15 0 -25 -9.5t-23 -32.5l-74 35q18 51 49 82.5t70 31.5q20 0 35 -6.5t34 -19.5q2 -1 10 -6t14.5 -7.5t12.5 -2.5q14 0 24.5 9.5t22.5 31.5l74 -35q-18 -52 -49 -82.5t-70 -30.5
q-20 0 -33.5 6z" />
    <glyph glyph-name="J" unicode="J" horiz-adv-x="290" 
d="M238 105q0 -118 -56 -178t-153 -94l-42 113q39 17 58.5 38t26 50t6.5 77v582h160v-588z" />
    <glyph glyph-name="Jcircumflex" unicode="&#x134;" horiz-adv-x="290" 
d="M238 105q0 -118 -56 -178t-153 -94l-42 113q39 17 58.5 38t26 50t6.5 77v582h160v-588zM37 758l-54 58l129 131h92l128 -131l-53 -58l-121 83z" />
    <glyph glyph-name="uniA7B2" unicode="&#xa7b2;" horiz-adv-x="329" 
d="M340 -108q-34 18 -77 31q-35 -144 -200 -144q-67 0 -104 31t-37 86q0 60 41 93t115 33q17 0 35 -2v673h160v-679v-15q52 -17 97 -43zM99.5 -119.5q13.5 20.5 13.5 66.5q-9 2 -36 2q-33 0 -48 -12t-15 -36q0 -41 41 -41q31 0 44.5 20.5z" />
    <glyph glyph-name="uni0248" unicode="&#x248;" horiz-adv-x="308" 
d="M304 283h-66v-178q0 -118 -56 -178t-153 -94l-42 113q39 17 58.5 38t26 50t6.5 77v172h-67v120h67v290h160v-290h66v-120z" />
    <glyph glyph-name="K" unicode="K" horiz-adv-x="581" 
d="M215 693v-693h-160v693h160zM577 693l-194 -311l210 -382h-179l-194 370l194 323h163z" />
    <glyph glyph-name="uni01E8" unicode="&#x1e8;" horiz-adv-x="581" 
d="M215 693v-693h-160v693h160zM577 693l-194 -311l210 -382h-179l-194 370l194 323h163zM420 939l53 -59l-128 -130h-93l-128 130l54 59l121 -83z" />
    <glyph glyph-name="Kcommaaccent" unicode="&#x136;" horiz-adv-x="581" 
d="M215 693v-693h-160v693h160zM577 693l-194 -311l210 -382h-179l-194 370l194 323h163zM350 -89.5q21 -21.5 21 -54.5q0 -19 -5 -36.5t-19 -47.5l-42 -95h-76l26 115q-34 24 -34 64q0 31 21.5 53.5t53.5 22.5q33 0 54 -21.5z" />
    <glyph glyph-name="uni0198" unicode="&#x198;" horiz-adv-x="596" 
d="M220 370l111 213q34 69 70 98t98 29q60 0 109 -36l-41 -91q-20 13 -42 13q-19 0 -31 -10t-28 -39l-86 -166l213 -381h-179zM215 693v-693h-160v693h160z" />
    <glyph glyph-name="L" unicode="L" horiz-adv-x="465" 
d="M215 693v-566h241l-17 -127h-384v693h160z" />
    <glyph glyph-name="uni01C7" unicode="&#x1c7;" horiz-adv-x="732" 
d="M215 693v-566h241l-17 -127h-384v693h160zM680 105q0 -118 -56 -178t-153 -94l-42 113q39 17 58.5 38t26 50t6.5 77v582h160v-588z" />
    <glyph glyph-name="Lacute" unicode="&#x139;" horiz-adv-x="465" 
d="M215 693v-566h241l-17 -127h-384v693h160zM206 950l58 -113l-219 -86l-39 77z" />
    <glyph glyph-name="uni023D" unicode="&#x23d;" horiz-adv-x="481" 
d="M231 127h241l-17 -127h-384v303h-66v120h66v270h160v-270h67v-120h-67v-176z" />
    <glyph glyph-name="uniA7AD" unicode="&#xa7ad;" horiz-adv-x="563" 
d="M554 127l-17 -127h-384v253q-76 2 -113.5 36.5t-37.5 92.5q0 55 32.5 85.5t83.5 30.5q23 0 35 -4v199h160v-349q49 3 106 14l13 -84q-57 -14 -119 -18v-129h241zM153 342v73q-16 2 -22 2q-14 0 -22 -8.5t-8 -24.5q0 -42 52 -42z" />
    <glyph glyph-name="Lcaron" unicode="&#x13d;" horiz-adv-x="465" 
d="M215 693v-566h241l-17 -127h-384v693h160zM335 479l50 214l-113 16l-22 -217z" />
    <glyph glyph-name="uni1E3C" unicode="&#x1e3c;" horiz-adv-x="465" 
d="M215 693v-566h241l-17 -127h-384v693h160zM125 -260l-54 59l128 138h93l128 -138l-54 -59l-120 91z" />
    <glyph glyph-name="Lcommaaccent" unicode="&#x13b;" horiz-adv-x="465" 
d="M215 693v-566h241l-17 -127h-384v693h160zM301 -89.5q21 -21.5 21 -54.5q0 -19 -5 -36.5t-19 -47.5l-42 -95h-76l26 115q-34 24 -34 64q0 31 21.5 53.5t53.5 22.5q33 0 54 -21.5z" />
    <glyph glyph-name="Ldot" unicode="&#x13f;" horiz-adv-x="465" 
d="M215 693v-566h241l-17 -127h-384v693h160zM426.5 461q25.5 -25 25.5 -62q0 -38 -25.5 -63t-64.5 -25t-64 25t-25 63q0 37 25 62t64 25t64.5 -25z" />
    <glyph glyph-name="uni1E36" unicode="&#x1e36;" horiz-adv-x="465" 
d="M215 693v-566h241l-17 -127h-384v693h160zM183.5 -212q-25.5 25 -25.5 62q0 38 25.5 63t64.5 25t64 -25t25 -63q0 -37 -25 -62t-64 -25t-64.5 25z" />
    <glyph glyph-name="uni01C8" unicode="&#x1c8;" horiz-adv-x="709" 
d="M215 693v-566h241l-17 -127h-384v693h160zM656 48q0 -77 -25 -128.5t-68.5 -83t-107.5 -57.5l-51 112q35 19 55 36t31.5 44t11.5 71v489h154v-483zM642.5 783q25.5 -25 25.5 -62q0 -38 -25.5 -63t-64.5 -25t-64 25t-25 63q0 37 25 62t64 25t64.5 -25z" />
    <glyph glyph-name="Lslash" unicode="&#x141;" horiz-adv-x="505" 
d="M255 127h241l-17 -127h-384v226l-39 -26l-51 85l86 59l4 3v346h160v-240l106 70l51 -84l-157 -105v-207z" />
    <glyph glyph-name="M" unicode="M" horiz-adv-x="720" 
d="M690 0h-153l-9 274q-4 120 -4 177q0 70 2 103l-91 -481h-150l-96 481q4 -76 4 -161q0 -38 -2 -122l-9 -271h-152l46 693h200l87 -472l80 472h201z" />
    <glyph glyph-name="uni1E3E" unicode="&#x1e3e;" horiz-adv-x="720" 
d="M690 0h-153l-9 274q-4 120 -4 177q0 70 2 103l-91 -481h-150l-96 481q4 -76 4 -161q0 -38 -2 -122l-9 -271h-152l46 693h200l87 -472l80 472h201zM431 950l58 -113l-219 -86l-39 77z" />
    <glyph glyph-name="uni1E40" unicode="&#x1e40;" horiz-adv-x="720" 
d="M690 0h-153l-9 274q-4 120 -4 177q0 70 2 103l-91 -481h-150l-96 481q4 -76 4 -161q0 -38 -2 -122l-9 -271h-152l46 693h200l87 -472l80 472h201zM423.5 909q25.5 -25 25.5 -62q0 -38 -25.5 -63t-64.5 -25t-64 25t-25 63q0 37 25 62t64 25t64.5 -25z" />
    <glyph glyph-name="uni019C" unicode="&#x19c;" horiz-adv-x="825" 
d="M770 693v-693h-140l-11 61q-32 -41 -65.5 -59.5t-75.5 -18.5q-46 0 -80 24t-52 66q-36 -47 -71 -68.5t-79 -21.5q-70 0 -110.5 51.5t-40.5 131.5v527h160v-519q0 -35 12 -53t35 -18q21 0 38 15t38 47v1v527h159v-519q0 -33 12 -52t34 -19q23 0 40.5 15t36.5 49v526h160z
" />
    <glyph glyph-name="N" unicode="N" horiz-adv-x="599" 
d="M544 0h-200l-170 544q2 -12 2 -20q9 -72 14 -130.5t5 -135.5v-258h-140v693h198l173 -545q-22 130 -22 259v286h140v-693z" />
    <glyph glyph-name="uni01CA" unicode="&#x1ca;" horiz-adv-x="889" 
d="M544 0h-200l-170 544q2 -12 2 -20q9 -72 14 -130.5t5 -135.5v-258h-140v693h198l173 -545q-22 130 -22 259v286h140v-693zM837 105q0 -118 -56 -178t-153 -94l-42 113q39 17 58.5 38t26 50t6.5 77v582h160v-588z" />
    <glyph glyph-name="Nacute" unicode="&#x143;" horiz-adv-x="599" 
d="M544 0h-200l-170 544q2 -12 2 -20q9 -72 14 -130.5t5 -135.5v-258h-140v693h198l173 -545q-22 130 -22 259v286h140v-693zM373 950l58 -113l-219 -86l-39 77z" />
    <glyph glyph-name="Nacute.loclPLK" horiz-adv-x="599" 
d="M544 0h-200l-170 544q2 -12 2 -20q9 -72 14 -130.5t5 -135.5v-258h-140v693h198l173 -545q-22 130 -22 259v286h140v-693zM319 962l113 -65l-130 -156l-69 40z" />
    <glyph glyph-name="Ncaron" unicode="&#x147;" horiz-adv-x="599" 
d="M544 0h-200l-170 544q2 -12 2 -20q9 -72 14 -130.5t5 -135.5v-258h-140v693h198l173 -545q-22 130 -22 259v286h140v-693zM423 939l53 -59l-128 -130h-93l-128 130l54 59l121 -83z" />
    <glyph glyph-name="uni1E4A" unicode="&#x1e4a;" horiz-adv-x="599" 
d="M544 0h-200l-170 544q2 -12 2 -20q9 -72 14 -130.5t5 -135.5v-258h-140v693h198l173 -545q-22 130 -22 259v286h140v-693zM178 -260l-54 59l128 138h93l128 -138l-54 -59l-120 91z" />
    <glyph glyph-name="Ncommaaccent" unicode="&#x145;" horiz-adv-x="599" 
d="M544 0h-200l-170 544q2 -12 2 -20q9 -72 14 -130.5t5 -135.5v-258h-140v693h198l173 -545q-22 130 -22 259v286h140v-693zM354 -89.5q21 -21.5 21 -54.5q0 -19 -5 -36.5t-19 -47.5l-42 -95h-76l26 115q-34 24 -34 64q0 31 21.5 53.5t53.5 22.5q33 0 54 -21.5z" />
    <glyph glyph-name="uni1E44" unicode="&#x1e44;" horiz-adv-x="599" 
d="M544 0h-200l-170 544q2 -12 2 -20q9 -72 14 -130.5t5 -135.5v-258h-140v693h198l173 -545q-22 130 -22 259v286h140v-693zM365.5 909q25.5 -25 25.5 -62q0 -38 -25.5 -63t-64.5 -25t-64 25t-25 63q0 37 25 62t64 25t64.5 -25z" />
    <glyph glyph-name="uni1E46" unicode="&#x1e46;" horiz-adv-x="599" 
d="M544 0h-200l-170 544q2 -12 2 -20q9 -72 14 -130.5t5 -135.5v-258h-140v693h198l173 -545q-22 130 -22 259v286h140v-693zM236.5 -212q-25.5 25 -25.5 62q0 38 25.5 63t64.5 25t64 -25t25 -63q0 -37 -25 -62t-64 -25t-64.5 25z" />
    <glyph glyph-name="uni01F8" unicode="&#x1f8;" horiz-adv-x="599" 
d="M544 0h-200l-170 544q2 -12 2 -20q9 -72 14 -130.5t5 -135.5v-258h-140v693h198l173 -545q-22 130 -22 259v286h140v-693zM229 949l200 -122l-39 -76l-219 85z" />
    <glyph glyph-name="Eng" unicode="&#x14a;" horiz-adv-x="599" 
d="M544 693v-734q0 -89 -51 -134.5t-137 -45.5q-78 0 -133 42l53 92q18 -10 31 -14t30 -4q47 0 47 55v50h-40l-170 544q2 -12 2 -20q9 -72 14 -130.5t5 -135.5v-258h-140v693h198l173 -545q-22 130 -22 259v286h140z" />
    <glyph glyph-name="Eng.ss01" horiz-adv-x="591" 
d="M542 0h-1v-41q0 -89 -51 -134.5t-137 -45.5q-78 0 -133 42l53 92q18 -10 31 -14t30 -4q47 0 47 55v555q0 45 -13.5 65.5t-44.5 20.5t-55 -16t-53 -49v-526h-160v693h140l11 -63q39 41 80 60.5t93 19.5q80 0 121.5 -49t41.5 -130v-531z" />
    <glyph glyph-name="uni019D" unicode="&#x19d;" horiz-adv-x="599" 
d="M544 693v-693h-200l-170 544q2 -12 2 -20q9 -72 14 -130.5t5 -135.5v-299q0 -87 -47.5 -133.5t-126.5 -46.5q-75 0 -130 42l53 86q22 -11 33.5 -15t28.5 -4q49 0 49 59v746h198l173 -545q-22 130 -22 259v286h140z" />
    <glyph glyph-name="uni019D.ss01" horiz-adv-x="591" 
d="M500.5 661q41.5 -49 41.5 -130v-531h-161v505q0 45 -13.5 65.5t-44.5 20.5t-55 -16t-53 -49v-526h-1v-41q0 -89 -51 -134.5t-137 -45.5q-78 0 -133 42l53 92q18 -10 31 -14t30 -4q47 0 47 55v51h1v692h140l11 -63q39 41 80 60.5t93 19.5q80 0 121.5 -49z" />
    <glyph glyph-name="uni01CB" unicode="&#x1cb;" horiz-adv-x="858" 
d="M544 0h-200l-170 544q2 -12 2 -20q9 -72 14 -130.5t5 -135.5v-258h-140v693h198l173 -545q-22 130 -22 259v286h140v-693zM805 48q0 -77 -25 -128.5t-68.5 -83t-107.5 -57.5l-51 112q35 19 55 36t31.5 44t11.5 71v489h154v-483zM791.5 783q25.5 -25 25.5 -62
q0 -38 -25.5 -63t-64.5 -25t-64 25t-25 63q0 37 25 62t64 25t64.5 -25z" />
    <glyph glyph-name="uni0220" unicode="&#x220;" horiz-adv-x="591" 
d="M500.5 661q41.5 -49 41.5 -130v-741h-161v715q0 45 -13.5 65.5t-44.5 20.5t-55 -16t-53 -49v-526h-160v693h140l11 -63q39 41 80 60.5t93 19.5q80 0 121.5 -49z" />
    <glyph glyph-name="Ntilde" unicode="&#xd1;" horiz-adv-x="599" 
d="M544 0h-200l-170 544q2 -12 2 -20q9 -72 14 -130.5t5 -135.5v-258h-140v693h198l173 -545q-22 130 -22 259v286h140v-693zM322.5 771q-13.5 6 -34.5 19q-13 9 -20.5 13t-16.5 4q-15 0 -25 -9.5t-23 -32.5l-74 35q18 51 49 82.5t70 31.5q20 0 35 -6.5t34 -19.5q2 -1 10 -6
t14.5 -7.5t12.5 -2.5q14 0 24.5 9.5t22.5 31.5l74 -35q-18 -52 -49 -82.5t-70 -30.5q-20 0 -33.5 6z" />
    <glyph glyph-name="O" unicode="O" horiz-adv-x="630" 
d="M526 617.5q74 -92.5 74 -270.5q0 -176 -74.5 -270t-210.5 -94t-210.5 93t-74.5 271q0 175 74.5 269t210.5 94q137 0 211 -92.5zM225.5 536q-28.5 -57 -28.5 -189q0 -134 29 -190.5t89 -56.5q61 0 89.5 56.5t28.5 190.5q0 132 -28.5 189t-89.5 57t-89.5 -57z" />
    <glyph glyph-name="uni0222" unicode="&#x222;" horiz-adv-x="594" 
d="M533 329.5q31 -45.5 31 -112.5q0 -64 -32.5 -117.5t-93 -85t-141.5 -31.5t-141.5 30.5t-93 83.5t-32.5 120q0 65 31 111t89 69q-84 45 -84 137v159h160v-169q0 -36 16 -56.5t55 -20.5q71 0 71 77v169h160v-159q0 -44 -22 -78.5t-63 -56.5q59 -24 90 -69.5zM372.5 130
q24.5 29 24.5 89q0 56 -25.5 85.5t-74.5 29.5t-74.5 -29.5t-25.5 -85.5q0 -118 100 -118q51 0 75.5 29z" />
    <glyph glyph-name="Oacute" unicode="&#xd3;" horiz-adv-x="630" 
d="M526 617.5q74 -92.5 74 -270.5q0 -176 -74.5 -270t-210.5 -94t-210.5 93t-74.5 271q0 175 74.5 269t210.5 94q137 0 211 -92.5zM225.5 536q-28.5 -57 -28.5 -189q0 -134 29 -190.5t89 -56.5q61 0 89.5 56.5t28.5 190.5q0 132 -28.5 189t-89.5 57t-89.5 -57zM386 950
l58 -113l-219 -86l-39 77z" />
    <glyph glyph-name="Oacute.loclPLK" horiz-adv-x="630" 
d="M526 617.5q74 -92.5 74 -270.5q0 -176 -74.5 -270t-210.5 -94t-210.5 93t-74.5 271q0 175 74.5 269t210.5 94q137 0 211 -92.5zM225.5 536q-28.5 -57 -28.5 -189q0 -134 29 -190.5t89 -56.5q61 0 89.5 56.5t28.5 190.5q0 132 -28.5 189t-89.5 57t-89.5 -57zM332 962
l113 -65l-130 -156l-69 40z" />
    <glyph glyph-name="Obreve" unicode="&#x14e;" horiz-adv-x="630" 
d="M526 617.5q74 -92.5 74 -270.5q0 -176 -74.5 -270t-210.5 -94t-210.5 93t-74.5 271q0 175 74.5 269t210.5 94q137 0 211 -92.5zM225.5 536q-28.5 -57 -28.5 -189q0 -134 29 -190.5t89 -56.5q61 0 89.5 56.5t28.5 190.5q0 132 -28.5 189t-89.5 57t-89.5 -57zM202.5 795.5
q-40.5 44.5 -46.5 115.5l83 15q8 -32 26.5 -50t48.5 -18t49 18.5t27 49.5l83 -15q-6 -70 -47 -115t-112 -45t-111.5 44.5z" />
    <glyph glyph-name="uni01D1" unicode="&#x1d1;" horiz-adv-x="630" 
d="M526 617.5q74 -92.5 74 -270.5q0 -176 -74.5 -270t-210.5 -94t-210.5 93t-74.5 271q0 175 74.5 269t210.5 94q137 0 211 -92.5zM225.5 536q-28.5 -57 -28.5 -189q0 -134 29 -190.5t89 -56.5q61 0 89.5 56.5t28.5 190.5q0 132 -28.5 189t-89.5 57t-89.5 -57zM436 939
l53 -59l-128 -130h-93l-128 130l54 59l121 -83z" />
    <glyph glyph-name="uni019F" unicode="&#x19f;" horiz-adv-x="630" 
d="M526 617.5q74 -92.5 74 -270.5q0 -176 -74.5 -270t-210.5 -94t-210.5 93t-74.5 271q0 175 74.5 269t210.5 94q137 0 211 -92.5zM228.5 547q-30.5 -46 -36.5 -150h246q-6 104 -36 150t-87 46q-56 0 -86.5 -46zM404 147.5q30 47.5 34 157.5h-246q4 -110 34.5 -157.5
t88.5 -47.5q59 0 89 47.5z" />
    <glyph glyph-name="Ocircumflex" unicode="&#xd4;" horiz-adv-x="630" 
d="M526 617.5q74 -92.5 74 -270.5q0 -176 -74.5 -270t-210.5 -94t-210.5 93t-74.5 271q0 175 74.5 269t210.5 94q137 0 211 -92.5zM225.5 536q-28.5 -57 -28.5 -189q0 -134 29 -190.5t89 -56.5q61 0 89.5 56.5t28.5 190.5q0 132 -28.5 189t-89.5 57t-89.5 -57zM194 758
l-54 58l129 131h92l128 -131l-53 -58l-121 83z" />
    <glyph glyph-name="uni1ED0" unicode="&#x1ed0;" horiz-adv-x="630" 
d="M526 617.5q74 -92.5 74 -270.5q0 -176 -74.5 -270t-210.5 -94t-210.5 93t-74.5 271q0 175 74.5 269t210.5 94q137 0 211 -92.5zM225.5 536q-28.5 -57 -28.5 -189q0 -134 29 -190.5t89 -56.5q61 0 89.5 56.5t28.5 190.5q0 132 -28.5 189t-89.5 57t-89.5 -57zM194 724
l-54 58l129 131h92l128 -131l-53 -58l-121 83zM530 1089l87 -79l-150 -143l-59 51z" />
    <glyph glyph-name="uni1ED8" unicode="&#x1ed8;" horiz-adv-x="630" 
d="M526 617.5q74 -92.5 74 -270.5q0 -176 -74.5 -270t-210.5 -94t-210.5 93t-74.5 271q0 175 74.5 269t210.5 94q137 0 211 -92.5zM225.5 536q-28.5 -57 -28.5 -189q0 -134 29 -190.5t89 -56.5q61 0 89.5 56.5t28.5 190.5q0 132 -28.5 189t-89.5 57t-89.5 -57zM194 758
l-54 58l129 131h92l128 -131l-53 -58l-121 83zM251.5 -212q-25.5 25 -25.5 62q0 38 25.5 63t64.5 25t64 -25t25 -63q0 -37 -25 -62t-64 -25t-64.5 25z" />
    <glyph glyph-name="uni1ED2" unicode="&#x1ed2;" horiz-adv-x="630" 
d="M526 617.5q74 -92.5 74 -270.5q0 -176 -74.5 -270t-210.5 -94t-210.5 93t-74.5 271q0 175 74.5 269t210.5 94q137 0 211 -92.5zM225.5 536q-28.5 -57 -28.5 -189q0 -134 29 -190.5t89 -56.5q61 0 89.5 56.5t28.5 190.5q0 132 -28.5 189t-89.5 57t-89.5 -57zM193 724
l-54 58l129 131h92l128 -131l-53 -58l-121 83zM100 1089l123 -171l-60 -51l-150 143z" />
    <glyph glyph-name="uni1ED4" unicode="&#x1ed4;" horiz-adv-x="630" 
d="M526 617.5q74 -92.5 74 -270.5q0 -176 -74.5 -270t-210.5 -94t-210.5 93t-74.5 271q0 175 74.5 269t210.5 94q137 0 211 -92.5zM225.5 536q-28.5 -57 -28.5 -189q0 -134 29 -190.5t89 -56.5q61 0 89.5 56.5t28.5 190.5q0 132 -28.5 189t-89.5 57t-89.5 -57zM193 724
l-54 58l129 131h92l128 -131l-53 -58l-121 83zM429 943q35 2 49.5 10t14.5 28q0 15 -9.5 23t-25.5 8q-15 0 -26.5 -3t-28.5 -9l-24 64q41 26 101 26q54 0 84 -28t30 -73q0 -39 -19.5 -62t-56.5 -30v-43h-89v89z" />
    <glyph glyph-name="uni1ED6" unicode="&#x1ed6;" horiz-adv-x="630" 
d="M526 617.5q74 -92.5 74 -270.5q0 -176 -74.5 -270t-210.5 -94t-210.5 93t-74.5 271q0 175 74.5 269t210.5 94q137 0 211 -92.5zM225.5 536q-28.5 -57 -28.5 -189q0 -134 29 -190.5t89 -56.5q61 0 89.5 56.5t28.5 190.5q0 132 -28.5 189t-89.5 57t-89.5 -57zM192 724
l-54 58l129 131h92l128 -131l-53 -58l-121 83zM333 948q-14 6 -34 18q-12 8 -20 12t-17 4q-15 0 -25.5 -9t-22.5 -31l-74 33q18 48 49 77.5t70 29.5q20 0 35 -6t34 -18q9 -6 18.5 -10.5t18.5 -4.5q14 0 24.5 9t22.5 29l74 -33q-18 -48 -49 -77t-70 -29q-20 0 -34 6z" />
    <glyph glyph-name="uni020C" unicode="&#x20c;" horiz-adv-x="630" 
d="M526 617.5q74 -92.5 74 -270.5q0 -176 -74.5 -270t-210.5 -94t-210.5 93t-74.5 271q0 175 74.5 269t210.5 94q137 0 211 -92.5zM225.5 536q-28.5 -57 -28.5 -189q0 -134 29 -190.5t89 -56.5q61 0 89.5 56.5t28.5 190.5q0 132 -28.5 189t-89.5 57t-89.5 -57zM194 983
l89 -195l-76 -36l-112 180zM356 983l81 -195l-77 -32l-104 179z" />
    <glyph glyph-name="Odieresis" unicode="&#xd6;" horiz-adv-x="630" 
d="M526 617.5q74 -92.5 74 -270.5q0 -176 -74.5 -270t-210.5 -94t-210.5 93t-74.5 271q0 175 74.5 269t210.5 94q137 0 211 -92.5zM225.5 536q-28.5 -57 -28.5 -189q0 -134 29 -190.5t89 -56.5q61 0 89.5 56.5t28.5 190.5q0 132 -28.5 189t-89.5 57t-89.5 -57zM265 901
q22 -22 22 -55t-22 -55.5t-55 -22.5q-32 0 -54.5 22.5t-22.5 55.5q0 32 22.5 54.5t54.5 22.5q33 0 55 -22zM477.5 901q22.5 -22 22.5 -55t-22 -55.5t-56 -22.5q-32 0 -54.5 22.5t-22.5 55.5q0 32 22.5 54.5t54.5 22.5q33 0 55.5 -22z" />
    <glyph glyph-name="uni022A" unicode="&#x22a;" horiz-adv-x="630" 
d="M526 617.5q74 -92.5 74 -270.5q0 -176 -74.5 -270t-210.5 -94t-210.5 93t-74.5 271q0 175 74.5 269t210.5 94q137 0 211 -92.5zM225.5 536q-28.5 -57 -28.5 -189q0 -134 29 -190.5t89 -56.5q61 0 89.5 56.5t28.5 190.5q0 132 -28.5 189t-89.5 57t-89.5 -57zM263 878
q22 -22 22 -55t-22 -55.5t-55 -22.5q-32 0 -54.5 22.5t-22.5 55.5q0 32 22.5 54.5t54.5 22.5q33 0 55 -22zM475.5 878q22.5 -22 22.5 -55t-22 -55.5t-56 -22.5q-32 0 -54.5 22.5t-22.5 55.5q0 32 22.5 54.5t54.5 22.5q33 0 55.5 -22zM456 942h-280v105h280v-105z" />
    <glyph glyph-name="uni022E" unicode="&#x22e;" horiz-adv-x="630" 
d="M526 617.5q74 -92.5 74 -270.5q0 -176 -74.5 -270t-210.5 -94t-210.5 93t-74.5 271q0 175 74.5 269t210.5 94q137 0 211 -92.5zM225.5 536q-28.5 -57 -28.5 -189q0 -134 29 -190.5t89 -56.5q61 0 89.5 56.5t28.5 190.5q0 132 -28.5 189t-89.5 57t-89.5 -57zM378.5 909
q25.5 -25 25.5 -62q0 -38 -25.5 -63t-64.5 -25t-64 25t-25 63q0 37 25 62t64 25t64.5 -25z" />
    <glyph glyph-name="uni0230" unicode="&#x230;" horiz-adv-x="630" 
d="M526 617.5q74 -92.5 74 -270.5q0 -176 -74.5 -270t-210.5 -94t-210.5 93t-74.5 271q0 175 74.5 269t210.5 94q137 0 211 -92.5zM225.5 536q-28.5 -57 -28.5 -189q0 -134 29 -190.5t89 -56.5q61 0 89.5 56.5t28.5 190.5q0 132 -28.5 189t-89.5 57t-89.5 -57zM378.5 887
q25.5 -25 25.5 -62q0 -38 -25.5 -63t-64.5 -25t-64 25t-25 63q0 37 25 62t64 25t64.5 -25zM455 942h-280v105h280v-105z" />
    <glyph glyph-name="uni1ECC" unicode="&#x1ecc;" horiz-adv-x="630" 
d="M526 617.5q74 -92.5 74 -270.5q0 -176 -74.5 -270t-210.5 -94t-210.5 93t-74.5 271q0 175 74.5 269t210.5 94q137 0 211 -92.5zM225.5 536q-28.5 -57 -28.5 -189q0 -134 29 -190.5t89 -56.5q61 0 89.5 56.5t28.5 190.5q0 132 -28.5 189t-89.5 57t-89.5 -57zM251.5 -212
q-25.5 25 -25.5 62q0 38 25.5 63t64.5 25t64 -25t25 -63q0 -37 -25 -62t-64 -25t-64.5 25z" />
    <glyph glyph-name="Ograve" unicode="&#xd2;" horiz-adv-x="630" 
d="M526 617.5q74 -92.5 74 -270.5q0 -176 -74.5 -270t-210.5 -94t-210.5 93t-74.5 271q0 175 74.5 269t210.5 94q137 0 211 -92.5zM225.5 536q-28.5 -57 -28.5 -189q0 -134 29 -190.5t89 -56.5q61 0 89.5 56.5t28.5 190.5q0 132 -28.5 189t-89.5 57t-89.5 -57zM242 949
l200 -122l-39 -76l-219 85z" />
    <glyph glyph-name="uni1ECE" unicode="&#x1ece;" horiz-adv-x="630" 
d="M526 617.5q74 -92.5 74 -270.5q0 -176 -74.5 -270t-210.5 -94t-210.5 93t-74.5 271q0 175 74.5 269t210.5 94q137 0 211 -92.5zM225.5 536q-28.5 -57 -28.5 -189q0 -134 29 -190.5t89 -56.5q61 0 89.5 56.5t28.5 190.5q0 132 -28.5 189t-89.5 57t-89.5 -57zM270 853
q35 2 49.5 10t14.5 28q0 15 -9.5 23t-25.5 8q-15 0 -26.5 -3t-28.5 -9l-24 64q41 26 101 26q54 0 84 -28t30 -73q0 -39 -19.5 -62t-56.5 -30v-43h-89v89z" />
    <glyph glyph-name="Ohorn" unicode="&#x1a0;" horiz-adv-x="661" 
d="M629 604q-25 -30 -70 -40q41 -85 41 -217q0 -176 -74.5 -270t-210.5 -94t-210.5 93t-74.5 271q0 175 74.5 269t210.5 94q124 0 196 -76q21 3 30.5 15.5t9.5 36.5q0 23 -2.5 38t-8.5 34l97 15q17 -40 17 -89q0 -50 -25 -80zM404.5 156.5q28.5 56.5 28.5 190.5
q0 132 -28.5 189t-89.5 57t-89.5 -57t-28.5 -189q0 -134 29 -190.5t89 -56.5q61 0 89.5 56.5z" />
    <glyph glyph-name="uni1EDA" unicode="&#x1eda;" horiz-adv-x="661" 
d="M444 837l-219 -86l-39 77l200 122zM629 604q-25 -30 -70 -40q41 -85 41 -217q0 -176 -74.5 -270t-210.5 -94t-210.5 93t-74.5 271q0 175 74.5 269t210.5 94q124 0 196 -76q21 3 30.5 15.5t9.5 36.5q0 23 -2.5 38t-8.5 34l97 15q17 -40 17 -89q0 -50 -25 -80zM404.5 156.5
q28.5 56.5 28.5 190.5q0 132 -28.5 189t-89.5 57t-89.5 -57t-28.5 -189q0 -134 29 -190.5t89 -56.5q61 0 89.5 56.5z" />
    <glyph glyph-name="uni1EE2" unicode="&#x1ee2;" horiz-adv-x="661" 
d="M629 604q-25 -30 -70 -40q41 -85 41 -217q0 -176 -74.5 -270t-210.5 -94t-210.5 93t-74.5 271q0 175 74.5 269t210.5 94q124 0 196 -76q21 3 30.5 15.5t9.5 36.5q0 23 -2.5 38t-8.5 34l97 15q17 -40 17 -89q0 -50 -25 -80zM404.5 156.5q28.5 56.5 28.5 190.5
q0 132 -28.5 189t-89.5 57t-89.5 -57t-28.5 -189q0 -134 29 -190.5t89 -56.5q61 0 89.5 56.5zM380 -87q25 -25 25 -63q0 -37 -25 -62t-64 -25t-64.5 25t-25.5 62q0 38 25.5 63t64.5 25t64 -25z" />
    <glyph glyph-name="uni1EDC" unicode="&#x1edc;" horiz-adv-x="661" 
d="M442 827l-39 -76l-219 85l58 113zM629 604q-25 -30 -70 -40q41 -85 41 -217q0 -176 -74.5 -270t-210.5 -94t-210.5 93t-74.5 271q0 175 74.5 269t210.5 94q124 0 196 -76q21 3 30.5 15.5t9.5 36.5q0 23 -2.5 38t-8.5 34l97 15q17 -40 17 -89q0 -50 -25 -80zM404.5 156.5
q28.5 56.5 28.5 190.5q0 132 -28.5 189t-89.5 57t-89.5 -57t-28.5 -189q0 -134 29 -190.5t89 -56.5q61 0 89.5 56.5z" />
    <glyph glyph-name="uni1EDE" unicode="&#x1ede;" horiz-adv-x="661" 
d="M272.5 919q-11.5 -3 -28.5 -9l-24 64q41 26 101 26q54 0 84 -28t30 -73q0 -39 -19.5 -62t-56.5 -30v-43h-89v89q35 2 49.5 10t14.5 28q0 15 -9.5 23t-25.5 8q-15 0 -26.5 -3zM629 604q-25 -30 -70 -40q41 -85 41 -217q0 -176 -74.5 -270t-210.5 -94t-210.5 93t-74.5 271
q0 175 74.5 269t210.5 94q124 0 196 -76q21 3 30.5 15.5t9.5 36.5q0 23 -2.5 38t-8.5 34l97 15q17 -40 17 -89q0 -50 -25 -80zM404.5 156.5q28.5 56.5 28.5 190.5q0 132 -28.5 189t-89.5 57t-89.5 -57t-28.5 -189q0 -134 29 -190.5t89 -56.5q61 0 89.5 56.5z" />
    <glyph glyph-name="uni1EE0" unicode="&#x1ee0;" horiz-adv-x="661" 
d="M239 797.5q-10 -9.5 -23 -32.5l-74 35q18 51 49 82.5t70 31.5q20 0 35 -6.5t34 -19.5q2 -1 10 -6t14.5 -7.5t12.5 -2.5q14 0 24.5 9.5t22.5 31.5l74 -35q-18 -52 -49 -82.5t-70 -30.5q-20 0 -33.5 6t-34.5 19q-13 9 -20.5 13t-16.5 4q-15 0 -25 -9.5zM629 604
q-25 -30 -70 -40q41 -85 41 -217q0 -176 -74.5 -270t-210.5 -94t-210.5 93t-74.5 271q0 175 74.5 269t210.5 94q124 0 196 -76q21 3 30.5 15.5t9.5 36.5q0 23 -2.5 38t-8.5 34l97 15q17 -40 17 -89q0 -50 -25 -80zM404.5 156.5q28.5 56.5 28.5 190.5q0 132 -28.5 189
t-89.5 57t-89.5 -57t-28.5 -189q0 -134 29 -190.5t89 -56.5q61 0 89.5 56.5z" />
    <glyph glyph-name="Ohungarumlaut" unicode="&#x150;" horiz-adv-x="630" 
d="M526 617.5q74 -92.5 74 -270.5q0 -176 -74.5 -270t-210.5 -94t-210.5 93t-74.5 271q0 175 74.5 269t210.5 94q137 0 211 -92.5zM225.5 536q-28.5 -57 -28.5 -189q0 -134 29 -190.5t89 -56.5q61 0 89.5 56.5t28.5 190.5q0 132 -28.5 189t-89.5 57t-89.5 -57zM275 983
l101 -48l-105 -179l-77 32zM437 983l99 -51l-112 -180l-75 36z" />
    <glyph glyph-name="uni01A2" unicode="&#x1a2;" horiz-adv-x="873" 
d="M768 662q51 -48 51 -136v-735h-161v743q0 64 -50 64q-17 0 -30.5 -3.5t-29.5 -11.5q52 -90 52 -236q0 -176 -74.5 -270t-210.5 -94t-210.5 93t-74.5 271q0 175 74.5 269t210.5 94q97 0 164 -49q66 49 151 49q87 0 138 -48zM404.5 156.5q28.5 56.5 28.5 190.5
q0 132 -28.5 189t-89.5 57t-89.5 -57t-28.5 -189q0 -134 29 -190.5t89 -56.5q61 0 89.5 56.5z" />
    <glyph glyph-name="uni020E" unicode="&#x20e;" horiz-adv-x="630" 
d="M526 617.5q74 -92.5 74 -270.5q0 -176 -74.5 -270t-210.5 -94t-210.5 93t-74.5 271q0 175 74.5 269t210.5 94q137 0 211 -92.5zM225.5 536q-28.5 -57 -28.5 -189q0 -134 29 -190.5t89 -56.5q61 0 89.5 56.5t28.5 190.5q0 132 -28.5 189t-89.5 57t-89.5 -57zM427 903.5
q41 -46.5 46 -123.5l-83 -15q-8 38 -27 58.5t-49 20.5q-57 0 -75 -79l-83 15q5 77 45.5 123.5t112.5 46.5t113 -46.5z" />
    <glyph glyph-name="Omacron" unicode="&#x14c;" horiz-adv-x="630" 
d="M526 617.5q74 -92.5 74 -270.5q0 -176 -74.5 -270t-210.5 -94t-210.5 93t-74.5 271q0 175 74.5 269t210.5 94q137 0 211 -92.5zM225.5 536q-28.5 -57 -28.5 -189q0 -134 29 -190.5t89 -56.5q61 0 89.5 56.5t28.5 190.5q0 132 -28.5 189t-89.5 57t-89.5 -57zM455 783h-280
v105h280v-105z" />
    <glyph glyph-name="uni1E52" unicode="&#x1e52;" horiz-adv-x="630" 
d="M526 617.5q74 -92.5 74 -270.5q0 -176 -74.5 -270t-210.5 -94t-210.5 93t-74.5 271q0 175 74.5 269t210.5 94q137 0 211 -92.5zM225.5 536q-28.5 -57 -28.5 -189q0 -134 29 -190.5t89 -56.5q61 0 89.5 56.5t28.5 190.5q0 132 -28.5 189t-89.5 57t-89.5 -57zM455 762h-280
v105h280v-105zM383 1099l58 -113l-219 -86l-39 77z" />
    <glyph glyph-name="uni1E50" unicode="&#x1e50;" horiz-adv-x="630" 
d="M243 1105l200 -122l-39 -76l-219 85zM455 762h-280v105h280v-105zM526 617.5q74 -92.5 74 -270.5q0 -176 -74.5 -270t-210.5 -94t-210.5 93t-74.5 271q0 175 74.5 269t210.5 94q137 0 211 -92.5zM225.5 536q-28.5 -57 -28.5 -189q0 -134 29 -190.5t89 -56.5
q61 0 89.5 56.5t28.5 190.5q0 132 -28.5 189t-89.5 57t-89.5 -57z" />
    <glyph glyph-name="uniA7B6" unicode="&#xa7b6;" horiz-adv-x="810" 
d="M749 518q19 -92 19 -216q0 -166 -52 -242.5t-152 -76.5q-64 0 -103 29.5t-56 91.5q-15 -61 -54.5 -91t-98.5 -30q-107 0 -158.5 75t-51.5 244q0 124 19 216t52 175h148q-29 -102 -44 -187t-15 -196q0 -80 7 -125.5t22.5 -64.5t41.5 -19q54 0 54 73v225h158v-225
q0 -39 13.5 -56.5t41.5 -17.5q24 0 38.5 18t22 63.5t7.5 127.5q0 112 -16.5 197.5t-48.5 186.5h154q33 -83 52 -175z" />
    <glyph glyph-name="uni01EA" unicode="&#x1ea;" horiz-adv-x="630" 
d="M553.5 120.5q-46.5 -88.5 -134.5 -120.5q-60 -25 -82.5 -50.5t-22.5 -52.5q0 -46 47 -46q19 0 54 7l-10 -95q-30 -8 -63 -8q-61 0 -99.5 31t-38.5 84q0 68 60 117q-113 16 -173.5 107.5t-60.5 252.5q0 175 74.5 269t210.5 94q137 0 211 -92.5t74 -270.5
q0 -138 -46.5 -226.5zM404.5 156.5q28.5 56.5 28.5 190.5q0 132 -28.5 189t-89.5 57t-89.5 -57t-28.5 -189q0 -134 29 -190.5t89 -56.5q61 0 89.5 56.5z" />
    <glyph glyph-name="uni01EC" unicode="&#x1ec;" horiz-adv-x="630" 
d="M455 888v-105h-280v105h280zM553.5 120.5q-46.5 -88.5 -134.5 -120.5q-60 -25 -82.5 -50.5t-22.5 -52.5q0 -46 47 -46q19 0 54 7l-10 -95q-30 -8 -63 -8q-61 0 -99.5 31t-38.5 84q0 68 60 117q-113 16 -173.5 107.5t-60.5 252.5q0 175 74.5 269t210.5 94q137 0 211 -92.5
t74 -270.5q0 -138 -46.5 -226.5zM404.5 156.5q28.5 56.5 28.5 190.5q0 132 -28.5 189t-89.5 57t-89.5 -57t-28.5 -189q0 -134 29 -190.5t89 -56.5q61 0 89.5 56.5z" />
    <glyph glyph-name="uni0186" unicode="&#x186;" horiz-adv-x="524" 
d="M419.5 617.5q74.5 -92.5 74.5 -269.5q0 -119 -35.5 -201t-100 -123t-151.5 -41q-63 0 -114 25t-88 64l72 88q34 -27 60.5 -40t61.5 -13q61 0 94.5 56t33.5 185q0 132 -30.5 187.5t-88.5 55.5q-34 0 -62 -12t-57 -35l-77 90q43 38 92.5 57t113.5 19q127 0 201.5 -92.5z
" />
    <glyph glyph-name="Oslash" unicode="&#xd8;" horiz-adv-x="630" 
d="M566.5 547q33.5 -81 33.5 -200q0 -175 -74.5 -269.5t-210.5 -94.5q-15 0 -39 2l-33 -119l-118 32l36 126q-64 42 -97.5 123t-33.5 200q0 175 74.5 269t210.5 94q15 0 39 -2l33 119l119 -32l-37 -126q64 -41 97.5 -122zM221.5 537.5q-29.5 -56.5 -29.5 -190.5
q0 -148 32 -204l115 449q-14 2 -24 2q-64 0 -93.5 -56.5zM385.5 123q26.5 24 39 78t13.5 146q0 145 -32 200l-115 -447q8 -1 24 -1q44 0 70.5 24z" />
    <glyph glyph-name="Oslashacute" unicode="&#x1fe;" horiz-adv-x="630" 
d="M566.5 547q33.5 -81 33.5 -200q0 -175 -74.5 -269.5t-210.5 -94.5q-15 0 -39 2l-33 -119l-118 32l36 126q-64 42 -97.5 123t-33.5 200q0 175 74.5 269t210.5 94q15 0 39 -2l33 119l119 -32l-37 -126q64 -41 97.5 -122zM221.5 537.5q-29.5 -56.5 -29.5 -190.5
q0 -148 32 -204l115 449q-14 2 -24 2q-64 0 -93.5 -56.5zM385.5 123q26.5 24 39 78t13.5 146q0 145 -32 200l-115 -447q8 -1 24 -1q44 0 70.5 24zM385 983l58 -113l-219 -86l-39 77z" />
    <glyph glyph-name="Otilde" unicode="&#xd5;" horiz-adv-x="630" 
d="M526 617.5q74 -92.5 74 -270.5q0 -176 -74.5 -270t-210.5 -94t-210.5 93t-74.5 271q0 175 74.5 269t210.5 94q137 0 211 -92.5zM225.5 536q-28.5 -57 -28.5 -189q0 -134 29 -190.5t89 -56.5q61 0 89.5 56.5t28.5 190.5q0 132 -28.5 189t-89.5 57t-89.5 -57zM335.5 771
q-13.5 6 -34.5 19q-13 9 -20.5 13t-16.5 4q-15 0 -25 -9.5t-23 -32.5l-74 35q18 51 49 82.5t70 31.5q20 0 35 -6.5t34 -19.5q2 -1 10 -6t14.5 -7.5t12.5 -2.5q14 0 24.5 9.5t22.5 31.5l74 -35q-18 -52 -49 -82.5t-70 -30.5q-20 0 -33.5 6z" />
    <glyph glyph-name="uni1E4C" unicode="&#x1e4c;" horiz-adv-x="630" 
d="M526 617.5q74 -92.5 74 -270.5q0 -176 -74.5 -270t-210.5 -94t-210.5 93t-74.5 271q0 175 74.5 269t210.5 94q137 0 211 -92.5zM225.5 536q-28.5 -57 -28.5 -189q0 -134 29 -190.5t89 -56.5q61 0 89.5 56.5t28.5 190.5q0 132 -28.5 189t-89.5 57t-89.5 -57zM335.5 765
q-13.5 6 -34.5 19q-13 9 -20.5 13t-16.5 4q-15 0 -25 -9.5t-23 -32.5l-74 35q18 51 49 82.5t70 31.5q20 0 35 -6.5t34 -19.5q2 -1 10 -6t14.5 -7.5t12.5 -2.5q14 0 24.5 9.5t22.5 31.5l74 -35q-18 -52 -49 -82.5t-70 -30.5q-20 0 -33.5 6zM386 1124l58 -113l-219 -86l-39 77
z" />
    <glyph glyph-name="uni022C" unicode="&#x22c;" horiz-adv-x="630" 
d="M526 617.5q74 -92.5 74 -270.5q0 -176 -74.5 -270t-210.5 -94t-210.5 93t-74.5 271q0 175 74.5 269t210.5 94q137 0 211 -92.5zM225.5 536q-28.5 -57 -28.5 -189q0 -134 29 -190.5t89 -56.5q61 0 89.5 56.5t28.5 190.5q0 132 -28.5 189t-89.5 57t-89.5 -57zM335.5 765
q-13.5 6 -34.5 19q-13 9 -20.5 13t-16.5 4q-15 0 -25 -9.5t-23 -32.5l-74 35q18 51 49 82.5t70 31.5q20 0 35 -6.5t34 -19.5q2 -1 10 -6t14.5 -7.5t12.5 -2.5q14 0 24.5 9.5t22.5 31.5l74 -35q-18 -52 -49 -82.5t-70 -30.5q-20 0 -33.5 6zM455 944h-280v105h280v-105z" />
    <glyph glyph-name="OE" unicode="&#x152;" horiz-adv-x="820" 
d="M517 116h274v-116h-402q-40 -17 -89 -17q-83 0 -143.5 42.5t-93.5 124t-33 197.5q0 114 33 195.5t94 124.5t143 43q50 0 92 -17h401l-17 -114h-259q48 -67 61 -170h171v-113h-170q-11 -108 -62 -180zM388 157q27 57 27 190q0 132 -27 189t-82 57t-82 -57t-27 -189
t27.5 -189.5t81.5 -57.5q55 0 82 57z" />
    <glyph glyph-name="P" unicode="P" horiz-adv-x="544" 
d="M457.5 636q71.5 -57 71.5 -168q0 -117 -69.5 -176.5t-191.5 -59.5h-53v-232h-160v693h198q133 0 204.5 -57zM338 375.5q27 27.5 27 91.5q0 57 -26.5 84.5t-83.5 27.5h-40v-231h40q56 0 83 27.5z" />
    <glyph glyph-name="uni1E54" unicode="&#x1e54;" horiz-adv-x="544" 
d="M457.5 636q71.5 -57 71.5 -168q0 -117 -69.5 -176.5t-191.5 -59.5h-53v-232h-160v693h198q133 0 204.5 -57zM338 375.5q27 27.5 27 91.5q0 57 -26.5 84.5t-83.5 27.5h-40v-231h40q56 0 83 27.5zM346 950l58 -113l-219 -86l-39 77z" />
    <glyph glyph-name="uni1E56" unicode="&#x1e56;" horiz-adv-x="544" 
d="M457.5 636q71.5 -57 71.5 -168q0 -117 -69.5 -176.5t-191.5 -59.5h-53v-232h-160v693h198q133 0 204.5 -57zM338 375.5q27 27.5 27 91.5q0 57 -26.5 84.5t-83.5 27.5h-40v-231h40q56 0 83 27.5zM338.5 909q25.5 -25 25.5 -62q0 -38 -25.5 -63t-64.5 -25t-64 25t-25 63
q0 37 25 62t64 25t64.5 -25z" />
    <glyph glyph-name="uni01A4" unicode="&#x1a4;" horiz-adv-x="680" 
d="M593.5 636q71.5 -57 71.5 -168q0 -117 -69.5 -176.5t-191.5 -59.5h-53v-232h-160v579h-24q-41 0 -41 -42q0 -27 17 -68l-98 -43q-20 31 -31 60t-11 64q0 66 45.5 104.5t126.5 38.5h214q133 0 204.5 -57zM474 375.5q27 27.5 27 91.5q0 57 -26.5 84.5t-83.5 27.5h-40v-231
h40q56 0 83 27.5z" />
    <glyph glyph-name="Thorn" unicode="&#xde;" horiz-adv-x="544" 
d="M459 526.5q70 -57.5 70 -170.5q0 -121 -68.5 -181t-187.5 -60h-58v-115h-160v693h160v-109h46q128 0 198 -57.5zM339.5 259q26.5 29 26.5 97q0 60 -27 87t-82 27h-42v-240h44q54 0 80.5 29z" />
    <glyph glyph-name="Q" unicode="Q" horiz-adv-x="630" 
d="M555.5 28q44.5 -16 85.5 -50l-96 -122q-49 62 -104 96t-136 34q-129 0 -202 93.5t-73 267.5t74.5 268.5t210.5 94.5t210.5 -93t74.5 -270q0 -120 -41 -190.5t-110 -112.5q62 0 106.5 -16zM226 157.5q29 -56.5 89 -56.5q62 0 90 56t28 190q0 133 -28.5 189.5t-89.5 56.5
t-89.5 -56.5t-28.5 -189.5t29 -189.5z" />
    <glyph glyph-name="uni024A" unicode="&#x24a;" horiz-adv-x="613" 
d="M720 -179q-55 -42 -133 -42q-86 0 -137 45.5t-51 134.5v41h-1v30q-52 -47 -124 -47q-71 0 -126 40t-86.5 119.5t-31.5 192.5q0 119 32 203.5t87.5 128t126.5 43.5q78 0 134 -54l6 37h143v-743q0 -55 47 -55q17 0 30 4t31 14zM398 135v420q-36 38 -87 38q-57 0 -85.5 -59
t-28.5 -199q0 -132 28 -184.5t84 -52.5q52 0 89 37z" />
    <glyph glyph-name="R" unicode="R" horiz-adv-x="562" 
d="M267 266h-52v-266h-160v693h203q136 0 203 -52.5t67 -157.5q0 -133 -117 -187l157 -296h-175zM215 377h49q52 0 76 25.5t24 80.5q0 50 -26 73.5t-82 23.5h-41v-203z" />
    <glyph glyph-name="Racute" unicode="&#x154;" horiz-adv-x="562" 
d="M267 266h-52v-266h-160v693h203q136 0 203 -52.5t67 -157.5q0 -133 -117 -187l157 -296h-175zM215 377h49q52 0 76 25.5t24 80.5q0 50 -26 73.5t-82 23.5h-41v-203zM346 950l58 -113l-219 -86l-39 77z" />
    <glyph glyph-name="Rcaron" unicode="&#x158;" horiz-adv-x="562" 
d="M267 266h-52v-266h-160v693h203q136 0 203 -52.5t67 -157.5q0 -133 -117 -187l157 -296h-175zM215 377h49q52 0 76 25.5t24 80.5q0 50 -26 73.5t-82 23.5h-41v-203zM396 939l53 -59l-128 -130h-93l-128 130l54 59l121 -83z" />
    <glyph glyph-name="Rcommaaccent" unicode="&#x156;" horiz-adv-x="562" 
d="M267 266h-52v-266h-160v693h203q136 0 203 -52.5t67 -157.5q0 -133 -117 -187l157 -296h-175zM215 377h49q52 0 76 25.5t24 80.5q0 50 -26 73.5t-82 23.5h-41v-203zM337 -89.5q21 -21.5 21 -54.5q0 -19 -5 -36.5t-19 -47.5l-42 -95h-76l26 115q-34 24 -34 64
q0 31 21.5 53.5t53.5 22.5q33 0 54 -21.5z" />
    <glyph glyph-name="uni0210" unicode="&#x210;" horiz-adv-x="562" 
d="M267 266h-52v-266h-160v693h203q136 0 203 -52.5t67 -157.5q0 -133 -117 -187l157 -296h-175zM215 377h49q52 0 76 25.5t24 80.5q0 50 -26 73.5t-82 23.5h-41v-203zM154 983l89 -195l-76 -36l-112 180zM316 983l81 -195l-77 -32l-104 179z" />
    <glyph glyph-name="uni1E5A" unicode="&#x1e5a;" horiz-adv-x="562" 
d="M267 266h-52v-266h-160v693h203q136 0 203 -52.5t67 -157.5q0 -133 -117 -187l157 -296h-175zM215 377h49q52 0 76 25.5t24 80.5q0 50 -26 73.5t-82 23.5h-41v-203zM219.5 -212q-25.5 25 -25.5 62q0 38 25.5 63t64.5 25t64 -25t25 -63q0 -37 -25 -62t-64 -25t-64.5 25z
" />
    <glyph glyph-name="uni0212" unicode="&#x212;" horiz-adv-x="562" 
d="M267 266h-52v-266h-160v693h203q136 0 203 -52.5t67 -157.5q0 -133 -117 -187l157 -296h-175zM215 377h49q52 0 76 25.5t24 80.5q0 50 -26 73.5t-82 23.5h-41v-203zM387 903.5q41 -46.5 46 -123.5l-83 -15q-8 38 -27 58.5t-49 20.5q-57 0 -75 -79l-83 15q5 77 45.5 123.5
t112.5 46.5t113 -46.5z" />
    <glyph glyph-name="uni024C" unicode="&#x24c;" horiz-adv-x="574" 
d="M405 0l-126 266h-52v-266h-160v266h-53v111h53v316h203q136 0 203 -52.5t67 -157.5q0 -133 -117 -187l157 -296h-175zM276 377q52 0 76 25.5t24 80.5q0 50 -26 73.5t-82 23.5h-41v-203h49z" />
    <glyph glyph-name="uni2C64" unicode="&#x2c64;" horiz-adv-x="562" 
d="M262 -105q17 0 30 4t31 14l53 -92q-55 -42 -133 -42q-86 0 -137 45.5t-51 134.5v734h203q136 0 203 -52.5t67 -157.5q0 -133 -117 -187l157 -296h-175l-126 266h-52v-316q0 -55 47 -55zM215 580v-203h49q52 0 76 25.5t24 80.5q0 50 -26 73.5t-82 23.5h-41z" />
    <glyph glyph-name="uni2C64.ss01" horiz-adv-x="402" 
d="M262 -105q17 0 30 4t31 14l53 -92q-55 -42 -133 -42q-86 0 -137 45.5t-51 134.5v734h140l12 -91q19 50 55.5 78t86.5 28q36 0 60 -9l-25 -152q-26 7 -55 7q-48 0 -74.5 -30.5t-39.5 -89.5v-484q0 -55 47 -55z" />
    <glyph glyph-name="S" unicode="S" horiz-adv-x="519" 
d="M385.5 687.5q53.5 -22.5 97.5 -66.5l-73 -84q-65 56 -133 56q-38 0 -60 -19t-22 -52q0 -22 10 -37t35 -29t74 -32q64 -24 103.5 -51.5t60.5 -68.5t21 -102q0 -64 -30.5 -113.5t-88 -77.5t-134.5 -28q-145 0 -241 98l78 87q37 -32 74.5 -49t79.5 -17q46 0 71 24t25 64
q0 38 -23 61t-87 46q-104 39 -148 88t-44 125q0 59 30 104.5t82.5 70.5t118.5 25q70 0 123.5 -22.5z" />
    <glyph glyph-name="Sacute" unicode="&#x15a;" horiz-adv-x="519" 
d="M385.5 687.5q53.5 -22.5 97.5 -66.5l-73 -84q-65 56 -133 56q-38 0 -60 -19t-22 -52q0 -22 10 -37t35 -29t74 -32q64 -24 103.5 -51.5t60.5 -68.5t21 -102q0 -64 -30.5 -113.5t-88 -77.5t-134.5 -28q-145 0 -241 98l78 87q37 -32 74.5 -49t79.5 -17q46 0 71 24t25 64
q0 38 -23 61t-87 46q-104 39 -148 88t-44 125q0 59 30 104.5t82.5 70.5t118.5 25q70 0 123.5 -22.5zM339 950l58 -113l-219 -86l-39 77z" />
    <glyph glyph-name="Sacute.loclPLK" horiz-adv-x="519" 
d="M385.5 687.5q53.5 -22.5 97.5 -66.5l-73 -84q-65 56 -133 56q-38 0 -60 -19t-22 -52q0 -22 10 -37t35 -29t74 -32q64 -24 103.5 -51.5t60.5 -68.5t21 -102q0 -64 -30.5 -113.5t-88 -77.5t-134.5 -28q-145 0 -241 98l78 87q37 -32 74.5 -49t79.5 -17q46 0 71 24t25 64
q0 38 -23 61t-87 46q-104 39 -148 88t-44 125q0 59 30 104.5t82.5 70.5t118.5 25q70 0 123.5 -22.5zM285 962l113 -65l-130 -156l-69 40z" />
    <glyph glyph-name="uniA78B" unicode="&#xa78b;" horiz-adv-x="237" 
d="M62 335l-18 358h149l-18 -358h-113z" />
    <glyph glyph-name="Scaron" unicode="&#x160;" horiz-adv-x="519" 
d="M385.5 687.5q53.5 -22.5 97.5 -66.5l-73 -84q-65 56 -133 56q-38 0 -60 -19t-22 -52q0 -22 10 -37t35 -29t74 -32q64 -24 103.5 -51.5t60.5 -68.5t21 -102q0 -64 -30.5 -113.5t-88 -77.5t-134.5 -28q-145 0 -241 98l78 87q37 -32 74.5 -49t79.5 -17q46 0 71 24t25 64
q0 38 -23 61t-87 46q-104 39 -148 88t-44 125q0 59 30 104.5t82.5 70.5t118.5 25q70 0 123.5 -22.5zM389 939l53 -59l-128 -130h-93l-128 130l54 59l121 -83z" />
    <glyph glyph-name="Scedilla" unicode="&#x15e;" horiz-adv-x="519" 
d="M445 57.5q-54 -58.5 -148 -71.5v-37q47 -6 71 -30.5t24 -65.5q0 -51 -37 -82.5t-101 -31.5q-61 0 -105 30l35 69q28 -15 58 -15q41 0 41 31q0 18 -20.5 26.5t-63.5 8.5l11 96q-121 11 -205 96l78 87q37 -32 74.5 -49t79.5 -17q46 0 71 24t25 64q0 38 -23 61t-87 46
q-104 39 -148 88t-44 125q0 59 30 104.5t82.5 70.5t118.5 25q70 0 123.5 -22.5t97.5 -66.5l-73 -84q-65 56 -133 56q-38 0 -60 -19t-22 -52q0 -22 10 -37t35 -29t74 -32q64 -24 103.5 -51.5t60.5 -68.5t21 -102q0 -86 -54 -144.5z" />
    <glyph glyph-name="Scircumflex" unicode="&#x15c;" horiz-adv-x="519" 
d="M385.5 687.5q53.5 -22.5 97.5 -66.5l-73 -84q-65 56 -133 56q-38 0 -60 -19t-22 -52q0 -22 10 -37t35 -29t74 -32q64 -24 103.5 -51.5t60.5 -68.5t21 -102q0 -64 -30.5 -113.5t-88 -77.5t-134.5 -28q-145 0 -241 98l78 87q37 -32 74.5 -49t79.5 -17q46 0 71 24t25 64
q0 38 -23 61t-87 46q-104 39 -148 88t-44 125q0 59 30 104.5t82.5 70.5t118.5 25q70 0 123.5 -22.5zM147 758l-54 58l129 131h92l128 -131l-53 -58l-121 83z" />
    <glyph glyph-name="Scommaaccent" unicode="&#x218;" horiz-adv-x="519" 
d="M385.5 687.5q53.5 -22.5 97.5 -66.5l-73 -84q-65 56 -133 56q-38 0 -60 -19t-22 -52q0 -22 10 -37t35 -29t74 -32q64 -24 103.5 -51.5t60.5 -68.5t21 -102q0 -64 -30.5 -113.5t-88 -77.5t-134.5 -28q-145 0 -241 98l78 87q37 -32 74.5 -49t79.5 -17q46 0 71 24t25 64
q0 38 -23 61t-87 46q-104 39 -148 88t-44 125q0 59 30 104.5t82.5 70.5t118.5 25q70 0 123.5 -22.5zM311 -89.5q21 -21.5 21 -54.5q0 -19 -5 -36.5t-19 -47.5l-42 -95h-76l26 115q-34 24 -34 64q0 31 21.5 53.5t53.5 22.5q33 0 54 -21.5z" />
    <glyph glyph-name="uni1E60" unicode="&#x1e60;" horiz-adv-x="519" 
d="M385.5 687.5q53.5 -22.5 97.5 -66.5l-73 -84q-65 56 -133 56q-38 0 -60 -19t-22 -52q0 -22 10 -37t35 -29t74 -32q64 -24 103.5 -51.5t60.5 -68.5t21 -102q0 -64 -30.5 -113.5t-88 -77.5t-134.5 -28q-145 0 -241 98l78 87q37 -32 74.5 -49t79.5 -17q46 0 71 24t25 64
q0 38 -23 61t-87 46q-104 39 -148 88t-44 125q0 59 30 104.5t82.5 70.5t118.5 25q70 0 123.5 -22.5zM331.5 909q25.5 -25 25.5 -62q0 -38 -25.5 -63t-64.5 -25t-64 25t-25 63q0 37 25 62t64 25t64.5 -25z" />
    <glyph glyph-name="uni1E62" unicode="&#x1e62;" horiz-adv-x="519" 
d="M385.5 687.5q53.5 -22.5 97.5 -66.5l-73 -84q-65 56 -133 56q-38 0 -60 -19t-22 -52q0 -22 10 -37t35 -29t74 -32q64 -24 103.5 -51.5t60.5 -68.5t21 -102q0 -64 -30.5 -113.5t-88 -77.5t-134.5 -28q-145 0 -241 98l78 87q37 -32 74.5 -49t79.5 -17q46 0 71 24t25 64
q0 38 -23 61t-87 46q-104 39 -148 88t-44 125q0 59 30 104.5t82.5 70.5t118.5 25q70 0 123.5 -22.5zM193.5 -212q-25.5 25 -25.5 62q0 38 25.5 63t64.5 25t64 -25t25 -63q0 -37 -25 -62t-64 -25t-64.5 25z" />
    <glyph glyph-name="uni1E9E" unicode="&#x1e9e;" horiz-adv-x="607" 
d="M416.5 692q62.5 -18 129.5 -51v-74l-132 -174q173 -33 173 -197q0 -68 -29.5 -116t-79.5 -72.5t-111 -24.5q-69 0 -119 26l46 104q20 -9 51 -9q36 0 56 23t20 71q0 55 -33 83t-108 34v85l126 173q-58 20 -112 20q-41 0 -60 -23t-19 -70v-500h-160v496q0 99 58 156.5
t167 57.5q74 0 136.5 -18z" />
    <glyph glyph-name="uni018F" unicode="&#x18f;" horiz-adv-x="582" 
d="M481.5 622q69.5 -88 69.5 -270q0 -186 -70.5 -277.5t-197.5 -91.5q-263 0 -263 355q0 16 5 66h365q-3 102 -34 145.5t-91 43.5q-41 0 -73.5 -15t-65.5 -41l-71 85q48 45 102.5 66.5t122.5 21.5q132 0 201.5 -88zM360 143q26 43 30 150h-216q0 -105 28 -149t80 -44t78 43z
" />
    <glyph glyph-name="T" unicode="T" horiz-adv-x="490" 
d="M491 693l-17 -122h-149v-571h-160v571h-158v122h484z" />
    <glyph glyph-name="Tbar" unicode="&#x166;" horiz-adv-x="490" 
d="M474 570h-149v-181h101v-91h-101v-299h-160v299h-102v91h102v181h-158v122h484z" />
    <glyph glyph-name="Tcaron" unicode="&#x164;" horiz-adv-x="490" 
d="M491 693l-17 -122h-149v-571h-160v571h-158v122h484zM366 939l53 -59l-128 -130h-93l-128 130l54 59l121 -83z" />
    <glyph glyph-name="uni0162" unicode="&#x162;" horiz-adv-x="490" 
d="M397 -80q24 -26 24 -67q0 -51 -37.5 -82.5t-101.5 -31.5q-30 0 -57.5 8.5t-46.5 21.5l35 72q29 -18 55 -18q44 0 44 32q0 17 -20 25.5t-64 8.5l13 111h-76v571h-158v122h484l-17 -122h-149v-620q48 -5 72 -31z" />
    <glyph glyph-name="uni1E70" unicode="&#x1e70;" horiz-adv-x="490" 
d="M491 693l-17 -122h-149v-571h-160v571h-158v122h484zM123 -260l-54 59l128 138h93l128 -138l-54 -59l-120 91z" />
    <glyph glyph-name="uni021A" unicode="&#x21a;" horiz-adv-x="490" 
d="M491 693l-17 -122h-149v-571h-160v571h-158v122h484zM299 -89.5q21 -21.5 21 -54.5q0 -19 -5 -36.5t-19 -47.5l-42 -95h-76l26 115q-34 24 -34 64q0 31 21.5 53.5t53.5 22.5q33 0 54 -21.5z" />
    <glyph glyph-name="uni023E" unicode="&#x23e;" horiz-adv-x="491" 
d="M474 576h-74l-85 -194v-382h-140v61l-59 -135l-46 21l105 241v388h-168v117h389l28 65l46 -21l-19 -44h40zM315 508l30 68h-30v-68z" />
    <glyph glyph-name="uni1E6A" unicode="&#x1e6a;" horiz-adv-x="490" 
d="M491 693l-17 -122h-149v-571h-160v571h-158v122h484zM308.5 909q25.5 -25 25.5 -62q0 -38 -25.5 -63t-64.5 -25t-64 25t-25 63q0 37 25 62t64 25t64.5 -25z" />
    <glyph glyph-name="uni1E6C" unicode="&#x1e6c;" horiz-adv-x="490" 
d="M491 693l-17 -122h-149v-571h-160v571h-158v122h484zM181.5 -212q-25.5 25 -25.5 62q0 38 25.5 63t64.5 25t64 -25t25 -63q0 -37 -25 -62t-64 -25t-64.5 25z" />
    <glyph glyph-name="uni01AC" unicode="&#x1ac;" horiz-adv-x="543" 
d="M528 570h-150v-570h-160v570h-48q-43 0 -43 -40q0 -28 14 -59l-103 -45q-35 61 -35 119q0 69 48 108.5t132 39.5h361z" />
    <glyph glyph-name="uni1E6E" unicode="&#x1e6e;" horiz-adv-x="490" 
d="M491 693l-17 -122h-149v-571h-160v571h-158v122h484zM385 -189h-280v105h280v-105z" />
    <glyph glyph-name="uni01BC" unicode="&#x1bc;" horiz-adv-x="496" 
d="M422 583h-225v-155q47 25 95 25q78 0 127 -59t49 -166q0 -73 -30.5 -128.5t-86.5 -86t-131 -30.5q-127 0 -209 101l84 77q26 -30 54.5 -46t64.5 -16q47 0 72.5 32t25.5 96q0 66 -21.5 93t-60.5 27q-19 0 -36.5 -5.5t-38.5 -18.5h-104v370h388z" />
    <glyph glyph-name="uni0184" unicode="&#x184;" horiz-adv-x="561" 
d="M482.5 400q65.5 -55 65.5 -166q0 -118 -67 -176t-187 -58h-220v494l-67 50q53 57 94 149h133v-238h60q123 0 188.5 -55zM357.5 143.5q24.5 27.5 24.5 88.5q0 58 -24.5 85t-78.5 27h-45v-228h50q49 0 73.5 27.5z" />
    <glyph glyph-name="uni01A7" unicode="&#x1a7;" horiz-adv-x="511" 
d="M384.5 686q51.5 -24 79.5 -68.5t28 -102.5q0 -77 -45 -125t-150 -85q-64 -22 -87.5 -48t-23.5 -68q0 -41 24 -63t67 -22q40 0 76.5 16.5t73.5 47.5l79 -86q-44 -45 -104.5 -72t-137.5 -27q-74 0 -129 27t-85 76t-30 112q0 86 44.5 134.5t140.5 82.5q49 17 74.5 32
t36.5 33t11 44q0 34 -19.5 51.5t-56.5 17.5q-38 0 -71.5 -13.5t-66.5 -41.5l-73 83q94 89 225 89q68 0 119.5 -24z" />
    <glyph glyph-name="uni01AE" unicode="&#x1ae;" horiz-adv-x="495" 
d="M402 -101q13 4 31 14l53 -92q-55 -42 -133 -42q-86 0 -137 45.5t-51 134.5v612h-158v122h484l-17 -122h-149v-621q0 -55 47 -55q17 0 30 4z" />
    <glyph glyph-name="U" unicode="U" horiz-adv-x="587" 
d="M543 214q0 -66 -28 -118.5t-84 -82.5t-137 -30q-122 0 -185.5 63t-63.5 168v479h160v-473q0 -60 21 -88.5t68 -28.5t67.5 28.5t20.5 88.5v473h161v-479z" />
    <glyph glyph-name="Uacute" unicode="&#xda;" horiz-adv-x="587" 
d="M543 214q0 -66 -28 -118.5t-84 -82.5t-137 -30q-122 0 -185.5 63t-63.5 168v479h160v-473q0 -60 21 -88.5t68 -28.5t67.5 28.5t20.5 88.5v473h161v-479zM365 950l58 -113l-219 -86l-39 77z" />
    <glyph glyph-name="uni0244" unicode="&#x244;" horiz-adv-x="618" 
d="M607 501h-49v-287q0 -66 -28 -118.5t-84 -82.5t-137 -30q-122 0 -185.5 63t-63.5 168v287h-49v90h49v102h160v-102h177v102h161v-102h49v-90zM397 501h-177v-281q0 -60 21 -88.5t68 -28.5t67.5 28.5t20.5 88.5v281z" />
    <glyph glyph-name="Ubreve" unicode="&#x16c;" horiz-adv-x="587" 
d="M543 214q0 -66 -28 -118.5t-84 -82.5t-137 -30q-122 0 -185.5 63t-63.5 168v479h160v-473q0 -60 21 -88.5t68 -28.5t67.5 28.5t20.5 88.5v473h161v-479zM181.5 795.5q-40.5 44.5 -46.5 115.5l83 15q8 -32 26.5 -50t48.5 -18t49 18.5t27 49.5l83 -15q-6 -70 -47 -115
t-112 -45t-111.5 44.5z" />
    <glyph glyph-name="uni01D3" unicode="&#x1d3;" horiz-adv-x="587" 
d="M543 214q0 -66 -28 -118.5t-84 -82.5t-137 -30q-122 0 -185.5 63t-63.5 168v479h160v-473q0 -60 21 -88.5t68 -28.5t67.5 28.5t20.5 88.5v473h161v-479zM415 939l53 -59l-128 -130h-93l-128 130l54 59l121 -83z" />
    <glyph glyph-name="Ucircumflex" unicode="&#xdb;" horiz-adv-x="587" 
d="M543 214q0 -66 -28 -118.5t-84 -82.5t-137 -30q-122 0 -185.5 63t-63.5 168v479h160v-473q0 -60 21 -88.5t68 -28.5t67.5 28.5t20.5 88.5v473h161v-479zM173 758l-54 58l129 131h92l128 -131l-53 -58l-121 83z" />
    <glyph glyph-name="uni0214" unicode="&#x214;" horiz-adv-x="587" 
d="M543 214q0 -66 -28 -118.5t-84 -82.5t-137 -30q-122 0 -185.5 63t-63.5 168v479h160v-473q0 -60 21 -88.5t68 -28.5t67.5 28.5t20.5 88.5v473h161v-479zM173 983l89 -195l-76 -36l-112 180zM335 983l81 -195l-77 -32l-104 179z" />
    <glyph glyph-name="Udieresis" unicode="&#xdc;" horiz-adv-x="587" 
d="M543 214q0 -66 -28 -118.5t-84 -82.5t-137 -30q-122 0 -185.5 63t-63.5 168v479h160v-473q0 -60 21 -88.5t68 -28.5t67.5 28.5t20.5 88.5v473h161v-479zM244 901q22 -22 22 -55t-22 -55.5t-55 -22.5q-32 0 -54.5 22.5t-22.5 55.5q0 32 22.5 54.5t54.5 22.5q33 0 55 -22z
M456.5 901q22.5 -22 22.5 -55t-22 -55.5t-56 -22.5q-32 0 -54.5 22.5t-22.5 55.5q0 32 22.5 54.5t54.5 22.5q33 0 55.5 -22z" />
    <glyph glyph-name="uni01D7" unicode="&#x1d7;" horiz-adv-x="587" 
d="M543 214q0 -66 -28 -118.5t-84 -82.5t-137 -30q-122 0 -185.5 63t-63.5 168v479h160v-473q0 -60 21 -88.5t68 -28.5t67.5 28.5t20.5 88.5v473h161v-479zM361 1091l87 -79l-150 -143l-59 51zM236 881q22 -22 22 -55t-22 -55.5t-55 -22.5t-55 22.5t-22 55.5q0 32 22 54.5
t55 22.5t55 -22zM462 880.5q22 -22.5 22 -54.5q0 -33 -22 -55.5t-55 -22.5t-55.5 22.5t-22.5 55.5q0 32 22.5 54.5t55.5 22.5t55 -22.5z" />
    <glyph glyph-name="uni01D9" unicode="&#x1d9;" horiz-adv-x="587" 
d="M543 214q0 -66 -28 -118.5t-84 -82.5t-137 -30q-122 0 -185.5 63t-63.5 168v479h160v-473q0 -60 21 -88.5t68 -28.5t67.5 28.5t20.5 88.5v473h161v-479zM415 1092l53 -59l-128 -130h-93l-128 130l54 59l121 -83zM236 880.5q22 -22.5 22 -54.5q0 -33 -22 -55.5t-55 -22.5
t-55.5 22.5t-22.5 55.5q0 32 22.5 54.5t55.5 22.5t55 -22.5zM461 880.5q22 -22.5 22 -54.5q0 -33 -22 -55.5t-55 -22.5t-55 22.5t-22 55.5q0 32 22 54.5t55 22.5t55 -22.5z" />
    <glyph glyph-name="uni01DB" unicode="&#x1db;" horiz-adv-x="587" 
d="M543 214q0 -66 -28 -118.5t-84 -82.5t-137 -30q-122 0 -185.5 63t-63.5 168v479h160v-473q0 -60 21 -88.5t68 -28.5t67.5 28.5t20.5 88.5v473h161v-479zM233 1091l123 -171l-60 -51l-150 143zM236 881q22 -22 22 -55t-22 -55.5t-55 -22.5q-32 0 -54.5 22.5t-22.5 55.5
q0 32 22.5 54.5t54.5 22.5q33 0 55 -22zM462 880.5q22 -22.5 22 -54.5q0 -33 -22 -55.5t-55 -22.5t-55.5 22.5t-22.5 55.5q0 32 22.5 54.5t55.5 22.5t55 -22.5z" />
    <glyph glyph-name="uni01D5" unicode="&#x1d5;" horiz-adv-x="587" 
d="M543 214q0 -66 -28 -118.5t-84 -82.5t-137 -30q-122 0 -185.5 63t-63.5 168v479h160v-473q0 -60 21 -88.5t68 -28.5t67.5 28.5t20.5 88.5v473h161v-479zM242 878q22 -22 22 -55t-22 -55.5t-55 -22.5q-32 0 -54.5 22.5t-22.5 55.5q0 32 22.5 54.5t54.5 22.5q33 0 55 -22z
M454.5 878q22.5 -22 22.5 -55t-22 -55.5t-56 -22.5q-32 0 -54.5 22.5t-22.5 55.5q0 32 22.5 54.5t54.5 22.5q33 0 55.5 -22zM435 942h-280v105h280v-105z" />
    <glyph glyph-name="uni1EE4" unicode="&#x1ee4;" horiz-adv-x="587" 
d="M543 214q0 -66 -28 -118.5t-84 -82.5t-137 -30q-122 0 -185.5 63t-63.5 168v479h160v-473q0 -60 21 -88.5t68 -28.5t67.5 28.5t20.5 88.5v473h161v-479zM230.5 -212q-25.5 25 -25.5 62q0 38 25.5 63t64.5 25t64 -25t25 -63q0 -37 -25 -62t-64 -25t-64.5 25z" />
    <glyph glyph-name="Ugrave" unicode="&#xd9;" horiz-adv-x="587" 
d="M543 214q0 -66 -28 -118.5t-84 -82.5t-137 -30q-122 0 -185.5 63t-63.5 168v479h160v-473q0 -60 21 -88.5t68 -28.5t67.5 28.5t20.5 88.5v473h161v-479zM221 949l200 -122l-39 -76l-219 85z" />
    <glyph glyph-name="uni1EE6" unicode="&#x1ee6;" horiz-adv-x="587" 
d="M543 214q0 -66 -28 -118.5t-84 -82.5t-137 -30q-122 0 -185.5 63t-63.5 168v479h160v-473q0 -60 21 -88.5t68 -28.5t67.5 28.5t20.5 88.5v473h161v-479zM249 853q35 2 49.5 10t14.5 28q0 15 -9.5 23t-25.5 8q-15 0 -26.5 -3t-28.5 -9l-24 64q41 26 101 26q54 0 84 -28
t30 -73q0 -39 -19.5 -62t-56.5 -30v-43h-89v89z" />
    <glyph glyph-name="Uhorn" unicode="&#x1af;" horiz-adv-x="666" 
d="M644 592q-36 -31 -101 -33v-345q0 -66 -28 -118.5t-84 -82.5t-137 -30q-122 0 -185.5 63t-63.5 168v479h160v-473q0 -60 21 -88.5t68 -28.5t67.5 28.5t20.5 88.5v473h161v-57q18 4 26 16t8 34q0 23 -2.5 38t-8.5 34l97 15q17 -40 17 -89q0 -61 -36 -92z" />
    <glyph glyph-name="uni1EE8" unicode="&#x1ee8;" horiz-adv-x="666" 
d="M423 837l-219 -86l-39 77l200 122zM644 592q-36 -31 -101 -33v-345q0 -66 -28 -118.5t-84 -82.5t-137 -30q-122 0 -185.5 63t-63.5 168v479h160v-473q0 -60 21 -88.5t68 -28.5t67.5 28.5t20.5 88.5v473h161v-57q18 4 26 16t8 34q0 23 -2.5 38t-8.5 34l97 15
q17 -40 17 -89q0 -61 -36 -92z" />
    <glyph glyph-name="uni1EF0" unicode="&#x1ef0;" horiz-adv-x="666" 
d="M644 592q-36 -31 -101 -33v-345q0 -66 -28 -118.5t-84 -82.5t-137 -30q-122 0 -185.5 63t-63.5 168v479h160v-473q0 -60 21 -88.5t68 -28.5t67.5 28.5t20.5 88.5v473h161v-57q18 4 26 16t8 34q0 23 -2.5 38t-8.5 34l97 15q17 -40 17 -89q0 -61 -36 -92zM359 -87
q25 -25 25 -63q0 -37 -25 -62t-64 -25t-64.5 25t-25.5 62q0 38 25.5 63t64.5 25t64 -25z" />
    <glyph glyph-name="uni1EEA" unicode="&#x1eea;" horiz-adv-x="666" 
d="M421 827l-39 -76l-219 85l58 113zM644 592q-36 -31 -101 -33v-345q0 -66 -28 -118.5t-84 -82.5t-137 -30q-122 0 -185.5 63t-63.5 168v479h160v-473q0 -60 21 -88.5t68 -28.5t67.5 28.5t20.5 88.5v473h161v-57q18 4 26 16t8 34q0 23 -2.5 38t-8.5 34l97 15q17 -40 17 -89
q0 -61 -36 -92z" />
    <glyph glyph-name="uni1EEC" unicode="&#x1eec;" horiz-adv-x="666" 
d="M251.5 919q-11.5 -3 -28.5 -9l-24 64q41 26 101 26q54 0 84 -28t30 -73q0 -39 -19.5 -62t-56.5 -30v-43h-89v89q35 2 49.5 10t14.5 28q0 15 -9.5 23t-25.5 8q-15 0 -26.5 -3zM644 592q-36 -31 -101 -33v-345q0 -66 -28 -118.5t-84 -82.5t-137 -30q-122 0 -185.5 63
t-63.5 168v479h160v-473q0 -60 21 -88.5t68 -28.5t67.5 28.5t20.5 88.5v473h161v-57q18 4 26 16t8 34q0 23 -2.5 38t-8.5 34l97 15q17 -40 17 -89q0 -61 -36 -92z" />
    <glyph glyph-name="uni1EEE" unicode="&#x1eee;" horiz-adv-x="666" 
d="M218 797.5q-10 -9.5 -23 -32.5l-74 35q18 51 49 82.5t70 31.5q20 0 35 -6.5t34 -19.5q2 -1 10 -6t14.5 -7.5t12.5 -2.5q14 0 24.5 9.5t22.5 31.5l74 -35q-18 -52 -49 -82.5t-70 -30.5q-20 0 -33.5 6t-34.5 19q-13 9 -20.5 13t-16.5 4q-15 0 -25 -9.5zM644 592
q-36 -31 -101 -33v-345q0 -66 -28 -118.5t-84 -82.5t-137 -30q-122 0 -185.5 63t-63.5 168v479h160v-473q0 -60 21 -88.5t68 -28.5t67.5 28.5t20.5 88.5v473h161v-57q18 4 26 16t8 34q0 23 -2.5 38t-8.5 34l97 15q17 -40 17 -89q0 -61 -36 -92z" />
    <glyph glyph-name="Uhungarumlaut" unicode="&#x170;" horiz-adv-x="587" 
d="M543 214q0 -66 -28 -118.5t-84 -82.5t-137 -30q-122 0 -185.5 63t-63.5 168v479h160v-473q0 -60 21 -88.5t68 -28.5t67.5 28.5t20.5 88.5v473h161v-479zM254 983l101 -48l-105 -179l-77 32zM416 983l99 -51l-112 -180l-75 36z" />
    <glyph glyph-name="uni0216" unicode="&#x216;" horiz-adv-x="587" 
d="M543 214q0 -66 -28 -118.5t-84 -82.5t-137 -30q-122 0 -185.5 63t-63.5 168v479h160v-473q0 -60 21 -88.5t68 -28.5t67.5 28.5t20.5 88.5v473h161v-479zM406 903.5q41 -46.5 46 -123.5l-83 -15q-8 38 -27 58.5t-49 20.5q-57 0 -75 -79l-83 15q5 77 45.5 123.5t112.5 46.5
t113 -46.5z" />
    <glyph glyph-name="Umacron" unicode="&#x16a;" horiz-adv-x="587" 
d="M543 214q0 -66 -28 -118.5t-84 -82.5t-137 -30q-122 0 -185.5 63t-63.5 168v479h160v-473q0 -60 21 -88.5t68 -28.5t67.5 28.5t20.5 88.5v473h161v-479zM434 783h-280v105h280v-105z" />
    <glyph glyph-name="Uogonek" unicode="&#x172;" horiz-adv-x="587" 
d="M543 693v-479q0 -77 -37 -134t-109 -81q-102 -45 -102 -102q0 -22 12 -34t35 -12t55 8l-10 -96q-30 -8 -64 -8q-59 0 -97.5 32t-38.5 84q0 73 80 113q-109 7 -165.5 69t-56.5 161v479h160v-473q0 -60 21 -88.5t68 -28.5t67.5 28.5t20.5 88.5v473h161z" />
    <glyph glyph-name="uni01B1" unicode="&#x1b1;" horiz-adv-x="621" 
d="M157.5 22q-64.5 39 -98 111t-33.5 168q0 101 31 167t88 110h-100v115h218v-109q-37 -50 -53.5 -112.5t-16.5 -170.5q0 -105 28.5 -152.5t89.5 -47.5q60 0 89 47.5t29 152.5q0 107 -17 169.5t-53 113.5v109h218v-115h-101q58 -42 88.5 -108t30.5 -169q0 -95 -34 -166.5
t-98 -111.5t-152 -40q-89 0 -153.5 39z" />
    <glyph glyph-name="Uring" unicode="&#x16e;" horiz-adv-x="587" 
d="M543 214q0 -66 -28 -118.5t-84 -82.5t-137 -30q-122 0 -185.5 63t-63.5 168v479h160v-473q0 -60 21 -88.5t68 -28.5t67.5 28.5t20.5 88.5v473h161v-479zM389 954.5q35 -36.5 35 -92.5t-35 -93t-94 -37t-94.5 37t-35.5 93t35.5 92.5t94.5 36.5t94 -36.5zM255 862
q0 -52 40 -52q39 0 39 52q0 51 -39 51q-40 0 -40 -51z" />
    <glyph glyph-name="Utilde" unicode="&#x168;" horiz-adv-x="587" 
d="M543 214q0 -66 -28 -118.5t-84 -82.5t-137 -30q-122 0 -185.5 63t-63.5 168v479h160v-473q0 -60 21 -88.5t68 -28.5t67.5 28.5t20.5 88.5v473h161v-479zM314.5 771q-13.5 6 -34.5 19q-13 9 -20.5 13t-16.5 4q-15 0 -25 -9.5t-23 -32.5l-74 35q18 51 49 82.5t70 31.5
q20 0 35 -6.5t34 -19.5q2 -1 10 -6t14.5 -7.5t12.5 -2.5q14 0 24.5 9.5t22.5 31.5l74 -35q-18 -52 -49 -82.5t-70 -30.5q-20 0 -33.5 6z" />
    <glyph glyph-name="uni1E78" unicode="&#x1e78;" horiz-adv-x="587" 
d="M543 214q0 -66 -28 -118.5t-84 -82.5t-137 -30q-122 0 -185.5 63t-63.5 168v479h160v-473q0 -60 21 -88.5t68 -28.5t67.5 28.5t20.5 88.5v473h161v-479zM314.5 765q-13.5 6 -34.5 19q-13 9 -20.5 13t-16.5 4q-15 0 -25 -9.5t-23 -32.5l-74 35q18 51 49 82.5t70 31.5
q20 0 35 -6.5t34 -19.5q2 -1 10 -6t14.5 -7.5t12.5 -2.5q14 0 24.5 9.5t22.5 31.5l74 -35q-18 -52 -49 -82.5t-70 -30.5q-20 0 -33.5 6zM365 1124l58 -113l-219 -86l-39 77z" />
    <glyph glyph-name="V" unicode="V" horiz-adv-x="525" 
d="M536 693l-169 -693h-202l-176 693h164l116 -567l107 567h160z" />
    <glyph glyph-name="uni01B2" unicode="&#x1b2;" horiz-adv-x="587" 
d="M506 671q37 -39 37 -115v-277q0 -92 -33.5 -159t-94 -102t-140.5 -35q-71 0 -123 28t-79.5 77.5t-27.5 112.5v492h160v-495q0 -46 19 -70.5t55 -24.5q47 0 75 42.5t28 127.5v286q0 35 -25 35q-11 0 -23 -5l-24 104q40 17 90 17q69 0 106 -39z" />
    <glyph glyph-name="uni0245" unicode="&#x245;" horiz-adv-x="543" 
d="M368 693l186 -693h-167l-117 576l-117 -576h-164l187 693h192z" />
    <glyph glyph-name="W" unicode="W" horiz-adv-x="772" 
d="M763 693l-100 -693h-208l-70 534l-76 -534h-203l-97 693h155l59 -572l81 572h166l76 -572l68 572h149z" />
    <glyph glyph-name="Wacute" unicode="&#x1e82;" horiz-adv-x="772" 
d="M763 693l-100 -693h-208l-70 534l-76 -534h-203l-97 693h155l59 -572l81 572h166l76 -572l68 572h149zM459 950l58 -113l-219 -86l-39 77z" />
    <glyph glyph-name="Wcircumflex" unicode="&#x174;" horiz-adv-x="772" 
d="M763 693l-100 -693h-208l-70 534l-76 -534h-203l-97 693h155l59 -572l81 572h166l76 -572l68 572h149zM267 758l-54 58l129 131h92l128 -131l-53 -58l-121 83z" />
    <glyph glyph-name="Wdieresis" unicode="&#x1e84;" horiz-adv-x="772" 
d="M763 693l-100 -693h-208l-70 534l-76 -534h-203l-97 693h155l59 -572l81 572h166l76 -572l68 572h149zM338 901q22 -22 22 -55t-22 -55.5t-55 -22.5q-32 0 -54.5 22.5t-22.5 55.5q0 32 22.5 54.5t54.5 22.5q33 0 55 -22zM550.5 901q22.5 -22 22.5 -55t-22 -55.5
t-56 -22.5q-32 0 -54.5 22.5t-22.5 55.5q0 32 22.5 54.5t54.5 22.5q33 0 55.5 -22z" />
    <glyph glyph-name="Wgrave" unicode="&#x1e80;" horiz-adv-x="772" 
d="M763 693l-100 -693h-208l-70 534l-76 -534h-203l-97 693h155l59 -572l81 572h166l76 -572l68 572h149zM315 949l200 -122l-39 -76l-219 85z" />
    <glyph glyph-name="uni2C72" unicode="&#x2c72;" horiz-adv-x="829" 
d="M106 0h203l76 534l70 -534h206l66 542q4 30 14.5 42.5t31.5 12.5q15 0 25.5 -3.5t21.5 -10.5l43 90q-25 18 -52 27.5t-62 9.5q-69 0 -109 -38t-48 -126l-46 -425l-76 572h-166l-81 -572l-59 572h-155z" />
    <glyph glyph-name="uni01F7" unicode="&#x1f7;" horiz-adv-x="544" 
d="M443 686.5q40 -23.5 63 -67.5t23 -102q0 -77 -32 -130.5t-85 -88.5t-132 -68l-65 -27v-203h-160v693h160v-40q57 57 140 57q48 0 88 -23.5zM336 405q29 42 29 103q0 44 -18 65t-50 21q-47 0 -82 -37v-242l31 15q61 33 90 75z" />
    <glyph glyph-name="X" unicode="X" horiz-adv-x="530" 
d="M357 374l179 -374h-171l-104 267l-100 -267h-167l173 368l-160 325h170l86 -225l92 225h166z" />
    <glyph glyph-name="Y" unicode="Y" horiz-adv-x="542" 
d="M551 693l-200 -433v-260h-160v259l-200 434h171l111 -308l113 308h165z" />
    <glyph glyph-name="Yacute" unicode="&#xdd;" horiz-adv-x="542" 
d="M551 693l-200 -433v-260h-160v259l-200 434h171l111 -308l113 308h165zM342 950l58 -113l-219 -86l-39 77z" />
    <glyph glyph-name="Ycircumflex" unicode="&#x176;" horiz-adv-x="542" 
d="M551 693l-200 -433v-260h-160v259l-200 434h171l111 -308l113 308h165zM150 758l-54 58l129 131h92l128 -131l-53 -58l-121 83z" />
    <glyph glyph-name="Ydieresis" unicode="&#x178;" horiz-adv-x="542" 
d="M551 693l-200 -433v-260h-160v259l-200 434h171l111 -308l113 308h165zM221 901q22 -22 22 -55t-22 -55.5t-55 -22.5q-32 0 -54.5 22.5t-22.5 55.5q0 32 22.5 54.5t54.5 22.5q33 0 55 -22zM433.5 901q22.5 -22 22.5 -55t-22 -55.5t-56 -22.5q-32 0 -54.5 22.5t-22.5 55.5
q0 32 22.5 54.5t54.5 22.5q33 0 55.5 -22z" />
    <glyph glyph-name="uni1EF4" unicode="&#x1ef4;" horiz-adv-x="542" 
d="M551 693l-200 -433v-260h-160v259l-200 434h171l111 -308l113 308h165zM207.5 -212q-25.5 25 -25.5 62q0 38 25.5 63t64.5 25t64 -25t25 -63q0 -37 -25 -62t-64 -25t-64.5 25z" />
    <glyph glyph-name="Ygrave" unicode="&#x1ef2;" horiz-adv-x="542" 
d="M551 693l-200 -433v-260h-160v259l-200 434h171l111 -308l113 308h165zM198 949l200 -122l-39 -76l-219 85z" />
    <glyph glyph-name="uni01B3" unicode="&#x1b3;" horiz-adv-x="576" 
d="M191 259l-200 434h171l112 -307l61 183q24 76 61 108.5t101 32.5q34 0 60.5 -9.5t52.5 -26.5l-43 -91q-21 14 -47 14q-20 0 -32 -11.5t-25 -42.5l-112 -283v-260h-160v259z" />
    <glyph glyph-name="uni1EF6" unicode="&#x1ef6;" horiz-adv-x="542" 
d="M551 693l-200 -433v-260h-160v259l-200 434h171l111 -308l113 308h165zM226 853q35 2 49.5 10t14.5 28q0 15 -9.5 23t-25.5 8q-15 0 -26.5 -3t-28.5 -9l-24 64q41 26 101 26q54 0 84 -28t30 -73q0 -39 -19.5 -62t-56.5 -30v-43h-89v89z" />
    <glyph glyph-name="uni0232" unicode="&#x232;" horiz-adv-x="542" 
d="M551 693l-200 -433v-260h-160v259l-200 434h171l111 -308l113 308h165zM411 783h-280v105h280v-105z" />
    <glyph glyph-name="uni01A6" unicode="&#x1a6;" horiz-adv-x="565" 
d="M271 151h-56v-151h-160v693h160v-115h46q270 0 270 -211q0 -133 -117 -186l157 -296h-174zM215 262h52q52 0 76 25t24 80q0 51 -25.5 74.5t-81.5 23.5h-45v-203z" />
    <glyph glyph-name="uni024E" unicode="&#x24e;" horiz-adv-x="542" 
d="M515 614h36v-90h-78l-122 -264v-260h-160v259l-122 265h-77v90h35l-36 79h165l29 -79h178l29 79h159zM274 376l55 148h-110z" />
    <glyph glyph-name="uni1EF8" unicode="&#x1ef8;" horiz-adv-x="542" 
d="M551 693l-200 -433v-260h-160v259l-200 434h171l111 -308l113 308h165zM291.5 771q-13.5 6 -34.5 19q-13 9 -20.5 13t-16.5 4q-15 0 -25 -9.5t-23 -32.5l-74 35q18 51 49 82.5t70 31.5q20 0 35 -6.5t34 -19.5q2 -1 10 -6t14.5 -7.5t12.5 -2.5q14 0 24.5 9.5t22.5 31.5
l74 -35q-18 -52 -49 -82.5t-70 -30.5q-20 0 -33.5 6z" />
    <glyph glyph-name="Z" unicode="Z" horiz-adv-x="492" 
d="M467 693v-121l-273 -444h279l-16 -128h-443v120l275 449h-249v124h427z" />
    <glyph glyph-name="Zacute" unicode="&#x179;" horiz-adv-x="492" 
d="M467 693v-121l-273 -444h279l-16 -128h-443v120l275 449h-249v124h427zM320 950l58 -113l-219 -86l-39 77z" />
    <glyph glyph-name="Zacute.loclPLK" horiz-adv-x="492" 
d="M467 693v-121l-273 -444h279l-16 -128h-443v120l275 449h-249v124h427zM266 962l113 -65l-130 -156l-69 40z" />
    <glyph glyph-name="Zcaron" unicode="&#x17d;" horiz-adv-x="492" 
d="M467 693v-121l-273 -444h279l-16 -128h-443v120l275 449h-249v124h427zM370 939l53 -59l-128 -130h-93l-128 130l54 59l121 -83z" />
    <glyph glyph-name="Zdotaccent" unicode="&#x17b;" horiz-adv-x="492" 
d="M467 693v-121l-273 -444h279l-16 -128h-443v120l275 449h-249v124h427zM312.5 909q25.5 -25 25.5 -62q0 -38 -25.5 -63t-64.5 -25t-64 25t-25 63q0 37 25 62t64 25t64.5 -25z" />
    <glyph glyph-name="uni1E92" unicode="&#x1e92;" horiz-adv-x="492" 
d="M467 693v-121l-273 -444h279l-16 -128h-443v120l275 449h-249v124h427zM175.5 -212q-25.5 25 -25.5 62q0 38 25.5 63t64.5 25t64 -25t25 -63q0 -37 -25 -62t-64 -25t-64.5 25z" />
    <glyph glyph-name="uni0224" unicode="&#x224;" horiz-adv-x="486" 
d="M467 572l-273 -444h272v-169q0 -89 -50.5 -134.5t-136.5 -45.5q-78 0 -135 42l53 93q18 -10 31.5 -14.5t33.5 -4.5q51 0 51 55v50h-299v120l275 449h-249v124h427v-121z" />
    <glyph glyph-name="uni01B5" unicode="&#x1b5;" horiz-adv-x="492" 
d="M181 128h292l-16 -128h-443v114l114 180h-72v103h137l109 172h-262v124h427v-115l-115 -181h73v-103h-138z" />
    <glyph glyph-name="uni0299" unicode="&#x299;" horiz-adv-x="506" 
d="M477 161q0 -81 -58.5 -121t-161.5 -40h-205v527q119 21 196 21q98 0 153.5 -38t55.5 -106q0 -44 -27 -73t-80 -40q127 -15 127 -130zM206 448v-126h43q28 0 43 14.5t15 49.5q0 36 -14.5 50t-46.5 14q-10 0 -40 -2zM304 116q17 16 17 56q0 38 -15.5 53.5t-50.5 15.5h-49
v-141h48q33 0 50 16z" />
    <glyph glyph-name="uni0262" unicode="&#x262;" horiz-adv-x="514" 
d="M387.5 529q45.5 -19 83.5 -53l-72 -80q-29 22 -54 32t-55 10q-51 0 -77 -40.5t-26 -129.5q0 -100 21 -136.5t64 -36.5q35 0 64 13v100h-59l-15 102h215v-262q-94 -63 -208 -63q-122 0 -181 68.5t-59 214.5q0 89 32.5 152t89.5 95.5t130 32.5q61 0 106.5 -19z" />
    <glyph glyph-name="uni029B" unicode="&#x29b;" horiz-adv-x="513" 
d="M618 721l-43 -94q-17 9 -30 13t-29 4q-23 0 -34 -13t-11 -43v-112l-65 -74q-31 18 -56.5 27t-57.5 9q-53 0 -79 -40t-26 -130q0 -100 21 -136.5t64 -36.5q35 0 64 13v100h-59l-15 102h215v-262q-92 -63 -207 -63q-122 0 -181.5 69t-59.5 214q0 88 31.5 151.5t85.5 96
t120 32.5q41 0 71 -12v64q0 76 41 117t115 41q69 0 125 -37z" />
    <glyph glyph-name="uni029C" unicode="&#x29c;" horiz-adv-x="531" 
d="M325 0v213h-119v-213h-154v531h154v-205h119v205h154v-531h-154z" />
    <glyph glyph-name="uni026A" unicode="&#x26a;" horiz-adv-x="305" 
d="M292 422h-63v-311h63v-111h-279v111h62v311h-62v109h279v-109z" />
    <glyph glyph-name="uni029F" unicode="&#x29f;" horiz-adv-x="409" 
d="M206 531v-412h197l-15 -119h-336v531h154z" />
    <glyph glyph-name="uni0274" unicode="&#x274;" horiz-adv-x="533" 
d="M480 0h-183l-132 397q10 -66 15 -119t5 -124v-154h-133v531h182l134 -396q-11 67 -15.5 111t-4.5 108v177h132v-531z" />
    <glyph glyph-name="uni0276" unicode="&#x276;" horiz-adv-x="697" 
d="M453 107h223v-107h-321q-42 -17 -89 -17q-111 0 -174 73t-63 210q0 133 63.5 207.5t174.5 74.5q47 0 90 -17h323l-16 -106h-210q31 -44 41 -104h147v-103h-145q-10 -64 -44 -111zM326.5 136q19.5 39 19.5 130q0 90 -20 129t-59 39q-41 0 -60 -39t-19 -129
q0 -92 19 -130.5t60 -38.5q40 0 59.5 39z" />
    <glyph glyph-name="uni0280" unicode="&#x280;" horiz-adv-x="484" 
d="M236 185h-36v-185h-148v531h177q108 0 164.5 -44t56.5 -131q0 -104 -83 -147l115 -209h-157zM200 278h32q34 0 50 18t16 62q0 41 -17 57.5t-54 16.5h-27v-154z" />
    <glyph glyph-name="uni0281" unicode="&#x281;" horiz-adv-x="484" 
d="M429.5 265q20.5 -38 20.5 -88q0 -88 -56.5 -132.5t-164.5 -44.5h-177v531h148v-184h36l89 184h157l-115 -208q42 -20 62.5 -58zM281 116q17 17 17 59q0 43 -16 60.5t-50 17.5h-32v-154h27q37 0 54 17z" />
    <glyph glyph-name="uni028F" unicode="&#x28f;" horiz-adv-x="455" 
d="M468 531l-163 -338v-193h-154v192l-165 339h161l83 -242l82 242h156z" />
    <glyph glyph-name="a" unicode="a" horiz-adv-x="497" 
d="M450 107q7 -13 24 -20l-32 -101q-46 4 -75 21t-45 53q-49 -77 -143 -77q-72 0 -114.5 45.5t-42.5 120.5q0 87 58.5 133t169.5 46h42v25q0 47 -17 65.5t-60 18.5q-49 0 -125 -27l-35 99q44 19 94 29t93 10q103 0 152 -46t49 -140v-215q0 -27 7 -40zM263.5 106
q17.5 13 28.5 37v99h-28q-47 0 -69 -19.5t-22 -60.5q0 -34 13.5 -51.5t38.5 -17.5q21 0 38.5 13z" />
    <glyph glyph-name="a.ss04" horiz-adv-x="545" 
d="M495 121.5q8 -15.5 30 -27.5l-44 -111q-50 9 -80 27t-47 50q-24 -36 -59.5 -56.5t-79.5 -20.5q-90 0 -138 73.5t-48 209.5q0 85 24.5 149t69 98.5t102.5 34.5q73 0 120 -59l8 42h134v-363q0 -31 8 -46.5zM333 151v244q-15 20 -31 30t-37 10q-37 0 -57 -38.5t-20 -130.5
q0 -97 18 -133.5t52 -36.5q42 0 75 55z" />
    <glyph glyph-name="aacute" unicode="&#xe1;" horiz-adv-x="497" 
d="M450 107q7 -13 24 -20l-32 -101q-46 4 -75 21t-45 53q-49 -77 -143 -77q-72 0 -114.5 45.5t-42.5 120.5q0 87 58.5 133t169.5 46h42v25q0 47 -17 65.5t-60 18.5q-49 0 -125 -27l-35 99q44 19 94 29t93 10q103 0 152 -46t49 -140v-215q0 -27 7 -40zM263.5 106
q17.5 13 28.5 37v99h-28q-47 0 -69 -19.5t-22 -60.5q0 -34 13.5 -51.5t38.5 -17.5q21 0 38.5 13zM309 830l60 -113l-217 -94l-42 76z" />
    <glyph glyph-name="abreve" unicode="&#x103;" horiz-adv-x="497" 
d="M450 107q7 -13 24 -20l-32 -101q-46 4 -75 21t-45 53q-49 -77 -143 -77q-72 0 -114.5 45.5t-42.5 120.5q0 87 58.5 133t169.5 46h42v25q0 47 -17 65.5t-60 18.5q-49 0 -125 -27l-35 99q44 19 94 29t93 10q103 0 152 -46t49 -140v-215q0 -27 7 -40zM263.5 106
q17.5 13 28.5 37v99h-28q-47 0 -69 -19.5t-22 -60.5q0 -34 13.5 -51.5t38.5 -17.5q21 0 38.5 13zM132.5 679.5q-40.5 46.5 -45.5 123.5l83 15q18 -79 75 -79q30 0 49 20.5t27 58.5l83 -15q-5 -77 -46 -123.5t-113 -46.5t-112.5 46.5z" />
    <glyph glyph-name="uni1EAF" unicode="&#x1eaf;" horiz-adv-x="497" 
d="M450 107q7 -13 24 -20l-32 -101q-46 4 -75 21t-45 53q-49 -77 -143 -77q-72 0 -114.5 45.5t-42.5 120.5q0 87 58.5 133t169.5 46h42v25q0 47 -17 65.5t-60 18.5q-49 0 -125 -27l-35 99q44 19 94 29t93 10q103 0 152 -46t49 -140v-215q0 -27 7 -40zM263.5 106
q17.5 13 28.5 37v99h-28q-47 0 -69 -19.5t-22 -60.5q0 -34 13.5 -51.5t38.5 -17.5q21 0 38.5 13zM134.5 645.5q-40.5 44.5 -46.5 115.5l83 15q8 -32 26.5 -50t48.5 -18t49 18.5t27 49.5l83 -15q-6 -70 -47 -115t-112 -45t-111.5 44.5zM317 987l87 -79l-150 -143l-59 51z" />
    <glyph glyph-name="uni1EB7" unicode="&#x1eb7;" horiz-adv-x="497" 
d="M450 107q7 -13 24 -20l-32 -101q-46 4 -75 21t-45 53q-49 -77 -143 -77q-72 0 -114.5 45.5t-42.5 120.5q0 87 58.5 133t169.5 46h42v25q0 47 -17 65.5t-60 18.5q-49 0 -125 -27l-35 99q44 19 94 29t93 10q103 0 152 -46t49 -140v-215q0 -27 7 -40zM263.5 106
q17.5 13 28.5 37v99h-28q-47 0 -69 -19.5t-22 -60.5q0 -34 13.5 -51.5t38.5 -17.5q21 0 38.5 13zM132.5 679.5q-40.5 46.5 -45.5 123.5l83 15q18 -79 75 -79q30 0 49 20.5t27 58.5l83 -15q-5 -77 -46 -123.5t-113 -46.5t-112.5 46.5zM183.5 -212q-25.5 25 -25.5 62
q0 38 25.5 63t64.5 25t64 -25t25 -63q0 -37 -25 -62t-64 -25t-64.5 25z" />
    <glyph glyph-name="uni1EB1" unicode="&#x1eb1;" horiz-adv-x="497" 
d="M450 107q7 -13 24 -20l-32 -101q-46 4 -75 21t-45 53q-49 -77 -143 -77q-72 0 -114.5 45.5t-42.5 120.5q0 87 58.5 133t169.5 46h42v25q0 47 -17 65.5t-60 18.5q-49 0 -125 -27l-35 99q44 19 94 29t93 10q103 0 152 -46t49 -140v-215q0 -27 7 -40zM263.5 106
q17.5 13 28.5 37v99h-28q-47 0 -69 -19.5t-22 -60.5q0 -34 13.5 -51.5t38.5 -17.5q21 0 38.5 13zM137.5 645.5q-40.5 44.5 -46.5 115.5l83 15q8 -32 26.5 -50t48.5 -18t49 18.5t27 49.5l83 -15q-6 -70 -47 -115t-112 -45t-111.5 44.5zM182 987l123 -171l-60 -51l-150 143z
" />
    <glyph glyph-name="uni1EB3" unicode="&#x1eb3;" horiz-adv-x="497" 
d="M450 107q7 -13 24 -20l-32 -101q-46 4 -75 21t-45 53q-49 -77 -143 -77q-72 0 -114.5 45.5t-42.5 120.5q0 87 58.5 133t169.5 46h42v25q0 47 -17 65.5t-60 18.5q-49 0 -125 -27l-35 99q44 19 94 29t93 10q103 0 152 -46t49 -140v-215q0 -27 7 -40zM263.5 106
q17.5 13 28.5 37v99h-28q-47 0 -69 -19.5t-22 -60.5q0 -34 13.5 -51.5t38.5 -17.5q21 0 38.5 13zM136.5 645.5q-40.5 44.5 -46.5 115.5l83 15q8 -32 26.5 -50t48.5 -18t49 18.5t27 49.5l83 -15q-6 -70 -47 -115t-112 -45t-111.5 44.5zM204 864q35 2 49.5 10.5t14.5 28.5
q0 15 -9.5 23t-25.5 8q-15 0 -26.5 -3t-28.5 -9l-24 64q42 25 101 25q54 0 84 -27.5t30 -72.5q0 -39 -19.5 -62.5t-56.5 -30.5v-53h-89v99z" />
    <glyph glyph-name="uni1EB5" unicode="&#x1eb5;" horiz-adv-x="497" 
d="M450 107q7 -13 24 -20l-32 -101q-46 4 -75 21t-45 53q-49 -77 -143 -77q-72 0 -114.5 45.5t-42.5 120.5q0 87 58.5 133t169.5 46h42v25q0 47 -17 65.5t-60 18.5q-49 0 -125 -27l-35 99q44 19 94 29t93 10q103 0 152 -46t49 -140v-215q0 -27 7 -40zM263.5 106
q17.5 13 28.5 37v99h-28q-47 0 -69 -19.5t-22 -60.5q0 -34 13.5 -51.5t38.5 -17.5q21 0 38.5 13zM134.5 645.5q-40.5 44.5 -46.5 115.5l83 15q8 -32 26.5 -50t48.5 -18t49 18.5t27 49.5l83 -15q-6 -70 -47 -115t-112 -45t-111.5 44.5zM267 812q-14 6 -34 18q-12 8 -20 12
t-17 4q-15 0 -25.5 -9t-22.5 -31l-74 33q18 48 49 77.5t70 29.5q20 0 35 -6t34 -18q9 -6 18.5 -10.5t18.5 -4.5q14 0 24.5 9t22.5 29l74 -33q-18 -48 -49 -77t-70 -29q-20 0 -34 6z" />
    <glyph glyph-name="uni01CE" unicode="&#x1ce;" horiz-adv-x="497" 
d="M450 107q7 -13 24 -20l-32 -101q-46 4 -75 21t-45 53q-49 -77 -143 -77q-72 0 -114.5 45.5t-42.5 120.5q0 87 58.5 133t169.5 46h42v25q0 47 -17 65.5t-60 18.5q-49 0 -125 -27l-35 99q44 19 94 29t93 10q103 0 152 -46t49 -140v-215q0 -27 7 -40zM263.5 106
q17.5 13 28.5 37v99h-28q-47 0 -69 -19.5t-22 -60.5q0 -34 13.5 -51.5t38.5 -17.5q21 0 38.5 13zM367 810l53 -60l-128 -138h-93l-128 138l54 60l121 -92z" />
    <glyph glyph-name="acircumflex" unicode="&#xe2;" horiz-adv-x="497" 
d="M450 107q7 -13 24 -20l-32 -101q-46 4 -75 21t-45 53q-49 -77 -143 -77q-72 0 -114.5 45.5t-42.5 120.5q0 87 58.5 133t169.5 46h42v25q0 47 -17 65.5t-60 18.5q-49 0 -125 -27l-35 99q44 19 94 29t93 10q103 0 152 -46t49 -140v-215q0 -27 7 -40zM263.5 106
q17.5 13 28.5 37v99h-28q-47 0 -69 -19.5t-22 -60.5q0 -34 13.5 -51.5t38.5 -17.5q21 0 38.5 13zM125 623l-54 59l128 138h93l128 -138l-54 -59l-120 92z" />
    <glyph glyph-name="uni1EA5" unicode="&#x1ea5;" horiz-adv-x="497" 
d="M450 107q7 -13 24 -20l-32 -101q-46 4 -75 21t-45 53q-49 -77 -143 -77q-72 0 -114.5 45.5t-42.5 120.5q0 87 58.5 133t169.5 46h42v25q0 47 -17 65.5t-60 18.5q-49 0 -125 -27l-35 99q44 19 94 29t93 10q103 0 152 -46t49 -140v-215q0 -27 7 -40zM263.5 106
q17.5 13 28.5 37v99h-28q-47 0 -69 -19.5t-22 -60.5q0 -34 13.5 -51.5t38.5 -17.5q21 0 38.5 13zM124 588l-54 58l129 131h92l128 -131l-53 -58l-121 83zM460 953l87 -79l-150 -143l-59 51z" />
    <glyph glyph-name="uni1EAD" unicode="&#x1ead;" horiz-adv-x="497" 
d="M450 107q7 -13 24 -20l-32 -101q-46 4 -75 21t-45 53q-49 -77 -143 -77q-72 0 -114.5 45.5t-42.5 120.5q0 87 58.5 133t169.5 46h42v25q0 47 -17 65.5t-60 18.5q-49 0 -125 -27l-35 99q44 19 94 29t93 10q103 0 152 -46t49 -140v-215q0 -27 7 -40zM263.5 106
q17.5 13 28.5 37v99h-28q-47 0 -69 -19.5t-22 -60.5q0 -34 13.5 -51.5t38.5 -17.5q21 0 38.5 13zM125 623l-54 59l128 138h93l128 -138l-54 -59l-120 92zM183.5 -212q-25.5 25 -25.5 62q0 38 25.5 63t64.5 25t64 -25t25 -63q0 -37 -25 -62t-64 -25t-64.5 25z" />
    <glyph glyph-name="uni1EA7" unicode="&#x1ea7;" horiz-adv-x="497" 
d="M450 107q7 -13 24 -20l-32 -101q-46 4 -75 21t-45 53q-49 -77 -143 -77q-72 0 -114.5 45.5t-42.5 120.5q0 87 58.5 133t169.5 46h42v25q0 47 -17 65.5t-60 18.5q-49 0 -125 -27l-35 99q44 19 94 29t93 10q103 0 152 -46t49 -140v-215q0 -27 7 -40zM263.5 106
q17.5 13 28.5 37v99h-28q-47 0 -69 -19.5t-22 -60.5q0 -34 13.5 -51.5t38.5 -17.5q21 0 38.5 13zM123 588l-54 58l129 131h92l128 -131l-53 -58l-121 83zM30 953l123 -171l-60 -51l-150 143z" />
    <glyph glyph-name="uni1EA9" unicode="&#x1ea9;" horiz-adv-x="497" 
d="M450 107q7 -13 24 -20l-32 -101q-46 4 -75 21t-45 53q-49 -77 -143 -77q-72 0 -114.5 45.5t-42.5 120.5q0 87 58.5 133t169.5 46h42v25q0 47 -17 65.5t-60 18.5q-49 0 -125 -27l-35 99q44 19 94 29t93 10q103 0 152 -46t49 -140v-215q0 -27 7 -40zM263.5 106
q17.5 13 28.5 37v99h-28q-47 0 -69 -19.5t-22 -60.5q0 -34 13.5 -51.5t38.5 -17.5q21 0 38.5 13zM124 588l-54 58l129 131h92l128 -131l-53 -58l-121 83zM341 850q35 2 49.5 10.5t14.5 28.5q0 15 -9.5 23t-25.5 8q-15 0 -26.5 -3t-28.5 -9l-24 64q42 25 101 25
q54 0 84 -27.5t30 -72.5q0 -39 -19.5 -62.5t-56.5 -30.5v-53h-89v99z" />
    <glyph glyph-name="uni1EAB" unicode="&#x1eab;" horiz-adv-x="497" 
d="M450 107q7 -13 24 -20l-32 -101q-46 4 -75 21t-45 53q-49 -77 -143 -77q-72 0 -114.5 45.5t-42.5 120.5q0 87 58.5 133t169.5 46h42v25q0 47 -17 65.5t-60 18.5q-49 0 -125 -27l-35 99q44 19 94 29t93 10q103 0 152 -46t49 -140v-215q0 -27 7 -40zM263.5 106
q17.5 13 28.5 37v99h-28q-47 0 -69 -19.5t-22 -60.5q0 -34 13.5 -51.5t38.5 -17.5q21 0 38.5 13zM124 584l-54 58l129 131h92l128 -131l-53 -58l-121 83zM265 808q-14 6 -34 18q-12 8 -20 12t-17 4q-15 0 -25.5 -9t-22.5 -31l-74 33q18 48 49 77.5t70 29.5q20 0 35 -6
t34 -18q9 -6 18.5 -10.5t18.5 -4.5q14 0 24.5 9t22.5 29l74 -33q-18 -48 -49 -77t-70 -29q-20 0 -34 6z" />
    <glyph glyph-name="uni0201" unicode="&#x201;" horiz-adv-x="497" 
d="M450 107q7 -13 24 -20l-32 -101q-46 4 -75 21t-45 53q-49 -77 -143 -77q-72 0 -114.5 45.5t-42.5 120.5q0 87 58.5 133t169.5 46h42v25q0 47 -17 65.5t-60 18.5q-49 0 -125 -27l-35 99q44 19 94 29t93 10q103 0 152 -46t49 -140v-215q0 -27 7 -40zM263.5 106
q17.5 13 28.5 37v99h-28q-47 0 -69 -19.5t-22 -60.5q0 -34 13.5 -51.5t38.5 -17.5q21 0 38.5 13zM136 857l89 -195l-76 -36l-112 180zM298 857l81 -195l-77 -32l-104 179z" />
    <glyph glyph-name="adieresis" unicode="&#xe4;" horiz-adv-x="497" 
d="M450 107q7 -13 24 -20l-32 -101q-46 4 -75 21t-45 53q-49 -77 -143 -77q-72 0 -114.5 45.5t-42.5 120.5q0 87 58.5 133t169.5 46h42v25q0 47 -17 65.5t-60 18.5q-49 0 -125 -27l-35 99q44 19 94 29t93 10q103 0 152 -46t49 -140v-215q0 -27 7 -40zM263.5 106
q17.5 13 28.5 37v99h-28q-47 0 -69 -19.5t-22 -60.5q0 -34 13.5 -51.5t38.5 -17.5q21 0 38.5 13zM194 775q22 -22 22 -55t-22 -55.5t-55 -22.5q-32 0 -54.5 22.5t-22.5 55.5q0 32 22.5 54.5t54.5 22.5q33 0 55 -22zM406.5 775q22.5 -22 22.5 -55t-22 -55.5t-56 -22.5
q-32 0 -54.5 22.5t-22.5 55.5q0 32 22.5 54.5t54.5 22.5q33 0 55.5 -22z" />
    <glyph glyph-name="uni01DF" unicode="&#x1df;" horiz-adv-x="497" 
d="M450 107q7 -13 24 -20l-32 -101q-46 4 -75 21t-45 53q-49 -77 -143 -77q-72 0 -114.5 45.5t-42.5 120.5q0 87 58.5 133t169.5 46h42v25q0 47 -17 65.5t-60 18.5q-49 0 -125 -27l-35 99q44 19 94 29t93 10q103 0 152 -46t49 -140v-215q0 -27 7 -40zM263.5 106
q17.5 13 28.5 37v99h-28q-47 0 -69 -19.5t-22 -60.5q0 -34 13.5 -51.5t38.5 -17.5q21 0 38.5 13zM195 736q22 -22 22 -55t-22 -55.5t-55 -22.5q-32 0 -54.5 22.5t-22.5 55.5q0 32 22.5 54.5t54.5 22.5q33 0 55 -22zM407.5 736q22.5 -22 22.5 -55t-22 -55.5t-56 -22.5
q-32 0 -54.5 22.5t-22.5 55.5q0 32 22.5 54.5t54.5 22.5q33 0 55.5 -22zM386 803h-280v105h280v-105z" />
    <glyph glyph-name="uni0227" unicode="&#x227;" horiz-adv-x="497" 
d="M450 107q7 -13 24 -20l-32 -101q-46 4 -75 21t-45 53q-49 -77 -143 -77q-72 0 -114.5 45.5t-42.5 120.5q0 87 58.5 133t169.5 46h42v25q0 47 -17 65.5t-60 18.5q-49 0 -125 -27l-35 99q44 19 94 29t93 10q103 0 152 -46t49 -140v-215q0 -27 7 -40zM263.5 106
q17.5 13 28.5 37v99h-28q-47 0 -69 -19.5t-22 -60.5q0 -34 13.5 -51.5t38.5 -17.5q21 0 38.5 13zM309.5 783q25.5 -25 25.5 -62q0 -38 -25.5 -63t-64.5 -25t-64 25t-25 63q0 37 25 62t64 25t64.5 -25z" />
    <glyph glyph-name="uni1EA1" unicode="&#x1ea1;" horiz-adv-x="497" 
d="M450 107q7 -13 24 -20l-32 -101q-46 4 -75 21t-45 53q-49 -77 -143 -77q-72 0 -114.5 45.5t-42.5 120.5q0 87 58.5 133t169.5 46h42v25q0 47 -17 65.5t-60 18.5q-49 0 -125 -27l-35 99q44 19 94 29t93 10q103 0 152 -46t49 -140v-215q0 -27 7 -40zM263.5 106
q17.5 13 28.5 37v99h-28q-47 0 -69 -19.5t-22 -60.5q0 -34 13.5 -51.5t38.5 -17.5q21 0 38.5 13zM183.5 -212q-25.5 25 -25.5 62q0 38 25.5 63t64.5 25t64 -25t25 -63q0 -37 -25 -62t-64 -25t-64.5 25z" />
    <glyph glyph-name="uni01E1" unicode="&#x1e1;" horiz-adv-x="497" 
d="M450 107q7 -13 24 -20l-32 -101q-46 4 -75 21t-45 53q-49 -77 -143 -77q-72 0 -114.5 45.5t-42.5 120.5q0 87 58.5 133t169.5 46h42v25q0 47 -17 65.5t-60 18.5q-49 0 -125 -27l-35 99q44 19 94 29t93 10q103 0 152 -46t49 -140v-215q0 -27 7 -40zM263.5 106
q17.5 13 28.5 37v99h-28q-47 0 -69 -19.5t-22 -60.5q0 -34 13.5 -51.5t38.5 -17.5q21 0 38.5 13zM309.5 745q25.5 -25 25.5 -62q0 -38 -25.5 -63t-64.5 -25t-64 25t-25 63q0 37 25 62t64 25t64.5 -25zM386 805h-280v105h280v-105z" />
    <glyph glyph-name="agrave" unicode="&#xe0;" horiz-adv-x="497" 
d="M450 107q7 -13 24 -20l-32 -101q-46 4 -75 21t-45 53q-49 -77 -143 -77q-72 0 -114.5 45.5t-42.5 120.5q0 87 58.5 133t169.5 46h42v25q0 47 -17 65.5t-60 18.5q-49 0 -125 -27l-35 99q44 19 94 29t93 10q103 0 152 -46t49 -140v-215q0 -27 7 -40zM263.5 106
q17.5 13 28.5 37v99h-28q-47 0 -69 -19.5t-22 -60.5q0 -34 13.5 -51.5t38.5 -17.5q21 0 38.5 13zM185 830l199 -131l-42 -76l-217 94z" />
    <glyph glyph-name="uni1EA3" unicode="&#x1ea3;" horiz-adv-x="497" 
d="M450 107q7 -13 24 -20l-32 -101q-46 4 -75 21t-45 53q-49 -77 -143 -77q-72 0 -114.5 45.5t-42.5 120.5q0 87 58.5 133t169.5 46h42v25q0 47 -17 65.5t-60 18.5q-49 0 -125 -27l-35 99q44 19 94 29t93 10q103 0 152 -46t49 -140v-215q0 -27 7 -40zM263.5 106
q17.5 13 28.5 37v99h-28q-47 0 -69 -19.5t-22 -60.5q0 -34 13.5 -51.5t38.5 -17.5q21 0 38.5 13zM202 704q35 2 49.5 10.5t14.5 28.5q0 15 -9.5 23t-25.5 8q-15 0 -26.5 -3t-28.5 -9l-24 64q42 25 101 25q54 0 84 -27.5t30 -72.5q0 -39 -19.5 -62.5t-56.5 -30.5v-53h-89v99z
" />
    <glyph glyph-name="uni0203" unicode="&#x203;" horiz-adv-x="497" 
d="M450 107q7 -13 24 -20l-32 -101q-46 4 -75 21t-45 53q-49 -77 -143 -77q-72 0 -114.5 45.5t-42.5 120.5q0 87 58.5 133t169.5 46h42v25q0 47 -17 65.5t-60 18.5q-49 0 -125 -27l-35 99q44 19 94 29t93 10q103 0 152 -46t49 -140v-215q0 -27 7 -40zM263.5 106
q17.5 13 28.5 37v99h-28q-47 0 -69 -19.5t-22 -60.5q0 -34 13.5 -51.5t38.5 -17.5q21 0 38.5 13zM358 741.5q41 -46.5 46 -123.5l-83 -15q-8 38 -27 58.5t-49 20.5q-57 0 -75 -79l-83 15q5 77 45.5 123.5t112.5 46.5t113 -46.5z" />
    <glyph glyph-name="uni0251" unicode="&#x251;" horiz-adv-x="545" 
d="M495 121.5q8 -15.5 30 -27.5l-44 -111q-50 9 -80 27t-47 50q-24 -36 -59.5 -56.5t-79.5 -20.5q-90 0 -138 73.5t-48 209.5q0 85 24.5 149t69 98.5t102.5 34.5q73 0 120 -59l8 42h134v-363q0 -31 8 -46.5zM333 151v244q-15 20 -31 30t-37 10q-37 0 -57 -38.5t-20 -130.5
q0 -97 18 -133.5t52 -36.5q42 0 75 55z" />
    <glyph glyph-name="uni0252" unicode="&#x252;" horiz-adv-x="545" 
d="M468 474.5q48 -73.5 48 -209.5q0 -85 -24.5 -149t-69 -98.5t-102.5 -34.5q-73 0 -120 59l-8 -42h-134v363q0 31 -8 46.5t-30 27.5l44 111q50 -9 80 -27t47 -50q24 36 59.5 56.5t79.5 20.5q90 0 138 -73.5zM337 134.5q20 38.5 20 130.5q0 98 -18 134t-52 36q-42 0 -75 -55
v-244q15 -20 31 -30t37 -10q37 0 57 38.5z" />
    <glyph glyph-name="amacron" unicode="&#x101;" horiz-adv-x="497" 
d="M450 107q7 -13 24 -20l-32 -101q-46 4 -75 21t-45 53q-49 -77 -143 -77q-72 0 -114.5 45.5t-42.5 120.5q0 87 58.5 133t169.5 46h42v25q0 47 -17 65.5t-60 18.5q-49 0 -125 -27l-35 99q44 19 94 29t93 10q103 0 152 -46t49 -140v-215q0 -27 7 -40zM263.5 106
q17.5 13 28.5 37v99h-28q-47 0 -69 -19.5t-22 -60.5q0 -34 13.5 -51.5t38.5 -17.5q21 0 38.5 13zM386 657h-280v105h280v-105z" />
    <glyph glyph-name="aogonek" unicode="&#x105;" horiz-adv-x="497" 
d="M359.5 -64.5q-22.5 -25.5 -22.5 -52.5q0 -46 47 -46q19 0 54 7l-10 -95q-30 -8 -63 -8q-61 0 -99.5 31t-38.5 84q0 54 34 92t97 65q-23 17 -36 47q-49 -77 -143 -77q-72 0 -114.5 45.5t-42.5 120.5q0 87 58.5 133t169.5 46h42v25q0 47 -17 65.5t-60 18.5q-49 0 -125 -27
l-35 99q44 19 94 29t93 10q103 0 152 -46t49 -140v-215q0 -27 7 -40t24 -20l-32 -101q-60 -25 -82.5 -50.5zM263.5 106q17.5 13 28.5 37v99h-28q-47 0 -69 -19.5t-22 -60.5q0 -34 13.5 -51.5t38.5 -17.5q21 0 38.5 13z" />
    <glyph glyph-name="aring" unicode="&#xe5;" horiz-adv-x="497" 
d="M450 107q7 -13 24 -20l-32 -101q-46 4 -75 21t-45 53q-49 -77 -143 -77q-72 0 -114.5 45.5t-42.5 120.5q0 87 58.5 133t169.5 46h42v25q0 47 -17 65.5t-60 18.5q-49 0 -125 -27l-35 99q44 19 94 29t93 10q103 0 152 -46t49 -140v-215q0 -27 7 -40zM263.5 106
q17.5 13 28.5 37v99h-28q-47 0 -69 -19.5t-22 -60.5q0 -34 13.5 -51.5t38.5 -17.5q21 0 38.5 13zM340 828.5q35 -36.5 35 -92.5t-35 -93t-94 -37t-94.5 37t-35.5 93t35.5 92.5t94.5 36.5t94 -36.5zM206 736q0 -52 40 -52q39 0 39 52q0 51 -39 51q-40 0 -40 -51z" />
    <glyph glyph-name="aringacute" unicode="&#x1fb;" horiz-adv-x="497" 
d="M375 929l-219 -86l-39 77l200 122zM151.5 614q-35.5 37 -35.5 93t35.5 92.5t94.5 36.5t94 -36.5t35 -92.5t-35 -93t-94 -37t-94.5 37zM206 707q0 -52 40 -52q39 0 39 52q0 51 -39 51q-40 0 -40 -51zM450 107q7 -13 24 -20l-32 -101q-46 4 -75 21t-45 53q-49 -77 -143 -77
q-72 0 -114.5 45.5t-42.5 120.5q0 87 58.5 133t169.5 46h42v25q0 47 -17 65.5t-60 18.5q-49 0 -125 -27l-35 99q44 19 94 29t93 10q103 0 152 -46t49 -140v-215q0 -27 7 -40zM263.5 106q17.5 13 28.5 37v99h-28q-47 0 -69 -19.5t-22 -60.5q0 -34 13.5 -51.5t38.5 -17.5
q21 0 38.5 13z" />
    <glyph glyph-name="uni2C65" unicode="&#x2c65;" horiz-adv-x="497" 
d="M450 107q7 -13 24 -20l-32 -101q-46 4 -75 21t-45 53q-40 -65 -115 -75l-13 -59l-50 11l11 47q-62 8 -97.5 52.5t-35.5 112.5q0 81 52.5 124.5t154.5 48.5l27 120q-16 2 -26 2q-64 0 -140 -27l-35 92q44 19 94 29t93 10q13 0 37 -2l12 54l49 -11l-11 -52
q114 -32 114 -175v-215q0 -27 7 -40zM301 413l-20 -91h29v35q0 35 -9 56zM310 143v99h-46l-35 -155q45 7 81 56zM179 96l31 140q-53 -14 -53 -76q0 -46 22 -64z" />
    <glyph glyph-name="atilde" unicode="&#xe3;" horiz-adv-x="497" 
d="M450 107q7 -13 24 -20l-32 -101q-46 4 -75 21t-45 53q-49 -77 -143 -77q-72 0 -114.5 45.5t-42.5 120.5q0 87 58.5 133t169.5 46h42v25q0 47 -17 65.5t-60 18.5q-49 0 -125 -27l-35 99q44 19 94 29t93 10q103 0 152 -46t49 -140v-215q0 -27 7 -40zM263.5 106
q17.5 13 28.5 37v99h-28q-47 0 -69 -19.5t-22 -60.5q0 -34 13.5 -51.5t38.5 -17.5q21 0 38.5 13zM266.5 645q-13.5 6 -34.5 19q-13 9 -20.5 13t-16.5 4q-15 0 -25 -9.5t-23 -32.5l-74 35q18 51 49 82.5t70 31.5q20 0 35 -6.5t34 -19.5q2 -1 10 -6t14.5 -7.5t12.5 -2.5
q14 0 24.5 9.5t22.5 31.5l74 -35q-18 -52 -49 -82.5t-70 -30.5q-20 0 -33.5 6z" />
    <glyph glyph-name="uni0250" unicode="&#x250;" horiz-adv-x="497" 
d="M407 121l35 -99q-44 -19 -94 -29t-93 -10q-103 0 -152 46t-49 140v215q0 27 -7 40t-24 20l32 101q46 -4 75 -21t45 -53q50 77 143 77q72 0 114.5 -45.5t42.5 -120.5q0 -87 -58.5 -133t-169.5 -46h-42v-25q0 -47 17 -65.5t60 -18.5q49 0 125 27zM233.5 425
q-17.5 -13 -28.5 -37v-99h28q47 0 69 19.5t22 60.5q0 34 -13.5 51.5t-38.5 17.5q-21 0 -38.5 -13z" />
    <glyph glyph-name="ae" unicode="&#xe6;" horiz-adv-x="776" 
d="M749 220h-295q6 -69 32 -96.5t73 -27.5q27 0 53.5 11t58.5 34l63 -84q-81 -74 -189 -74q-64 0 -112.5 23.5t-79.5 65.5q-62 -89 -168 -89q-75 0 -119 46t-44 120q0 85 60 130.5t174 45.5h42v26q0 48 -17 66.5t-60 18.5q-49 0 -125 -27l-34 100q94 39 183 39q54 0 89 -17
t57 -50q57 67 149 67q97 0 154.5 -71t57.5 -201q0 -32 -3 -56zM603 320q0 125 -73 125q-35 0 -54 -30t-23 -102h150v7zM313 158q-11 38 -12 79v1h-30q-46 0 -68 -19t-22 -60q0 -66 51 -66q45 0 81 65z" />
    <glyph glyph-name="aeacute" unicode="&#x1fd;" horiz-adv-x="776" 
d="M749 220h-295q6 -69 32 -96.5t73 -27.5q27 0 53.5 11t58.5 34l63 -84q-81 -74 -189 -74q-64 0 -112.5 23.5t-79.5 65.5q-62 -89 -168 -89q-75 0 -119 46t-44 120q0 85 60 130.5t174 45.5h42v26q0 48 -17 66.5t-60 18.5q-49 0 -125 -27l-34 100q94 39 183 39q54 0 89 -17
t57 -50q57 67 149 67q97 0 154.5 -71t57.5 -201q0 -32 -3 -56zM603 320q0 125 -73 125q-35 0 -54 -30t-23 -102h150v7zM313 158q-11 38 -12 79v1h-30q-46 0 -68 -19t-22 -60q0 -66 51 -66q45 0 81 65zM451 830l60 -113l-217 -94l-42 76z" />
    <glyph glyph-name="uni01E3" unicode="&#x1e3;" horiz-adv-x="776" 
d="M749 220h-295q6 -69 32 -96.5t73 -27.5q27 0 53.5 11t58.5 34l63 -84q-81 -74 -189 -74q-64 0 -112.5 23.5t-79.5 65.5q-62 -89 -168 -89q-75 0 -119 46t-44 120q0 85 60 130.5t174 45.5h42v26q0 48 -17 66.5t-60 18.5q-49 0 -125 -27l-34 100q94 39 183 39q54 0 89 -17
t57 -50q57 67 149 67q97 0 154.5 -71t57.5 -201q0 -32 -3 -56zM603 320q0 125 -73 125q-35 0 -54 -30t-23 -102h150v7zM313 158q-11 38 -12 79v1h-30q-46 0 -68 -19t-22 -60q0 -66 51 -66q45 0 81 65zM528 657h-280v105h280v-105z" />
    <glyph glyph-name="b" unicode="b" horiz-adv-x="543" 
d="M466.5 475.5q45.5 -72.5 45.5 -210.5q0 -84 -23 -148t-66 -99t-102 -35q-38 0 -70 17.5t-55 49.5l-7 -50h-137v742l154 16v-279q22 32 56 50.5t74 18.5q85 0 130.5 -72.5zM333 133.5q20 38.5 20 131.5q0 99 -18 134.5t-52 35.5q-22 0 -41.5 -16t-35.5 -44v-230
q28 -50 70 -50q37 0 57 38.5z" />
    <glyph glyph-name="uni1E03" unicode="&#x1e03;" horiz-adv-x="543" 
d="M466.5 475.5q45.5 -72.5 45.5 -210.5q0 -84 -23 -148t-66 -99t-102 -35q-38 0 -70 17.5t-55 49.5l-7 -50h-137v742l154 16v-279q22 32 56 50.5t74 18.5q85 0 130.5 -72.5zM333 133.5q20 38.5 20 131.5q0 99 -18 134.5t-52 35.5q-22 0 -41.5 -16t-35.5 -44v-230
q28 -50 70 -50q37 0 57 38.5zM353.5 958q25.5 -25 25.5 -62q0 -38 -25.5 -63t-64.5 -25t-64 25t-25 63q0 37 25 62t64 25t64.5 -25z" />
    <glyph glyph-name="uni1E05" unicode="&#x1e05;" horiz-adv-x="543" 
d="M466.5 475.5q45.5 -72.5 45.5 -210.5q0 -84 -23 -148t-66 -99t-102 -35q-38 0 -70 17.5t-55 49.5l-7 -50h-137v742l154 16v-279q22 32 56 50.5t74 18.5q85 0 130.5 -72.5zM333 133.5q20 38.5 20 131.5q0 99 -18 134.5t-52 35.5q-22 0 -41.5 -16t-35.5 -44v-230
q28 -50 70 -50q37 0 57 38.5zM216.5 -212q-25.5 25 -25.5 62q0 38 25.5 63t64.5 25t64 -25t25 -63q0 -37 -25 -62t-64 -25t-64.5 25z" />
    <glyph glyph-name="uniA7B5" unicode="&#xa7b5;" horiz-adv-x="553" 
d="M478.5 353.5q51.5 -43.5 51.5 -146.5q0 -67 -26.5 -118t-72.5 -78.5t-104 -27.5q-71 0 -127 40v-224l-148 -21v768q0 102 60 157t157 55q98 0 154 -51.5t56 -137.5q0 -136 -127 -164q75 -8 126.5 -51.5zM349.5 129q25.5 28 25.5 90q0 126 -107 126h-32l9 105h19
q31 0 48.5 26t17.5 80q0 50 -16.5 72t-47.5 22q-33 0 -49.5 -24t-16.5 -79v-424q35 -22 82 -22q42 0 67.5 28z" />
    <glyph glyph-name="uni0253" unicode="&#x253;" horiz-adv-x="543" 
d="M466.5 475.5q45.5 -72.5 45.5 -210.5q0 -84 -23 -148t-66 -99t-102 -35q-38 0 -70 17.5t-55 49.5l-7 -50h-137v585q0 76 49 124.5t141 48.5q75 0 134 -33l-43 -98q-35 17 -71 17q-30 0 -43 -15t-13 -49v-101q22 32 56 50.5t73 18.5q86 0 131.5 -72.5zM333 133.5
q20 38.5 20 131.5q0 99 -18 134.5t-52 35.5q-22 0 -41.5 -16t-35.5 -44v-230q28 -50 70 -50q37 0 57 38.5z" />
    <glyph glyph-name="uni02AD" unicode="&#x2ad;" horiz-adv-x="339" 
d="M30 400v164h279v-164h-90v84h-99v-84h-90zM30 0v164h279v-164h-90v84h-99v-84h-90z" />
    <glyph glyph-name="uni0298" unicode="&#x298;" horiz-adv-x="728" 
d="M539 667q75 -43 116.5 -125t41.5 -195q0 -110 -41.5 -192t-117 -127t-174.5 -45t-175 43.5t-117.5 125.5t-41.5 195q0 109 42 191.5t117.5 127t174.5 44.5q100 0 175 -43zM181 347q0 -257 184 -257q89 0 136 61.5t47 195.5q0 131 -49.5 193.5t-133.5 62.5
q-184 0 -184 -256zM423 397.5q22 -21.5 22 -54.5t-22 -55t-57 -22q-34 0 -56 22t-22 55q0 32 22 54t56 22q35 0 57 -21.5z" />
    <glyph glyph-name="uni02AC" unicode="&#x2ac;" horiz-adv-x="422" 
d="M395 667l-54 -267h-96l-31 195l-33 -195h-95l-59 267h73l36 -207l36 207h87l34 -208l34 208h68zM395 267l-54 -267h-96l-31 195l-33 -195h-95l-59 267h73l36 -207l36 207h87l34 -208l34 208h68z" />
    <glyph glyph-name="uni0180" unicode="&#x180;" horiz-adv-x="549" 
d="M472.5 475.5q45.5 -72.5 45.5 -210.5q0 -84 -23 -148t-66 -99t-102 -35q-38 0 -70 17.5t-55 49.5l-7 -50h-137v597h-52v91h52v54l154 16v-70h117v-91h-117v-118q22 32 56 50.5t74 18.5q85 0 130.5 -72.5zM339 133.5q20 38.5 20 131.5q0 99 -18 134.5t-52 35.5
q-22 0 -41.5 -16t-35.5 -44v-230q28 -50 70 -50q37 0 57 38.5z" />
    <glyph glyph-name="uni0183" unicode="&#x183;" horiz-adv-x="543" 
d="M466.5 471q45.5 -72 45.5 -208q0 -83 -23 -146.5t-66 -98.5t-102 -35q-38 0 -70 17.5t-55 49.5l-7 -50h-137v742h350l-17 -110h-179v-158q22 32 56 50.5t73 18.5q86 0 131.5 -72zM333 133.5q20 38.5 20 129.5q0 96 -18 131.5t-52 35.5q-22 0 -41.5 -16t-35.5 -44v-225
q28 -50 70 -50q37 0 57 38.5z" />
    <glyph glyph-name="c" unicode="c" horiz-adv-x="436" 
d="M360 532q40 -16 75 -49l-64 -88q-23 18 -44 26.5t-45 8.5q-46 0 -69 -38t-23 -130q0 -88 23.5 -123t67.5 -35q23 0 42 7.5t45 25.5l67 -91q-69 -63 -163 -63q-114 0 -178.5 73t-64.5 205q0 87 29.5 152t84 100t127.5 35q50 0 90 -16z" />
    <glyph glyph-name="cacute" unicode="&#x107;" horiz-adv-x="436" 
d="M360 532q40 -16 75 -49l-64 -88q-23 18 -44 26.5t-45 8.5q-46 0 -69 -38t-23 -130q0 -88 23.5 -123t67.5 -35q23 0 42 7.5t45 25.5l67 -91q-69 -63 -163 -63q-114 0 -178.5 73t-64.5 205q0 87 29.5 152t84 100t127.5 35q50 0 90 -16zM331 830l60 -113l-217 -94l-42 76z
" />
    <glyph glyph-name="cacute.loclPLK" horiz-adv-x="436" 
d="M360 532q40 -16 75 -49l-64 -88q-23 18 -44 26.5t-45 8.5q-46 0 -69 -38t-23 -130q0 -88 23.5 -123t67.5 -35q23 0 42 7.5t45 25.5l67 -91q-69 -63 -163 -63q-114 0 -178.5 73t-64.5 205q0 87 29.5 152t84 100t127.5 35q50 0 90 -16zM284 807l113 -65l-129 -161l-69 40z
" />
    <glyph glyph-name="ccaron" unicode="&#x10d;" horiz-adv-x="436" 
d="M360 532q40 -16 75 -49l-64 -88q-23 18 -44 26.5t-45 8.5q-46 0 -69 -38t-23 -130q0 -88 23.5 -123t67.5 -35q23 0 42 7.5t45 25.5l67 -91q-69 -63 -163 -63q-114 0 -178.5 73t-64.5 205q0 87 29.5 152t84 100t127.5 35q50 0 90 -16zM389 810l53 -60l-128 -138h-93
l-128 138l54 60l121 -92z" />
    <glyph glyph-name="ccedilla" unicode="&#xe7;" horiz-adv-x="436" 
d="M298 -16v-35q47 -6 71 -30.5t24 -65.5q0 -51 -37 -82.5t-101 -31.5q-61 0 -105 30l35 69q28 -15 58 -15q41 0 41 31q0 18 -20.5 26.5t-63.5 8.5l12 100q-87 18 -135 88.5t-48 183.5q0 87 29.5 152t84 100t127.5 35q50 0 90 -16t75 -49l-64 -88q-23 18 -44 26.5t-45 8.5
q-46 0 -69 -38t-23 -130q0 -88 23.5 -123t67.5 -35q23 0 42 7.5t45 25.5l67 -91q-58 -53 -137 -62z" />
    <glyph glyph-name="ccircumflex" unicode="&#x109;" horiz-adv-x="436" 
d="M360 532q40 -16 75 -49l-64 -88q-23 18 -44 26.5t-45 8.5q-46 0 -69 -38t-23 -130q0 -88 23.5 -123t67.5 -35q23 0 42 7.5t45 25.5l67 -91q-69 -63 -163 -63q-114 0 -178.5 73t-64.5 205q0 87 29.5 152t84 100t127.5 35q50 0 90 -16zM147 623l-54 59l128 138h93l128 -138
l-54 -59l-120 92z" />
    <glyph glyph-name="uni0255" unicode="&#x255;" horiz-adv-x="458" 
d="M422 220.5q33 -31.5 33 -86.5q0 -73 -49 -112t-124 -39q-34 0 -64 7l-30 -74l-74 30l32 72q-57 33 -87 96t-30 147q0 87 29.5 152t84 100t127.5 35q50 0 90 -16t75 -49l-65 -88q-42 35 -88 35t-69 -38t-23 -130q0 -71 17 -114q20 55 52.5 79.5t78.5 24.5q51 0 84 -31.5z
M338 105q13 11 13 33q0 32 -26 32q-18 0 -32.5 -16t-29.5 -55q22 -5 38 -5q24 0 37 11z" />
    <glyph glyph-name="cdotaccent" unicode="&#x10b;" horiz-adv-x="436" 
d="M360 532q40 -16 75 -49l-64 -88q-23 18 -44 26.5t-45 8.5q-46 0 -69 -38t-23 -130q0 -88 23.5 -123t67.5 -35q23 0 42 7.5t45 25.5l67 -91q-69 -63 -163 -63q-114 0 -178.5 73t-64.5 205q0 87 29.5 152t84 100t127.5 35q50 0 90 -16zM331.5 783q25.5 -25 25.5 -62
q0 -38 -25.5 -63t-64.5 -25t-64 25t-25 63q0 37 25 62t64 25t64.5 -25z" />
    <glyph glyph-name="uni0188" unicode="&#x188;" horiz-adv-x="436" 
d="M582 721l-43 -94q-17 9 -30 13t-29 4q-23 0 -34 -13t-11 -43v-105l-60 -82q-44 29 -92 29q-47 0 -70 -38t-23 -130q0 -88 23.5 -123t67.5 -35q23 0 42 7.5t45 25.5l67 -91q-69 -63 -163 -63q-114 0 -178.5 73t-64.5 205q0 86 28.5 151t79 100.5t114.5 35.5q22 0 50 -7v59
q0 76 41 117t115 41q69 0 125 -37z" />
    <glyph glyph-name="uni0297" unicode="&#x297;" horiz-adv-x="449" 
d="M449 483l-64 -88q-45 34 -87 34q-50 0 -75 -60.5t-25 -208.5q0 -145 24 -201.5t72 -56.5q23 0 42.5 7.5t43.5 24.5l67 -92q-71 -63 -160 -63q-122 0 -186 96.5t-64 284.5t66 288t186 100q92 0 160 -65z" />
    <glyph glyph-name="uni023C" unicode="&#x23c;" horiz-adv-x="436" 
d="M323 111.5q19 7.5 45 25.5l67 -91q-69 -63 -163 -63q-21 0 -42 3l-14 -60l-51 12l15 60q-73 26 -112 93.5t-39 169.5q0 87 29.5 152t84 100t127.5 35q21 0 42 -3l13 55l50 -11l-14 -58q39 -16 74 -48l-64 -88q-20 16 -37 24l-75 -313q14 -2 22 -2q23 0 42 7.5zM214 139
l70 291h-2q-46 0 -69 -38t-23 -130q0 -85 24 -123z" />
    <glyph glyph-name="d" unicode="d" horiz-adv-x="545" 
d="M492 742v-742h-136l-7 59q-51 -76 -135 -76q-89 0 -136 74.5t-47 208.5q0 84 24.5 148t69 99t102.5 35q67 0 111 -49v259zM304 109.5q18 13.5 34 41.5v241q-16 22 -31.5 32.5t-36.5 10.5q-80 0 -80 -169q0 -95 19 -132.5t54 -37.5q23 0 41 13.5z" />
    <glyph glyph-name="eth" unicode="&#xf0;" horiz-adv-x="532" 
d="M459 504q39 -95 39 -227q0 -84 -28 -151t-81.5 -105t-128.5 -38q-66 0 -118.5 29.5t-82.5 86.5t-30 135q0 70 25 126t67.5 87.5t94.5 31.5q37 0 65 -12t53 -35q-13 49 -33.5 85t-56.5 67l-50 -56l-95 45l57 62q-36 12 -83 23l29 99q64 -10 133 -37l67 76l80 -64l-54 -63
q92 -70 131 -165zM322.5 133q19.5 37 19.5 117l-1 78q-32 43 -80 43q-40 0 -58.5 -34t-18.5 -101q0 -75 20 -107.5t58 -32.5q41 0 60.5 37z" />
    <glyph glyph-name="uni0238" unicode="&#x238;" horiz-adv-x="793" 
d="M719.5 476q42.5 -72 42.5 -211q0 -86 -22.5 -149.5t-64 -98t-96.5 -34.5q-34 0 -63.5 19.5t-50.5 53.5l-8 -56h-119l-8 59q-50 -76 -126 -76q-83 0 -128 74.5t-45 208.5q0 86 23 149.5t64 98t94 34.5q32 0 60 -16t49 -46v256l154 16v-278q22 32 53.5 50t70.5 18
q78 0 120.5 -72zM321 149v240q-28 46 -63 46q-68 0 -68 -169q0 -97 16.5 -133.5t46.5 -36.5q35 0 68 53zM603 265q0 98 -16.5 133.5t-45.5 35.5q-38 0 -66 -50v-237q13 -25 27.5 -38t34.5 -13q66 0 66 169z" />
    <glyph glyph-name="dcaron" unicode="&#x10f;" horiz-adv-x="635" 
d="M492 742v-742h-136l-7 59q-51 -76 -135 -76q-89 0 -136 74.5t-47 208.5q0 84 24.5 148t69 99t102.5 35q67 0 111 -49v259zM304 109.5q18 13.5 34 41.5v241q-16 22 -31.5 32.5t-36.5 10.5q-80 0 -80 -169q0 -95 19 -132.5t54 -37.5q23 0 41 13.5zM611 528l50 214l-113 16
l-22 -217z" />
    <glyph glyph-name="uni1E13" unicode="&#x1e13;" horiz-adv-x="545" 
d="M492 742v-742h-136l-7 59q-51 -76 -135 -76q-89 0 -136 74.5t-47 208.5q0 84 24.5 148t69 99t102.5 35q67 0 111 -49v259zM304 109.5q18 13.5 34 41.5v241q-16 22 -31.5 32.5t-36.5 10.5q-80 0 -80 -169q0 -95 19 -132.5t54 -37.5q23 0 41 13.5zM157 -260l-54 59l128 138
h93l128 -138l-54 -59l-120 91z" />
    <glyph glyph-name="dcroat" unicode="&#x111;" horiz-adv-x="551" 
d="M545 688v-91h-53v-597h-136l-7 59q-51 -76 -135 -76q-89 0 -136 74.5t-47 208.5q0 84 24.5 148t69 99t102.5 35q67 0 111 -49v98h-119v91h119v70l154 -16v-54h53zM304 109.5q18 13.5 34 41.5v241q-16 22 -31.5 32.5t-36.5 10.5q-80 0 -80 -169q0 -95 19 -132.5t54 -37.5
q23 0 41 13.5z" />
    <glyph glyph-name="uni0221" unicode="&#x221;" horiz-adv-x="718" 
d="M694 212.5q31 -30.5 31 -83.5q0 -72 -49 -109t-127 -37q-22 0 -43 3l-29 -70l-72 30l27 62q-45 24 -69 66q-57 -91 -149 -91q-89 0 -136 74.5t-47 208.5q0 84 24.5 148t69.5 99t104 35q65 0 109 -49v259l154 -16v-564q0 -15 2 -33q23 52 51.5 75t70.5 23q47 0 78 -30.5z
M339 153q-1 10 -1 29v210q-16 22 -31.5 32.5t-35.5 10.5q-81 0 -81 -169q0 -95 19 -132.5t54 -37.5q44 0 76 57zM620 134q0 26 -21 26q-14 0 -24.5 -13.5t-25.5 -51.5q7 -1 22 -1q49 0 49 40z" />
    <glyph glyph-name="uni1E0B" unicode="&#x1e0b;" horiz-adv-x="545" 
d="M492 742v-742h-136l-7 59q-51 -76 -135 -76q-89 0 -136 74.5t-47 208.5q0 84 24.5 148t69 99t102.5 35q67 0 111 -49v259zM304 109.5q18 13.5 34 41.5v241q-16 22 -31.5 32.5t-36.5 10.5q-80 0 -80 -169q0 -95 19 -132.5t54 -37.5q23 0 41 13.5zM332.5 958
q25.5 -25 25.5 -62q0 -38 -25.5 -63t-64.5 -25t-64 25t-25 63q0 37 25 62t64 25t64.5 -25z" />
    <glyph glyph-name="uni1E0D" unicode="&#x1e0d;" horiz-adv-x="545" 
d="M492 742v-742h-136l-7 59q-51 -76 -135 -76q-89 0 -136 74.5t-47 208.5q0 84 24.5 148t69 99t102.5 35q67 0 111 -49v259zM304 109.5q18 13.5 34 41.5v241q-16 22 -31.5 32.5t-36.5 10.5q-80 0 -80 -169q0 -95 19 -132.5t54 -37.5q23 0 41 13.5zM215.5 -212
q-25.5 25 -25.5 62q0 38 25.5 63t64.5 25t64 -25t25 -63q0 -37 -25 -62t-64 -25t-64.5 25z" />
    <glyph glyph-name="uni018D" unicode="&#x18d;" horiz-adv-x="528" 
d="M360 73q53 -31 72 -63.5t19 -77.5q0 -67 -50.5 -111t-149.5 -44q-53 0 -97.5 16.5t-77.5 43.5l67 80q25 -16 48 -24t50 -8q32 0 47.5 13.5t15.5 35.5q0 18 -6 29.5t-24.5 23.5t-56.5 30q-101 46 -144.5 105t-43.5 158q0 126 63 197t172 71q111 0 173 -65.5t62 -189.5
q0 -152 -139 -220zM195.5 204q7.5 -28 27.5 -49t60 -42q33 31 45.5 72t13.5 103q0 80 -18 113.5t-59 33.5q-40 0 -58.5 -35t-18.5 -121q0 -47 7.5 -75z" />
    <glyph glyph-name="uni02A4" unicode="&#x2a4;" horiz-adv-x="931" 
d="M917 9q0 -66 -29.5 -118.5t-85 -82t-131.5 -29.5q-140 0 -217 101l81 77q33 -33 61.5 -47t64.5 -14q47 0 72.5 30t25.5 90q0 56 -27 80.5t-84 24.5h-82v90l154 205h-228v-416h-136l-7 59q-51 -76 -135 -76q-89 0 -136 74.5t-47 208.5q0 84 24.5 148t69 99t102.5 35
q67 0 111 -49v259l154 -16v-211h395v-106l-166 -214q196 -14 196 -202zM304 109.5q18 13.5 34 41.5v241q-16 22 -31.5 32.5t-36.5 10.5q-80 0 -80 -169q0 -95 19 -132.5t54 -37.5q23 0 41 13.5z" />
    <glyph glyph-name="uni0257" unicode="&#x257;" horiz-adv-x="545" 
d="M639 721l-43 -94q-17 9 -30 13t-29 4q-23 0 -34 -13t-11 -43v-588h-136l-7 59q-51 -76 -135 -76q-90 0 -136.5 74.5t-46.5 208.5q0 84 24.5 148t69.5 99t104 35q65 0 109 -49v85q0 80 45.5 127t130.5 47q69 0 125 -37zM304 109.5q18 13.5 34 41.5v241q-16 22 -31.5 32.5
t-35.5 10.5q-81 0 -81 -169q0 -95 19 -132.5t54 -37.5q23 0 41 13.5z" />
    <glyph glyph-name="uni1E0F" unicode="&#x1e0f;" horiz-adv-x="545" 
d="M492 742v-742h-136l-7 59q-51 -76 -135 -76q-89 0 -136 74.5t-47 208.5q0 84 24.5 148t69 99t102.5 35q67 0 111 -49v259zM304 109.5q18 13.5 34 41.5v241q-16 22 -31.5 32.5t-36.5 10.5q-80 0 -80 -169q0 -95 19 -132.5t54 -37.5q23 0 41 13.5zM419 -189h-280v105h280
v-105z" />
    <glyph glyph-name="uni0256" unicode="&#x256;" horiz-adv-x="545" 
d="M656 -179q-54 -42 -135 -42q-82 0 -132.5 45.5t-50.5 131.5v88q-49 -61 -124 -61q-90 0 -136.5 74.5t-46.5 208.5q0 84 24.5 148t69.5 99t104 35q65 0 109 -49v259l154 -16v-796q0 -28 13 -41.5t36 -13.5q18 0 31 4t31 14zM304 109.5q18 13.5 34 41.5v241
q-16 22 -31.5 32.5t-35.5 10.5q-81 0 -81 -169q0 -95 19 -132.5t54 -37.5q23 0 41 13.5z" />
    <glyph glyph-name="uni018C" unicode="&#x18c;" horiz-adv-x="545" 
d="M492 0h-136l-7 59q-51 -76 -135 -76q-90 0 -136.5 73.5t-46.5 203.5q0 81 24.5 143.5t69.5 97.5t104 35q65 0 109 -49v145h-186v110h340v-742zM304 109.5q18 13.5 34 41.5v229q-16 22 -31.5 32.5t-35.5 10.5q-38 0 -59.5 -39t-21.5 -124q0 -91 19 -127.5t54 -36.5
q23 0 41 13.5z" />
    <glyph glyph-name="uni01F3" unicode="&#x1f3;" horiz-adv-x="963" 
d="M492 742v-742h-136l-7 59q-51 -76 -135 -76q-89 0 -136 74.5t-47 208.5q0 84 24.5 148t69 99t102.5 35q67 0 111 -49v259zM304 109.5q18 13.5 34 41.5v241q-16 22 -31.5 32.5t-36.5 10.5q-80 0 -80 -169q0 -95 19 -132.5t54 -37.5q23 0 41 13.5zM945 531v-109l-217 -305
h222l-14 -117h-380v109l217 306h-199v116h371z" />
    <glyph glyph-name="uni02A3" unicode="&#x2a3;" horiz-adv-x="895" 
d="M882 117l-14 -117h-512l-7 59q-51 -76 -135 -76q-89 0 -136 74.5t-47 208.5q0 84 24.5 148t69 99t102.5 35q67 0 111 -49v259l154 -16v-211h385v-109l-221 -305h226zM304 109.5q18 13.5 34 41.5v241q-16 22 -31.5 32.5t-36.5 10.5q-80 0 -80 -169q0 -95 19 -132.5
t54 -37.5q23 0 41 13.5zM492 415v-301l217 301h-217z" />
    <glyph glyph-name="uni01C6" unicode="&#x1c6;" horiz-adv-x="963" 
d="M492 742v-742h-136l-7 59q-51 -76 -135 -76q-89 0 -136 74.5t-47 208.5q0 84 24.5 148t69 99t102.5 35q67 0 111 -49v259zM304 109.5q18 13.5 34 41.5v241q-16 22 -31.5 32.5t-36.5 10.5q-80 0 -80 -169q0 -95 19 -132.5t54 -37.5q23 0 41 13.5zM945 531v-109l-217 -305
h222l-14 -117h-380v109l217 306h-199v116h371zM879 810l53 -60l-128 -138h-93l-128 138l54 60l121 -92z" />
    <glyph glyph-name="uni02A5" unicode="&#x2a5;" horiz-adv-x="984" 
d="M966.5 232q32.5 -31 32.5 -86q0 -147 -195 -146q-5 -37 -5 -128h-86q0 71 6 128h-363l-7 59q-51 -76 -135 -76q-89 0 -136 74.5t-47 208.5q0 84 24.5 148t69 99t102.5 35q67 0 111 -49v259l154 -16v-211h384v-103l-222 -311h81q20 77 57 111.5t91 34.5q51 0 83.5 -31z
M304 109.5q18 13.5 34 41.5v241q-16 22 -31.5 32.5t-36.5 10.5q-80 0 -80 -169q0 -95 19 -132.5t54 -37.5q23 0 41 13.5zM492 415v-299l215 299h-215zM879.5 125q15.5 8 15.5 29q0 27 -25 27q-17 0 -29.5 -15t-19.5 -49h8q35 0 50.5 8zM806 12l1 6l-1 -2v-4z" />
    <glyph glyph-name="e" unicode="e" horiz-adv-x="507" 
d="M480 220h-296q6 -70 31 -97t71 -27q30 0 57 11t59 34l63 -85q-82 -73 -191 -73q-120 0 -182.5 74.5t-62.5 205.5q0 128 60 206.5t169 78.5q105 0 165 -70.5t60 -201.5q0 -32 -3 -56zM332 320q0 63 -16.5 94.5t-55.5 31.5q-35 0 -54 -29.5t-23 -103.5h149v7z" />
    <glyph glyph-name="eacute" unicode="&#xe9;" horiz-adv-x="507" 
d="M480 220h-296q6 -70 31 -97t71 -27q30 0 57 11t59 34l63 -85q-82 -73 -191 -73q-120 0 -182.5 74.5t-62.5 205.5q0 128 60 206.5t169 78.5q105 0 165 -70.5t60 -201.5q0 -32 -3 -56zM332 320q0 63 -16.5 94.5t-55.5 31.5q-35 0 -54 -29.5t-23 -103.5h149v7zM323 830
l60 -113l-217 -94l-42 76z" />
    <glyph glyph-name="ebreve" unicode="&#x115;" horiz-adv-x="507" 
d="M480 220h-296q6 -70 31 -97t71 -27q30 0 57 11t59 34l63 -85q-82 -73 -191 -73q-120 0 -182.5 74.5t-62.5 205.5q0 128 60 206.5t169 78.5q105 0 165 -70.5t60 -201.5q0 -32 -3 -56zM332 320q0 63 -16.5 94.5t-55.5 31.5q-35 0 -54 -29.5t-23 -103.5h149v7zM146.5 679.5
q-40.5 46.5 -45.5 123.5l83 15q18 -79 75 -79q30 0 49 20.5t27 58.5l83 -15q-5 -77 -46 -123.5t-113 -46.5t-112.5 46.5z" />
    <glyph glyph-name="ecaron" unicode="&#x11b;" horiz-adv-x="507" 
d="M480 220h-296q6 -70 31 -97t71 -27q30 0 57 11t59 34l63 -85q-82 -73 -191 -73q-120 0 -182.5 74.5t-62.5 205.5q0 128 60 206.5t169 78.5q105 0 165 -70.5t60 -201.5q0 -32 -3 -56zM332 320q0 63 -16.5 94.5t-55.5 31.5q-35 0 -54 -29.5t-23 -103.5h149v7zM381 810
l53 -60l-128 -138h-93l-128 138l54 60l121 -92z" />
    <glyph glyph-name="uni0229" unicode="&#x229;" horiz-adv-x="507" 
d="M480 220h-296q6 -70 31 -97t71 -27q30 0 57 11t59 34l63 -85q-67 -60 -153 -71v-36q47 -6 71 -30.5t24 -65.5q0 -51 -37 -82.5t-101 -31.5q-61 0 -105 30l35 69q28 -15 58 -15q41 0 41 31q0 18 -20.5 26.5t-63.5 8.5l12 98q-97 15 -147 87.5t-50 188.5q0 128 60 206.5
t169 78.5q105 0 165 -70.5t60 -201.5q0 -32 -3 -56zM332 320q0 63 -16.5 94.5t-55.5 31.5q-35 0 -54 -29.5t-23 -103.5h149v7z" />
    <glyph glyph-name="ecircumflex" unicode="&#xea;" horiz-adv-x="507" 
d="M480 220h-296q6 -70 31 -97t71 -27q30 0 57 11t59 34l63 -85q-82 -73 -191 -73q-120 0 -182.5 74.5t-62.5 205.5q0 128 60 206.5t169 78.5q105 0 165 -70.5t60 -201.5q0 -32 -3 -56zM332 320q0 63 -16.5 94.5t-55.5 31.5q-35 0 -54 -29.5t-23 -103.5h149v7zM139 623
l-54 59l128 138h93l128 -138l-54 -59l-120 92z" />
    <glyph glyph-name="uni1EBF" unicode="&#x1ebf;" horiz-adv-x="507" 
d="M480 220h-296q6 -70 31 -97t71 -27q30 0 57 11t59 34l63 -85q-82 -73 -191 -73q-120 0 -182.5 74.5t-62.5 205.5q0 128 60 206.5t169 78.5q105 0 165 -70.5t60 -201.5q0 -32 -3 -56zM332 320q0 63 -16.5 94.5t-55.5 31.5q-35 0 -54 -29.5t-23 -103.5h149v7zM138 588
l-54 58l129 131h92l128 -131l-53 -58l-121 83zM474 953l87 -79l-150 -143l-59 51z" />
    <glyph glyph-name="uni1EC7" unicode="&#x1ec7;" horiz-adv-x="507" 
d="M480 220h-296q6 -70 31 -97t71 -27q30 0 57 11t59 34l63 -85q-82 -73 -191 -73q-120 0 -182.5 74.5t-62.5 205.5q0 128 60 206.5t169 78.5q105 0 165 -70.5t60 -201.5q0 -32 -3 -56zM332 320q0 63 -16.5 94.5t-55.5 31.5q-35 0 -54 -29.5t-23 -103.5h149v7zM139 623
l-54 59l128 138h93l128 -138l-54 -59l-120 92zM205.5 -212q-25.5 25 -25.5 62q0 38 25.5 63t64.5 25t64 -25t25 -63q0 -37 -25 -62t-64 -25t-64.5 25z" />
    <glyph glyph-name="uni1EC1" unicode="&#x1ec1;" horiz-adv-x="507" 
d="M480 220h-296q6 -70 31 -97t71 -27q30 0 57 11t59 34l63 -85q-82 -73 -191 -73q-120 0 -182.5 74.5t-62.5 205.5q0 128 60 206.5t169 78.5q105 0 165 -70.5t60 -201.5q0 -32 -3 -56zM332 320q0 63 -16.5 94.5t-55.5 31.5q-35 0 -54 -29.5t-23 -103.5h149v7zM137 588
l-54 58l129 131h92l128 -131l-53 -58l-121 83zM44 953l123 -171l-60 -51l-150 143z" />
    <glyph glyph-name="uni1EC3" unicode="&#x1ec3;" horiz-adv-x="507" 
d="M480 220h-296q6 -70 31 -97t71 -27q30 0 57 11t59 34l63 -85q-82 -73 -191 -73q-120 0 -182.5 74.5t-62.5 205.5q0 128 60 206.5t169 78.5q105 0 165 -70.5t60 -201.5q0 -32 -3 -56zM332 320q0 63 -16.5 94.5t-55.5 31.5q-35 0 -54 -29.5t-23 -103.5h149v7zM138 588
l-54 58l129 131h92l128 -131l-53 -58l-121 83zM355 850q35 2 49.5 10.5t14.5 28.5q0 15 -9.5 23t-25.5 8q-15 0 -26.5 -3t-28.5 -9l-24 64q42 25 101 25q54 0 84 -27.5t30 -72.5q0 -39 -19.5 -62.5t-56.5 -30.5v-53h-89v99z" />
    <glyph glyph-name="uni1EC5" unicode="&#x1ec5;" horiz-adv-x="507" 
d="M480 220h-296q6 -70 31 -97t71 -27q30 0 57 11t59 34l63 -85q-82 -73 -191 -73q-120 0 -182.5 74.5t-62.5 205.5q0 128 60 206.5t169 78.5q105 0 165 -70.5t60 -201.5q0 -32 -3 -56zM332 320q0 63 -16.5 94.5t-55.5 31.5q-35 0 -54 -29.5t-23 -103.5h149v7zM138 584
l-54 58l129 131h92l128 -131l-53 -58l-121 83zM279 808q-14 6 -34 18q-12 8 -20 12t-17 4q-15 0 -25.5 -9t-22.5 -31l-74 33q18 48 49 77.5t70 29.5q20 0 35 -6t34 -18q9 -6 18.5 -10.5t18.5 -4.5q14 0 24.5 9t22.5 29l74 -33q-18 -48 -49 -77t-70 -29q-20 0 -34 6z" />
    <glyph glyph-name="uni0205" unicode="&#x205;" horiz-adv-x="507" 
d="M480 220h-296q6 -70 31 -97t71 -27q30 0 57 11t59 34l63 -85q-82 -73 -191 -73q-120 0 -182.5 74.5t-62.5 205.5q0 128 60 206.5t169 78.5q105 0 165 -70.5t60 -201.5q0 -32 -3 -56zM332 320q0 63 -16.5 94.5t-55.5 31.5q-35 0 -54 -29.5t-23 -103.5h149v7zM150 857
l89 -195l-76 -36l-112 180zM312 857l81 -195l-77 -32l-104 179z" />
    <glyph glyph-name="edieresis" unicode="&#xeb;" horiz-adv-x="507" 
d="M480 220h-296q6 -70 31 -97t71 -27q30 0 57 11t59 34l63 -85q-82 -73 -191 -73q-120 0 -182.5 74.5t-62.5 205.5q0 128 60 206.5t169 78.5q105 0 165 -70.5t60 -201.5q0 -32 -3 -56zM332 320q0 63 -16.5 94.5t-55.5 31.5q-35 0 -54 -29.5t-23 -103.5h149v7zM208 775
q22 -22 22 -55t-22 -55.5t-55 -22.5q-32 0 -54.5 22.5t-22.5 55.5q0 32 22.5 54.5t54.5 22.5q33 0 55 -22zM420.5 775q22.5 -22 22.5 -55t-22 -55.5t-56 -22.5q-32 0 -54.5 22.5t-22.5 55.5q0 32 22.5 54.5t54.5 22.5q33 0 55.5 -22z" />
    <glyph glyph-name="edotaccent" unicode="&#x117;" horiz-adv-x="507" 
d="M480 220h-296q6 -70 31 -97t71 -27q30 0 57 11t59 34l63 -85q-82 -73 -191 -73q-120 0 -182.5 74.5t-62.5 205.5q0 128 60 206.5t169 78.5q105 0 165 -70.5t60 -201.5q0 -32 -3 -56zM332 320q0 63 -16.5 94.5t-55.5 31.5q-35 0 -54 -29.5t-23 -103.5h149v7zM323.5 783
q25.5 -25 25.5 -62q0 -38 -25.5 -63t-64.5 -25t-64 25t-25 63q0 37 25 62t64 25t64.5 -25z" />
    <glyph glyph-name="uni1EB9" unicode="&#x1eb9;" horiz-adv-x="507" 
d="M480 220h-296q6 -70 31 -97t71 -27q30 0 57 11t59 34l63 -85q-82 -73 -191 -73q-120 0 -182.5 74.5t-62.5 205.5q0 128 60 206.5t169 78.5q105 0 165 -70.5t60 -201.5q0 -32 -3 -56zM332 320q0 63 -16.5 94.5t-55.5 31.5q-35 0 -54 -29.5t-23 -103.5h149v7zM205.5 -212
q-25.5 25 -25.5 62q0 38 25.5 63t64.5 25t64 -25t25 -63q0 -37 -25 -62t-64 -25t-64.5 25z" />
    <glyph glyph-name="egrave" unicode="&#xe8;" horiz-adv-x="507" 
d="M480 220h-296q6 -70 31 -97t71 -27q30 0 57 11t59 34l63 -85q-82 -73 -191 -73q-120 0 -182.5 74.5t-62.5 205.5q0 128 60 206.5t169 78.5q105 0 165 -70.5t60 -201.5q0 -32 -3 -56zM332 320q0 63 -16.5 94.5t-55.5 31.5q-35 0 -54 -29.5t-23 -103.5h149v7zM199 830
l199 -131l-42 -76l-217 94z" />
    <glyph glyph-name="uni1EBB" unicode="&#x1ebb;" horiz-adv-x="507" 
d="M480 220h-296q6 -70 31 -97t71 -27q30 0 57 11t59 34l63 -85q-82 -73 -191 -73q-120 0 -182.5 74.5t-62.5 205.5q0 128 60 206.5t169 78.5q105 0 165 -70.5t60 -201.5q0 -32 -3 -56zM332 320q0 63 -16.5 94.5t-55.5 31.5q-35 0 -54 -29.5t-23 -103.5h149v7zM216 704
q35 2 49.5 10.5t14.5 28.5q0 15 -9.5 23t-25.5 8q-15 0 -26.5 -3t-28.5 -9l-24 64q42 25 101 25q54 0 84 -27.5t30 -72.5q0 -39 -19.5 -62.5t-56.5 -30.5v-53h-89v99z" />
    <glyph glyph-name="uni0207" unicode="&#x207;" horiz-adv-x="507" 
d="M480 220h-296q6 -70 31 -97t71 -27q30 0 57 11t59 34l63 -85q-82 -73 -191 -73q-120 0 -182.5 74.5t-62.5 205.5q0 128 60 206.5t169 78.5q105 0 165 -70.5t60 -201.5q0 -32 -3 -56zM332 320q0 63 -16.5 94.5t-55.5 31.5q-35 0 -54 -29.5t-23 -103.5h149v7zM372 741.5
q41 -46.5 46 -123.5l-83 -15q-8 38 -27 58.5t-49 20.5q-57 0 -75 -79l-83 15q5 77 45.5 123.5t112.5 46.5t113 -46.5z" />
    <glyph glyph-name="emacron" unicode="&#x113;" horiz-adv-x="507" 
d="M480 220h-296q6 -70 31 -97t71 -27q30 0 57 11t59 34l63 -85q-82 -73 -191 -73q-120 0 -182.5 74.5t-62.5 205.5q0 128 60 206.5t169 78.5q105 0 165 -70.5t60 -201.5q0 -32 -3 -56zM332 320q0 63 -16.5 94.5t-55.5 31.5q-35 0 -54 -29.5t-23 -103.5h149v7zM400 657h-280
v105h280v-105z" />
    <glyph glyph-name="eogonek" unicode="&#x119;" horiz-adv-x="507" 
d="M480 220h-296q6 -70 31 -97t71 -27q30 0 57 11t59 34l63 -85q-42 -37 -94 -57q-84 -40 -84 -93q0 -22 12 -34t35 -12t55 8l-10 -96q-30 -8 -64 -8q-59 0 -97.5 32t-38.5 84q0 65 64 104q-105 10 -159.5 83.5t-54.5 195.5q0 128 60 206.5t169 78.5q105 0 165 -70.5
t60 -201.5q0 -32 -3 -56zM332 320q0 63 -16.5 94.5t-55.5 31.5q-35 0 -54 -29.5t-23 -103.5h149v7z" />
    <glyph glyph-name="uni025B" unicode="&#x25b;" horiz-adv-x="439" 
d="M425 489l-60 -79q-28 16 -51.5 23.5t-49.5 7.5q-29 0 -45.5 -15t-16.5 -43t17 -44t49 -16h58l-15 -99h-50q-39 0 -56 -16.5t-17 -48.5q0 -66 75 -66q27 0 53 9t59 30l64 -85q-37 -30 -88 -47t-112 -17q-93 0 -151.5 43t-58.5 120q0 59 33.5 92.5t101.5 44.5
q-117 25 -117 119q0 67 54 106.5t141 39.5q106 0 183 -59z" />
    <glyph glyph-name="uni029A" unicode="&#x29a;" horiz-adv-x="526" 
d="M90.5 28q-61.5 45 -61.5 125q0 58 32.5 89t100.5 41q-109 28 -109 117q0 67 55.5 107.5t144.5 40.5q116 0 180 -74.5t64 -207.5q0 -137 -62.5 -210t-179.5 -73q-103 0 -164.5 45zM309 109.5q19 16.5 27 53.5t8 103q0 94 -20.5 134.5t-64.5 40.5q-26 0 -40.5 -15
t-14.5 -42q0 -30 16 -45.5t45 -15.5h12l9 -100h-29q-36 0 -54.5 -14t-18.5 -47q0 -69 71 -69q35 0 54 16.5z" />
    <glyph glyph-name="uni025C" unicode="&#x25c;" horiz-adv-x="452" 
d="M346 508q54 -40 54 -107q0 -45 -27.5 -74t-84.5 -44q68 -10 101.5 -41t33.5 -89q0 -83 -61 -126.5t-164 -43.5q-118 0 -197 65l71 83q32 -21 58 -29.5t58 -8.5q76 0 76 68q0 33 -20.5 48t-61.5 15h-68l8 99h49q73 0 73 63q0 28 -16.5 41.5t-44.5 13.5q-27 0 -50 -8.5
t-48 -25.5l-70 79q80 62 195 62q82 0 136 -40z" />
    <glyph glyph-name="uni025E" unicode="&#x25e;" horiz-adv-x="526" 
d="M91.5 56q-62.5 73 -62.5 210q0 133 64 207.5t180 74.5q89 0 144.5 -40.5t55.5 -107.5q0 -89 -109 -117q68 -10 100.5 -41t32.5 -89q0 -80 -61.5 -125t-164.5 -45q-117 0 -179.5 73zM342 162q0 33 -18.5 47t-54.5 14h-29l9 100h12q29 0 45 15.5t16 45.5q0 27 -14.5 42
t-40.5 15q-44 0 -64.5 -40.5t-20.5 -134.5q0 -66 8 -103t27 -53.5t54 -16.5q71 0 71 69z" />
    <glyph glyph-name="uni025D" unicode="&#x25d;" horiz-adv-x="708" 
d="M720 345q-47 -38 -114 -38q-63 0 -99 31t-43 84l-2 13l-62 -39q-3 -85 -112 -113q68 -10 101.5 -41t33.5 -89q0 -83 -61 -126.5t-164 -43.5q-118 0 -197 65l71 83q32 -21 58 -29.5t58 -8.5q76 0 76 68q0 33 -20.5 48t-61.5 15h-68l8 99h49q73 0 73 63q0 28 -16.5 41.5
t-44.5 13.5q-27 0 -50 -8.5t-48 -25.5l-70 79q80 62 195 62q52 0 95 -17.5t68 -48.5l82 49h126v-67q0 -49 43 -49q15 0 26.5 3.5t26.5 11.5z" />
    <glyph glyph-name="uni0258" unicode="&#x258;" horiz-adv-x="507" 
d="M422 474q56 -74 56 -211q0 -132 -63 -206t-184 -74q-107 0 -189 73l63 85q32 -23 59 -34t58 -11q45 0 70 27t31 97h-296q-3 24 -3 56q0 130 61.5 201t166.5 71q114 0 170 -74zM174 313h150q-2 53 -10.5 82t-23.5 40t-40 11q-39 0 -57 -32t-19 -94v-7z" />
    <glyph glyph-name="uni0283" unicode="&#x283;" horiz-adv-x="258" 
d="M353 721l-43 -94q-17 9 -30 13t-29 4q-23 0 -34 -13t-11 -43v-587h1v-45q0 -86 -50.5 -131.5t-132.5 -45.5q-81 0 -135 42l53 88q18 -10 31 -14t31 -4q23 0 36 13.5t13 41.5v54h-1v584q0 80 45.5 127t130.5 47q69 0 125 -37z" />
    <glyph glyph-name="uni0286" unicode="&#x286;" horiz-adv-x="313" 
d="M261 -6q50 -16 88 -38l-29 -63q-29 14 -67 27q-32 -141 -186 -141q-67 0 -102.5 31t-35.5 86q0 61 38 93t104 32q26 0 36 -1v564q0 80 45.5 127t130.5 47q69 0 125 -37l-43 -94q-17 9 -30 13t-29 4q-23 0 -34 -13t-11 -43v-583v-11zM95.5 -119.5q12.5 20.5 11.5 66.5
q-10 2 -36 2q-54 0 -54 -48q0 -41 39 -41q27 0 39.5 20.5z" />
    <glyph glyph-name="uni01AA" unicode="&#x1aa;" horiz-adv-x="383" 
d="M494 -179q-54 -42 -135 -42q-82 0 -132.5 45.5t-50.5 131.5v476q-25 -11 -55 -11q-67 0 -108 45.5t-41 121.5q0 77 46.5 123.5t127.5 46.5q86 0 135 -48t49 -126v-638q0 -28 13 -41.5t36 -13.5q18 0 31 4t31 14zM176 532v66q0 28 -8.5 40.5t-26.5 12.5q-38 0 -38 -60
q0 -34 11 -48.5t34 -14.5q10 0 28 4z" />
    <glyph glyph-name="uni0285" unicode="&#x285;" horiz-adv-x="444" 
d="M454 26q-54 -42 -135 -42q-82 0 -132.5 45.5t-50.5 131.5v45h1v172q0 30 -11 43t-34 13q-16 0 -29 -4t-30 -13l-43 94q56 37 125 37q85 0 130.5 -47t45.5 -127v-169h-1v-54q0 -28 13 -41.5t36 -13.5q18 0 31 4t31 14z" />
    <glyph glyph-name="uni0247" unicode="&#x247;" horiz-adv-x="507" 
d="M270 223l-29 -123q22 -5 45 -5q30 0 57.5 10.5t58.5 34.5l63 -83q-81 -74 -191 -74q-31 0 -60 6l-15 -63l-50 12l16 66q-67 29 -101.5 96t-34.5 163q0 128 60 206.5t169 78.5q13 0 37 -2l13 54l50 -11l-13 -56q66 -25 102 -90.5t36 -166.5q0 -29 -3 -53h-210zM195.5 418
q-21.5 -31 -25.5 -108h68l34 139h-12q-43 0 -64.5 -31zM320 429l-29 -119h59v7q0 82 -30 112zM217 223h-47q6 -63 26 -90z" />
    <glyph glyph-name="uni1EBD" unicode="&#x1ebd;" horiz-adv-x="507" 
d="M480 220h-296q6 -70 31 -97t71 -27q30 0 57 11t59 34l63 -85q-82 -73 -191 -73q-120 0 -182.5 74.5t-62.5 205.5q0 128 60 206.5t169 78.5q105 0 165 -70.5t60 -201.5q0 -32 -3 -56zM332 320q0 63 -16.5 94.5t-55.5 31.5q-35 0 -54 -29.5t-23 -103.5h149v7zM280.5 645
q-13.5 6 -34.5 19q-13 9 -20.5 13t-16.5 4q-15 0 -25 -9.5t-23 -32.5l-74 35q18 51 49 82.5t70 31.5q20 0 35 -6.5t34 -19.5q2 -1 10 -6t14.5 -7.5t12.5 -2.5q14 0 24.5 9.5t22.5 31.5l74 -35q-18 -52 -49 -82.5t-70 -30.5q-20 0 -33.5 6z" />
    <glyph glyph-name="uni01DD" unicode="&#x1dd;" horiz-adv-x="509" 
d="M422 474q58 -74 58 -208q0 -130 -60 -206.5t-171 -76.5q-105 0 -165 69.5t-60 202.5q0 32 3 56h306q-3 68 -26 97.5t-67 29.5q-33 0 -61.5 -9.5t-60.5 -32.5l-62 84q79 68 190 68q118 0 176 -74zM310 119.5q20 27.5 24 98.5h-167v-8q1 -118 83 -118q40 0 60 27.5z" />
    <glyph glyph-name="uni0259" unicode="&#x259;" horiz-adv-x="509" 
d="M422 474q58 -74 58 -208q0 -130 -60 -206.5t-171 -76.5q-105 0 -165 69.5t-60 202.5q0 32 3 56h306q-3 68 -26 97.5t-67 29.5q-33 0 -61.5 -9.5t-60.5 -32.5l-62 84q79 68 190 68q118 0 176 -74zM310 119.5q20 27.5 24 98.5h-167v-8q1 -118 83 -118q40 0 60 27.5z" />
    <glyph glyph-name="uni025A" unicode="&#x25a;" horiz-adv-x="763" 
d="M775 345q-47 -38 -114 -38q-63 0 -99 31t-43 84l-2 13l-56 -35q19 -57 19 -134q0 -130 -60 -206.5t-171 -76.5q-105 0 -165 69.5t-60 202.5q0 32 3 56h306q-3 68 -26 97.5t-67 29.5q-33 0 -61.5 -9.5t-60.5 -32.5l-62 84q79 68 190 68q114 0 174 -71l90 54h126v-67
q0 -49 43 -49q15 0 26.5 3.5t26.5 11.5zM310 119.5q20 27.5 24 98.5h-167v-8q1 -118 83 -118q40 0 60 27.5z" />
    <glyph glyph-name="uni0292" unicode="&#x292;" horiz-adv-x="463" 
d="M449 9q0 -66 -29.5 -118.5t-85 -82t-131.5 -29.5q-140 0 -217 101l81 77q33 -33 61.5 -47t64.5 -14q47 0 72.5 30t25.5 90q0 56 -27 80.5t-84 24.5h-82v90l154 205h-229v115h396v-106l-166 -214q196 -14 196 -202z" />
    <glyph glyph-name="uni01EF" unicode="&#x1ef;" horiz-adv-x="463" 
d="M449 9q0 -66 -29.5 -118.5t-85 -82t-131.5 -29.5q-140 0 -217 101l81 77q33 -33 61.5 -47t64.5 -14q47 0 72.5 30t25.5 90q0 56 -27 80.5t-84 24.5h-82v90l154 205h-229v115h396v-106l-166 -214q196 -14 196 -202zM342 810l53 -60l-128 -138h-93l-128 138l54 60l121 -92z
" />
    <glyph glyph-name="uni0293" unicode="&#x293;" horiz-adv-x="463" 
d="M409.5 -122.5q-39.5 -56.5 -115.5 -81.5l25 -56l-74 -29l-29 70q-26 -2 -41 -2q-91 0 -143.5 39.5t-52.5 113.5q0 57 32.5 89t82.5 32q52 0 84.5 -31t63.5 -110v-1q25 14 37 40.5t12 68.5q0 58 -26.5 82.5t-81.5 24.5h-85v90l155 199h-230v115h396v-106l-165 -207
q95 -7 145 -58t50 -148q0 -78 -39.5 -134.5zM101 -93.5q19 -9.5 68 -9.5q-17 43 -29.5 58.5t-29.5 15.5q-28 0 -28 -32q0 -23 19 -32.5z" />
    <glyph glyph-name="uni01B9" unicode="&#x1b9;" horiz-adv-x="463" 
d="M477 -120q-38 -49 -91.5 -75t-127.5 -26q-75 0 -130 29t-84.5 80.5t-29.5 116.5q0 95 51 147t145 59l-166 214v106h396v-115h-230l155 -206v-89h-82q-56 0 -83.5 -26.5t-27.5 -83.5t25.5 -86t71.5 -29q36 0 65 14t63 46z" />
    <glyph glyph-name="uni01BA" unicode="&#x1ba;" horiz-adv-x="465" 
d="M64.5 -160.5q-39.5 38.5 -39.5 89.5q0 54 37 85t115 47q63 13 87 29t24 49q0 26 -17 38.5t-55 12.5h-115v84l144 148h-226v109h395v-100l-155 -151h21q76 0 120.5 -38t44.5 -105q0 -77 -47.5 -116.5t-130.5 -56.5q-43 -9 -64.5 -16t-29.5 -15t-8 -21q0 -24 43 -48
l-35 -86q-69 23 -108.5 61.5z" />
    <glyph glyph-name="f" unicode="f" horiz-adv-x="329" 
d="M240 630.5q-13 -14.5 -13 -47.5v-52h109l-17 -107h-92v-424h-154v424h-70v107h70v51q0 79 48.5 127.5t139.5 48.5q74 0 135 -32l-41 -99q-36 18 -72 18q-30 0 -43 -14.5z" />
    <glyph glyph-name="uni1E1F" unicode="&#x1e1f;" horiz-adv-x="329" 
d="M240 630.5q-13 -14.5 -13 -47.5v-52h109l-17 -107h-92v-424h-154v424h-70v107h70v51q0 79 48.5 127.5t139.5 48.5q74 0 135 -32l-41 -99q-36 18 -72 18q-30 0 -43 -14.5zM306.5 958q25.5 -25 25.5 -62q0 -38 -25.5 -63t-64.5 -25t-64 25t-25 63q0 37 25 62t64 25
t64.5 -25z" />
    <glyph glyph-name="uni02A9" unicode="&#x2a9;" horiz-adv-x="803" 
d="M719.5 506.5q35.5 -41.5 35.5 -113.5v-437q0 -86 -50 -131.5t-133 -45.5q-81 0 -135 42l53 88q18 -10 31 -14t31 -4q23 0 36 13.5t13 41.5v426q0 33 -9.5 46.5t-28.5 13.5q-20 0 -38.5 -16.5t-38.5 -48.5v-367h-154v423h-105v-423h-154v423h-70v108h70v51
q0 79 48.5 127.5t139.5 48.5q74 0 135 -32l-41 -99q-36 18 -72 18q-30 0 -43 -14.5t-13 -47.5v-52h240l11 -63q29 40 64 60t80 20q62 0 97.5 -41.5z" />
    <glyph glyph-name="g" unicode="g" horiz-adv-x="497" 
d="M500 500q-46 -20 -137 -20q48 -22 70.5 -54.5t22.5 -83.5t-25 -91.5t-71.5 -63t-109.5 -22.5q-30 0 -54 6q-17 -11 -17 -32q0 -16 11.5 -25t42.5 -9h65q88 0 140 -42.5t52 -109.5q0 -81 -66 -127.5t-189 -46.5q-132 0 -183 43t-51 127h138q0 -37 20 -53t78 -16
q55 0 77 16.5t22 45.5q0 56 -71 56h-57q-80 0 -118 28.5t-38 75.5q0 29 16 55t43 45q-46 27 -66.5 63t-20.5 89q0 90 59.5 142t159.5 51q70 -1 117 15.5t104 49.5zM176 356q0 -46 17.5 -69t49.5 -23q33 0 50 22.5t17 71.5q0 46 -16.5 67t-50.5 21q-67 0 -67 -90z" />
    <glyph glyph-name="g.ss04" horiz-adv-x="545" 
d="M492 531v-532q0 -108 -61.5 -164t-175.5 -56q-106 0 -178 49l48 93q26 -14 53.5 -22t63.5 -8q51 0 73.5 23t22.5 71v78q-46 -60 -121 -60q-89 0 -137.5 73t-48.5 200q0 79 25 141t70 96.5t105 34.5q35 0 65.5 -16t53.5 -44l8 43h134zM304 130.5q18 14.5 34 44.5v219
q-32 41 -68 41q-80 0 -80 -159q0 -90 19 -125t54 -35q23 0 41 14.5z" />
    <glyph glyph-name="uni01F5" unicode="&#x1f5;" horiz-adv-x="497" 
d="M500 500q-46 -20 -137 -20q48 -22 70.5 -54.5t22.5 -83.5t-25 -91.5t-71.5 -63t-109.5 -22.5q-30 0 -54 6q-17 -11 -17 -32q0 -16 11.5 -25t42.5 -9h65q88 0 140 -42.5t52 -109.5q0 -81 -66 -127.5t-189 -46.5q-132 0 -183 43t-51 127h138q0 -37 20 -53t78 -16
q55 0 77 16.5t22 45.5q0 56 -71 56h-57q-80 0 -118 28.5t-38 75.5q0 29 16 55t43 45q-46 27 -66.5 63t-20.5 89q0 90 59.5 142t159.5 51q70 -1 117 15.5t104 49.5zM176 356q0 -46 17.5 -69t49.5 -23q33 0 50 22.5t17 71.5q0 46 -16.5 67t-50.5 21q-67 0 -67 -90zM313 830
l60 -113l-217 -94l-42 76z" />
    <glyph glyph-name="uni0263" unicode="&#x263;" horiz-adv-x="475" 
d="M314 81q34 -59 49 -99.5t15 -82.5q0 -56 -34 -88t-104 -32t-103.5 31.5t-33.5 87.5q0 39 14.5 80t48.5 102l-171 451h160l85 -353l87 353h154zM260 -56.5q-6 18.5 -20 52.5q-25 -58 -25 -92q0 -29 25 -29q26 0 26 30q0 20 -6 38.5z" />
    <glyph glyph-name="gbreve" unicode="&#x11f;" horiz-adv-x="497" 
d="M500 500q-46 -20 -137 -20q48 -22 70.5 -54.5t22.5 -83.5t-25 -91.5t-71.5 -63t-109.5 -22.5q-30 0 -54 6q-17 -11 -17 -32q0 -16 11.5 -25t42.5 -9h65q88 0 140 -42.5t52 -109.5q0 -81 -66 -127.5t-189 -46.5q-132 0 -183 43t-51 127h138q0 -37 20 -53t78 -16
q55 0 77 16.5t22 45.5q0 56 -71 56h-57q-80 0 -118 28.5t-38 75.5q0 29 16 55t43 45q-46 27 -66.5 63t-20.5 89q0 90 59.5 142t159.5 51q70 -1 117 15.5t104 49.5zM176 356q0 -46 17.5 -69t49.5 -23q33 0 50 22.5t17 71.5q0 46 -16.5 67t-50.5 21q-67 0 -67 -90z
M136.5 679.5q-40.5 46.5 -45.5 123.5l83 15q18 -79 75 -79q30 0 49 20.5t27 58.5l83 -15q-5 -77 -46 -123.5t-113 -46.5t-112.5 46.5z" />
    <glyph glyph-name="gcaron" unicode="&#x1e7;" horiz-adv-x="497" 
d="M500 500q-46 -20 -137 -20q48 -22 70.5 -54.5t22.5 -83.5t-25 -91.5t-71.5 -63t-109.5 -22.5q-30 0 -54 6q-17 -11 -17 -32q0 -16 11.5 -25t42.5 -9h65q88 0 140 -42.5t52 -109.5q0 -81 -66 -127.5t-189 -46.5q-132 0 -183 43t-51 127h138q0 -37 20 -53t78 -16
q55 0 77 16.5t22 45.5q0 56 -71 56h-57q-80 0 -118 28.5t-38 75.5q0 29 16 55t43 45q-46 27 -66.5 63t-20.5 89q0 90 59.5 142t159.5 51q70 -1 117 15.5t104 49.5zM176 356q0 -46 17.5 -69t49.5 -23q33 0 50 22.5t17 71.5q0 46 -16.5 67t-50.5 21q-67 0 -67 -90zM371 810
l53 -60l-128 -138h-93l-128 138l54 60l121 -92z" />
    <glyph glyph-name="gcircumflex" unicode="&#x11d;" horiz-adv-x="497" 
d="M500 500q-46 -20 -137 -20q48 -22 70.5 -54.5t22.5 -83.5t-25 -91.5t-71.5 -63t-109.5 -22.5q-30 0 -54 6q-17 -11 -17 -32q0 -16 11.5 -25t42.5 -9h65q88 0 140 -42.5t52 -109.5q0 -81 -66 -127.5t-189 -46.5q-132 0 -183 43t-51 127h138q0 -37 20 -53t78 -16
q55 0 77 16.5t22 45.5q0 56 -71 56h-57q-80 0 -118 28.5t-38 75.5q0 29 16 55t43 45q-46 27 -66.5 63t-20.5 89q0 90 59.5 142t159.5 51q70 -1 117 15.5t104 49.5zM176 356q0 -46 17.5 -69t49.5 -23q33 0 50 22.5t17 71.5q0 46 -16.5 67t-50.5 21q-67 0 -67 -90zM129 623
l-54 59l128 138h93l128 -138l-54 -59l-120 92z" />
    <glyph glyph-name="gcommaaccent" unicode="&#x123;" horiz-adv-x="497" 
d="M500 500q-46 -20 -137 -20q48 -22 70.5 -54.5t22.5 -83.5t-25 -91.5t-71.5 -63t-109.5 -22.5q-30 0 -54 6q-17 -11 -17 -32q0 -16 11.5 -25t42.5 -9h65q88 0 140 -42.5t52 -109.5q0 -81 -66 -127.5t-189 -46.5q-132 0 -183 43t-51 127h138q0 -37 20 -53t78 -16
q55 0 77 16.5t22 45.5q0 56 -71 56h-57q-80 0 -118 28.5t-38 75.5q0 29 16 55t43 45q-46 27 -66.5 63t-20.5 89q0 90 59.5 142t159.5 51q70 -1 117 15.5t104 49.5zM176 356q0 -46 17.5 -69t49.5 -23q33 0 50 22.5t17 71.5q0 46 -16.5 67t-50.5 21q-67 0 -67 -90zM193 598.5
q-21 21.5 -21 54.5q0 19 5 36.5t19 47.5l42 95h76l-26 -115q34 -24 34 -64q0 -31 -21.5 -53.5t-53.5 -22.5q-33 0 -54 21.5z" />
    <glyph glyph-name="gdotaccent" unicode="&#x121;" horiz-adv-x="497" 
d="M500 500q-46 -20 -137 -20q48 -22 70.5 -54.5t22.5 -83.5t-25 -91.5t-71.5 -63t-109.5 -22.5q-30 0 -54 6q-17 -11 -17 -32q0 -16 11.5 -25t42.5 -9h65q88 0 140 -42.5t52 -109.5q0 -81 -66 -127.5t-189 -46.5q-132 0 -183 43t-51 127h138q0 -37 20 -53t78 -16
q55 0 77 16.5t22 45.5q0 56 -71 56h-57q-80 0 -118 28.5t-38 75.5q0 29 16 55t43 45q-46 27 -66.5 63t-20.5 89q0 90 59.5 142t159.5 51q70 -1 117 15.5t104 49.5zM176 356q0 -46 17.5 -69t49.5 -23q33 0 50 22.5t17 71.5q0 46 -16.5 67t-50.5 21q-67 0 -67 -90zM313.5 783
q25.5 -25 25.5 -62q0 -38 -25.5 -63t-64.5 -25t-64 25t-25 63q0 37 25 62t64 25t64.5 -25z" />
    <glyph glyph-name="uni0260" unicode="&#x260;" horiz-adv-x="545" 
d="M639 721l-43 -94q-17 9 -30 13t-29 4q-23 0 -34 -13t-11 -43v-589q0 -108 -61.5 -164t-175.5 -56q-106 0 -178 49l48 93q26 -14 53.5 -22t63.5 -8q51 0 73.5 23t22.5 71v78q-46 -60 -121 -60q-89 0 -137.5 73t-48.5 200q0 79 25 141t70 96.5t105 34.5q62 0 107 -47v83
q0 80 45.5 127t130.5 47q69 0 125 -37zM304 130.5q18 14.5 34 44.5v219q-32 41 -68 41q-80 0 -80 -159q0 -90 19 -125t54 -35q23 0 41 14.5z" />
    <glyph glyph-name="uni01BE" unicode="&#x1be;" horiz-adv-x="466" 
d="M401.5 359.5q35.5 -49.5 35.5 -138.5q0 -111 -62.5 -174t-167.5 -63q-62 0 -112.5 22.5t-93.5 68.5l75 76q28 -28 54 -40.5t58 -12.5q43 0 67 31t24 93q0 67 -25.5 102.5t-83.5 51.5l-47 12v142h-63v91h63v121l154 16v-137h84v-91h-84v-92l26 -8q63 -21 98.5 -70.5z" />
    <glyph glyph-name="uni0294" unicode="&#x294;" horiz-adv-x="436" 
d="M116 354l36 12q58 22 84 55.5t26 98.5q0 62 -24 93t-67 31q-31 0 -57 -13t-55 -40l-75 76q44 46 94.5 68.5t113.5 22.5q104 0 166 -62t62 -174q0 -88 -34.5 -135.5t-99.5 -75.5l-16 -7v-304h-154v354z" />
    <glyph glyph-name="uni0296" unicode="&#x296;" horiz-adv-x="466" 
d="M277 758v-320l26 -8q63 -21 98.5 -70.5t35.5 -138.5q0 -111 -62.5 -174t-167.5 -63q-62 0 -112.5 22.5t-93.5 68.5l75 76q28 -28 54 -40.5t58 -12.5q43 0 67 31t24 93q0 67 -25.5 102.5t-83.5 51.5l-47 12v354z" />
    <glyph glyph-name="uni0295" unicode="&#x295;" horiz-adv-x="437" 
d="M166 0v304l-16 7q-65 28 -99.5 75.5t-34.5 135.5q0 111 63.5 173.5t168.5 62.5q62 0 111 -22.5t94 -68.5l-75 -76q-29 28 -54.5 40.5t-56.5 12.5q-44 0 -68.5 -31t-24.5 -94q0 -64 26.5 -97.5t84.5 -55.5l35 -12v-354h-154z" />
    <glyph glyph-name="uni0242" unicode="&#x242;" horiz-adv-x="420" 
d="M99 202l43 14q48 17 72.5 45.5t24.5 77.5q0 45 -20 69.5t-55 24.5q-28 0 -49.5 -10.5t-47.5 -33.5l-72 75q38 41 84 62.5t105 21.5q64 0 112.5 -26t75 -73t26.5 -108q0 -73 -31 -114.5t-89 -64.5l-25 -9v-153h-154v202z" />
    <glyph glyph-name="uni02A1" unicode="&#x2a1;" horiz-adv-x="436" 
d="M270 304v-83h86v-90h-86v-131h-154v131h-59v90h59v133l36 12q58 22 84 55.5t26 98.5q0 62 -24 93t-67 31q-31 0 -57 -13t-55 -40l-75 76q44 46 94.5 68.5t113.5 22.5q104 0 166 -62t62 -174q0 -88 -34.5 -135.5t-99.5 -75.5z" />
    <glyph glyph-name="uni02A2" unicode="&#x2a2;" horiz-adv-x="437" 
d="M320 221h61v-90h-61v-131h-154v131h-84v90h84v83l-16 7q-65 28 -99.5 75.5t-34.5 135.5q0 111 63.5 173.5t168.5 62.5q62 0 111 -22.5t94 -68.5l-75 -76q-29 28 -54.5 40.5t-56.5 12.5q-44 0 -68.5 -31t-24.5 -94q0 -64 26.5 -97.5t84.5 -55.5l35 -12v-133z" />
    <glyph glyph-name="uni0261" unicode="&#x261;" horiz-adv-x="545" 
d="M492 531v-532q0 -108 -61.5 -164t-175.5 -56q-106 0 -178 49l48 93q26 -14 53.5 -22t63.5 -8q51 0 73.5 23t22.5 71v78q-46 -60 -121 -60q-89 0 -137.5 73t-48.5 200q0 79 25 141t70 96.5t105 34.5q35 0 65.5 -16t53.5 -44l8 43h134zM304 130.5q18 14.5 34 44.5v219
q-32 41 -68 41q-80 0 -80 -159q0 -90 19 -125t54 -35q23 0 41 14.5z" />
    <glyph glyph-name="uni01E5" unicode="&#x1e5;" horiz-adv-x="497" 
d="M539 -87h-54q-15 -63 -79 -98.5t-171 -35.5q-132 0 -183 43t-51 127h138q0 -27 8 -42.5t30 -22.5t64 -7q48 0 74 8.5t36 27.5h-105v66h103q-19 30 -84 30h-57q-81 0 -118.5 25.5t-37.5 69.5q0 29 16 54t43 44q-46 27 -66.5 63t-20.5 89q0 90 59.5 142t159.5 51
q70 -1 117 15.5t104 49.5l36 -112q-46 -20 -137 -20q48 -22 70.5 -54.5t22.5 -83.5t-25 -91.5t-71.5 -63t-109.5 -22.5q-30 0 -54 6q-17 -11 -17 -32q0 -16 11.5 -24t42.5 -8h65q80 0 130 -35t60 -93h51v-66zM176 356q0 -46 17.5 -69t49.5 -23q33 0 50 22.5t17 71.5
q0 46 -16.5 67t-50.5 21q-67 0 -67 -90z" />
    <glyph glyph-name="uni021D" unicode="&#x21d;" horiz-adv-x="437" 
d="M331 508q54 -40 54 -111q0 -49 -27.5 -79.5t-84.5 -44.5q135 -9 135 -117q0 -88 -92 -156.5t-263 -105.5l-15 101q113 39 162 76t50 88q0 28 -15.5 41t-46.5 13h-80l9 100h43q70 0 70 67q0 61 -60 61q-27 0 -49.5 -8t-50.5 -25l-69 78q80 62 192 62q84 0 138 -40z" />
    <glyph glyph-name="h" unicode="h" horiz-adv-x="524" 
d="M439.5 506.5q35.5 -41.5 35.5 -113.5v-393h-154v372q0 33 -10 46.5t-28 13.5q-20 0 -38.5 -16.5t-38.5 -48.5v-367h-154v742l154 16v-285q28 38 61 56.5t75 18.5q62 0 97.5 -41.5z" />
    <glyph glyph-name="hbar" unicode="&#x127;" horiz-adv-x="530" 
d="M445.5 506.5q35.5 -41.5 35.5 -113.5v-393h-154v372q0 33 -10 46.5t-28 13.5q-20 0 -38.5 -16.5t-38.5 -48.5v-367h-154v598h-52v90h52v54l154 16v-70h117v-90h-117v-125q28 38 61 56.5t75 18.5q62 0 97.5 -41.5z" />
    <glyph glyph-name="uni021F" unicode="&#x21f;" horiz-adv-x="524" 
d="M439.5 506.5q35.5 -41.5 35.5 -113.5v-393h-154v372q0 33 -10 46.5t-28 13.5q-20 0 -38.5 -16.5t-38.5 -48.5v-367h-154v742l154 16v-285q28 38 61 56.5t75 18.5q62 0 97.5 -41.5zM382 988l53 -59l-128 -130h-93l-128 130l54 59l121 -83z" />
    <glyph glyph-name="hcircumflex" unicode="&#x125;" horiz-adv-x="524" 
d="M439.5 506.5q35.5 -41.5 35.5 -113.5v-393h-154v372q0 33 -10 46.5t-28 13.5q-20 0 -38.5 -16.5t-38.5 -48.5v-367h-154v742l154 16v-285q28 38 61 56.5t75 18.5q62 0 97.5 -41.5zM140 807l-54 58l129 131h92l128 -131l-53 -58l-121 83z" />
    <glyph glyph-name="uni1E25" unicode="&#x1e25;" horiz-adv-x="524" 
d="M439.5 506.5q35.5 -41.5 35.5 -113.5v-393h-154v372q0 33 -10 46.5t-28 13.5q-20 0 -38.5 -16.5t-38.5 -48.5v-367h-154v742l154 16v-285q28 38 61 56.5t75 18.5q62 0 97.5 -41.5zM201.5 -212q-25.5 25 -25.5 62q0 38 25.5 63t64.5 25t64 -25t25 -63q0 -37 -25 -62
t-64 -25t-64.5 25z" />
    <glyph glyph-name="uni0267" unicode="&#x267;" horiz-adv-x="524" 
d="M439.5 505.5q35.5 -42.5 35.5 -118.5v-431q0 -86 -50 -131.5t-133 -45.5q-81 0 -135 42l53 88q18 -10 31 -14t31 -4q23 0 36 13.5t13 41.5v421q0 36 -9.5 50.5t-28.5 14.5q-20 0 -38.5 -16.5t-38.5 -48.5v-367h-154v585q0 76 49 124.5t141 48.5q75 0 134 -33l-43 -98
q-35 17 -71 17q-30 0 -43 -15t-13 -49v-107q28 38 61 56.5t75 18.5q62 0 97.5 -42.5z" />
    <glyph glyph-name="uni0266" unicode="&#x266;" horiz-adv-x="524" 
d="M439.5 505.5q35.5 -42.5 35.5 -118.5v-387h-154v367q0 36 -9.5 50.5t-28.5 14.5q-20 0 -38.5 -16.5t-38.5 -48.5v-367h-154v585q0 76 49 124.5t141 48.5q75 0 134 -33l-43 -98q-35 17 -71 17q-30 0 -43 -15t-13 -49v-107q28 38 61 56.5t75 18.5q62 0 97.5 -42.5z" />
    <glyph glyph-name="uni0265" unicode="&#x265;" horiz-adv-x="524" 
d="M471 531v-752l-154 16v262q-29 -38 -61.5 -56t-73.5 -18q-62 0 -98 41.5t-36 113.5v393h154v-372q0 -32 10 -46t29 -14q37 0 76 66v366h154z" />
    <glyph glyph-name="uni02AE" unicode="&#x2ae;" horiz-adv-x="633" 
d="M580 531v-752l-154 16v262q-29 -38 -61.5 -56t-73.5 -18q-62 0 -97.5 41.5t-35.5 113.5v244q0 28 -13 41.5t-36 13.5q-18 0 -31 -4t-31 -14l-53 88q54 42 135 42q83 0 133 -45.5t50 -131.5v-213q0 -60 38 -60q20 0 38.5 17t37.5 49v366h154z" />
    <glyph glyph-name="uni02AF" unicode="&#x2af;" horiz-adv-x="633" 
d="M744 -179q-54 -42 -135 -42q-82 0 -132.5 45.5t-50.5 131.5v101q-29 -38 -61.5 -56t-73.5 -18q-62 0 -97.5 41.5t-35.5 113.5v244q0 28 -13 41.5t-36 13.5q-18 0 -31 -4t-31 -14l-53 88q54 42 135 42q83 0 133 -45.5t50 -131.5v-213q0 -60 38 -60q20 0 38.5 17t37.5 49
v366h154v-585q0 -28 13 -41.5t36 -13.5q18 0 31 4t31 14z" />
    <glyph glyph-name="uni0195" unicode="&#x195;" horiz-adv-x="786" 
d="M751 252q0 -95 -33.5 -155.5t-87 -87t-117.5 -26.5q-85 0 -138.5 47.5t-53.5 138.5v203q0 33 -10 46.5t-28 13.5q-20 0 -38.5 -16.5t-38.5 -48.5v-367h-154v742l154 16v-285q28 38 61 56.5t75 18.5q62 0 97.5 -41.5t35.5 -113.5v-226q0 -38 12 -54t36 -16q74 0 74 164
q0 111 -24 270h151q27 -156 27 -279z" />
    <glyph glyph-name="i" unicode="i" horiz-adv-x="259" 
d="M206 531v-531h-154v531h154zM192.5 783q25.5 -25 25.5 -62q0 -38 -25.5 -63t-64.5 -25t-64 25t-25 63q0 37 25 62t64 25t64.5 -25z" />
    <glyph glyph-name="dotlessi" unicode="&#x131;" horiz-adv-x="259" 
d="M206 531v-531h-154v531h154z" />
    <glyph glyph-name="iacute" unicode="&#xed;" horiz-adv-x="259" 
d="M206 531v-531h-154v531h154zM192 830l60 -113l-217 -94l-42 76z" />
    <glyph glyph-name="ibreve" unicode="&#x12d;" horiz-adv-x="259" 
d="M206 531v-531h-154v531h154zM15.5 679.5q-40.5 46.5 -45.5 123.5l83 15q18 -79 75 -79q30 0 49 20.5t27 58.5l83 -15q-5 -77 -46 -123.5t-113 -46.5t-112.5 46.5z" />
    <glyph glyph-name="uni01D0" unicode="&#x1d0;" horiz-adv-x="259" 
d="M206 531v-531h-154v531h154zM250 810l53 -60l-128 -138h-93l-128 138l54 60l121 -92z" />
    <glyph glyph-name="icircumflex" unicode="&#xee;" horiz-adv-x="259" 
d="M206 531v-531h-154v531h154zM8 623l-54 59l128 138h93l128 -138l-54 -59l-120 92z" />
    <glyph glyph-name="uni0209" unicode="&#x209;" horiz-adv-x="259" 
d="M206 531v-531h-154v531h154zM19 857l89 -195l-76 -36l-112 180zM181 857l81 -195l-77 -32l-104 179z" />
    <glyph glyph-name="idieresis" unicode="&#xef;" horiz-adv-x="259" 
d="M206 531v-531h-154v531h154zM77 775q22 -22 22 -55t-22 -55.5t-55 -22.5q-32 0 -54.5 22.5t-22.5 55.5q0 32 22.5 54.5t54.5 22.5q33 0 55 -22zM289.5 775q22.5 -22 22.5 -55t-22 -55.5t-56 -22.5q-32 0 -54.5 22.5t-22.5 55.5q0 32 22.5 54.5t54.5 22.5q33 0 55.5 -22z
" />
    <glyph glyph-name="uni1E2F" unicode="&#x1e2f;" horiz-adv-x="259" 
d="M206 531v-531h-154v531h154zM196 946l87 -79l-150 -143l-59 51zM71 735q22 -22 22 -55t-22 -55.5t-55 -22.5t-55 22.5t-22 55.5q0 32 22 54.5t55 22.5t55 -22zM297 734.5q22 -22.5 22 -54.5q0 -33 -22 -55.5t-55 -22.5t-55.5 22.5t-22.5 55.5q0 32 22.5 54.5t55.5 22.5
t55 -22.5z" />
    <glyph glyph-name="i.loclTRK" horiz-adv-x="259" 
d="M206 531v-531h-154v531h154zM192.5 783q25.5 -25 25.5 -62q0 -38 -25.5 -63t-64.5 -25t-64 25t-25 63q0 37 25 62t64 25t64.5 -25z" />
    <glyph glyph-name="uni1ECB" unicode="&#x1ecb;" horiz-adv-x="259" 
d="M206 531v-531h-154v531h154zM192.5 783q25.5 -25 25.5 -62q0 -38 -25.5 -63t-64.5 -25t-64 25t-25 63q0 37 25 62t64 25t64.5 -25zM65.5 -212q-25.5 25 -25.5 62q0 38 25.5 63t64.5 25t64 -25t25 -63q0 -37 -25 -62t-64 -25t-64.5 25z" />
    <glyph glyph-name="igrave" unicode="&#xec;" horiz-adv-x="259" 
d="M206 531v-531h-154v531h154zM68 830l199 -131l-42 -76l-217 94z" />
    <glyph glyph-name="uni1EC9" unicode="&#x1ec9;" horiz-adv-x="259" 
d="M206 531v-531h-154v531h154zM85 704q35 2 49.5 10.5t14.5 28.5q0 15 -9.5 23t-25.5 8q-15 0 -26.5 -3t-28.5 -9l-24 64q42 25 101 25q54 0 84 -27.5t30 -72.5q0 -39 -19.5 -62.5t-56.5 -30.5v-53h-89v99z" />
    <glyph glyph-name="uni020B" unicode="&#x20b;" horiz-adv-x="259" 
d="M206 531v-531h-154v531h154zM241 741.5q41 -46.5 46 -123.5l-83 -15q-8 38 -27 58.5t-49 20.5q-57 0 -75 -79l-83 15q5 77 45.5 123.5t112.5 46.5t113 -46.5z" />
    <glyph glyph-name="ij" unicode="&#x133;" horiz-adv-x="518" 
d="M206 531v-531h-154v531h154zM192.5 783q25.5 -25 25.5 -62q0 -38 -25.5 -63t-64.5 -25t-64 25t-25 63q0 37 25 62t64 25t64.5 -25zM465 48q0 -77 -25 -128.5t-68.5 -83t-107.5 -57.5l-51 112q35 19 55 36t31.5 44t11.5 71v489h154v-483zM451.5 783q25.5 -25 25.5 -62
q0 -38 -25.5 -63t-64.5 -25t-64 25t-25 63q0 37 25 62t64 25t64.5 -25z" />
    <glyph glyph-name="imacron" unicode="&#x12b;" horiz-adv-x="259" 
d="M206 531v-531h-154v531h154zM269 657h-280v105h280v-105z" />
    <glyph glyph-name="iogonek" unicode="&#x12f;" horiz-adv-x="259" 
d="M64 658q-25 25 -25 63q0 37 25 62t64 25t64.5 -25t25.5 -62q0 -38 -25.5 -63t-64.5 -25t-64 25zM52 531h154v-531h-26q-60 -25 -82.5 -50.5t-22.5 -52.5q0 -46 47 -46q19 0 54 7l-10 -95q-30 -8 -63 -8q-61 0 -99.5 31t-38.5 84q0 83 87 135v526z" />
    <glyph glyph-name="uni0269" unicode="&#x269;" horiz-adv-x="273" 
d="M84 21q-37 38 -37 106v404h154v-398q0 -28 24 -28q10 0 22 4l29 -107q-40 -19 -89 -19q-66 0 -103 38z" />
    <glyph glyph-name="uni0268" unicode="&#x268;" horiz-adv-x="303" 
d="M86 658q-25 25 -25 63q0 37 25 62t64 25t64.5 -25t25.5 -62q0 -38 -25.5 -63t-64.5 -25t-64 25zM298 336v-108h-70v-228h-154v228h-69v108h69v195h154v-195h70z" />
    <glyph glyph-name="itilde" unicode="&#x129;" horiz-adv-x="259" 
d="M206 531v-531h-154v531h154zM149.5 645q-13.5 6 -34.5 19q-13 9 -20.5 13t-16.5 4q-15 0 -25 -9.5t-23 -32.5l-74 35q18 51 49 82.5t70 31.5q20 0 35 -6.5t34 -19.5q2 -1 10 -6t14.5 -7.5t12.5 -2.5q14 0 24.5 9.5t22.5 31.5l74 -35q-18 -52 -49 -82.5t-70 -30.5
q-20 0 -33.5 6z" />
    <glyph glyph-name="j" unicode="j" horiz-adv-x="259" 
d="M206 48q0 -77 -25 -128.5t-68.5 -83t-107.5 -57.5l-51 112q35 19 55 36t31.5 44t11.5 71v489h154v-483zM192.5 783q25.5 -25 25.5 -62q0 -38 -25.5 -63t-64.5 -25t-64 25t-25 63q0 37 25 62t64 25t64.5 -25z" />
    <glyph glyph-name="uni0237" unicode="&#x237;" horiz-adv-x="259" 
d="M206 48q0 -77 -25 -128.5t-68.5 -83t-107.5 -57.5l-51 112q35 19 55 36t31.5 44t11.5 71v489h154v-483z" />
    <glyph glyph-name="uni01F0" unicode="&#x1f0;" horiz-adv-x="259" 
d="M206 48q0 -77 -25 -128.5t-68.5 -83t-107.5 -57.5l-51 112q35 19 55 36t31.5 44t11.5 71v489h154v-483zM250 810l53 -60l-128 -138h-93l-128 138l54 60l121 -92z" />
    <glyph glyph-name="jcircumflex" unicode="&#x135;" horiz-adv-x="259" 
d="M206 48q0 -77 -25 -128.5t-68.5 -83t-107.5 -57.5l-51 112q35 19 55 36t31.5 44t11.5 71v489h154v-483zM8 623l-54 59l128 138h93l128 -138l-54 -59l-120 92z" />
    <glyph glyph-name="uni029D" unicode="&#x29d;" horiz-adv-x="315" 
d="M320 -107q-31 15 -68 27q-30 -141 -185 -141q-67 0 -102.5 31t-35.5 86q0 61 38 93t104 32q27 0 37 -1v511h154l-1 -525v-12q44 -13 88 -38zM95.5 -119.5q12.5 20.5 12.5 66.5q-10 2 -37 2q-54 0 -54 -48q0 -41 39 -41q27 0 39.5 20.5zM248.5 783q25.5 -25 25.5 -62
q0 -38 -25.5 -63t-64.5 -25t-64 25t-25 63q0 37 25 62t64 25t64.5 -25z" />
    <glyph glyph-name="uni025F" unicode="&#x25f;" horiz-adv-x="305" 
d="M300 204h-69v-156q0 -77 -25 -128.5t-68.5 -83t-107.5 -57.5l-51 112q35 19 55 36t31.5 44t11.5 71v162h-70v108h70v219h154v-219h69v-108z" />
    <glyph glyph-name="uni0284" unicode="&#x284;" horiz-adv-x="303" 
d="M298 108v-108h-71q-11 -88 -60.5 -137t-137.5 -84l-51 108q44 23 67 47t29 66h-69v108h71v476q0 80 45.5 127t130.5 47q69 0 125 -37l-43 -94q-17 9 -30 13t-29 4q-23 0 -34 -13t-11 -43v-480h68z" />
    <glyph glyph-name="uni0249" unicode="&#x249;" horiz-adv-x="305" 
d="M300 204h-69v-156q0 -77 -25 -128.5t-68.5 -83t-107.5 -57.5l-51 112q35 19 55 36t31.5 44t11.5 71v162h-70v108h70v219h154v-219h69v-108zM217.5 783q25.5 -25 25.5 -62q0 -38 -25.5 -63t-64.5 -25t-64 25t-25 63q0 37 25 62t64 25t64.5 -25z" />
    <glyph glyph-name="k" unicode="k" horiz-adv-x="509" 
d="M206 758v-758h-154v742zM506 531l-142 -233l153 -298h-168l-138 290l144 241h151z" />
    <glyph glyph-name="uni01E9" unicode="&#x1e9;" horiz-adv-x="509" 
d="M206 758v-758h-154v742zM506 531l-142 -233l153 -298h-168l-138 290l144 241h151zM394 988l53 -59l-128 -130h-93l-128 130l54 59l121 -83z" />
    <glyph glyph-name="kcommaaccent" unicode="&#x137;" horiz-adv-x="509" 
d="M206 758v-758h-154v742zM506 531l-142 -233l153 -298h-168l-138 290l144 241h151zM309 -89.5q21 -21.5 21 -54.5q0 -19 -5 -36.5t-19 -47.5l-42 -95h-76l26 115q-34 24 -34 64q0 31 21.5 53.5t53.5 22.5q33 0 54 -21.5z" />
    <glyph glyph-name="kgreenlandic" unicode="&#x138;" horiz-adv-x="508" 
d="M206 531v-531h-154v531h154zM506 531l-142 -240l152 -291h-167l-139 284l144 247h152z" />
    <glyph glyph-name="uni0199" unicode="&#x199;" horiz-adv-x="509" 
d="M219 629q-13 -15 -13 -49v-580h-154v585q0 76 49 124.5t141 48.5q75 0 134 -33l-43 -98q-35 17 -71 17q-30 0 -43 -15zM364 298l153 -298h-168l-138 290l144 241h151z" />
    <glyph glyph-name="uni029E" unicode="&#x29e;" horiz-adv-x="509" 
d="M2 0l142 234l-152 297h167l139 -290l-144 -241h-152zM302 -205v736h154v-752z" />
    <glyph glyph-name="l" unicode="l" horiz-adv-x="273" 
d="M84 21q-37 38 -37 106v615l154 16v-624q0 -29 24 -29q10 0 22 4l29 -107q-40 -19 -89 -19q-66 0 -103 38z" />
    <glyph glyph-name="lacute" unicode="&#x13a;" horiz-adv-x="273" 
d="M84 21q-37 38 -37 106v615l154 16v-624q0 -29 24 -29q10 0 22 4l29 -107q-40 -19 -89 -19q-66 0 -103 38zM195 999l58 -113l-219 -86l-39 77z" />
    <glyph glyph-name="uni019B" unicode="&#x19b;" horiz-adv-x="484" 
d="M426.5 192q28.5 -89 75.5 -159l-147 -50q-41 78 -65.5 163t-47.5 236l-84 -399l-151 33l143 478h72q-11 52 -24 79l-52 -52l-78 51l69 66q-34 15 -80 24l17 96q96 -16 150 -49l67 61l62 -68l-62 -56q46 -64 69 -178q38 -187 66.5 -276z" />
    <glyph glyph-name="uni019A" unicode="&#x19a;" horiz-adv-x="309" 
d="M303 2q-40 -19 -89 -19q-66 0 -103 38t-37 106v191h-69v108h69v316l154 16v-332h70v-108h-70v-184q0 -29 24 -29q10 0 22 4z" />
    <glyph glyph-name="uni026C" unicode="&#x26c;" horiz-adv-x="395" 
d="M374 2q-40 -19 -89 -19q-66 0 -103 38t-37 106v115q-76 2 -113 35t-37 90q0 53 32 83t84 30q16 0 34 -4v266l154 16v-430q31 3 61 10l13 -78q-33 -11 -74 -14v-112q0 -29 24 -29q10 0 22 4zM145 326v73q-12 2 -21 2q-14 0 -22 -8.5t-8 -24.5q0 -42 51 -42z" />
    <glyph glyph-name="lcaron" unicode="&#x13e;" horiz-adv-x="345" 
d="M84 21q-37 38 -37 106v615l154 16v-624q0 -29 24 -29q10 0 22 4l29 -107q-40 -19 -89 -19q-66 0 -103 38zM320 528l50 214l-113 16l-22 -217z" />
    <glyph glyph-name="uni1E3D" unicode="&#x1e3d;" horiz-adv-x="273" 
d="M84 21q-37 38 -37 106v615l154 16v-624q0 -29 24 -29q10 0 22 4l29 -107q-40 -19 -89 -19q-66 0 -103 38zM46 -260l-54 59l128 138h93l128 -138l-54 -59l-120 91z" />
    <glyph glyph-name="lcommaaccent" unicode="&#x13c;" horiz-adv-x="273" 
d="M84 21q-37 38 -37 106v615l154 16v-624q0 -29 24 -29q10 0 22 4l29 -107q-40 -19 -89 -19q-66 0 -103 38zM222 -89.5q21 -21.5 21 -54.5q0 -19 -5 -36.5t-19 -47.5l-42 -95h-76l26 115q-34 24 -34 64q0 31 21.5 53.5t53.5 22.5q33 0 54 -21.5z" />
    <glyph glyph-name="uni0234" unicode="&#x234;" horiz-adv-x="428" 
d="M403 212.5q31 -30.5 31 -83.5q0 -72 -49 -109t-127 -37q-22 0 -43 3l-29 -70l-72 30l27 62q-43 23 -68.5 66t-25.5 108v560l154 16v-580q0 -15 2 -33q23 52 51.5 75t70.5 23q47 0 78 -30.5zM330 134q0 12 -6 19t-16 7q-14 0 -24.5 -13.5t-25.5 -51.5q7 -1 22 -1
q50 0 50 40z" />
    <glyph glyph-name="ldot" unicode="&#x140;" horiz-adv-x="416" 
d="M84 21q-37 38 -37 106v615l154 16v-624q0 -29 24 -29q10 0 22 4l29 -107q-40 -19 -89 -19q-66 0 -103 38zM395.5 439q25.5 -25 25.5 -62q0 -38 -25.5 -63t-64.5 -25t-64 25t-25 63q0 37 25 62t64 25t64.5 -25z" />
    <glyph glyph-name="uni1E37" unicode="&#x1e37;" horiz-adv-x="273" 
d="M84 21q-37 38 -37 106v615l154 16v-624q0 -29 24 -29q10 0 22 4l29 -107q-40 -19 -89 -19q-66 0 -103 38zM104.5 -212q-25.5 25 -25.5 62q0 38 25.5 63t64.5 25t64 -25t25 -63q0 -37 -25 -62t-64 -25t-64.5 25z" />
    <glyph glyph-name="uni026E" unicode="&#x26e;" horiz-adv-x="646" 
d="M582.5 153q49.5 -50 49.5 -144q0 -66 -29.5 -118.5t-85.5 -82t-132 -29.5q-121 0 -194 76l74 87q28 -24 53.5 -35t56.5 -11q47 0 73 30.5t26 89.5q0 56 -27 80.5t-85 24.5h-78v90l151 205h-234v-282q0 -29 24 -29q10 0 22 4l29 -107q-40 -19 -89 -19q-66 0 -103 38
t-37 106v615l154 16v-227h401v-106l-163 -214q94 -8 143.5 -58z" />
    <glyph glyph-name="uni026D" unicode="&#x26d;" horiz-adv-x="259" 
d="M370 -179q-54 -42 -135 -42q-83 0 -133 45.5t-50 131.5v786l154 16v-812q0 -28 13 -41.5t36 -13.5q18 0 31 4t31 14z" />
    <glyph glyph-name="uni01C9" unicode="&#x1c9;" horiz-adv-x="532" 
d="M84 21q-37 38 -37 106v615l154 16v-624q0 -29 24 -29q10 0 22 4l29 -107q-40 -19 -89 -19q-66 0 -103 38zM479 48q0 -77 -25 -128.5t-68.5 -83t-107.5 -57.5l-51 112q35 19 55 36t31.5 44t11.5 71v489h154v-483zM465.5 783q25.5 -25 25.5 -62q0 -38 -25.5 -63t-64.5 -25
t-64 25t-25 63q0 37 25 62t64 25t64.5 -25z" />
    <glyph glyph-name="uni026B" unicode="&#x26b;" horiz-adv-x="421" 
d="M290 279v-145q0 -29 24 -29q10 0 22 4l29 -107q-40 -19 -89 -19q-66 0 -103 38t-37 106v211h-1q-21 0 -34 -12.5t-30 -38.5l-78 40q25 54 59 87.5t84 35.5v292l154 16v-366h5q20 0 33 12t30 36l79 -40q-26 -55 -60.5 -88t-85.5 -33h-1z" />
    <glyph glyph-name="uni02AA" unicode="&#x2aa;" horiz-adv-x="629" 
d="M110 40.5q-63 57.5 -63 160.5v541l154 16v-559q0 -55 31 -80t100 -25q71 0 104 14.5t33 44.5q0 17 -6 28t-25 21.5t-57 24.5q-69 25 -98.5 61t-29.5 97q0 46 22 83t63 58.5t97 21.5q47 0 88.5 -16t75.5 -46l-52 -84q-50 35 -102 35q-25 0 -38 -11.5t-13 -32.5
q0 -22 17 -35.5t71 -33.5q68 -25 99.5 -63t31.5 -96q0 -89 -73.5 -135.5t-211.5 -46.5q-155 0 -218 57.5z" />
    <glyph glyph-name="lslash" unicode="&#x142;" horiz-adv-x="332" 
d="M278 109l29 -107q-40 -19 -89 -19q-66 0 -103 38t-37 106v142l-35 -23l-50 83l85 57v356l154 16v-273l56 36l50 -82l-106 -69v-236q0 -29 24 -29q10 0 22 4z" />
    <glyph glyph-name="uni02AB" unicode="&#x2ab;" horiz-adv-x="653" 
d="M626 0h-355q-37 -17 -84 -17q-66 0 -103 38t-37 106v615l154 16v-624q0 -29 24 -29q11 0 21 4l217 306h-198v116h370v-109l-218 -305h223z" />
    <glyph glyph-name="m" unicode="m" horiz-adv-x="763" 
d="M680.5 506q34.5 -42 34.5 -113v-393h-152v373q0 60 -36 60q-35 0 -67 -63v-370h-152v373q0 60 -35 60q-20 0 -36 -16t-32 -47v-370h-153v531h135l10 -63q55 80 138 80q40 0 69 -21.5t43 -62.5q29 42 63.5 63t78.5 21q57 0 91.5 -42z" />
    <glyph glyph-name="uni1E3F" unicode="&#x1e3f;" horiz-adv-x="763" 
d="M680.5 506q34.5 -42 34.5 -113v-393h-152v373q0 60 -36 60q-35 0 -67 -63v-370h-152v373q0 60 -35 60q-20 0 -36 -16t-32 -47v-370h-153v531h135l10 -63q55 80 138 80q40 0 69 -21.5t43 -62.5q29 42 63.5 63t78.5 21q57 0 91.5 -42zM445 830l60 -113l-217 -94l-42 76z
" />
    <glyph glyph-name="uni1E41" unicode="&#x1e41;" horiz-adv-x="763" 
d="M680.5 506q34.5 -42 34.5 -113v-393h-152v373q0 60 -36 60q-35 0 -67 -63v-370h-152v373q0 60 -35 60q-20 0 -36 -16t-32 -47v-370h-153v531h135l10 -63q55 80 138 80q40 0 69 -21.5t43 -62.5q29 42 63.5 63t78.5 21q57 0 91.5 -42zM445.5 783q25.5 -25 25.5 -62
q0 -38 -25.5 -63t-64.5 -25t-64 25t-25 63q0 37 25 62t64 25t64.5 -25z" />
    <glyph glyph-name="uni0271" unicode="&#x271;" horiz-adv-x="763" 
d="M680.5 506q34.5 -42 34.5 -113v-433q0 -89 -49.5 -135t-132.5 -46q-78 0 -133 42l52 89q19 -10 32 -14.5t30 -4.5q49 0 49 55v427q0 60 -36 60q-35 0 -67 -63v-370h-152v373q0 60 -35 60q-20 0 -36 -16t-32 -47v-370h-153v531h135l10 -63q55 80 138 80q40 0 69 -21.5
t43 -62.5q29 42 63.5 63t78.5 21q57 0 91.5 -42z" />
    <glyph glyph-name="uni0270" unicode="&#x270;" horiz-adv-x="763" 
d="M711 531v-752l-154 16v256q-53 -68 -129 -68q-40 0 -69 21.5t-43 62.5q-29 -42 -63.5 -63t-78.5 -21q-57 0 -91.5 42t-34.5 113v393h152v-373q0 -60 36 -60t67 63v370h152v-373q0 -60 35 -60q20 0 36 16t32 47v370h153z" />
    <glyph glyph-name="uni026F" unicode="&#x26f;" horiz-adv-x="763" 
d="M711 531v-531h-135l-10 63q-55 -80 -138 -80q-40 0 -69 21.5t-43 62.5q-29 -42 -63.5 -63t-78.5 -21q-57 0 -91.5 42t-34.5 113v393h152v-373q0 -60 36 -60t67 63v370h152v-373q0 -60 35 -60q20 0 36 16t32 47v370h153z" />
    <glyph glyph-name="n" unicode="n" horiz-adv-x="524" 
d="M439.5 506.5q35.5 -41.5 35.5 -113.5v-393h-154v372q0 33 -9.5 46.5t-28.5 13.5q-20 0 -38.5 -16.5t-38.5 -48.5v-367h-154v531h135l11 -63q29 40 64 60t80 20q62 0 97.5 -41.5z" />
    <glyph glyph-name="nacute" unicode="&#x144;" horiz-adv-x="524" 
d="M439.5 506.5q35.5 -41.5 35.5 -113.5v-393h-154v372q0 33 -9.5 46.5t-28.5 13.5q-20 0 -38.5 -16.5t-38.5 -48.5v-367h-154v531h135l11 -63q29 40 64 60t80 20q62 0 97.5 -41.5zM329 830l60 -113l-217 -94l-42 76z" />
    <glyph glyph-name="nacute.loclPLK" horiz-adv-x="524" 
d="M439.5 506.5q35.5 -41.5 35.5 -113.5v-393h-154v372q0 33 -9.5 46.5t-28.5 13.5q-20 0 -38.5 -16.5t-38.5 -48.5v-367h-154v531h135l11 -63q29 40 64 60t80 20q62 0 97.5 -41.5zM282 807l113 -65l-129 -161l-69 40z" />
    <glyph glyph-name="napostrophe" unicode="&#x149;" horiz-adv-x="643" 
d="M145 740.5q18 -18.5 18 -47.5q0 -16 -4.5 -30.5t-17.5 -44.5l-36 -83h-66l21 101q-29 22 -29 57q0 28 18.5 47t47.5 19q30 0 48 -18.5zM559.5 506.5q35.5 -41.5 35.5 -113.5v-393h-154v372q0 33 -9.5 46.5t-28.5 13.5q-20 0 -38.5 -16.5t-38.5 -48.5v-367h-154v531h135
l11 -63q29 40 64 60t80 20q62 0 97.5 -41.5z" />
    <glyph glyph-name="ncaron" unicode="&#x148;" horiz-adv-x="524" 
d="M439.5 506.5q35.5 -41.5 35.5 -113.5v-393h-154v372q0 33 -9.5 46.5t-28.5 13.5q-20 0 -38.5 -16.5t-38.5 -48.5v-367h-154v531h135l11 -63q29 40 64 60t80 20q62 0 97.5 -41.5zM387 810l53 -60l-128 -138h-93l-128 138l54 60l121 -92z" />
    <glyph glyph-name="uni1E4B" unicode="&#x1e4b;" horiz-adv-x="524" 
d="M439.5 506.5q35.5 -41.5 35.5 -113.5v-393h-154v372q0 33 -9.5 46.5t-28.5 13.5q-20 0 -38.5 -16.5t-38.5 -48.5v-367h-154v531h135l11 -63q29 40 64 60t80 20q62 0 97.5 -41.5zM140 -260l-54 59l128 138h93l128 -138l-54 -59l-120 91z" />
    <glyph glyph-name="ncommaaccent" unicode="&#x146;" horiz-adv-x="524" 
d="M439.5 506.5q35.5 -41.5 35.5 -113.5v-393h-154v372q0 33 -9.5 46.5t-28.5 13.5q-20 0 -38.5 -16.5t-38.5 -48.5v-367h-154v531h135l11 -63q29 40 64 60t80 20q62 0 97.5 -41.5zM316 -89.5q21 -21.5 21 -54.5q0 -19 -5 -36.5t-19 -47.5l-42 -95h-76l26 115q-34 24 -34 64
q0 31 21.5 53.5t53.5 22.5q33 0 54 -21.5z" />
    <glyph glyph-name="uni0235" unicode="&#x235;" horiz-adv-x="701" 
d="M677 212.5q31 -30.5 31 -83.5q0 -72 -49 -109t-127 -37q-21 0 -44 3l-29 -70l-72 30l28 62q-43 23 -68.5 66t-25.5 108v190q0 33 -9.5 46.5t-28.5 13.5q-20 0 -38.5 -16.5t-38.5 -48.5v-367h-154v531h135l11 -63q29 40 64 60t80 20q62 0 97.5 -41.5t35.5 -113.5v-215
q0 -15 2 -33q23 52 51.5 75t70.5 23q47 0 78 -30.5zM603 134q0 26 -21 26q-14 0 -24.5 -13.5t-25.5 -51.5q6 -1 22 -1q49 0 49 40z" />
    <glyph glyph-name="uni1E45" unicode="&#x1e45;" horiz-adv-x="524" 
d="M439.5 506.5q35.5 -41.5 35.5 -113.5v-393h-154v372q0 33 -9.5 46.5t-28.5 13.5q-20 0 -38.5 -16.5t-38.5 -48.5v-367h-154v531h135l11 -63q29 40 64 60t80 20q62 0 97.5 -41.5zM329.5 783q25.5 -25 25.5 -62q0 -38 -25.5 -63t-64.5 -25t-64 25t-25 63q0 37 25 62t64 25
t64.5 -25z" />
    <glyph glyph-name="uni1E47" unicode="&#x1e47;" horiz-adv-x="524" 
d="M439.5 506.5q35.5 -41.5 35.5 -113.5v-393h-154v372q0 33 -9.5 46.5t-28.5 13.5q-20 0 -38.5 -16.5t-38.5 -48.5v-367h-154v531h135l11 -63q29 40 64 60t80 20q62 0 97.5 -41.5zM198.5 -212q-25.5 25 -25.5 62q0 38 25.5 63t64.5 25t64 -25t25 -63q0 -37 -25 -62t-64 -25
t-64.5 25z" />
    <glyph glyph-name="uni01F9" unicode="&#x1f9;" horiz-adv-x="524" 
d="M439.5 506.5q35.5 -41.5 35.5 -113.5v-393h-154v372q0 33 -9.5 46.5t-28.5 13.5q-20 0 -38.5 -16.5t-38.5 -48.5v-367h-154v531h135l11 -63q29 40 64 60t80 20q62 0 97.5 -41.5zM205 830l199 -131l-42 -76l-217 94z" />
    <glyph glyph-name="eng" unicode="&#x14b;" horiz-adv-x="524" 
d="M439.5 506.5q35.5 -41.5 35.5 -113.5v-437q0 -86 -50 -131.5t-133 -45.5q-81 0 -135 42l53 88q18 -10 31 -14t31 -4q23 0 36 13.5t13 41.5v426q0 33 -9.5 46.5t-28.5 13.5q-20 0 -38.5 -16.5t-38.5 -48.5v-367h-154v531h135l11 -63q29 40 64 60t80 20q62 0 97.5 -41.5z
" />
    <glyph glyph-name="uni0272" unicode="&#x272;" horiz-adv-x="524" 
d="M439.5 506.5q35.5 -41.5 35.5 -113.5v-393h-154v372q0 33 -9.5 46.5t-28.5 13.5q-20 0 -38.5 -16.5t-38.5 -48.5v-366h1v-45q0 -86 -50.5 -131.5t-132.5 -45.5q-81 0 -135 42l53 88q18 -10 31 -14t31 -4q23 0 36 13.5t13 41.5v54h-1v531h135l11 -63q29 40 64 60t80 20
q62 0 97.5 -41.5z" />
    <glyph glyph-name="uni0273" unicode="&#x273;" horiz-adv-x="523" 
d="M639 -179q-54 -42 -135 -42q-82 0 -132.5 45.5t-50.5 131.5v416q0 33 -9.5 46.5t-28.5 13.5q-20 0 -38.5 -16.5t-38.5 -48.5v-367h-154v531h135l11 -63q29 40 64 60t80 20q62 0 97.5 -41.5t35.5 -113.5v-447q0 -28 13 -41.5t36 -13.5q18 0 31 4t31 14z" />
    <glyph glyph-name="uni01CC" unicode="&#x1cc;" horiz-adv-x="783" 
d="M439.5 506.5q35.5 -41.5 35.5 -113.5v-393h-154v372q0 33 -9.5 46.5t-28.5 13.5q-20 0 -38.5 -16.5t-38.5 -48.5v-367h-154v531h135l11 -63q29 40 64 60t80 20q62 0 97.5 -41.5zM730 48q0 -77 -25 -128.5t-68.5 -83t-107.5 -57.5l-51 112q35 19 55 36t31.5 44t11.5 71
v489h154v-483zM716.5 783q25.5 -25 25.5 -62q0 -38 -25.5 -63t-64.5 -25t-64 25t-25 63q0 37 25 62t64 25t64.5 -25z" />
    <glyph glyph-name="uni019E" unicode="&#x19e;" horiz-adv-x="524" 
d="M439.5 506.5q35.5 -41.5 35.5 -113.5v-614l-154 16v577q0 33 -9.5 46.5t-28.5 13.5q-20 0 -38.5 -16.5t-38.5 -48.5v-367h-154v531h135l11 -63q29 40 64 60t80 20q62 0 97.5 -41.5z" />
    <glyph glyph-name="ntilde" unicode="&#xf1;" horiz-adv-x="524" 
d="M439.5 506.5q35.5 -41.5 35.5 -113.5v-393h-154v372q0 33 -9.5 46.5t-28.5 13.5q-20 0 -38.5 -16.5t-38.5 -48.5v-367h-154v531h135l11 -63q29 40 64 60t80 20q62 0 97.5 -41.5zM286.5 645q-13.5 6 -34.5 19q-13 9 -20.5 13t-16.5 4q-15 0 -25 -9.5t-23 -32.5l-74 35
q18 51 49 82.5t70 31.5q20 0 35 -6.5t34 -19.5q2 -1 10 -6t14.5 -7.5t12.5 -2.5q14 0 24.5 9.5t22.5 31.5l74 -35q-18 -52 -49 -82.5t-70 -30.5q-20 0 -33.5 6z" />
    <glyph glyph-name="o" unicode="o" horiz-adv-x="534" 
d="M442.5 475.5q63.5 -72.5 63.5 -210.5q0 -132 -64 -207t-175 -75q-112 0 -175 73t-63 210q0 133 63.5 207.5t174.5 74.5q112 0 175.5 -72.5zM207 395q-19 -39 -19 -129q0 -92 19 -131t60 -39t60.5 39.5t19.5 129.5q0 92 -19 130.5t-61 38.5q-41 0 -60 -39z" />
    <glyph glyph-name="oacute" unicode="&#xf3;" horiz-adv-x="534" 
d="M442.5 475.5q63.5 -72.5 63.5 -210.5q0 -132 -64 -207t-175 -75q-112 0 -175 73t-63 210q0 133 63.5 207.5t174.5 74.5q112 0 175.5 -72.5zM207 395q-19 -39 -19 -129q0 -92 19 -131t60 -39t60.5 39.5t19.5 129.5q0 92 -19 130.5t-61 38.5q-41 0 -60 -39zM330 830
l60 -113l-217 -94l-42 76z" />
    <glyph glyph-name="oacute.loclPLK" horiz-adv-x="534" 
d="M442.5 475.5q63.5 -72.5 63.5 -210.5q0 -132 -64 -207t-175 -75q-112 0 -175 73t-63 210q0 133 63.5 207.5t174.5 74.5q112 0 175.5 -72.5zM207 395q-19 -39 -19 -129q0 -92 19 -131t60 -39t60.5 39.5t19.5 129.5q0 92 -19 130.5t-61 38.5q-41 0 -60 -39zM283 807
l113 -65l-129 -161l-69 40z" />
    <glyph glyph-name="uni0275" unicode="&#x275;" horiz-adv-x="534" 
d="M442.5 475.5q63.5 -72.5 63.5 -210.5q0 -132 -64 -207t-175 -75q-112 0 -175 73t-63 210q0 133 63.5 207.5t174.5 74.5q112 0 175.5 -72.5zM208 407.5q-21 -29.5 -25 -94.5h168q-4 67 -24.5 95.5t-59.5 28.5q-38 0 -59 -29.5zM327 125q21 31 25 101h-170q4 -71 25 -101.5
t60 -30.5t60 31z" />
    <glyph glyph-name="obreve" unicode="&#x14f;" horiz-adv-x="534" 
d="M442.5 475.5q63.5 -72.5 63.5 -210.5q0 -132 -64 -207t-175 -75q-112 0 -175 73t-63 210q0 133 63.5 207.5t174.5 74.5q112 0 175.5 -72.5zM207 395q-19 -39 -19 -129q0 -92 19 -131t60 -39t60.5 39.5t19.5 129.5q0 92 -19 130.5t-61 38.5q-41 0 -60 -39zM153.5 679.5
q-40.5 46.5 -45.5 123.5l83 15q18 -79 75 -79q30 0 49 20.5t27 58.5l83 -15q-5 -77 -46 -123.5t-113 -46.5t-112.5 46.5z" />
    <glyph glyph-name="uni01D2" unicode="&#x1d2;" horiz-adv-x="534" 
d="M442.5 475.5q63.5 -72.5 63.5 -210.5q0 -132 -64 -207t-175 -75q-112 0 -175 73t-63 210q0 133 63.5 207.5t174.5 74.5q112 0 175.5 -72.5zM207 395q-19 -39 -19 -129q0 -92 19 -131t60 -39t60.5 39.5t19.5 129.5q0 92 -19 130.5t-61 38.5q-41 0 -60 -39zM388 810l53 -60
l-128 -138h-93l-128 138l54 60l121 -92z" />
    <glyph glyph-name="ocircumflex" unicode="&#xf4;" horiz-adv-x="534" 
d="M442.5 475.5q63.5 -72.5 63.5 -210.5q0 -132 -64 -207t-175 -75q-112 0 -175 73t-63 210q0 133 63.5 207.5t174.5 74.5q112 0 175.5 -72.5zM207 395q-19 -39 -19 -129q0 -92 19 -131t60 -39t60.5 39.5t19.5 129.5q0 92 -19 130.5t-61 38.5q-41 0 -60 -39zM146 623l-54 59
l128 138h93l128 -138l-54 -59l-120 92z" />
    <glyph glyph-name="uni1ED1" unicode="&#x1ed1;" horiz-adv-x="534" 
d="M442.5 475.5q63.5 -72.5 63.5 -210.5q0 -132 -64 -207t-175 -75q-112 0 -175 73t-63 210q0 133 63.5 207.5t174.5 74.5q112 0 175.5 -72.5zM207 395q-19 -39 -19 -129q0 -92 19 -131t60 -39t60.5 39.5t19.5 129.5q0 92 -19 130.5t-61 38.5q-41 0 -60 -39zM145 588l-54 58
l129 131h92l128 -131l-53 -58l-121 83zM481 953l87 -79l-150 -143l-59 51z" />
    <glyph glyph-name="uni1ED9" unicode="&#x1ed9;" horiz-adv-x="534" 
d="M442.5 475.5q63.5 -72.5 63.5 -210.5q0 -132 -64 -207t-175 -75q-112 0 -175 73t-63 210q0 133 63.5 207.5t174.5 74.5q112 0 175.5 -72.5zM207 395q-19 -39 -19 -129q0 -92 19 -131t60 -39t60.5 39.5t19.5 129.5q0 92 -19 130.5t-61 38.5q-41 0 -60 -39zM146 623l-54 59
l128 138h93l128 -138l-54 -59l-120 92zM203.5 -212q-25.5 25 -25.5 62q0 38 25.5 63t64.5 25t64 -25t25 -63q0 -37 -25 -62t-64 -25t-64.5 25z" />
    <glyph glyph-name="uni1ED3" unicode="&#x1ed3;" horiz-adv-x="534" 
d="M442.5 475.5q63.5 -72.5 63.5 -210.5q0 -132 -64 -207t-175 -75q-112 0 -175 73t-63 210q0 133 63.5 207.5t174.5 74.5q112 0 175.5 -72.5zM207 395q-19 -39 -19 -129q0 -92 19 -131t60 -39t60.5 39.5t19.5 129.5q0 92 -19 130.5t-61 38.5q-41 0 -60 -39zM144 588l-54 58
l129 131h92l128 -131l-53 -58l-121 83zM51 953l123 -171l-60 -51l-150 143z" />
    <glyph glyph-name="uni1ED5" unicode="&#x1ed5;" horiz-adv-x="534" 
d="M442.5 475.5q63.5 -72.5 63.5 -210.5q0 -132 -64 -207t-175 -75q-112 0 -175 73t-63 210q0 133 63.5 207.5t174.5 74.5q112 0 175.5 -72.5zM207 395q-19 -39 -19 -129q0 -92 19 -131t60 -39t60.5 39.5t19.5 129.5q0 92 -19 130.5t-61 38.5q-41 0 -60 -39zM145 588l-54 58
l129 131h92l128 -131l-53 -58l-121 83zM362 850q35 2 49.5 10.5t14.5 28.5q0 15 -9.5 23t-25.5 8q-15 0 -26.5 -3t-28.5 -9l-24 64q42 25 101 25q54 0 84 -27.5t30 -72.5q0 -39 -19.5 -62.5t-56.5 -30.5v-53h-89v99z" />
    <glyph glyph-name="uni1ED7" unicode="&#x1ed7;" horiz-adv-x="534" 
d="M442.5 475.5q63.5 -72.5 63.5 -210.5q0 -132 -64 -207t-175 -75q-112 0 -175 73t-63 210q0 133 63.5 207.5t174.5 74.5q112 0 175.5 -72.5zM207 395q-19 -39 -19 -129q0 -92 19 -131t60 -39t60.5 39.5t19.5 129.5q0 92 -19 130.5t-61 38.5q-41 0 -60 -39zM145 584l-54 58
l129 131h92l128 -131l-53 -58l-121 83zM286 808q-14 6 -34 18q-12 8 -20 12t-17 4q-15 0 -25.5 -9t-22.5 -31l-74 33q18 48 49 77.5t70 29.5q20 0 35 -6t34 -18q9 -6 18.5 -10.5t18.5 -4.5q14 0 24.5 9t22.5 29l74 -33q-18 -48 -49 -77t-70 -29q-20 0 -34 6z" />
    <glyph glyph-name="uni020D" unicode="&#x20d;" horiz-adv-x="534" 
d="M442.5 475.5q63.5 -72.5 63.5 -210.5q0 -132 -64 -207t-175 -75q-112 0 -175 73t-63 210q0 133 63.5 207.5t174.5 74.5q112 0 175.5 -72.5zM207 395q-19 -39 -19 -129q0 -92 19 -131t60 -39t60.5 39.5t19.5 129.5q0 92 -19 130.5t-61 38.5q-41 0 -60 -39zM157 857
l89 -195l-76 -36l-112 180zM319 857l81 -195l-77 -32l-104 179z" />
    <glyph glyph-name="odieresis" unicode="&#xf6;" horiz-adv-x="534" 
d="M442.5 475.5q63.5 -72.5 63.5 -210.5q0 -132 -64 -207t-175 -75q-112 0 -175 73t-63 210q0 133 63.5 207.5t174.5 74.5q112 0 175.5 -72.5zM207 395q-19 -39 -19 -129q0 -92 19 -131t60 -39t60.5 39.5t19.5 129.5q0 92 -19 130.5t-61 38.5q-41 0 -60 -39zM215 775
q22 -22 22 -55t-22 -55.5t-55 -22.5q-32 0 -54.5 22.5t-22.5 55.5q0 32 22.5 54.5t54.5 22.5q33 0 55 -22zM427.5 775q22.5 -22 22.5 -55t-22 -55.5t-56 -22.5q-32 0 -54.5 22.5t-22.5 55.5q0 32 22.5 54.5t54.5 22.5q33 0 55.5 -22z" />
    <glyph glyph-name="uni022B" unicode="&#x22b;" horiz-adv-x="534" 
d="M442.5 475.5q63.5 -72.5 63.5 -210.5q0 -132 -64 -207t-175 -75q-112 0 -175 73t-63 210q0 133 63.5 207.5t174.5 74.5q112 0 175.5 -72.5zM207 395q-19 -39 -19 -129q0 -92 19 -131t60 -39t60.5 39.5t19.5 129.5q0 92 -19 130.5t-61 38.5q-41 0 -60 -39zM216 736
q22 -22 22 -55t-22 -55.5t-55 -22.5q-32 0 -54.5 22.5t-22.5 55.5q0 32 22.5 54.5t54.5 22.5q33 0 55 -22zM428.5 736q22.5 -22 22.5 -55t-22 -55.5t-56 -22.5q-32 0 -54.5 22.5t-22.5 55.5q0 32 22.5 54.5t54.5 22.5q33 0 55.5 -22zM407 803h-280v105h280v-105z" />
    <glyph glyph-name="uni022F" unicode="&#x22f;" horiz-adv-x="534" 
d="M442.5 475.5q63.5 -72.5 63.5 -210.5q0 -132 -64 -207t-175 -75q-112 0 -175 73t-63 210q0 133 63.5 207.5t174.5 74.5q112 0 175.5 -72.5zM207 395q-19 -39 -19 -129q0 -92 19 -131t60 -39t60.5 39.5t19.5 129.5q0 92 -19 130.5t-61 38.5q-41 0 -60 -39zM330.5 783
q25.5 -25 25.5 -62q0 -38 -25.5 -63t-64.5 -25t-64 25t-25 63q0 37 25 62t64 25t64.5 -25z" />
    <glyph glyph-name="uni0231" unicode="&#x231;" horiz-adv-x="534" 
d="M442.5 475.5q63.5 -72.5 63.5 -210.5q0 -132 -64 -207t-175 -75q-112 0 -175 73t-63 210q0 133 63.5 207.5t174.5 74.5q112 0 175.5 -72.5zM207 395q-19 -39 -19 -129q0 -92 19 -131t60 -39t60.5 39.5t19.5 129.5q0 92 -19 130.5t-61 38.5q-41 0 -60 -39zM330.5 745
q25.5 -25 25.5 -62q0 -38 -25.5 -63t-64.5 -25t-64 25t-25 63q0 37 25 62t64 25t64.5 -25zM407 805h-280v105h280v-105z" />
    <glyph glyph-name="uni1ECD" unicode="&#x1ecd;" horiz-adv-x="534" 
d="M442.5 475.5q63.5 -72.5 63.5 -210.5q0 -132 -64 -207t-175 -75q-112 0 -175 73t-63 210q0 133 63.5 207.5t174.5 74.5q112 0 175.5 -72.5zM207 395q-19 -39 -19 -129q0 -92 19 -131t60 -39t60.5 39.5t19.5 129.5q0 92 -19 130.5t-61 38.5q-41 0 -60 -39zM203.5 -212
q-25.5 25 -25.5 62q0 38 25.5 63t64.5 25t64 -25t25 -63q0 -37 -25 -62t-64 -25t-64.5 25z" />
    <glyph glyph-name="ograve" unicode="&#xf2;" horiz-adv-x="534" 
d="M442.5 475.5q63.5 -72.5 63.5 -210.5q0 -132 -64 -207t-175 -75q-112 0 -175 73t-63 210q0 133 63.5 207.5t174.5 74.5q112 0 175.5 -72.5zM207 395q-19 -39 -19 -129q0 -92 19 -131t60 -39t60.5 39.5t19.5 129.5q0 92 -19 130.5t-61 38.5q-41 0 -60 -39zM206 830
l199 -131l-42 -76l-217 94z" />
    <glyph glyph-name="uni1ECF" unicode="&#x1ecf;" horiz-adv-x="534" 
d="M442.5 475.5q63.5 -72.5 63.5 -210.5q0 -132 -64 -207t-175 -75q-112 0 -175 73t-63 210q0 133 63.5 207.5t174.5 74.5q112 0 175.5 -72.5zM207 395q-19 -39 -19 -129q0 -92 19 -131t60 -39t60.5 39.5t19.5 129.5q0 92 -19 130.5t-61 38.5q-41 0 -60 -39zM223 704
q35 2 49.5 10.5t14.5 28.5q0 15 -9.5 23t-25.5 8q-15 0 -26.5 -3t-28.5 -9l-24 64q42 25 101 25q54 0 84 -27.5t30 -72.5q0 -39 -19.5 -62.5t-56.5 -30.5v-53h-89v99z" />
    <glyph glyph-name="ohorn" unicode="&#x1a1;" horiz-adv-x="575" 
d="M558 439.5q-26 -30.5 -73 -39.5q21 -57 21 -135q0 -132 -64 -207t-175 -75q-112 0 -175 73t-63 210q0 133 63.5 207.5t174.5 74.5q117 0 178 -76q20 4 28.5 16t8.5 35q0 38 -12 72l97 15q17 -42 17 -89q0 -51 -26 -81.5zM327.5 135.5q19.5 39.5 19.5 129.5
q0 92 -19 130.5t-61 38.5q-41 0 -60 -39t-19 -129q0 -92 19 -131t60 -39t60.5 39.5z" />
    <glyph glyph-name="uni1EDB" unicode="&#x1edb;" horiz-adv-x="575" 
d="M390 717l-217 -94l-42 76l199 131zM558 439.5q-26 -30.5 -73 -39.5q21 -57 21 -135q0 -132 -64 -207t-175 -75q-112 0 -175 73t-63 210q0 133 63.5 207.5t174.5 74.5q117 0 178 -76q20 4 28.5 16t8.5 35q0 38 -12 72l97 15q17 -42 17 -89q0 -51 -26 -81.5zM327.5 135.5
q19.5 39.5 19.5 129.5q0 92 -19 130.5t-61 38.5q-41 0 -60 -39t-19 -129q0 -92 19 -131t60 -39t60.5 39.5z" />
    <glyph glyph-name="uni1EE3" unicode="&#x1ee3;" horiz-adv-x="575" 
d="M558 439.5q-26 -30.5 -73 -39.5q21 -57 21 -135q0 -132 -64 -207t-175 -75q-112 0 -175 73t-63 210q0 133 63.5 207.5t174.5 74.5q117 0 178 -76q20 4 28.5 16t8.5 35q0 38 -12 72l97 15q17 -42 17 -89q0 -51 -26 -81.5zM327.5 135.5q19.5 39.5 19.5 129.5
q0 92 -19 130.5t-61 38.5q-41 0 -60 -39t-19 -129q0 -92 19 -131t60 -39t60.5 39.5zM332 -87q25 -25 25 -63q0 -37 -25 -62t-64 -25t-64.5 25t-25.5 62q0 38 25.5 63t64.5 25t64 -25z" />
    <glyph glyph-name="uni1EDD" unicode="&#x1edd;" horiz-adv-x="575" 
d="M405 699l-42 -76l-217 94l60 113zM558 439.5q-26 -30.5 -73 -39.5q21 -57 21 -135q0 -132 -64 -207t-175 -75q-112 0 -175 73t-63 210q0 133 63.5 207.5t174.5 74.5q117 0 178 -76q20 4 28.5 16t8.5 35q0 38 -12 72l97 15q17 -42 17 -89q0 -51 -26 -81.5zM327.5 135.5
q19.5 39.5 19.5 129.5q0 92 -19 130.5t-61 38.5q-41 0 -60 -39t-19 -129q0 -92 19 -131t60 -39t60.5 39.5z" />
    <glyph glyph-name="uni1EDF" unicode="&#x1edf;" horiz-adv-x="575" 
d="M225.5 771q-11.5 -3 -28.5 -9l-24 64q42 25 101 25q54 0 84 -27.5t30 -72.5q0 -39 -19.5 -62.5t-56.5 -30.5v-53h-89v99q35 2 49.5 10.5t14.5 28.5q0 15 -9.5 23t-25.5 8q-15 0 -26.5 -3zM558 439.5q-26 -30.5 -73 -39.5q21 -57 21 -135q0 -132 -64 -207t-175 -75
q-112 0 -175 73t-63 210q0 133 63.5 207.5t174.5 74.5q117 0 178 -76q20 4 28.5 16t8.5 35q0 38 -12 72l97 15q17 -42 17 -89q0 -51 -26 -81.5zM327.5 135.5q19.5 39.5 19.5 129.5q0 92 -19 130.5t-61 38.5q-41 0 -60 -39t-19 -129q0 -92 19 -131t60 -39t60.5 39.5z" />
    <glyph glyph-name="uni1EE1" unicode="&#x1ee1;" horiz-adv-x="575" 
d="M191 671.5q-10 -9.5 -23 -32.5l-74 35q18 51 49 82.5t70 31.5q20 0 35 -6.5t34 -19.5q2 -1 10 -6t14.5 -7.5t12.5 -2.5q14 0 24.5 9.5t22.5 31.5l74 -35q-18 -52 -49 -82.5t-70 -30.5q-20 0 -33.5 6t-34.5 19q-13 9 -20.5 13t-16.5 4q-15 0 -25 -9.5zM558 439.5
q-26 -30.5 -73 -39.5q21 -57 21 -135q0 -132 -64 -207t-175 -75q-112 0 -175 73t-63 210q0 133 63.5 207.5t174.5 74.5q117 0 178 -76q20 4 28.5 16t8.5 35q0 38 -12 72l97 15q17 -42 17 -89q0 -51 -26 -81.5zM327.5 135.5q19.5 39.5 19.5 129.5q0 92 -19 130.5t-61 38.5
q-41 0 -60 -39t-19 -129q0 -92 19 -131t60 -39t60.5 39.5z" />
    <glyph glyph-name="ohungarumlaut" unicode="&#x151;" horiz-adv-x="534" 
d="M442.5 475.5q63.5 -72.5 63.5 -210.5q0 -132 -64 -207t-175 -75q-112 0 -175 73t-63 210q0 133 63.5 207.5t174.5 74.5q112 0 175.5 -72.5zM207 395q-19 -39 -19 -129q0 -92 19 -131t60 -39t60.5 39.5t19.5 129.5q0 92 -19 130.5t-61 38.5q-41 0 -60 -39zM221 857
l101 -48l-105 -179l-77 32zM383 857l99 -51l-112 -180l-75 36z" />
    <glyph glyph-name="uni01A3" unicode="&#x1a3;" horiz-adv-x="755" 
d="M654.5 501.5q47.5 -46.5 47.5 -137.5v-585l-154 16v583q0 30 -11.5 44t-35.5 14q-15 0 -33 -5q34 -68 34 -166q0 -132 -63.5 -207t-173.5 -75t-173 73t-63 210q0 133 63 207.5t174 74.5q75 0 128 -34q30 18 61 26t69 8q83 0 130.5 -46.5zM324 135.5q19 39.5 19 129.5
q0 92 -18.5 130.5t-58.5 38.5t-59 -39t-19 -129q0 -92 18.5 -131t58.5 -39t59 39.5z" />
    <glyph glyph-name="uni020F" unicode="&#x20f;" horiz-adv-x="534" 
d="M442.5 475.5q63.5 -72.5 63.5 -210.5q0 -132 -64 -207t-175 -75q-112 0 -175 73t-63 210q0 133 63.5 207.5t174.5 74.5q112 0 175.5 -72.5zM207 395q-19 -39 -19 -129q0 -92 19 -131t60 -39t60.5 39.5t19.5 129.5q0 92 -19 130.5t-61 38.5q-41 0 -60 -39zM379 741.5
q41 -46.5 46 -123.5l-83 -15q-8 38 -27 58.5t-49 20.5q-57 0 -75 -79l-83 15q5 77 45.5 123.5t112.5 46.5t113 -46.5z" />
    <glyph glyph-name="omacron" unicode="&#x14d;" horiz-adv-x="534" 
d="M442.5 475.5q63.5 -72.5 63.5 -210.5q0 -132 -64 -207t-175 -75q-112 0 -175 73t-63 210q0 133 63.5 207.5t174.5 74.5q112 0 175.5 -72.5zM207 395q-19 -39 -19 -129q0 -92 19 -131t60 -39t60.5 39.5t19.5 129.5q0 92 -19 130.5t-61 38.5q-41 0 -60 -39zM407 657h-280
v105h280v-105z" />
    </font>
</defs>
</svg>
